osu file format v14

[General]
AudioFilename: audio.mp3
AudioLeadIn: 0
PreviewTime: 192111
Countdown: 0
SampleSet: Soft
StackLeniency: 0.7
Mode: 3
LetterboxInBreaks: 0
SpecialStyle: 0
WidescreenStoryboard: 0

[Editor]
Bookmarks: 234354
DistanceSpacing: 1
BeatDivisor: 8
GridSize: 32
TimelineZoom: 3.199999

[Metadata]
Title:Akasha
TitleUnicode:Akasha
Artist:xi
ArtistUnicode:xi
Creator:zZ_Natsu_Zz
Version:Insane
Source:
Tags:i sucks banana
BeatmapID:1008982
BeatmapSetID:472131

[Difficulty]
HPDrainRate:8
CircleSize:4
OverallDifficulty:8
ApproachRate:5
SliderMultiplier:1.4
SliderTickRate:1

[Events]
//Background and Video events
0,0,"23050135.jpg",0,0
//Break Periods
//Storyboard Layer 0 (Background)
//Storyboard Layer 1 (Fail)
//Storyboard Layer 2 (Pass)
//Storyboard Layer 3 (Foreground)
//Storyboard Sound Samples

[TimingPoints]
1409,324.324324324324,4,2,0,36,1,0
88327,-100,4,2,0,36,0,1
129841,-100,4,2,0,36,0,0

[HitObjects]
64,192,21841,5,0,0:0:0:0:
192,192,21922,1,0,0:0:0:0:
320,192,22003,1,0,0:0:0:0:
448,192,22084,1,0,0:0:0:0:
192,192,22165,128,0,23463:0:0:0:0:
448,192,23463,128,0,27111:0:0:0:0:
64,192,27111,128,0,27273:0:0:0:0:
192,192,27273,128,0,27436:0:0:0:0:
320,192,27436,128,0,29706:0:0:0:0:
64,192,29706,128,0,29868:0:0:0:0:
448,192,29868,128,0,30030:0:0:0:0:
192,192,30030,128,0,31246:0:0:0:0:
320,192,31246,128,0,32138:0:0:0:0:
192,192,32138,128,0,32300:0:0:0:0:
64,192,32300,128,0,32463:0:0:0:0:
320,192,32463,128,0,32625:0:0:0:0:
448,192,32625,128,0,33517:0:0:0:0:
320,192,33517,128,0,33841:0:0:0:0:
192,192,33841,128,0,36111:0:0:0:0:
320,192,36111,128,0,36273:0:0:0:0:
448,192,36273,128,0,36436:0:0:0:0:
64,192,36436,128,0,36922:0:0:0:0:
192,192,36922,128,0,37084:0:0:0:0:
448,192,37084,128,0,37246:0:0:0:0:
64,192,37246,128,0,37408:0:0:0:0:
448,192,37408,1,0,0:0:0:0:
320,192,37490,1,0,0:0:0:0:
192,192,37571,1,0,0:0:0:0:
64,192,37652,1,0,0:0:0:0:
448,192,37733,128,0,39030:0:0:0:0:
192,192,39030,128,0,40003:0:0:0:0:
320,192,40003,128,0,40165:0:0:0:0:
448,192,40165,128,0,40327:0:0:0:0:
64,192,40327,128,0,42517:0:0:0:0:
320,192,41300,128,0,42598:0:0:0:0:
192,192,41625,128,0,42598:0:0:0:0:
448,192,41625,128,0,42598:0:0:0:0:
64,192,42598,1,0,0:0:0:0:
192,192,42679,1,0,0:0:0:0:
320,192,42760,1,0,0:0:0:0:
192,192,42841,1,0,0:0:0:0:
64,192,42922,1,0,0:0:0:0:
448,192,42922,1,0,0:0:0:0:
320,192,42922,1,0,0:0:0:0:
192,192,43003,1,0,0:0:0:0:
64,192,43084,1,0,0:0:0:0:
320,192,43165,1,0,0:0:0:0:
448,192,43246,1,0,0:0:0:0:
192,192,43327,1,0,0:0:0:0:
64,192,43408,1,0,0:0:0:0:
320,192,43733,1,0,0:0:0:0:
448,192,43733,1,0,0:0:0:0:
64,192,43814,1,0,0:0:0:0:
192,192,43895,1,0,0:0:0:0:
320,192,43976,1,0,0:0:0:0:
448,192,44057,1,0,0:0:0:0:
192,192,44138,1,0,0:0:0:0:
64,192,44219,1,0,0:0:0:0:
320,192,44219,1,0,0:0:0:0:
448,192,44300,1,0,0:0:0:0:
320,192,44381,1,0,0:0:0:0:
192,192,44463,1,0,0:0:0:0:
64,192,44544,1,0,0:0:0:0:
320,192,44625,1,0,0:0:0:0:
192,192,44706,1,0,0:0:0:0:
448,192,44706,1,0,0:0:0:0:
320,192,44787,1,0,0:0:0:0:
64,192,44868,1,0,0:0:0:0:
192,192,44922,1,0,0:0:0:0:
320,192,44976,1,0,0:0:0:0:
448,192,45030,1,0,0:0:0:0:
192,192,45300,1,0,0:0:0:0:
320,192,45354,1,0,0:0:0:0:
320,192,45679,1,0,0:0:0:0:
448,192,46003,1,0,0:0:0:0:
320,192,46084,1,0,0:0:0:0:
192,192,46165,1,0,0:0:0:0:
320,192,46246,1,0,0:0:0:0:
192,192,46327,1,0,0:0:0:0:
448,192,46327,1,0,0:0:0:0:
64,192,46408,1,0,0:0:0:0:
192,192,46490,1,0,0:0:0:0:
448,192,46571,1,0,0:0:0:0:
320,192,46652,1,0,0:0:0:0:
64,192,46733,1,0,0:0:0:0:
192,192,46814,1,0,0:0:0:0:
320,192,46814,1,0,0:0:0:0:
448,192,46895,1,0,0:0:0:0:
64,192,46976,1,0,0:0:0:0:
192,192,47057,1,0,0:0:0:0:
320,192,47138,1,0,0:0:0:0:
192,192,47219,1,0,0:0:0:0:
64,192,47300,1,0,0:0:0:0:
320,192,47300,1,0,0:0:0:0:
448,192,47381,1,0,0:0:0:0:
320,192,47463,1,0,0:0:0:0:
192,192,47544,1,0,0:0:0:0:
320,192,47625,1,0,0:0:0:0:
448,192,47625,1,0,0:0:0:0:
64,192,47706,1,0,0:0:0:0:
192,192,47787,1,0,0:0:0:0:
320,192,47868,1,0,0:0:0:0:
448,192,47949,1,0,0:0:0:0:
64,192,47949,1,0,0:0:0:0:
192,192,48030,1,0,0:0:0:0:
320,192,48111,1,0,0:0:0:0:
448,192,48111,1,0,0:0:0:0:
64,192,48111,1,0,0:0:0:0:
320,192,48273,1,0,0:0:0:0:
192,192,48273,1,0,0:0:0:0:
64,192,48598,1,0,0:0:0:0:
448,192,48598,1,0,0:0:0:0:
192,192,48922,1,0,0:0:0:0:
448,192,48922,1,0,0:0:0:0:
320,192,49003,1,0,0:0:0:0:
192,192,49084,1,0,0:0:0:0:
64,192,49165,1,0,0:0:0:0:
320,192,49246,1,0,0:0:0:0:
448,192,49327,1,0,0:0:0:0:
64,192,49408,1,0,0:0:0:0:
192,192,49408,1,0,0:0:0:0:
320,192,49490,1,0,0:0:0:0:
64,192,49571,1,0,0:0:0:0:
192,192,49625,1,0,0:0:0:0:
320,192,49679,1,0,0:0:0:0:
448,192,49733,1,0,0:0:0:0:
192,192,49814,1,0,0:0:0:0:
64,192,49895,1,0,0:0:0:0:
448,192,49895,1,0,0:0:0:0:
320,192,49976,1,0,0:0:0:0:
64,192,50057,1,0,0:0:0:0:
192,192,50138,1,0,0:0:0:0:
320,192,50219,1,0,0:0:0:0:
192,192,50300,1,0,0:0:0:0:
64,192,50381,1,0,0:0:0:0:
448,192,50381,1,0,0:0:0:0:
320,192,50463,1,0,0:0:0:0:
192,192,50544,1,0,0:0:0:0:
320,192,50625,1,0,0:0:0:0:
448,192,50706,1,0,0:0:0:0:
64,192,50706,1,0,0:0:0:0:
192,192,50868,1,0,0:0:0:0:
320,192,50922,1,0,0:0:0:0:
192,192,50976,1,0,0:0:0:0:
64,192,51030,1,0,0:0:0:0:
192,192,51111,1,0,0:0:0:0:
320,192,51192,1,0,0:0:0:0:
192,192,51246,1,0,0:0:0:0:
320,192,51300,1,0,0:0:0:0:
448,192,51354,1,0,0:0:0:0:
192,192,51436,1,0,0:0:0:0:
64,192,51517,1,0,0:0:0:0:
192,192,51571,1,0,0:0:0:0:
320,192,51625,1,0,0:0:0:0:
448,192,51679,1,0,0:0:0:0:
64,192,51760,1,0,0:0:0:0:
320,192,51841,1,0,0:0:0:0:
192,192,51895,1,0,0:0:0:0:
64,192,51949,1,0,0:0:0:0:
192,192,52003,1,0,0:0:0:0:
320,192,52003,1,0,0:0:0:0:
448,192,52003,1,0,0:0:0:0:
64,192,52084,1,0,0:0:0:0:
192,192,52165,1,0,0:0:0:0:
448,192,52246,1,0,0:0:0:0:
64,192,52327,1,0,0:0:0:0:
192,192,52408,1,0,0:0:0:0:
64,192,52490,1,0,0:0:0:0:
320,192,52490,1,0,0:0:0:0:
448,192,52571,1,0,0:0:0:0:
192,192,52652,1,0,0:0:0:0:
64,192,52733,1,0,0:0:0:0:
448,192,52814,1,0,0:0:0:0:
320,192,52814,1,0,0:0:0:0:
192,192,52868,1,0,0:0:0:0:
64,192,52922,1,0,0:0:0:0:
320,192,52976,1,0,0:0:0:0:
448,192,53057,1,0,0:0:0:0:
320,192,53138,1,0,0:0:0:0:
192,192,53138,1,0,0:0:0:0:
448,192,53219,1,0,0:0:0:0:
320,192,53300,1,0,0:0:0:0:
192,192,53300,1,0,0:0:0:0:
64,192,53300,1,0,0:0:0:0:
448,192,53381,1,0,0:0:0:0:
320,192,53463,1,0,0:0:0:0:
64,192,53544,1,0,0:0:0:0:
192,192,53625,1,0,0:0:0:0:
320,192,53706,1,0,0:0:0:0:
448,192,53787,1,0,0:0:0:0:
448,192,54111,1,0,0:0:0:0:
64,192,54111,1,0,0:0:0:0:
192,192,54273,1,0,0:0:0:0:
320,192,54354,1,0,0:0:0:0:
192,192,54436,1,0,0:0:0:0:
64,192,54517,1,0,0:0:0:0:
448,192,54598,1,0,0:0:0:0:
192,192,54598,1,0,0:0:0:0:
320,192,54679,1,0,0:0:0:0:
64,192,54760,1,0,0:0:0:0:
448,192,54760,1,0,0:0:0:0:
192,192,54814,1,0,0:0:0:0:
320,192,54868,1,0,0:0:0:0:
448,192,54922,1,0,0:0:0:0:
64,192,54922,1,0,0:0:0:0:
192,192,55003,1,0,0:0:0:0:
320,192,55084,1,0,0:0:0:0:
64,192,55084,1,0,0:0:0:0:
448,192,55165,1,0,0:0:0:0:
64,192,55246,1,0,0:0:0:0:
192,192,55300,1,0,0:0:0:0:
448,192,55354,1,0,0:0:0:0:
320,192,55408,1,0,0:0:0:0:
192,192,55463,1,0,0:0:0:0:
320,192,55679,1,0,0:0:0:0:
192,192,55733,1,0,0:0:0:0:
64,192,56057,1,0,0:0:0:0:
448,192,56381,1,0,0:0:0:0:
64,192,56463,1,0,0:0:0:0:
192,192,56544,1,0,0:0:0:0:
320,192,56598,1,0,0:0:0:0:
64,192,56652,1,0,0:0:0:0:
192,192,56706,1,0,0:0:0:0:
448,192,56760,1,0,0:0:0:0:
320,192,56814,1,0,0:0:0:0:
64,192,56868,1,0,0:0:0:0:
320,192,56949,1,0,0:0:0:0:
448,192,57030,1,0,0:0:0:0:
192,192,57111,1,0,0:0:0:0:
64,192,57192,128,0,57679:0:0:0:0:
320,192,57192,1,0,0:0:0:0:
192,192,57354,1,0,0:0:0:0:
320,192,57354,1,0,0:0:0:0:
192,192,57517,1,0,0:0:0:0:
320,192,57517,1,0,0:0:0:0:
320,192,57679,128,0,58003:0:0:0:0:
448,192,57679,1,0,0:0:0:0:
448,192,58003,128,0,58327:0:0:0:0:
192,192,58003,1,0,0:0:0:0:
192,192,58327,128,0,58652:0:0:0:0:
320,192,58327,1,0,0:0:0:0:
320,192,58490,1,0,0:0:0:0:
448,192,58490,1,0,0:0:0:0:
64,192,58490,1,0,0:0:0:0:
64,192,58652,128,0,58976:0:0:0:0:
448,192,58976,128,0,59463:0:0:0:0:
320,192,58976,1,0,0:0:0:0:
320,192,59300,1,0,0:0:0:0:
64,192,59300,1,0,0:0:0:0:
192,192,59381,1,0,0:0:0:0:
64,192,59463,1,0,0:0:0:0:
192,192,59544,1,0,0:0:0:0:
320,192,59625,1,0,0:0:0:0:
192,192,59679,1,0,0:0:0:0:
320,192,59733,1,0,0:0:0:0:
64,192,59787,1,0,0:0:0:0:
448,192,59787,1,0,0:0:0:0:
192,192,59868,1,0,0:0:0:0:
448,192,59949,1,0,0:0:0:0:
64,192,59949,1,0,0:0:0:0:
320,192,60003,1,0,0:0:0:0:
192,192,60057,1,0,0:0:0:0:
320,192,60111,1,0,0:0:0:0:
64,192,60111,1,0,0:0:0:0:
192,192,60192,1,0,0:0:0:0:
320,192,60273,1,0,0:0:0:0:
448,192,60273,1,0,0:0:0:0:
64,192,60354,1,0,0:0:0:0:
192,192,60436,1,0,0:0:0:0:
448,192,60517,1,0,0:0:0:0:
320,192,60598,1,0,0:0:0:0:
192,192,60679,1,0,0:0:0:0:
64,192,60760,1,0,0:0:0:0:
448,192,60760,1,0,0:0:0:0:
320,192,60841,1,0,0:0:0:0:
64,192,60922,1,0,0:0:0:0:
192,192,61003,1,0,0:0:0:0:
320,192,61084,1,0,0:0:0:0:
448,192,61084,1,0,0:0:0:0:
192,192,61165,1,0,0:0:0:0:
64,192,61246,1,0,0:0:0:0:
192,192,61300,1,0,0:0:0:0:
320,192,61354,1,0,0:0:0:0:
192,192,61408,1,0,0:0:0:0:
448,192,61490,1,0,0:0:0:0:
320,192,61571,1,0,0:0:0:0:
192,192,61625,1,0,0:0:0:0:
64,192,61679,1,0,0:0:0:0:
192,192,61733,1,0,0:0:0:0:
320,192,61895,1,0,0:0:0:0:
448,192,61895,1,0,0:0:0:0:
192,192,61949,1,0,0:0:0:0:
64,192,62003,1,0,0:0:0:0:
320,192,62057,1,0,0:0:0:0:
448,192,62219,1,0,0:0:0:0:
320,192,62273,1,0,0:0:0:0:
192,192,62327,1,0,0:0:0:0:
320,192,62381,1,0,0:0:0:0:
448,192,62381,1,0,0:0:0:0:
192,192,62463,1,0,0:0:0:0:
64,192,62544,1,0,0:0:0:0:
320,192,62625,1,0,0:0:0:0:
448,192,62706,1,0,0:0:0:0:
320,192,62787,1,0,0:0:0:0:
192,192,62868,1,0,0:0:0:0:
320,192,62949,1,0,0:0:0:0:
192,192,63030,1,0,0:0:0:0:
448,192,63030,1,0,0:0:0:0:
64,192,63111,1,0,0:0:0:0:
320,192,63192,1,0,0:0:0:0:
192,192,63192,1,0,0:0:0:0:
448,192,63273,1,0,0:0:0:0:
192,192,63354,1,0,0:0:0:0:
64,192,63354,1,0,0:0:0:0:
320,192,63408,1,0,0:0:0:0:
448,192,63463,1,0,0:0:0:0:
64,192,63517,1,0,0:0:0:0:
320,192,63517,1,0,0:0:0:0:
192,192,63598,1,0,0:0:0:0:
64,192,63679,1,0,0:0:0:0:
448,192,63679,128,0,66273:0:0:0:0:
320,192,65949,1,0,0:0:0:0:
64,192,65949,1,0,0:0:0:0:
192,192,66030,1,0,0:0:0:0:
64,192,66111,1,0,0:0:0:0:
320,192,66111,1,0,0:0:0:0:
192,192,66192,1,0,0:0:0:0:
64,192,66273,1,0,0:0:0:0:
320,192,66273,1,0,0:0:0:0:
448,192,66517,1,0,0:0:0:0:
192,192,66517,1,0,0:0:0:0:
64,192,66760,1,0,0:0:0:0:
320,192,66760,1,0,0:0:0:0:
192,192,66922,1,0,0:0:0:0:
320,192,66922,1,0,0:0:0:0:
320,192,67165,1,0,0:0:0:0:
64,192,67408,1,0,0:0:0:0:
320,192,67408,1,0,0:0:0:0:
192,192,67571,1,0,0:0:0:0:
448,192,67571,1,0,0:0:0:0:
320,192,67814,1,0,0:0:0:0:
192,192,68057,1,0,0:0:0:0:
64,192,68057,1,0,0:0:0:0:
448,192,68219,1,0,0:0:0:0:
192,192,68219,1,0,0:0:0:0:
192,192,68463,1,0,0:0:0:0:
448,192,68706,1,0,0:0:0:0:
64,192,68706,1,0,0:0:0:0:
320,192,68868,1,0,0:0:0:0:
192,192,68868,1,0,0:0:0:0:
64,192,69111,1,0,0:0:0:0:
320,192,69354,1,0,0:0:0:0:
192,192,69354,1,0,0:0:0:0:
320,192,69517,1,0,0:0:0:0:
448,192,69517,1,0,0:0:0:0:
64,192,69760,1,0,0:0:0:0:
192,192,70003,1,0,0:0:0:0:
448,192,70003,1,0,0:0:0:0:
192,192,70165,1,0,0:0:0:0:
64,192,70165,1,0,0:0:0:0:
448,192,70408,1,0,0:0:0:0:
192,192,70652,1,0,0:0:0:0:
320,192,70652,1,0,0:0:0:0:
64,192,70976,1,0,0:0:0:0:
320,192,71138,1,0,0:0:0:0:
448,192,71138,1,0,0:0:0:0:
192,192,71463,1,0,0:0:0:0:
64,192,71463,1,0,0:0:0:0:
320,192,71706,1,0,0:0:0:0:
448,192,71949,1,0,0:0:0:0:
192,192,71949,1,0,0:0:0:0:
64,192,72111,1,0,0:0:0:0:
192,192,72111,1,0,0:0:0:0:
192,192,72354,1,0,0:0:0:0:
320,192,72598,1,0,0:0:0:0:
448,192,72598,1,0,0:0:0:0:
192,192,72760,1,0,0:0:0:0:
64,192,72760,1,0,0:0:0:0:
320,192,73003,1,0,0:0:0:0:
64,192,73246,1,0,0:0:0:0:
448,192,73246,1,0,0:0:0:0:
192,192,73571,1,0,0:0:0:0:
448,192,73733,1,0,0:0:0:0:
320,192,73733,1,0,0:0:0:0:
192,192,74057,1,0,0:0:0:0:
64,192,74057,1,0,0:0:0:0:
320,192,74544,1,0,0:0:0:0:
192,192,74625,1,0,0:0:0:0:
64,192,74706,1,0,0:0:0:0:
320,192,75030,1,0,0:0:0:0:
64,192,75354,1,0,0:0:0:0:
448,192,75354,1,0,0:0:0:0:
192,192,75517,1,0,0:0:0:0:
320,192,75598,1,0,0:0:0:0:
192,192,75679,1,0,0:0:0:0:
448,192,75841,1,0,0:0:0:0:
320,192,75922,1,0,0:0:0:0:
192,192,76003,1,0,0:0:0:0:
320,192,76084,1,0,0:0:0:0:
192,192,76165,1,0,0:0:0:0:
64,192,76246,1,0,0:0:0:0:
192,192,76327,1,0,0:0:0:0:
320,192,76408,1,0,0:0:0:0:
448,192,76490,1,0,0:0:0:0:
64,192,76571,1,0,0:0:0:0:
192,192,76652,1,0,0:0:0:0:
320,192,76652,1,0,0:0:0:0:
448,192,76652,1,0,0:0:0:0:
64,192,76895,1,0,0:0:0:0:
448,192,77138,1,0,0:0:0:0:
192,192,77138,1,0,0:0:0:0:
320,192,77300,1,0,0:0:0:0:
192,192,77300,1,0,0:0:0:0:
192,192,77544,1,0,0:0:0:0:
448,192,77787,1,0,0:0:0:0:
64,192,77787,1,0,0:0:0:0:
192,192,77949,1,0,0:0:0:0:
320,192,77949,1,0,0:0:0:0:
448,192,78192,1,0,0:0:0:0:
64,192,78436,1,0,0:0:0:0:
192,192,78436,1,0,0:0:0:0:
448,192,78598,1,0,0:0:0:0:
192,192,78598,1,0,0:0:0:0:
64,192,78841,1,0,0:0:0:0:
320,192,79084,1,0,0:0:0:0:
448,192,79084,1,0,0:0:0:0:
320,192,79246,1,0,0:0:0:0:
192,192,79246,1,0,0:0:0:0:
64,192,79246,1,0,0:0:0:0:
320,192,79490,1,0,0:0:0:0:
64,192,79733,1,0,0:0:0:0:
320,192,79733,1,0,0:0:0:0:
448,192,79895,1,0,0:0:0:0:
320,192,79895,1,0,0:0:0:0:
192,192,80138,1,0,0:0:0:0:
192,192,80381,1,0,0:0:0:0:
64,192,80381,1,0,0:0:0:0:
320,192,80544,5,0,0:0:0:0:
448,192,80544,1,0,0:0:0:0:
320,192,80787,1,0,0:0:0:0:
64,192,81030,1,0,0:0:0:0:
448,192,81030,1,0,0:0:0:0:
192,192,81354,1,0,0:0:0:0:
320,192,81517,1,0,0:0:0:0:
64,192,81517,1,0,0:0:0:0:
320,192,81679,5,0,0:0:0:0:
448,192,81679,1,0,0:0:0:0:
192,192,81841,1,0,0:0:0:0:
64,192,81841,1,0,0:0:0:0:
320,192,81841,1,0,0:0:0:0:
320,192,82327,1,0,0:0:0:0:
192,192,82814,1,0,0:0:0:0:
64,192,82976,1,0,0:0:0:0:
448,192,82976,1,0,0:0:0:0:
192,192,83057,1,0,0:0:0:0:
64,192,83138,1,0,0:0:0:0:
320,192,83138,1,0,0:0:0:0:
448,192,83138,1,0,0:0:0:0:
192,192,83300,1,0,0:0:0:0:
320,192,83381,1,0,0:0:0:0:
192,192,83463,1,0,0:0:0:0:
448,192,83463,1,0,0:0:0:0:
320,192,83625,1,0,0:0:0:0:
192,192,83706,1,0,0:0:0:0:
448,192,83787,1,0,0:0:0:0:
64,192,83787,1,0,0:0:0:0:
320,192,83949,1,0,0:0:0:0:
448,192,84030,1,0,0:0:0:0:
320,192,84111,1,0,0:0:0:0:
64,192,84111,1,0,0:0:0:0:
448,192,84273,1,0,0:0:0:0:
320,192,84273,1,0,0:0:0:0:
64,192,84354,1,0,0:0:0:0:
192,192,84436,1,0,0:0:0:0:
320,192,84436,1,0,0:0:0:0:
448,192,84436,1,0,0:0:0:0:
64,192,84598,1,0,0:0:0:0:
192,192,84598,1,0,0:0:0:0:
320,192,84922,1,0,0:0:0:0:
64,192,84922,1,0,0:0:0:0:
448,192,85003,1,0,0:0:0:0:
320,192,85084,1,0,0:0:0:0:
192,192,85084,1,0,0:0:0:0:
64,192,85084,1,0,0:0:0:0:
320,192,85246,1,0,0:0:0:0:
448,192,85246,1,0,0:0:0:0:
64,192,85571,1,0,0:0:0:0:
192,192,85625,1,0,0:0:0:0:
448,192,85679,1,0,0:0:0:0:
192,192,85733,1,0,0:0:0:0:
64,192,85733,1,0,0:0:0:0:
320,192,85733,1,0,0:0:0:0:
64,192,85895,1,0,0:0:0:0:
192,192,85895,1,0,0:0:0:0:
192,192,85976,1,0,0:0:0:0:
320,192,85976,1,0,0:0:0:0:
64,192,85976,1,0,0:0:0:0:
320,192,86138,1,0,0:0:0:0:
192,192,86138,1,0,0:0:0:0:
192,192,86219,1,0,0:0:0:0:
64,192,86219,1,0,0:0:0:0:
448,192,86219,1,0,0:0:0:0:
448,192,86381,1,0,0:0:0:0:
320,192,86381,1,0,0:0:0:0:
192,192,86463,1,0,0:0:0:0:
448,192,86463,1,0,0:0:0:0:
320,192,86463,1,0,0:0:0:0:
192,192,86625,1,0,0:0:0:0:
64,192,86625,1,0,0:0:0:0:
64,192,86706,1,0,0:0:0:0:
192,192,86706,1,0,0:0:0:0:
320,192,86706,1,0,0:0:0:0:
448,192,86868,1,0,0:0:0:0:
320,192,86922,1,0,0:0:0:0:
192,192,86976,1,0,0:0:0:0:
320,192,87030,1,0,0:0:0:0:
448,192,87030,1,0,0:0:0:0:
64,192,87030,1,0,0:0:0:0:
192,192,87111,1,0,0:0:0:0:
320,192,87192,1,0,0:0:0:0:
64,192,87273,1,0,0:0:0:0:
320,192,87354,1,0,0:0:0:0:
448,192,87436,1,0,0:0:0:0:
192,192,87517,1,0,0:0:0:0:
320,192,87598,1,0,0:0:0:0:
64,192,87679,1,0,0:0:0:0:
192,192,87760,1,0,0:0:0:0:
448,192,87841,1,0,0:0:0:0:
320,192,87922,1,0,0:0:0:0:
64,192,88003,128,0,88165:0:0:0:0:
192,192,88084,128,0,88246:0:0:0:0:
448,192,88165,128,0,88327:0:0:0:0:
320,192,88246,128,0,88327:0:0:0:0:
64,192,88327,1,0,0:0:0:0:
192,192,88327,1,0,0:0:0:0:
320,192,88571,1,0,0:0:0:0:
64,192,88571,1,0,0:0:0:0:
192,192,88814,1,0,0:0:0:0:
448,192,88814,1,0,0:0:0:0:
64,192,89138,1,0,0:0:0:0:
192,192,89300,1,0,0:0:0:0:
320,192,89300,1,0,0:0:0:0:
448,192,89463,1,0,0:0:0:0:
64,192,89625,1,0,0:0:0:0:
320,192,89625,1,0,0:0:0:0:
192,192,89868,1,0,0:0:0:0:
448,192,90111,1,0,0:0:0:0:
192,192,90273,1,0,0:0:0:0:
64,192,90436,1,0,0:0:0:0:
192,192,90517,1,0,0:0:0:0:
320,192,90598,1,0,0:0:0:0:
64,192,90598,1,0,0:0:0:0:
448,192,90679,1,0,0:0:0:0:
192,192,90760,1,0,0:0:0:0:
64,192,90841,1,0,0:0:0:0:
192,192,90922,1,0,0:0:0:0:
448,192,90922,1,0,0:0:0:0:
192,192,91084,1,0,0:0:0:0:
64,192,91165,1,0,0:0:0:0:
320,192,91165,1,0,0:0:0:0:
192,192,91327,1,0,0:0:0:0:
320,192,91408,1,0,0:0:0:0:
448,192,91408,1,0,0:0:0:0:
64,192,91571,1,0,0:0:0:0:
320,192,91571,1,0,0:0:0:0:
192,192,91652,1,0,0:0:0:0:
320,192,91733,1,0,0:0:0:0:
192,192,91814,1,0,0:0:0:0:
320,192,91895,1,0,0:0:0:0:
64,192,91895,1,0,0:0:0:0:
448,192,91976,1,0,0:0:0:0:
64,192,92057,1,0,0:0:0:0:
192,192,92138,1,0,0:0:0:0:
320,192,92219,1,0,0:0:0:0:
448,192,92219,1,0,0:0:0:0:
192,192,92463,1,0,0:0:0:0:
448,192,92706,1,0,0:0:0:0:
192,192,92868,1,0,0:0:0:0:
448,192,92868,1,0,0:0:0:0:
320,192,92949,1,0,0:0:0:0:
192,192,93030,1,0,0:0:0:0:
64,192,93111,1,0,0:0:0:0:
320,192,93192,1,0,0:0:0:0:
192,192,93192,1,0,0:0:0:0:
448,192,93273,1,0,0:0:0:0:
64,192,93354,1,0,0:0:0:0:
320,192,93354,1,0,0:0:0:0:
192,192,93436,1,0,0:0:0:0:
320,192,93517,1,0,0:0:0:0:
448,192,93517,1,0,0:0:0:0:
64,192,93517,1,0,0:0:0:0:
192,192,93679,1,0,0:0:0:0:
320,192,93760,1,0,0:0:0:0:
448,192,93841,1,0,0:0:0:0:
192,192,93841,1,0,0:0:0:0:
64,192,93922,1,0,0:0:0:0:
192,192,94003,1,0,0:0:0:0:
320,192,94327,1,0,0:0:0:0:
192,192,94490,1,0,0:0:0:0:
448,192,94490,1,0,0:0:0:0:
320,192,94571,1,0,0:0:0:0:
192,192,94652,1,0,0:0:0:0:
320,192,94733,1,0,0:0:0:0:
448,192,94814,1,0,0:0:0:0:
64,192,94814,1,0,0:0:0:0:
320,192,94895,1,0,0:0:0:0:
192,192,94976,1,0,0:0:0:0:
320,192,95057,1,0,0:0:0:0:
448,192,95138,1,0,0:0:0:0:
192,192,95138,1,0,0:0:0:0:
320,192,95219,1,0,0:0:0:0:
192,192,95300,1,0,0:0:0:0:
320,192,95381,1,0,0:0:0:0:
448,192,95463,1,0,0:0:0:0:
64,192,95463,1,0,0:0:0:0:
320,192,95544,1,0,0:0:0:0:
192,192,95625,1,0,0:0:0:0:
320,192,95706,1,0,0:0:0:0:
64,192,95787,1,0,0:0:0:0:
192,192,95787,1,0,0:0:0:0:
64,192,95949,1,0,0:0:0:0:
320,192,95949,1,0,0:0:0:0:
192,192,96030,1,0,0:0:0:0:
320,192,96111,1,0,0:0:0:0:
448,192,96111,1,0,0:0:0:0:
64,192,96111,1,0,0:0:0:0:
192,192,96354,1,0,0:0:0:0:
64,192,96354,1,0,0:0:0:0:
192,192,96598,1,0,0:0:0:0:
448,192,96598,1,0,0:0:0:0:
320,192,96760,1,0,0:0:0:0:
64,192,96760,1,0,0:0:0:0:
192,192,96760,1,0,0:0:0:0:
448,192,96922,1,0,0:0:0:0:
320,192,97003,1,0,0:0:0:0:
192,192,97084,1,0,0:0:0:0:
448,192,97084,1,0,0:0:0:0:
320,192,97165,1,0,0:0:0:0:
64,192,97246,1,0,0:0:0:0:
192,192,97327,1,0,0:0:0:0:
320,192,97408,1,0,0:0:0:0:
448,192,97408,1,0,0:0:0:0:
192,192,97490,1,0,0:0:0:0:
320,192,97571,1,0,0:0:0:0:
192,192,97652,1,0,0:0:0:0:
320,192,97733,1,0,0:0:0:0:
64,192,97733,1,0,0:0:0:0:
448,192,97895,1,0,0:0:0:0:
320,192,97936,1,0,0:0:0:0:
64,192,97976,1,0,0:0:0:0:
192,192,98017,1,0,0:0:0:0:
320,192,98057,1,0,0:0:0:0:
192,192,98138,1,0,0:0:0:0:
448,192,98219,1,0,0:0:0:0:
64,192,98300,1,0,0:0:0:0:
192,192,98381,1,0,0:0:0:0:
448,192,98381,1,0,0:0:0:0:
320,192,98463,1,0,0:0:0:0:
64,192,98544,1,0,0:0:0:0:
192,192,98584,1,0,0:0:0:0:
448,192,98625,1,0,0:0:0:0:
320,192,98665,1,0,0:0:0:0:
192,192,98706,1,0,0:0:0:0:
448,192,98787,1,0,0:0:0:0:
320,192,98868,1,0,0:0:0:0:
64,192,98949,1,0,0:0:0:0:
192,192,98949,1,0,0:0:0:0:
320,192,99030,1,0,0:0:0:0:
448,192,99111,1,0,0:0:0:0:
64,192,99192,1,0,0:0:0:0:
192,192,99192,1,0,0:0:0:0:
320,192,99273,1,0,0:0:0:0:
448,192,99354,1,0,0:0:0:0:
320,192,99436,1,0,0:0:0:0:
192,192,99517,1,0,0:0:0:0:
64,192,99598,1,0,0:0:0:0:
448,192,99679,1,0,0:0:0:0:
320,192,99760,1,0,0:0:0:0:
192,192,99841,1,0,0:0:0:0:
64,192,99922,1,0,0:0:0:0:
192,192,100003,1,0,0:0:0:0:
448,192,100003,1,0,0:0:0:0:
320,192,100084,1,0,0:0:0:0:
192,192,100165,1,0,0:0:0:0:
64,192,100246,1,0,0:0:0:0:
448,192,100246,1,0,0:0:0:0:
320,192,100327,1,0,0:0:0:0:
192,192,100408,1,0,0:0:0:0:
64,192,100490,1,0,0:0:0:0:
448,192,100490,1,0,0:0:0:0:
320,192,100571,1,0,0:0:0:0:
448,192,100652,1,0,0:0:0:0:
64,192,100733,1,0,0:0:0:0:
192,192,100814,128,0,100895:0:0:0:0:
320,192,100895,128,0,100976:0:0:0:0:
448,192,100976,128,0,101057:0:0:0:0:
64,192,101057,1,0,0:0:0:0:
192,192,101138,1,0,0:0:0:0:
320,192,101219,1,0,0:0:0:0:
64,192,101300,1,0,0:0:0:0:
192,192,101300,1,0,0:0:0:0:
320,192,101381,1,0,0:0:0:0:
192,192,101463,1,0,0:0:0:0:
320,192,101544,1,0,0:0:0:0:
448,192,101544,1,0,0:0:0:0:
192,192,101625,1,0,0:0:0:0:
320,192,101706,1,0,0:0:0:0:
192,192,101787,1,0,0:0:0:0:
64,192,101787,1,0,0:0:0:0:
320,192,101868,1,0,0:0:0:0:
448,192,101949,128,0,102111:0:0:0:0:
320,192,102030,128,0,102192:0:0:0:0:
64,192,102111,128,0,102273:0:0:0:0:
192,192,102192,128,0,102354:0:0:0:0:
320,192,102273,128,0,102436:0:0:0:0:
448,192,102354,128,0,102517:0:0:0:0:
64,192,102436,128,0,102598:0:0:0:0:
192,192,102517,128,0,102598:0:0:0:0:
320,192,102598,1,0,0:0:0:0:
448,192,102598,1,0,0:0:0:0:
192,192,102679,1,0,0:0:0:0:
64,192,102760,1,0,0:0:0:0:
192,192,102841,1,0,0:0:0:0:
448,192,102841,1,0,0:0:0:0:
320,192,102922,1,0,0:0:0:0:
64,192,103003,1,0,0:0:0:0:
192,192,103084,1,0,0:0:0:0:
320,192,103084,1,0,0:0:0:0:
448,192,103165,1,0,0:0:0:0:
320,192,103246,1,0,0:0:0:0:
192,192,103327,1,0,0:0:0:0:
64,192,103408,128,0,103895:0:0:0:0:
192,192,103571,128,0,103814:0:0:0:0:
320,192,103652,128,0,103733:0:0:0:0:
448,192,103733,128,0,103895:0:0:0:0:
320,192,103814,128,0,103895:0:0:0:0:
192,192,103895,128,0,104381:0:0:0:0:
320,192,104057,1,0,0:0:0:0:
448,192,104057,1,0,0:0:0:0:
64,192,104219,1,0,0:0:0:0:
320,192,104219,1,0,0:0:0:0:
320,192,104381,128,0,104544:0:0:0:0:
64,192,104381,128,0,104463:0:0:0:0:
448,192,104463,128,0,104706:0:0:0:0:
192,192,104463,128,0,104868:0:0:0:0:
64,192,104544,128,0,105192:0:0:0:0:
320,192,104706,1,0,0:0:0:0:
448,192,104787,1,0,0:0:0:0:
320,192,104868,1,0,0:0:0:0:
448,192,104949,1,0,0:0:0:0:
320,192,105030,1,0,0:0:0:0:
192,192,105030,1,0,0:0:0:0:
448,192,105111,1,0,0:0:0:0:
192,192,105192,1,0,0:0:0:0:
320,192,105192,1,0,0:0:0:0:
64,192,105354,128,0,105679:0:0:0:0:
448,192,105354,128,0,105841:0:0:0:0:
320,192,105517,128,0,105760:0:0:0:0:
192,192,105679,128,0,106003:0:0:0:0:
320,192,105841,128,0,106327:0:0:0:0:
64,192,105841,128,0,106327:0:0:0:0:
192,192,106246,128,0,106327:0:0:0:0:
448,192,106327,128,0,106408:0:0:0:0:
320,192,106408,128,0,106490:0:0:0:0:
192,192,106490,1,0,0:0:0:0:
64,192,106490,1,0,0:0:0:0:
320,192,106571,1,0,0:0:0:0:
448,192,106571,1,0,0:0:0:0:
192,192,106652,1,0,0:0:0:0:
64,192,106652,1,0,0:0:0:0:
320,192,106733,1,0,0:0:0:0:
448,192,106733,1,0,0:0:0:0:
192,192,106814,1,0,0:0:0:0:
64,192,106814,1,0,0:0:0:0:
320,192,106895,1,0,0:0:0:0:
448,192,106895,1,0,0:0:0:0:
192,192,106976,1,0,0:0:0:0:
64,192,106976,1,0,0:0:0:0:
320,192,107057,1,0,0:0:0:0:
448,192,107057,1,0,0:0:0:0:
192,192,107138,1,0,0:0:0:0:
64,192,107138,1,0,0:0:0:0:
320,192,107219,1,0,0:0:0:0:
448,192,107219,1,0,0:0:0:0:
192,192,107300,1,0,0:0:0:0:
64,192,107300,1,0,0:0:0:0:
320,192,107381,1,0,0:0:0:0:
448,192,107381,1,0,0:0:0:0:
64,192,107463,1,0,0:0:0:0:
192,192,107463,1,0,0:0:0:0:
320,192,107544,1,0,0:0:0:0:
448,192,107544,1,0,0:0:0:0:
192,192,107625,1,0,0:0:0:0:
64,192,107625,1,0,0:0:0:0:
320,192,107706,1,0,0:0:0:0:
448,192,107706,1,0,0:0:0:0:
192,192,107787,1,0,0:0:0:0:
64,192,107787,1,0,0:0:0:0:
320,192,107868,1,0,0:0:0:0:
64,192,107949,1,0,0:0:0:0:
192,192,107990,1,0,0:0:0:0:
448,192,108030,1,0,0:0:0:0:
320,192,108071,1,0,0:0:0:0:
192,192,108111,1,0,0:0:0:0:
64,192,108192,1,0,0:0:0:0:
448,192,108273,1,0,0:0:0:0:
320,192,108314,1,0,0:0:0:0:
192,192,108354,1,0,0:0:0:0:
64,192,108395,1,0,0:0:0:0:
448,192,108436,1,0,0:0:0:0:
320,192,108476,1,0,0:0:0:0:
192,192,108517,1,0,0:0:0:0:
64,192,108557,1,0,0:0:0:0:
448,192,108598,1,0,0:0:0:0:
320,192,108638,1,0,0:0:0:0:
64,192,108679,1,0,0:0:0:0:
192,192,108719,1,0,0:0:0:0:
320,192,108760,1,0,0:0:0:0:
448,192,108800,1,0,0:0:0:0:
64,192,108841,1,0,0:0:0:0:
192,192,108881,1,0,0:0:0:0:
320,192,108922,1,0,0:0:0:0:
448,192,108963,1,0,0:0:0:0:
64,192,109003,1,0,0:0:0:0:
192,192,109044,1,0,0:0:0:0:
320,192,109084,1,0,0:0:0:0:
448,192,109084,1,0,0:0:0:0:
64,192,109084,1,0,0:0:0:0:
192,192,109327,1,0,0:0:0:0:
448,192,109327,1,0,0:0:0:0:
320,192,109571,1,0,0:0:0:0:
64,192,109571,1,0,0:0:0:0:
192,192,109733,1,0,0:0:0:0:
320,192,109733,1,0,0:0:0:0:
320,192,109976,1,0,0:0:0:0:
320,192,110219,1,0,0:0:0:0:
64,192,110219,1,0,0:0:0:0:
448,192,110381,1,0,0:0:0:0:
192,192,110381,1,0,0:0:0:0:
320,192,110625,1,0,0:0:0:0:
64,192,110868,1,0,0:0:0:0:
192,192,110868,1,0,0:0:0:0:
448,192,111030,1,0,0:0:0:0:
320,192,111030,1,0,0:0:0:0:
192,192,111273,1,0,0:0:0:0:
64,192,111517,1,0,0:0:0:0:
448,192,111517,1,0,0:0:0:0:
192,192,111679,1,0,0:0:0:0:
320,192,111679,1,0,0:0:0:0:
64,192,111922,1,0,0:0:0:0:
192,192,112165,1,0,0:0:0:0:
320,192,112165,1,0,0:0:0:0:
448,192,112327,1,0,0:0:0:0:
320,192,112327,1,0,0:0:0:0:
64,192,112571,1,0,0:0:0:0:
448,192,112814,1,0,0:0:0:0:
192,192,112814,1,0,0:0:0:0:
64,192,112976,1,0,0:0:0:0:
192,192,112976,1,0,0:0:0:0:
448,192,113219,1,0,0:0:0:0:
320,192,113463,1,0,0:0:0:0:
192,192,113463,1,0,0:0:0:0:
64,192,113787,1,0,0:0:0:0:
320,192,113949,1,0,0:0:0:0:
448,192,113949,1,0,0:0:0:0:
64,192,114111,1,0,0:0:0:0:
192,192,114111,1,0,0:0:0:0:
64,192,114273,1,0,0:0:0:0:
192,192,114273,1,0,0:0:0:0:
320,192,114273,1,0,0:0:0:0:
320,192,114517,1,0,0:0:0:0:
192,192,114760,1,0,0:0:0:0:
448,192,114760,1,0,0:0:0:0:
64,192,114922,1,0,0:0:0:0:
320,192,114922,1,0,0:0:0:0:
192,192,115165,1,0,0:0:0:0:
448,192,115408,1,0,0:0:0:0:
320,192,115408,1,0,0:0:0:0:
64,192,115571,1,0,0:0:0:0:
192,192,115571,1,0,0:0:0:0:
320,192,115571,1,0,0:0:0:0:
320,192,115814,1,0,0:0:0:0:
448,192,116057,1,0,0:0:0:0:
64,192,116057,1,0,0:0:0:0:
192,192,116381,1,0,0:0:0:0:
320,192,116544,1,0,0:0:0:0:
448,192,116544,1,0,0:0:0:0:
192,192,116706,1,0,0:0:0:0:
320,192,116706,1,0,0:0:0:0:
64,192,116868,1,0,0:0:0:0:
192,192,116868,1,0,0:0:0:0:
448,192,116868,1,0,0:0:0:0:
192,192,117192,1,0,0:0:0:0:
448,192,117192,1,0,0:0:0:0:
320,192,117354,1,0,0:0:0:0:
192,192,117436,1,0,0:0:0:0:
320,192,117517,1,0,0:0:0:0:
64,192,117517,1,0,0:0:0:0:
448,192,117517,1,0,0:0:0:0:
448,192,117841,1,0,0:0:0:0:
192,192,117841,1,0,0:0:0:0:
320,192,118003,1,0,0:0:0:0:
64,192,118003,1,0,0:0:0:0:
192,192,118165,1,0,0:0:0:0:
448,192,118165,1,0,0:0:0:0:
320,192,118165,1,0,0:0:0:0:
64,192,118327,1,0,0:0:0:0:
192,192,118368,1,0,0:0:0:0:
320,192,118408,1,0,0:0:0:0:
448,192,118449,1,0,0:0:0:0:
64,192,118490,1,0,0:0:0:0:
192,192,118490,1,0,0:0:0:0:
320,192,118571,1,0,0:0:0:0:
64,192,118652,1,0,0:0:0:0:
192,192,118692,1,0,0:0:0:0:
320,192,118733,1,0,0:0:0:0:
448,192,118773,1,0,0:0:0:0:
192,192,118814,1,0,0:0:0:0:
320,192,118814,1,0,0:0:0:0:
64,192,118895,1,0,0:0:0:0:
192,192,118976,1,0,0:0:0:0:
448,192,118976,1,0,0:0:0:0:
320,192,119057,1,0,0:0:0:0:
64,192,119057,1,0,0:0:0:0:
192,192,119138,1,0,0:0:0:0:
64,192,119219,1,0,0:0:0:0:
320,192,119219,1,0,0:0:0:0:
448,192,119300,1,0,0:0:0:0:
320,192,119341,1,0,0:0:0:0:
64,192,119381,1,0,0:0:0:0:
192,192,119422,1,0,0:0:0:0:
448,192,119463,1,0,0:0:0:0:
320,192,119463,1,0,0:0:0:0:
448,192,119706,1,0,0:0:0:0:
192,192,119706,1,0,0:0:0:0:
64,192,119949,1,0,0:0:0:0:
320,192,119949,1,0,0:0:0:0:
192,192,120111,1,0,0:0:0:0:
448,192,120111,1,0,0:0:0:0:
320,192,120354,1,0,0:0:0:0:
64,192,120598,1,0,0:0:0:0:
320,192,120598,1,0,0:0:0:0:
192,192,120760,1,0,0:0:0:0:
448,192,120760,1,0,0:0:0:0:
320,192,121003,1,0,0:0:0:0:
192,192,121246,1,0,0:0:0:0:
64,192,121246,1,0,0:0:0:0:
320,192,121408,1,0,0:0:0:0:
448,192,121408,1,0,0:0:0:0:
192,192,121652,1,0,0:0:0:0:
64,192,121895,1,0,0:0:0:0:
448,192,121895,1,0,0:0:0:0:
320,192,121895,1,0,0:0:0:0:
320,192,122057,1,0,0:0:0:0:
192,192,122057,1,0,0:0:0:0:
448,192,122057,1,0,0:0:0:0:
64,192,122300,1,0,0:0:0:0:
320,192,122544,1,0,0:0:0:0:
192,192,122544,1,0,0:0:0:0:
320,192,122706,1,0,0:0:0:0:
448,192,122706,1,0,0:0:0:0:
64,192,122949,1,0,0:0:0:0:
192,192,123192,1,0,0:0:0:0:
448,192,123192,1,0,0:0:0:0:
192,192,123354,1,0,0:0:0:0:
64,192,123354,1,0,0:0:0:0:
320,192,123354,1,0,0:0:0:0:
448,192,123598,1,0,0:0:0:0:
192,192,123841,1,0,0:0:0:0:
320,192,123841,1,0,0:0:0:0:
64,192,124165,1,0,0:0:0:0:
320,192,124327,1,0,0:0:0:0:
448,192,124327,1,0,0:0:0:0:
192,192,124652,1,0,0:0:0:0:
64,192,124652,1,0,0:0:0:0:
320,192,124652,1,0,0:0:0:0:
192,192,124814,1,0,0:0:0:0:
448,192,124814,1,0,0:0:0:0:
320,192,124976,1,0,0:0:0:0:
64,192,124976,1,0,0:0:0:0:
448,192,125138,1,0,0:0:0:0:
192,192,125138,1,0,0:0:0:0:
320,192,125300,1,0,0:0:0:0:
64,192,125300,1,0,0:0:0:0:
192,192,125463,1,0,0:0:0:0:
448,192,125463,1,0,0:0:0:0:
320,192,125625,1,0,0:0:0:0:
64,192,125625,1,0,0:0:0:0:
448,192,125787,1,0,0:0:0:0:
192,192,125787,1,0,0:0:0:0:
192,192,125949,1,0,0:0:0:0:
64,192,125949,1,0,0:0:0:0:
320,192,125949,1,0,0:0:0:0:
320,192,126111,1,0,0:0:0:0:
448,192,126111,1,0,0:0:0:0:
192,192,126273,1,0,0:0:0:0:
64,192,126273,1,0,0:0:0:0:
448,192,126436,1,0,0:0:0:0:
320,192,126436,1,0,0:0:0:0:
192,192,126598,1,0,0:0:0:0:
64,192,126598,1,0,0:0:0:0:
320,192,126760,1,0,0:0:0:0:
448,192,126760,1,0,0:0:0:0:
192,192,126922,1,0,0:0:0:0:
64,192,126922,1,0,0:0:0:0:
320,192,127084,1,0,0:0:0:0:
448,192,127084,1,0,0:0:0:0:
192,192,127246,1,0,0:0:0:0:
64,192,127246,1,0,0:0:0:0:
320,192,127327,1,0,0:0:0:0:
448,192,127327,1,0,0:0:0:0:
192,192,127408,1,0,0:0:0:0:
64,192,127408,1,0,0:0:0:0:
320,192,127490,1,0,0:0:0:0:
448,192,127490,1,0,0:0:0:0:
192,192,127571,1,0,0:0:0:0:
64,192,127571,1,0,0:0:0:0:
320,192,127652,1,0,0:0:0:0:
448,192,127652,1,0,0:0:0:0:
192,192,127733,1,0,0:0:0:0:
64,192,127733,1,0,0:0:0:0:
320,192,127814,1,0,0:0:0:0:
448,192,127814,1,0,0:0:0:0:
192,192,127895,1,0,0:0:0:0:
64,192,127895,1,0,0:0:0:0:
320,192,127976,1,0,0:0:0:0:
448,192,127976,1,0,0:0:0:0:
192,192,128057,1,0,0:0:0:0:
64,192,128057,1,0,0:0:0:0:
320,192,128138,1,0,0:0:0:0:
448,192,128138,1,0,0:0:0:0:
192,192,128219,1,0,0:0:0:0:
64,192,128219,1,0,0:0:0:0:
320,192,128300,1,0,0:0:0:0:
448,192,128300,1,0,0:0:0:0:
192,192,128381,1,0,0:0:0:0:
64,192,128381,1,0,0:0:0:0:
320,192,128463,1,0,0:0:0:0:
448,192,128463,1,0,0:0:0:0:
192,192,128544,1,0,0:0:0:0:
64,192,128544,1,0,0:0:0:0:
448,192,128706,1,0,0:0:0:0:
320,192,128746,1,0,0:0:0:0:
64,192,128787,1,0,0:0:0:0:
192,192,128827,1,0,0:0:0:0:
320,192,128868,1,0,0:0:0:0:
448,192,129030,1,0,0:0:0:0:
64,192,129071,1,0,0:0:0:0:
192,192,129111,1,0,0:0:0:0:
320,192,129152,1,0,0:0:0:0:
448,192,129192,1,0,0:0:0:0:
192,192,129273,1,0,0:0:0:0:
64,192,129273,1,0,0:0:0:0:
448,192,129354,1,0,0:0:0:0:
320,192,129354,1,0,0:0:0:0:
192,192,129436,1,0,0:0:0:0:
64,192,129436,1,0,0:0:0:0:
320,192,129517,1,0,0:0:0:0:
448,192,129517,1,0,0:0:0:0:
64,192,129557,1,0,0:0:0:0:
192,192,129598,1,0,0:0:0:0:
448,192,129638,1,0,0:0:0:0:
320,192,129679,1,0,0:0:0:0:
64,192,129719,1,0,0:0:0:0:
192,192,129760,1,0,0:0:0:0:
320,192,129800,1,0,0:0:0:0:
448,192,129841,1,0,0:0:0:0:
64,192,129841,128,0,132111:0:0:0:0:
320,192,132111,128,0,132436:0:0:0:0:
64,192,132273,128,0,132436:0:0:0:0:
448,192,132436,128,0,133733:0:0:0:0:
192,192,132436,128,0,133733:0:0:0:0:
320,192,133408,128,0,133733:0:0:0:0:
64,192,133733,128,0,134706:0:0:0:0:
320,192,134706,128,0,135030:0:0:0:0:
192,192,135030,128,0,136003:0:0:0:0:
320,192,136003,128,0,136327:0:0:0:0:
448,192,136327,128,0,136652:0:0:0:0:
64,192,136327,128,0,137625:0:0:0:0:
192,192,137300,128,0,137544:0:0:0:0:
320,192,137463,128,0,137625:0:0:0:0:
448,192,137625,128,0,138273:0:0:0:0:
192,192,138273,128,0,138922:0:0:0:0:
64,192,138922,128,0,139571:0:0:0:0:
448,192,139571,128,0,140219:0:0:0:0:
192,192,139895,1,0,0:0:0:0:
64,192,139976,1,0,0:0:0:0:
192,192,140057,1,0,0:0:0:0:
320,192,140138,1,0,0:0:0:0:
192,192,140219,1,0,0:0:0:0:
64,192,140219,1,0,0:0:0:0:
320,192,140544,1,0,0:0:0:0:
448,192,140625,1,0,0:0:0:0:
64,192,140706,1,0,0:0:0:0:
320,192,140787,1,0,0:0:0:0:
448,192,140868,1,0,0:0:0:0:
192,192,140949,1,0,0:0:0:0:
64,192,141030,1,0,0:0:0:0:
320,192,141111,1,0,0:0:0:0:
448,192,141192,1,0,0:0:0:0:
320,192,141246,1,0,0:0:0:0:
192,192,141300,1,0,0:0:0:0:
64,192,141354,1,0,0:0:0:0:
192,192,141408,1,0,0:0:0:0:
320,192,141463,1,0,0:0:0:0:
448,192,141517,1,0,0:0:0:0:
64,192,141517,1,0,0:0:0:0:
320,192,141841,1,0,0:0:0:0:
448,192,141922,1,0,0:0:0:0:
192,192,142003,1,0,0:0:0:0:
320,192,142057,1,0,0:0:0:0:
448,192,142111,1,0,0:0:0:0:
192,192,142165,1,0,0:0:0:0:
64,192,142246,1,0,0:0:0:0:
320,192,142327,1,0,0:0:0:0:
192,192,142408,1,0,0:0:0:0:
448,192,142490,1,0,0:0:0:0:
320,192,142571,1,0,0:0:0:0:
64,192,142652,1,0,0:0:0:0:
192,192,142652,1,0,0:0:0:0:
320,192,142733,1,0,0:0:0:0:
448,192,142814,1,0,0:0:0:0:
192,192,142814,1,0,0:0:0:0:
64,192,142814,1,0,0:0:0:0:
320,192,142976,1,0,0:0:0:0:
192,192,143030,1,0,0:0:0:0:
64,192,143084,1,0,0:0:0:0:
320,192,143138,1,0,0:0:0:0:
192,192,143192,1,0,0:0:0:0:
448,192,143246,1,0,0:0:0:0:
320,192,143300,1,0,0:0:0:0:
448,192,143354,1,0,0:0:0:0:
64,192,143408,1,0,0:0:0:0:
192,192,143463,1,0,0:0:0:0:
320,192,143544,1,0,0:0:0:0:
448,192,143625,1,0,0:0:0:0:
192,192,143706,1,0,0:0:0:0:
64,192,143787,1,0,0:0:0:0:
192,192,143841,1,0,0:0:0:0:
448,192,143895,1,0,0:0:0:0:
320,192,143949,1,0,0:0:0:0:
64,192,144003,1,0,0:0:0:0:
192,192,144057,1,0,0:0:0:0:
320,192,144111,1,0,0:0:0:0:
448,192,144354,1,0,0:0:0:0:
448,192,144436,1,0,0:0:0:0:
320,192,144679,1,0,0:0:0:0:
320,192,144760,1,0,0:0:0:0:
192,192,145003,1,0,0:0:0:0:
192,192,145084,1,0,0:0:0:0:
320,192,145246,1,0,0:0:0:0:
448,192,145246,1,0,0:0:0:0:
64,192,145327,1,0,0:0:0:0:
64,192,145408,1,0,0:0:0:0:
448,192,145408,1,0,0:0:0:0:
320,192,145408,1,0,0:0:0:0:
192,192,145571,1,0,0:0:0:0:
320,192,145652,1,0,0:0:0:0:
64,192,145733,1,0,0:0:0:0:
192,192,145814,1,0,0:0:0:0:
448,192,145895,1,0,0:0:0:0:
320,192,145976,1,0,0:0:0:0:
192,192,146057,1,0,0:0:0:0:
320,192,146138,1,0,0:0:0:0:
448,192,146219,1,0,0:0:0:0:
64,192,146300,1,0,0:0:0:0:
192,192,146381,1,0,0:0:0:0:
320,192,146436,1,0,0:0:0:0:
448,192,146490,1,0,0:0:0:0:
192,192,146544,1,0,0:0:0:0:
64,192,146544,1,0,0:0:0:0:
320,192,146598,1,0,0:0:0:0:
448,192,146652,1,0,0:0:0:0:
192,192,146706,1,0,0:0:0:0:
320,192,146706,1,0,0:0:0:0:
64,192,146706,1,0,0:0:0:0:
448,192,146868,1,0,0:0:0:0:
320,192,146922,1,0,0:0:0:0:
192,192,146976,1,0,0:0:0:0:
64,192,147030,1,0,0:0:0:0:
320,192,147111,1,0,0:0:0:0:
192,192,147192,1,0,0:0:0:0:
64,192,147246,1,0,0:0:0:0:
448,192,147300,1,0,0:0:0:0:
320,192,147354,1,0,0:0:0:0:
192,192,147436,1,0,0:0:0:0:
64,192,147517,1,0,0:0:0:0:
320,192,147598,1,0,0:0:0:0:
448,192,147679,1,0,0:0:0:0:
192,192,147760,1,0,0:0:0:0:
64,192,147841,1,0,0:0:0:0:
320,192,147841,1,0,0:0:0:0:
448,192,147922,1,0,0:0:0:0:
320,192,148003,1,0,0:0:0:0:
192,192,148003,1,0,0:0:0:0:
64,192,148003,1,0,0:0:0:0:
448,192,148084,1,0,0:0:0:0:
64,192,148165,1,0,0:0:0:0:
192,192,148246,1,0,0:0:0:0:
320,192,148327,1,0,0:0:0:0:
192,192,148408,1,0,0:0:0:0:
64,192,148490,1,0,0:0:0:0:
448,192,148490,1,0,0:0:0:0:
320,192,148571,1,0,0:0:0:0:
192,192,148652,1,0,0:0:0:0:
64,192,148652,1,0,0:0:0:0:
448,192,148652,1,0,0:0:0:0:
320,192,148733,1,0,0:0:0:0:
448,192,148814,1,0,0:0:0:0:
192,192,148814,1,0,0:0:0:0:
64,192,148895,1,0,0:0:0:0:
320,192,148976,1,0,0:0:0:0:
448,192,149057,1,0,0:0:0:0:
64,192,149138,1,0,0:0:0:0:
192,192,149179,1,0,0:0:0:0:
320,192,149219,1,0,0:0:0:0:
448,192,149260,1,0,0:0:0:0:
64,192,149300,1,0,0:0:0:0:
192,192,149300,1,0,0:0:0:0:
320,192,149463,1,0,0:0:0:0:
448,192,149463,1,0,0:0:0:0:
448,192,149544,1,0,0:0:0:0:
320,192,149544,1,0,0:0:0:0:
192,192,149544,1,0,0:0:0:0:
192,192,149706,1,0,0:0:0:0:
64,192,149706,1,0,0:0:0:0:
320,192,149787,1,0,0:0:0:0:
448,192,149787,1,0,0:0:0:0:
64,192,149787,1,0,0:0:0:0:
192,192,149949,1,0,0:0:0:0:
448,192,149949,1,0,0:0:0:0:
64,192,150003,1,0,0:0:0:0:
192,192,150057,1,0,0:0:0:0:
448,192,150111,1,0,0:0:0:0:
320,192,150165,1,0,0:0:0:0:
64,192,150219,1,0,0:0:0:0:
192,192,150273,1,0,0:0:0:0:
320,192,150327,1,0,0:0:0:0:
448,192,150381,1,0,0:0:0:0:
64,192,150436,1,0,0:0:0:0:
192,192,150476,1,0,0:0:0:0:
320,192,150517,1,0,0:0:0:0:
448,192,150557,1,0,0:0:0:0:
192,192,150598,1,0,0:0:0:0:
64,192,150598,1,0,0:0:0:0:
320,192,150679,1,0,0:0:0:0:
448,192,150760,1,0,0:0:0:0:
64,192,150841,1,0,0:0:0:0:
64,192,150922,1,0,0:0:0:0:
320,192,150922,1,0,0:0:0:0:
192,192,151003,1,0,0:0:0:0:
64,192,151084,1,0,0:0:0:0:
448,192,151165,1,0,0:0:0:0:
448,192,151246,1,0,0:0:0:0:
192,192,151246,1,0,0:0:0:0:
320,192,151327,1,0,0:0:0:0:
448,192,151408,1,0,0:0:0:0:
192,192,151490,1,0,0:0:0:0:
192,192,151571,1,0,0:0:0:0:
64,192,151571,1,0,0:0:0:0:
320,192,151652,1,0,0:0:0:0:
448,192,151733,1,0,0:0:0:0:
192,192,151814,1,0,0:0:0:0:
64,192,151895,1,0,0:0:0:0:
320,192,151895,1,0,0:0:0:0:
192,192,151976,1,0,0:0:0:0:
320,192,152057,1,0,0:0:0:0:
448,192,152138,1,0,0:0:0:0:
320,192,152219,1,0,0:0:0:0:
64,192,152219,1,0,0:0:0:0:
192,192,152300,1,0,0:0:0:0:
320,192,152381,1,0,0:0:0:0:
448,192,152463,1,0,0:0:0:0:
320,192,152544,1,0,0:0:0:0:
64,192,152544,1,0,0:0:0:0:
192,192,152625,1,0,0:0:0:0:
320,192,152706,1,0,0:0:0:0:
448,192,152787,1,0,0:0:0:0:
320,192,152868,1,0,0:0:0:0:
64,192,152868,1,0,0:0:0:0:
192,192,152949,1,0,0:0:0:0:
448,192,153030,1,0,0:0:0:0:
64,192,153111,1,0,0:0:0:0:
320,192,153192,1,0,0:0:0:0:
448,192,153273,1,0,0:0:0:0:
320,192,153354,1,0,0:0:0:0:
192,192,153436,1,0,0:0:0:0:
192,192,153517,1,0,0:0:0:0:
64,192,153517,1,0,0:0:0:0:
320,192,153598,1,0,0:0:0:0:
192,192,153679,1,0,0:0:0:0:
448,192,153760,1,0,0:0:0:0:
448,192,153841,1,0,0:0:0:0:
320,192,153841,1,0,0:0:0:0:
192,192,153922,1,0,0:0:0:0:
64,192,154003,1,0,0:0:0:0:
192,192,154084,1,0,0:0:0:0:
192,192,154165,1,0,0:0:0:0:
320,192,154165,1,0,0:0:0:0:
448,192,154246,1,0,0:0:0:0:
320,192,154327,1,0,0:0:0:0:
192,192,154408,1,0,0:0:0:0:
64,192,154490,1,0,0:0:0:0:
320,192,154490,1,0,0:0:0:0:
192,192,154571,1,0,0:0:0:0:
448,192,154652,1,0,0:0:0:0:
320,192,154733,1,0,0:0:0:0:
192,192,154814,1,0,0:0:0:0:
64,192,154814,1,0,0:0:0:0:
320,192,154895,1,0,0:0:0:0:
192,192,154976,1,0,0:0:0:0:
64,192,155057,1,0,0:0:0:0:
448,192,155138,1,0,0:0:0:0:
320,192,155192,1,0,0:0:0:0:
192,192,155246,1,0,0:0:0:0:
64,192,155300,1,0,0:0:0:0:
192,192,155354,1,0,0:0:0:0:
320,192,155408,1,0,0:0:0:0:
64,192,155463,1,0,0:0:0:0:
448,192,155463,1,0,0:0:0:0:
192,192,155517,1,0,0:0:0:0:
320,192,155571,1,0,0:0:0:0:
448,192,155625,1,0,0:0:0:0:
320,192,155679,1,0,0:0:0:0:
192,192,155733,1,0,0:0:0:0:
64,192,155787,1,0,0:0:0:0:
320,192,155787,1,0,0:0:0:0:
448,192,155787,1,0,0:0:0:0:
192,192,155868,1,0,0:0:0:0:
448,192,155949,1,0,0:0:0:0:
192,192,156030,1,0,0:0:0:0:
192,192,156111,1,0,0:0:0:0:
320,192,156111,1,0,0:0:0:0:
64,192,156192,1,0,0:0:0:0:
192,192,156273,1,0,0:0:0:0:
448,192,156354,1,0,0:0:0:0:
448,192,156436,1,0,0:0:0:0:
320,192,156436,1,0,0:0:0:0:
192,192,156517,1,0,0:0:0:0:
320,192,156598,1,0,0:0:0:0:
64,192,156679,1,0,0:0:0:0:
192,192,156760,1,0,0:0:0:0:
320,192,156841,1,0,0:0:0:0:
448,192,156922,1,0,0:0:0:0:
192,192,157003,1,0,0:0:0:0:
320,192,157084,1,0,0:0:0:0:
64,192,157084,1,0,0:0:0:0:
192,192,157165,1,0,0:0:0:0:
320,192,157246,1,0,0:0:0:0:
192,192,157327,1,0,0:0:0:0:
320,192,157408,1,0,0:0:0:0:
448,192,157408,1,0,0:0:0:0:
192,192,157490,1,0,0:0:0:0:
320,192,157571,1,0,0:0:0:0:
192,192,157652,1,0,0:0:0:0:
64,192,157733,1,0,0:0:0:0:
320,192,157733,1,0,0:0:0:0:
192,192,157814,1,0,0:0:0:0:
320,192,157895,1,0,0:0:0:0:
192,192,157976,1,0,0:0:0:0:
320,192,158057,1,0,0:0:0:0:
448,192,158057,1,0,0:0:0:0:
64,192,158138,1,0,0:0:0:0:
192,192,158219,1,0,0:0:0:0:
320,192,158300,1,0,0:0:0:0:
448,192,158381,1,0,0:0:0:0:
64,192,158381,1,0,0:0:0:0:
192,192,158381,1,0,0:0:0:0:
320,192,158463,1,0,0:0:0:0:
192,192,158544,1,0,0:0:0:0:
320,192,158625,1,0,0:0:0:0:
320,192,158706,1,0,0:0:0:0:
64,192,158706,1,0,0:0:0:0:
192,192,158787,1,0,0:0:0:0:
320,192,158868,1,0,0:0:0:0:
64,192,158949,1,0,0:0:0:0:
64,192,159030,1,0,0:0:0:0:
192,192,159030,1,0,0:0:0:0:
320,192,159111,1,0,0:0:0:0:
192,192,159192,1,0,0:0:0:0:
448,192,159273,1,0,0:0:0:0:
448,192,159354,1,0,0:0:0:0:
64,192,159354,1,0,0:0:0:0:
320,192,159436,1,0,0:0:0:0:
192,192,159517,1,0,0:0:0:0:
64,192,159598,1,0,0:0:0:0:
320,192,159679,1,0,0:0:0:0:
448,192,159679,1,0,0:0:0:0:
192,192,159679,1,0,0:0:0:0:
64,192,159760,1,0,0:0:0:0:
320,192,159841,1,0,0:0:0:0:
448,192,159922,1,0,0:0:0:0:
64,192,160003,1,0,0:0:0:0:
320,192,160084,1,0,0:0:0:0:
448,192,160165,1,0,0:0:0:0:
320,192,160206,1,0,0:0:0:0:
64,192,160246,1,0,0:0:0:0:
192,192,160287,1,0,0:0:0:0:
320,192,160327,1,0,0:0:0:0:
448,192,160368,1,0,0:0:0:0:
192,192,160436,1,0,0:0:0:0:
320,192,160490,1,0,0:0:0:0:
64,192,160544,1,0,0:0:0:0:
192,192,160598,1,0,0:0:0:0:
448,192,160652,1,0,0:0:0:0:
320,192,160706,1,0,0:0:0:0:
192,192,160760,1,0,0:0:0:0:
64,192,160814,1,0,0:0:0:0:
448,192,160854,1,0,0:0:0:0:
320,192,160895,1,0,0:0:0:0:
192,192,160936,1,0,0:0:0:0:
64,192,160976,1,0,0:0:0:0:
448,192,160976,1,0,0:0:0:0:
320,192,160976,1,0,0:0:0:0:
192,192,161057,1,0,0:0:0:0:
320,192,161138,1,0,0:0:0:0:
448,192,161219,1,0,0:0:0:0:
448,192,161300,1,0,0:0:0:0:
192,192,161300,1,0,0:0:0:0:
64,192,161381,1,0,0:0:0:0:
320,192,161463,1,0,0:0:0:0:
64,192,161544,1,0,0:0:0:0:
64,192,161625,1,0,0:0:0:0:
192,192,161625,1,0,0:0:0:0:
320,192,161706,1,0,0:0:0:0:
192,192,161787,1,0,0:0:0:0:
448,192,161868,1,0,0:0:0:0:
448,192,161949,1,0,0:0:0:0:
320,192,161949,1,0,0:0:0:0:
64,192,162030,1,0,0:0:0:0:
192,192,162111,1,0,0:0:0:0:
448,192,162192,1,0,0:0:0:0:
320,192,162273,1,0,0:0:0:0:
64,192,162273,1,0,0:0:0:0:
192,192,162354,1,0,0:0:0:0:
64,192,162436,1,0,0:0:0:0:
192,192,162517,1,0,0:0:0:0:
64,192,162598,1,0,0:0:0:0:
448,192,162598,1,0,0:0:0:0:
192,192,162679,1,0,0:0:0:0:
320,192,162760,1,0,0:0:0:0:
192,192,162841,1,0,0:0:0:0:
64,192,162922,1,0,0:0:0:0:
320,192,162922,1,0,0:0:0:0:
192,192,163003,1,0,0:0:0:0:
64,192,163084,1,0,0:0:0:0:
192,192,163165,1,0,0:0:0:0:
64,192,163246,1,0,0:0:0:0:
448,192,163246,1,0,0:0:0:0:
192,192,163327,1,0,0:0:0:0:
448,192,163408,1,0,0:0:0:0:
320,192,163490,1,0,0:0:0:0:
64,192,163571,1,0,0:0:0:0:
192,192,163571,1,0,0:0:0:0:
448,192,163571,1,0,0:0:0:0:
320,192,163652,1,0,0:0:0:0:
192,192,163733,1,0,0:0:0:0:
320,192,163814,1,0,0:0:0:0:
320,192,163895,1,0,0:0:0:0:
64,192,163895,1,0,0:0:0:0:
192,192,163976,1,0,0:0:0:0:
320,192,164057,1,0,0:0:0:0:
64,192,164138,1,0,0:0:0:0:
64,192,164219,1,0,0:0:0:0:
448,192,164219,1,0,0:0:0:0:
320,192,164300,1,0,0:0:0:0:
192,192,164381,1,0,0:0:0:0:
448,192,164463,1,0,0:0:0:0:
448,192,164544,1,0,0:0:0:0:
320,192,164544,1,0,0:0:0:0:
192,192,164625,1,0,0:0:0:0:
64,192,164706,1,0,0:0:0:0:
192,192,164787,1,0,0:0:0:0:
320,192,164868,1,0,0:0:0:0:
448,192,164868,1,0,0:0:0:0:
192,192,164949,1,0,0:0:0:0:
64,192,165030,1,0,0:0:0:0:
320,192,165111,1,0,0:0:0:0:
448,192,165192,1,0,0:0:0:0:
192,192,165192,1,0,0:0:0:0:
64,192,165273,1,0,0:0:0:0:
320,192,165354,1,0,0:0:0:0:
192,192,165436,1,0,0:0:0:0:
64,192,165517,1,0,0:0:0:0:
192,192,165571,1,0,0:0:0:0:
320,192,165625,1,0,0:0:0:0:
448,192,165679,1,0,0:0:0:0:
192,192,165760,1,0,0:0:0:0:
448,192,165841,1,0,0:0:0:0:
320,192,165895,1,0,0:0:0:0:
64,192,165949,1,0,0:0:0:0:
192,192,166003,1,0,0:0:0:0:
320,192,166057,1,0,0:0:0:0:
448,192,166111,1,0,0:0:0:0:
320,192,166165,1,0,0:0:0:0:
192,192,166165,1,0,0:0:0:0:
64,192,166165,1,0,0:0:0:0:
320,192,166327,1,0,0:0:0:0:
448,192,166327,1,0,0:0:0:0:
192,192,166408,1,0,0:0:0:0:
320,192,166490,1,0,0:0:0:0:
448,192,166490,1,0,0:0:0:0:
320,192,166652,1,0,0:0:0:0:
448,192,166652,1,0,0:0:0:0:
64,192,166733,1,0,0:0:0:0:
320,192,166814,1,0,0:0:0:0:
448,192,166814,1,0,0:0:0:0:
320,192,166976,1,0,0:0:0:0:
448,192,166976,1,0,0:0:0:0:
192,192,167057,1,0,0:0:0:0:
320,192,167138,1,0,0:0:0:0:
448,192,167138,1,0,0:0:0:0:
320,192,167300,1,0,0:0:0:0:
448,192,167300,1,0,0:0:0:0:
320,192,167463,1,0,0:0:0:0:
448,192,167463,1,0,0:0:0:0:
192,192,167463,1,0,0:0:0:0:
64,192,167625,1,0,0:0:0:0:
320,192,167625,1,0,0:0:0:0:
192,192,167706,1,0,0:0:0:0:
64,192,167787,1,0,0:0:0:0:
320,192,167787,1,0,0:0:0:0:
64,192,167949,1,0,0:0:0:0:
320,192,167949,1,0,0:0:0:0:
448,192,168030,1,0,0:0:0:0:
64,192,168111,1,0,0:0:0:0:
320,192,168111,1,0,0:0:0:0:
64,192,168273,1,0,0:0:0:0:
320,192,168273,1,0,0:0:0:0:
192,192,168354,1,0,0:0:0:0:
64,192,168436,1,0,0:0:0:0:
320,192,168436,1,0,0:0:0:0:
64,192,168598,1,0,0:0:0:0:
320,192,168598,1,0,0:0:0:0:
64,192,168760,1,0,0:0:0:0:
320,192,168760,1,0,0:0:0:0:
448,192,168760,1,0,0:0:0:0:
192,192,168841,1,0,0:0:0:0:
64,192,168841,1,0,0:0:0:0:
320,192,168922,1,0,0:0:0:0:
448,192,168922,1,0,0:0:0:0:
192,192,169003,1,0,0:0:0:0:
64,192,169003,1,0,0:0:0:0:
320,192,169084,1,0,0:0:0:0:
448,192,169084,1,0,0:0:0:0:
192,192,169165,1,0,0:0:0:0:
64,192,169165,1,0,0:0:0:0:
320,192,169246,1,0,0:0:0:0:
448,192,169246,1,0,0:0:0:0:
192,192,169327,1,0,0:0:0:0:
64,192,169327,1,0,0:0:0:0:
320,192,169408,1,0,0:0:0:0:
448,192,169408,1,0,0:0:0:0:
192,192,169490,1,0,0:0:0:0:
64,192,169490,1,0,0:0:0:0:
320,192,169571,1,0,0:0:0:0:
448,192,169571,1,0,0:0:0:0:
192,192,169652,1,0,0:0:0:0:
64,192,169652,1,0,0:0:0:0:
320,192,169733,1,0,0:0:0:0:
448,192,169733,1,0,0:0:0:0:
192,192,169814,1,0,0:0:0:0:
64,192,169814,1,0,0:0:0:0:
320,192,169895,1,0,0:0:0:0:
448,192,169895,1,0,0:0:0:0:
192,192,169976,1,0,0:0:0:0:
64,192,169976,1,0,0:0:0:0:
320,192,170057,1,0,0:0:0:0:
448,192,170057,1,0,0:0:0:0:
320,192,170219,1,0,0:0:0:0:
448,192,170260,1,0,0:0:0:0:
64,192,170300,1,0,0:0:0:0:
192,192,170341,1,0,0:0:0:0:
320,192,170381,1,0,0:0:0:0:
192,192,170544,1,0,0:0:0:0:
64,192,170584,1,0,0:0:0:0:
448,192,170625,1,0,0:0:0:0:
320,192,170665,1,0,0:0:0:0:
192,192,170706,1,0,0:0:0:0:
64,192,170746,1,0,0:0:0:0:
448,192,170787,1,0,0:0:0:0:
320,192,170827,1,0,0:0:0:0:
192,192,170868,1,0,0:0:0:0:
64,192,170908,1,0,0:0:0:0:
320,192,170949,1,0,0:0:0:0:
448,192,170990,1,0,0:0:0:0:
192,192,171030,1,0,0:0:0:0:
64,192,171071,1,0,0:0:0:0:
448,192,171111,1,0,0:0:0:0:
320,192,171152,1,0,0:0:0:0:
192,192,171192,1,0,0:0:0:0:
64,192,171233,1,0,0:0:0:0:
448,192,171273,1,0,0:0:0:0:
320,192,171314,1,0,0:0:0:0:
64,192,171354,1,0,0:0:0:0:
192,192,171354,1,0,0:0:0:0:
448,192,171354,1,0,0:0:0:0:
320,192,173787,1,0,0:0:0:0:
448,192,173787,1,0,0:0:0:0:
320,192,173949,1,0,0:0:0:0:
192,192,173949,1,0,0:0:0:0:
64,192,173949,1,0,0:0:0:0:
320,192,176219,1,0,0:0:0:0:
192,192,176300,1,0,0:0:0:0:
64,192,176381,1,0,0:0:0:0:
448,192,176381,1,0,0:0:0:0:
192,192,176544,1,0,0:0:0:0:
320,192,176544,1,0,0:0:0:0:
448,192,176544,1,0,0:0:0:0:
64,192,177679,1,0,0:0:0:0:
192,192,177760,1,0,0:0:0:0:
64,192,177841,1,0,0:0:0:0:
320,192,177841,1,0,0:0:0:0:
448,192,177841,1,0,0:0:0:0:
448,192,178976,1,0,0:0:0:0:
320,192,179057,1,0,0:0:0:0:
192,192,179138,1,0,0:0:0:0:
64,192,179138,1,0,0:0:0:0:
448,192,179138,1,0,0:0:0:0:
320,192,179300,1,0,0:0:0:0:
64,192,179625,1,0,0:0:0:0:
192,192,179706,1,0,0:0:0:0:
64,192,179787,1,0,0:0:0:0:
320,192,179787,1,0,0:0:0:0:
448,192,179787,1,0,0:0:0:0:
192,192,179949,1,0,0:0:0:0:
448,192,180273,1,0,0:0:0:0:
64,192,180314,1,0,0:0:0:0:
192,192,180354,1,0,0:0:0:0:
320,192,180395,1,0,0:0:0:0:
448,192,180436,1,0,0:0:0:0:
64,192,180598,1,0,0:0:0:0:
448,192,180638,1,0,0:0:0:0:
320,192,180679,1,0,0:0:0:0:
192,192,180719,1,0,0:0:0:0:
448,192,180760,1,0,0:0:0:0:
64,192,180760,1,0,0:0:0:0:
448,192,180922,1,0,0:0:0:0:
64,192,180922,1,0,0:0:0:0:
192,192,180963,1,0,0:0:0:0:
320,192,181003,1,0,0:0:0:0:
448,192,181044,1,0,0:0:0:0:
64,192,181084,1,0,0:0:0:0:
192,192,181084,1,0,0:0:0:0:
192,192,181246,1,0,0:0:0:0:
64,192,181246,1,0,0:0:0:0:
320,192,181327,1,0,0:0:0:0:
448,192,181327,1,0,0:0:0:0:
192,192,181490,1,0,0:0:0:0:
64,192,181490,1,0,0:0:0:0:
320,192,181571,1,0,0:0:0:0:
448,192,181571,1,0,0:0:0:0:
64,192,181611,1,0,0:0:0:0:
192,192,181652,1,0,0:0:0:0:
320,192,181692,1,0,0:0:0:0:
448,192,181733,1,0,0:0:0:0:
64,192,181733,1,0,0:0:0:0:
320,192,182057,1,0,0:0:0:0:
192,192,182057,1,0,0:0:0:0:
64,192,182057,1,0,0:0:0:0:
448,192,182057,1,0,0:0:0:0:
64,192,182219,1,0,0:0:0:0:
320,192,182219,1,0,0:0:0:0:
192,192,182381,1,0,0:0:0:0:
320,192,182381,1,0,0:0:0:0:
320,192,182625,1,0,0:0:0:0:
64,192,182868,1,0,0:0:0:0:
320,192,182868,1,0,0:0:0:0:
192,192,183030,1,0,0:0:0:0:
448,192,183030,1,0,0:0:0:0:
320,192,183273,1,0,0:0:0:0:
192,192,183517,1,0,0:0:0:0:
64,192,183517,1,0,0:0:0:0:
448,192,183679,1,0,0:0:0:0:
192,192,183679,1,0,0:0:0:0:
192,192,183922,1,0,0:0:0:0:
448,192,184165,1,0,0:0:0:0:
64,192,184165,1,0,0:0:0:0:
320,192,184165,1,0,0:0:0:0:
320,192,184327,1,0,0:0:0:0:
192,192,184327,1,0,0:0:0:0:
448,192,184327,1,0,0:0:0:0:
64,192,184571,1,0,0:0:0:0:
320,192,184814,1,0,0:0:0:0:
192,192,184814,1,0,0:0:0:0:
320,192,184976,1,0,0:0:0:0:
448,192,184976,1,0,0:0:0:0:
64,192,185219,1,0,0:0:0:0:
448,192,185463,1,0,0:0:0:0:
64,192,185463,1,0,0:0:0:0:
192,192,185625,1,0,0:0:0:0:
64,192,185625,1,0,0:0:0:0:
320,192,185625,1,0,0:0:0:0:
448,192,185868,1,0,0:0:0:0:
192,192,186111,1,0,0:0:0:0:
320,192,186111,1,0,0:0:0:0:
64,192,186436,1,0,0:0:0:0:
320,192,186598,1,0,0:0:0:0:
448,192,186598,1,0,0:0:0:0:
192,192,186922,1,0,0:0:0:0:
64,192,186922,1,0,0:0:0:0:
320,192,186922,1,0,0:0:0:0:
192,192,187084,1,0,0:0:0:0:
448,192,187084,1,0,0:0:0:0:
320,192,187246,1,0,0:0:0:0:
64,192,187246,1,0,0:0:0:0:
192,192,187408,1,0,0:0:0:0:
448,192,187408,1,0,0:0:0:0:
320,192,187571,1,0,0:0:0:0:
64,192,187571,1,0,0:0:0:0:
448,192,187733,1,0,0:0:0:0:
192,192,187733,1,0,0:0:0:0:
320,192,187895,1,0,0:0:0:0:
64,192,187895,1,0,0:0:0:0:
192,192,188057,1,0,0:0:0:0:
448,192,188057,1,0,0:0:0:0:
320,192,188219,1,0,0:0:0:0:
192,192,188219,1,0,0:0:0:0:
64,192,188219,1,0,0:0:0:0:
64,192,188381,1,0,0:0:0:0:
448,192,188381,1,0,0:0:0:0:
320,192,188544,1,0,0:0:0:0:
192,192,188544,1,0,0:0:0:0:
64,192,188706,1,0,0:0:0:0:
448,192,188706,1,0,0:0:0:0:
320,192,188868,1,0,0:0:0:0:
192,192,188868,1,0,0:0:0:0:
64,192,189030,1,0,0:0:0:0:
448,192,189030,1,0,0:0:0:0:
192,192,189192,1,0,0:0:0:0:
320,192,189192,1,0,0:0:0:0:
64,192,189354,1,0,0:0:0:0:
448,192,189354,1,0,0:0:0:0:
192,192,189517,1,0,0:0:0:0:
64,192,189517,1,0,0:0:0:0:
320,192,189517,1,0,0:0:0:0:
320,192,189598,1,0,0:0:0:0:
448,192,189598,1,0,0:0:0:0:
192,192,189679,1,0,0:0:0:0:
64,192,189679,1,0,0:0:0:0:
448,192,189760,1,0,0:0:0:0:
320,192,189760,1,0,0:0:0:0:
192,192,189841,1,0,0:0:0:0:
64,192,189841,1,0,0:0:0:0:
448,192,189922,1,0,0:0:0:0:
320,192,189922,1,0,0:0:0:0:
192,192,190003,1,0,0:0:0:0:
64,192,190003,1,0,0:0:0:0:
320,192,190084,1,0,0:0:0:0:
448,192,190084,1,0,0:0:0:0:
192,192,190165,1,0,0:0:0:0:
64,192,190165,1,0,0:0:0:0:
320,192,190246,1,0,0:0:0:0:
448,192,190246,1,0,0:0:0:0:
192,192,190327,1,0,0:0:0:0:
64,192,190327,1,0,0:0:0:0:
320,192,190408,1,0,0:0:0:0:
448,192,190408,1,0,0:0:0:0:
192,192,190490,1,0,0:0:0:0:
64,192,190490,1,0,0:0:0:0:
320,192,190571,1,0,0:0:0:0:
448,192,190571,1,0,0:0:0:0:
192,192,190652,1,0,0:0:0:0:
64,192,190652,1,0,0:0:0:0:
320,192,190733,1,0,0:0:0:0:
448,192,190733,1,0,0:0:0:0:
192,192,190814,1,0,0:0:0:0:
64,192,190814,1,0,0:0:0:0:
64,192,190976,1,0,0:0:0:0:
192,192,191017,1,0,0:0:0:0:
448,192,191057,1,0,0:0:0:0:
320,192,191098,1,0,0:0:0:0:
192,192,191138,1,0,0:0:0:0:
64,192,191138,1,0,0:0:0:0:
320,192,191300,1,0,0:0:0:0:
448,192,191341,1,0,0:0:0:0:
64,192,191381,1,0,0:0:0:0:
192,192,191422,1,0,0:0:0:0:
320,192,191463,1,0,0:0:0:0:
448,192,191463,1,0,0:0:0:0:
192,192,191544,1,0,0:0:0:0:
64,192,191544,1,0,0:0:0:0:
320,192,191625,1,0,0:0:0:0:
448,192,191625,1,0,0:0:0:0:
192,192,191706,1,0,0:0:0:0:
64,192,191706,1,0,0:0:0:0:
320,192,191787,1,0,0:0:0:0:
448,192,191787,1,0,0:0:0:0:
64,192,191827,1,0,0:0:0:0:
192,192,191868,1,0,0:0:0:0:
320,192,191908,1,0,0:0:0:0:
448,192,191949,1,0,0:0:0:0:
64,192,191990,1,0,0:0:0:0:
192,192,192030,1,0,0:0:0:0:
320,192,192071,1,0,0:0:0:0:
64,192,192111,1,0,0:0:0:0:
448,192,192111,1,0,0:0:0:0:
192,192,192354,1,0,0:0:0:0:
448,192,192354,1,0,0:0:0:0:
320,192,192598,1,0,0:0:0:0:
64,192,192598,1,0,0:0:0:0:
320,192,192760,1,0,0:0:0:0:
192,192,192760,1,0,0:0:0:0:
320,192,193003,1,0,0:0:0:0:
320,192,193246,1,0,0:0:0:0:
64,192,193246,1,0,0:0:0:0:
448,192,193408,1,0,0:0:0:0:
192,192,193408,1,0,0:0:0:0:
320,192,193652,1,0,0:0:0:0:
64,192,193895,1,0,0:0:0:0:
192,192,193895,1,0,0:0:0:0:
192,192,194057,1,0,0:0:0:0:
448,192,194057,1,0,0:0:0:0:
192,192,194300,1,0,0:0:0:0:
64,192,194544,1,0,0:0:0:0:
448,192,194544,1,0,0:0:0:0:
192,192,194706,1,0,0:0:0:0:
320,192,194706,1,0,0:0:0:0:
64,192,194949,1,0,0:0:0:0:
192,192,195192,1,0,0:0:0:0:
320,192,195192,1,0,0:0:0:0:
448,192,195354,1,0,0:0:0:0:
320,192,195354,1,0,0:0:0:0:
64,192,195598,1,0,0:0:0:0:
448,192,195841,1,0,0:0:0:0:
192,192,195841,1,0,0:0:0:0:
64,192,196003,1,0,0:0:0:0:
192,192,196003,1,0,0:0:0:0:
448,192,196246,1,0,0:0:0:0:
320,192,196490,1,0,0:0:0:0:
192,192,196490,1,0,0:0:0:0:
64,192,196814,1,0,0:0:0:0:
448,192,196976,1,0,0:0:0:0:
320,192,196976,1,0,0:0:0:0:
64,192,197057,1,0,0:0:0:0:
192,192,197138,1,0,0:0:0:0:
320,192,197219,1,0,0:0:0:0:
64,192,197300,1,0,0:0:0:0:
448,192,197300,1,0,0:0:0:0:
192,192,197300,1,0,0:0:0:0:
320,192,197544,1,0,0:0:0:0:
192,192,197787,1,0,0:0:0:0:
448,192,197787,1,0,0:0:0:0:
192,192,197949,1,0,0:0:0:0:
64,192,197949,1,0,0:0:0:0:
192,192,198192,1,0,0:0:0:0:
448,192,198436,1,0,0:0:0:0:
320,192,198436,1,0,0:0:0:0:
192,192,198598,1,0,0:0:0:0:
320,192,198598,1,0,0:0:0:0:
448,192,198598,1,0,0:0:0:0:
320,192,198841,1,0,0:0:0:0:
448,192,199084,1,0,0:0:0:0:
64,192,199084,1,0,0:0:0:0:
192,192,199408,1,0,0:0:0:0:
320,192,199571,1,0,0:0:0:0:
448,192,199571,1,0,0:0:0:0:
64,192,199733,1,0,0:0:0:0:
192,192,199733,1,0,0:0:0:0:
64,192,199895,1,0,0:0:0:0:
192,192,199895,1,0,0:0:0:0:
320,192,199895,1,0,0:0:0:0:
64,192,200219,1,0,0:0:0:0:
448,192,200219,1,0,0:0:0:0:
192,192,200381,1,0,0:0:0:0:
320,192,200463,1,0,0:0:0:0:
448,192,200544,1,0,0:0:0:0:
192,192,200868,1,0,0:0:0:0:
448,192,200868,1,0,0:0:0:0:
64,192,201071,1,0,0:0:0:0:
192,192,201111,1,0,0:0:0:0:
320,192,201152,1,0,0:0:0:0:
64,192,201192,1,0,0:0:0:0:
448,192,201192,1,0,0:0:0:0:
64,192,201354,1,0,0:0:0:0:
448,192,201395,1,0,0:0:0:0:
320,192,201436,1,0,0:0:0:0:
192,192,201476,1,0,0:0:0:0:
64,192,201517,1,0,0:0:0:0:
448,192,201517,1,0,0:0:0:0:
64,192,201679,1,0,0:0:0:0:
192,192,201719,1,0,0:0:0:0:
320,192,201760,1,0,0:0:0:0:
448,192,201800,1,0,0:0:0:0:
192,192,201841,1,0,0:0:0:0:
64,192,201841,1,0,0:0:0:0:
448,192,202003,1,0,0:0:0:0:
64,192,202003,1,0,0:0:0:0:
192,192,202084,1,0,0:0:0:0:
320,192,202084,1,0,0:0:0:0:
320,192,202246,1,0,0:0:0:0:
448,192,202246,1,0,0:0:0:0:
64,192,202327,1,0,0:0:0:0:
192,192,202327,1,0,0:0:0:0:
320,192,202368,1,0,0:0:0:0:
192,192,202408,1,0,0:0:0:0:
320,192,202449,1,0,0:0:0:0:
64,192,202490,1,0,0:0:0:0:
448,192,202490,1,0,0:0:0:0:
192,192,202733,1,0,0:0:0:0:
448,192,202733,1,0,0:0:0:0:
64,192,202733,1,0,0:0:0:0:
320,192,202976,1,0,0:0:0:0:
64,192,202976,1,0,0:0:0:0:
320,192,203138,1,0,0:0:0:0:
192,192,203138,1,0,0:0:0:0:
320,192,203381,1,0,0:0:0:0:
320,192,203625,1,0,0:0:0:0:
64,192,203625,1,0,0:0:0:0:
448,192,203787,1,0,0:0:0:0:
192,192,203787,1,0,0:0:0:0:
320,192,204030,1,0,0:0:0:0:
64,192,204273,1,0,0:0:0:0:
192,192,204273,1,0,0:0:0:0:
192,192,204436,1,0,0:0:0:0:
448,192,204436,1,0,0:0:0:0:
192,192,204679,1,0,0:0:0:0:
64,192,204922,1,0,0:0:0:0:
448,192,204922,1,0,0:0:0:0:
320,192,204922,1,0,0:0:0:0:
192,192,205084,1,0,0:0:0:0:
320,192,205084,1,0,0:0:0:0:
448,192,205084,1,0,0:0:0:0:
64,192,205327,1,0,0:0:0:0:
192,192,205571,1,0,0:0:0:0:
320,192,205571,1,0,0:0:0:0:
448,192,205733,1,0,0:0:0:0:
320,192,205733,1,0,0:0:0:0:
64,192,205976,1,0,0:0:0:0:
448,192,206219,1,0,0:0:0:0:
192,192,206219,1,0,0:0:0:0:
64,192,206381,1,0,0:0:0:0:
192,192,206381,1,0,0:0:0:0:
320,192,206381,1,0,0:0:0:0:
448,192,206625,1,0,0:0:0:0:
320,192,206868,1,0,0:0:0:0:
192,192,206868,1,0,0:0:0:0:
64,192,207192,1,0,0:0:0:0:
448,192,207354,1,0,0:0:0:0:
320,192,207354,1,0,0:0:0:0:
64,192,207679,1,0,0:0:0:0:
192,192,207679,1,0,0:0:0:0:
192,192,207841,1,0,0:0:0:0:
448,192,207841,1,0,0:0:0:0:
192,192,208003,1,0,0:0:0:0:
64,192,208003,1,0,0:0:0:0:
192,192,208165,1,0,0:0:0:0:
448,192,208165,1,0,0:0:0:0:
192,192,208327,1,0,0:0:0:0:
64,192,208327,1,0,0:0:0:0:
320,192,208327,1,0,0:0:0:0:
448,192,208490,1,0,0:0:0:0:
192,192,208490,1,0,0:0:0:0:
192,192,208652,1,0,0:0:0:0:
64,192,208652,1,0,0:0:0:0:
192,192,208814,1,0,0:0:0:0:
448,192,208814,1,0,0:0:0:0:
192,192,208976,1,0,0:0:0:0:
64,192,208976,1,0,0:0:0:0:
320,192,208976,1,0,0:0:0:0:
448,192,209138,1,0,0:0:0:0:
64,192,209138,1,0,0:0:0:0:
192,192,209300,1,0,0:0:0:0:
64,192,209300,1,0,0:0:0:0:
64,192,209463,1,0,0:0:0:0:
448,192,209463,1,0,0:0:0:0:
64,192,209625,1,0,0:0:0:0:
192,192,209625,1,0,0:0:0:0:
64,192,209787,1,0,0:0:0:0:
448,192,209787,1,0,0:0:0:0:
64,192,209949,1,0,0:0:0:0:
192,192,209949,1,0,0:0:0:0:
448,192,210111,1,0,0:0:0:0:
320,192,210111,1,0,0:0:0:0:
64,192,210273,1,0,0:0:0:0:
448,192,210273,1,0,0:0:0:0:
320,192,210354,1,0,0:0:0:0:
192,192,210354,1,0,0:0:0:0:
64,192,210436,1,0,0:0:0:0:
448,192,210436,1,0,0:0:0:0:
192,192,210517,1,0,0:0:0:0:
320,192,210517,1,0,0:0:0:0:
448,192,210598,1,0,0:0:0:0:
64,192,210598,1,0,0:0:0:0:
320,192,210679,1,0,0:0:0:0:
192,192,210679,1,0,0:0:0:0:
64,192,210760,1,0,0:0:0:0:
448,192,210760,1,0,0:0:0:0:
320,192,210841,1,0,0:0:0:0:
192,192,210841,1,0,0:0:0:0:
64,192,210922,1,0,0:0:0:0:
448,192,210922,1,0,0:0:0:0:
320,192,211003,1,0,0:0:0:0:
192,192,211003,1,0,0:0:0:0:
64,192,211084,1,0,0:0:0:0:
448,192,211084,1,0,0:0:0:0:
320,192,211165,1,0,0:0:0:0:
192,192,211165,1,0,0:0:0:0:
64,192,211246,1,0,0:0:0:0:
448,192,211246,1,0,0:0:0:0:
320,192,211327,1,0,0:0:0:0:
192,192,211327,1,0,0:0:0:0:
64,192,211408,1,0,0:0:0:0:
448,192,211408,1,0,0:0:0:0:
320,192,211490,1,0,0:0:0:0:
192,192,211490,1,0,0:0:0:0:
64,192,211571,1,0,0:0:0:0:
448,192,211571,1,0,0:0:0:0:
64,192,211733,1,0,0:0:0:0:
192,192,211773,1,0,0:0:0:0:
320,192,211814,1,0,0:0:0:0:
448,192,211854,1,0,0:0:0:0:
64,192,211895,1,0,0:0:0:0:
192,192,211895,1,0,0:0:0:0:
448,192,212057,1,0,0:0:0:0:
320,192,212098,1,0,0:0:0:0:
192,192,212138,1,0,0:0:0:0:
64,192,212179,1,0,0:0:0:0:
448,192,212219,1,0,0:0:0:0:
320,192,212219,1,0,0:0:0:0:
192,192,212300,1,0,0:0:0:0:
64,192,212300,1,0,0:0:0:0:
320,192,212381,1,0,0:0:0:0:
448,192,212381,1,0,0:0:0:0:
192,192,212463,1,0,0:0:0:0:
64,192,212463,1,0,0:0:0:0:
448,192,212544,1,0,0:0:0:0:
320,192,212584,1,0,0:0:0:0:
192,192,212625,1,0,0:0:0:0:
64,192,212665,1,0,0:0:0:0:
448,192,212706,1,0,0:0:0:0:
320,192,212746,1,0,0:0:0:0:
192,192,212787,1,0,0:0:0:0:
64,192,212827,1,0,0:0:0:0:
320,192,212868,1,0,0:0:0:0:
448,192,212868,1,0,0:0:0:0:
192,192,212949,1,0,0:0:0:0:
320,192,213030,1,0,0:0:0:0:
192,192,213111,1,0,0:0:0:0:
64,192,213192,1,0,0:0:0:0:
448,192,213192,1,0,0:0:0:0:
320,192,213273,1,0,0:0:0:0:
192,192,213354,1,0,0:0:0:0:
448,192,213679,1,0,0:0:0:0:
320,192,213841,1,0,0:0:0:0:
64,192,213841,1,0,0:0:0:0:
192,192,213922,1,0,0:0:0:0:
448,192,214003,1,0,0:0:0:0:
320,192,214084,1,0,0:0:0:0:
192,192,214165,1,0,0:0:0:0:
64,192,214165,1,0,0:0:0:0:
320,192,214246,1,0,0:0:0:0:
448,192,214327,1,0,0:0:0:0:
64,192,214408,1,0,0:0:0:0:
192,192,214490,1,0,0:0:0:0:
448,192,214571,1,0,0:0:0:0:
320,192,214652,1,0,0:0:0:0:
192,192,214733,1,0,0:0:0:0:
64,192,214814,1,0,0:0:0:0:
192,192,214868,1,0,0:0:0:0:
320,192,214922,1,0,0:0:0:0:
448,192,214976,1,0,0:0:0:0:
192,192,215246,1,0,0:0:0:0:
320,192,215300,1,0,0:0:0:0:
192,192,215625,1,0,0:0:0:0:
192,192,215949,1,0,0:0:0:0:
448,192,216030,1,0,0:0:0:0:
64,192,216111,1,0,0:0:0:0:
192,192,216192,1,0,0:0:0:0:
320,192,216273,1,0,0:0:0:0:
448,192,216354,1,0,0:0:0:0:
64,192,216436,1,0,0:0:0:0:
192,192,216436,1,0,0:0:0:0:
320,192,216517,1,0,0:0:0:0:
192,192,216598,1,0,0:0:0:0:
64,192,216679,1,0,0:0:0:0:
448,192,216760,1,0,0:0:0:0:
320,192,216760,1,0,0:0:0:0:
192,192,217246,1,0,0:0:0:0:
320,192,217246,1,0,0:0:0:0:
64,192,217571,1,0,0:0:0:0:
448,192,217571,1,0,0:0:0:0:
192,192,217895,1,0,0:0:0:0:
64,192,217895,1,0,0:0:0:0:
192,192,218057,1,0,0:0:0:0:
320,192,218057,1,0,0:0:0:0:
448,192,218057,1,0,0:0:0:0:
64,192,218219,1,0,0:0:0:0:
320,192,218219,1,0,0:0:0:0:
192,192,218544,1,0,0:0:0:0:
448,192,218544,1,0,0:0:0:0:
64,192,218868,1,0,0:0:0:0:
192,192,218949,1,0,0:0:0:0:
64,192,219030,1,0,0:0:0:0:
448,192,219030,1,0,0:0:0:0:
320,192,219111,1,0,0:0:0:0:
64,192,219192,1,0,0:0:0:0:
192,192,219273,1,0,0:0:0:0:
320,192,219354,1,0,0:0:0:0:
448,192,219354,1,0,0:0:0:0:
192,192,219436,1,0,0:0:0:0:
64,192,219517,1,0,0:0:0:0:
192,192,219571,1,0,0:0:0:0:
320,192,219625,1,0,0:0:0:0:
64,192,219679,1,0,0:0:0:0:
448,192,219679,1,0,0:0:0:0:
192,192,219760,1,0,0:0:0:0:
64,192,219841,1,0,0:0:0:0:
448,192,219922,1,0,0:0:0:0:
320,192,220003,1,0,0:0:0:0:
192,192,220003,1,0,0:0:0:0:
64,192,220084,1,0,0:0:0:0:
192,192,220165,1,0,0:0:0:0:
320,192,220246,1,0,0:0:0:0:
448,192,220327,1,0,0:0:0:0:
64,192,220327,1,0,0:0:0:0:
192,192,220571,1,0,0:0:0:0:
320,192,220652,1,0,0:0:0:0:
448,192,220652,1,0,0:0:0:0:
64,192,220814,1,0,0:0:0:0:
192,192,220868,1,0,0:0:0:0:
320,192,220922,1,0,0:0:0:0:
448,192,220976,1,0,0:0:0:0:
320,192,221057,1,0,0:0:0:0:
64,192,221138,1,0,0:0:0:0:
192,192,221192,1,0,0:0:0:0:
320,192,221246,1,0,0:0:0:0:
448,192,221300,1,0,0:0:0:0:
192,192,221381,1,0,0:0:0:0:
64,192,221463,1,0,0:0:0:0:
192,192,221517,1,0,0:0:0:0:
320,192,221571,1,0,0:0:0:0:
448,192,221625,1,0,0:0:0:0:
192,192,221706,1,0,0:0:0:0:
448,192,221787,1,0,0:0:0:0:
320,192,221841,1,0,0:0:0:0:
192,192,221895,1,0,0:0:0:0:
64,192,221949,1,0,0:0:0:0:
448,192,221949,1,0,0:0:0:0:
320,192,222030,1,0,0:0:0:0:
192,192,222111,1,0,0:0:0:0:
64,192,222192,1,0,0:0:0:0:
192,192,222273,1,0,0:0:0:0:
320,192,222273,1,0,0:0:0:0:
448,192,222354,1,0,0:0:0:0:
320,192,222436,1,0,0:0:0:0:
192,192,222517,1,0,0:0:0:0:
320,192,222598,1,0,0:0:0:0:
64,192,222598,1,0,0:0:0:0:
448,192,222679,1,0,0:0:0:0:
320,192,222760,1,0,0:0:0:0:
64,192,222814,1,0,0:0:0:0:
192,192,222868,1,0,0:0:0:0:
320,192,222922,1,0,0:0:0:0:
448,192,222922,1,0,0:0:0:0:
192,192,223084,1,0,0:0:0:0:
64,192,223084,1,0,0:0:0:0:
320,192,223246,1,0,0:0:0:0:
448,192,223246,1,0,0:0:0:0:
192,192,223246,1,0,0:0:0:0:
64,192,223408,1,0,0:0:0:0:
192,192,223490,1,0,0:0:0:0:
320,192,223571,1,0,0:0:0:0:
448,192,223571,1,0,0:0:0:0:
192,192,223652,1,0,0:0:0:0:
64,192,223733,1,0,0:0:0:0:
192,192,224057,1,0,0:0:0:0:
320,192,224138,1,0,0:0:0:0:
448,192,224219,1,0,0:0:0:0:
64,192,224219,1,0,0:0:0:0:
192,192,224300,1,0,0:0:0:0:
320,192,224381,1,0,0:0:0:0:
192,192,224463,1,0,0:0:0:0:
64,192,224544,1,0,0:0:0:0:
320,192,224544,1,0,0:0:0:0:
192,192,224625,1,0,0:0:0:0:
320,192,224706,1,0,0:0:0:0:
448,192,224787,1,0,0:0:0:0:
64,192,224868,1,0,0:0:0:0:
192,192,224868,1,0,0:0:0:0:
320,192,224949,1,0,0:0:0:0:
448,192,225030,1,0,0:0:0:0:
64,192,225111,1,0,0:0:0:0:
192,192,225192,1,0,0:0:0:0:
320,192,225246,1,0,0:0:0:0:
192,192,225300,1,0,0:0:0:0:
64,192,225354,1,0,0:0:0:0:
320,192,225679,1,0,0:0:0:0:
448,192,225733,1,0,0:0:0:0:
192,192,226003,1,0,0:0:0:0:
448,192,226327,1,0,0:0:0:0:
64,192,226408,1,0,0:0:0:0:
192,192,226490,1,0,0:0:0:0:
320,192,226544,1,0,0:0:0:0:
64,192,226598,1,0,0:0:0:0:
192,192,226652,1,0,0:0:0:0:
448,192,226706,1,0,0:0:0:0:
320,192,226760,1,0,0:0:0:0:
64,192,226814,1,0,0:0:0:0:
320,192,226895,1,0,0:0:0:0:
448,192,226976,1,0,0:0:0:0:
64,192,227057,1,0,0:0:0:0:
192,192,227138,1,0,0:0:0:0:
448,192,227138,128,0,227625:0:0:0:0:
320,192,227300,1,0,0:0:0:0:
192,192,227300,1,0,0:0:0:0:
192,192,227463,1,0,0:0:0:0:
320,192,227463,1,0,0:0:0:0:
64,192,227625,128,0,227949:0:0:0:0:
320,192,227625,1,0,0:0:0:0:
192,192,227949,128,0,228273:0:0:0:0:
320,192,227949,1,0,0:0:0:0:
448,192,228111,1,0,0:0:0:0:
320,192,228111,1,0,0:0:0:0:
320,192,228273,128,0,228598:0:0:0:0:
64,192,228273,1,0,0:0:0:0:
192,192,228436,1,0,0:0:0:0:
64,192,228436,1,0,0:0:0:0:
448,192,228436,1,0,0:0:0:0:
448,192,228598,128,0,228922:0:0:0:0:
64,192,228922,128,0,229571:0:0:0:0:
192,192,228922,1,0,0:0:0:0:
448,192,229246,1,0,0:0:0:0:
320,192,229327,1,0,0:0:0:0:
192,192,229408,1,0,0:0:0:0:
448,192,229408,1,0,0:0:0:0:
320,192,229490,1,0,0:0:0:0:
448,192,229571,1,0,0:0:0:0:
320,192,229625,1,0,0:0:0:0:
192,192,229679,1,0,0:0:0:0:
64,192,229733,1,0,0:0:0:0:
448,192,229733,1,0,0:0:0:0:
320,192,229814,1,0,0:0:0:0:
192,192,229895,1,0,0:0:0:0:
64,192,229976,1,0,0:0:0:0:
448,192,230057,1,0,0:0:0:0:
320,192,230057,1,0,0:0:0:0:
192,192,230138,1,0,0:0:0:0:
64,192,230219,1,0,0:0:0:0:
320,192,230300,1,0,0:0:0:0:
448,192,230381,1,0,0:0:0:0:
192,192,230381,1,0,0:0:0:0:
64,192,230463,1,0,0:0:0:0:
320,192,230544,1,0,0:0:0:0:
448,192,230625,1,0,0:0:0:0:
64,192,230706,1,0,0:0:0:0:
192,192,230706,1,0,0:0:0:0:
320,192,230949,1,0,0:0:0:0:
192,192,231030,1,0,0:0:0:0:
448,192,231030,1,0,0:0:0:0:
64,192,231192,1,0,0:0:0:0:
192,192,231246,1,0,0:0:0:0:
320,192,231300,1,0,0:0:0:0:
448,192,231354,1,0,0:0:0:0:
64,192,231436,1,0,0:0:0:0:
192,192,231517,1,0,0:0:0:0:
320,192,231571,1,0,0:0:0:0:
192,192,231625,1,0,0:0:0:0:
64,192,231679,1,0,0:0:0:0:
192,192,231760,1,0,0:0:0:0:
320,192,231841,1,0,0:0:0:0:
448,192,231895,1,0,0:0:0:0:
64,192,231949,1,0,0:0:0:0:
192,192,232003,1,0,0:0:0:0:
320,192,232084,1,0,0:0:0:0:
64,192,232165,1,0,0:0:0:0:
192,192,232206,1,0,0:0:0:0:
320,192,232246,1,0,0:0:0:0:
448,192,232287,1,0,0:0:0:0:
64,192,232327,1,0,0:0:0:0:
192,192,232408,1,0,0:0:0:0:
448,192,232490,1,0,0:0:0:0:
320,192,232530,1,0,0:0:0:0:
192,192,232571,1,0,0:0:0:0:
64,192,232611,1,0,0:0:0:0:
320,192,232652,1,0,0:0:0:0:
448,192,232652,1,0,0:0:0:0:
192,192,232733,1,0,0:0:0:0:
64,192,232733,1,0,0:0:0:0:
320,192,232814,1,0,0:0:0:0:
448,192,232814,1,0,0:0:0:0:
192,192,232895,1,0,0:0:0:0:
64,192,232895,1,0,0:0:0:0:
320,192,232976,1,0,0:0:0:0:
448,192,232976,1,0,0:0:0:0:
192,192,233057,1,0,0:0:0:0:
64,192,233057,1,0,0:0:0:0:
448,192,233138,1,0,0:0:0:0:
320,192,233179,1,0,0:0:0:0:
192,192,233219,1,0,0:0:0:0:
64,192,233260,1,0,0:0:0:0:
320,192,233300,1,0,0:0:0:0:
448,192,233300,1,0,0:0:0:0:
64,192,233381,1,0,0:0:0:0:
192,192,233381,1,0,0:0:0:0:
448,192,233463,1,0,0:0:0:0:
320,192,233503,1,0,0:0:0:0:
192,192,233544,1,0,0:0:0:0:
64,192,233584,1,0,0:0:0:0:
192,192,233625,1,0,0:0:0:0:
320,192,233625,1,0,0:0:0:0:
448,192,233625,1,0,0:0:0:0:
320,192,233787,1,0,0:0:0:0:
192,192,233868,1,0,0:0:0:0:
64,192,233949,1,0,0:0:0:0:
448,192,233949,1,0,0:0:0:0:
320,192,234030,1,0,0:0:0:0:
448,192,234111,1,0,0:0:0:0:
64,192,234436,1,0,0:0:0:0:
192,192,234517,1,0,0:0:0:0:
448,192,234598,1,0,0:0:0:0:
320,192,234598,1,0,0:0:0:0:
192,192,234679,1,0,0:0:0:0:
64,192,234760,1,0,0:0:0:0:
320,192,234841,1,0,0:0:0:0:
448,192,234922,1,0,0:0:0:0:
192,192,234922,1,0,0:0:0:0:
64,192,235003,1,0,0:0:0:0:
320,192,235084,1,0,0:0:0:0:
448,192,235165,1,0,0:0:0:0:
64,192,235246,1,0,0:0:0:0:
320,192,235246,1,0,0:0:0:0:
192,192,235327,1,0,0:0:0:0:
320,192,235408,1,0,0:0:0:0:
192,192,235490,1,0,0:0:0:0:
64,192,235571,1,0,0:0:0:0:
448,192,235571,1,0,0:0:0:0:
192,192,235625,1,0,0:0:0:0:
320,192,235679,1,0,0:0:0:0:
448,192,235733,1,0,0:0:0:0:
192,192,236003,1,0,0:0:0:0:
320,192,236057,1,0,0:0:0:0:
448,192,236381,1,0,0:0:0:0:
320,192,236706,1,0,0:0:0:0:
192,192,236787,1,0,0:0:0:0:
320,192,236868,1,0,0:0:0:0:
64,192,236868,1,0,0:0:0:0:
192,192,236949,1,0,0:0:0:0:
320,192,237030,1,0,0:0:0:0:
448,192,237111,1,0,0:0:0:0:
64,192,237192,1,0,0:0:0:0:
320,192,237192,1,0,0:0:0:0:
192,192,237273,1,0,0:0:0:0:
64,192,237354,1,0,0:0:0:0:
320,192,237436,1,0,0:0:0:0:
448,192,237517,1,0,0:0:0:0:
192,192,237517,1,0,0:0:0:0:
320,192,238003,1,0,0:0:0:0:
64,192,238003,1,0,0:0:0:0:
448,192,238327,1,0,0:0:0:0:
320,192,238327,1,0,0:0:0:0:
64,192,238652,1,0,0:0:0:0:
320,192,238652,1,0,0:0:0:0:
192,192,238814,1,0,0:0:0:0:
448,192,238814,1,0,0:0:0:0:
64,192,238814,1,0,0:0:0:0:
320,192,238976,1,0,0:0:0:0:
448,192,238976,1,0,0:0:0:0:
192,192,239300,1,0,0:0:0:0:
448,192,239300,1,0,0:0:0:0:
64,192,239625,1,0,0:0:0:0:
320,192,239706,1,0,0:0:0:0:
448,192,239787,1,0,0:0:0:0:
192,192,239787,1,0,0:0:0:0:
64,192,239868,1,0,0:0:0:0:
320,192,239949,1,0,0:0:0:0:
448,192,240030,1,0,0:0:0:0:
64,192,240111,1,0,0:0:0:0:
192,192,240111,1,0,0:0:0:0:
320,192,240192,1,0,0:0:0:0:
448,192,240273,1,0,0:0:0:0:
320,192,240327,1,0,0:0:0:0:
192,192,240381,1,0,0:0:0:0:
64,192,240436,1,0,0:0:0:0:
448,192,240436,1,0,0:0:0:0:
320,192,240517,1,0,0:0:0:0:
448,192,240598,1,0,0:0:0:0:
64,192,240679,1,0,0:0:0:0:
320,192,240760,1,0,0:0:0:0:
192,192,240760,1,0,0:0:0:0:
448,192,240841,1,0,0:0:0:0:
64,192,240922,1,0,0:0:0:0:
192,192,241003,1,0,0:0:0:0:
448,192,241084,1,0,0:0:0:0:
320,192,241084,1,0,0:0:0:0:
192,192,241327,1,0,0:0:0:0:
448,192,241408,1,0,0:0:0:0:
64,192,241408,1,0,0:0:0:0:
192,192,241571,1,0,0:0:0:0:
320,192,241625,1,0,0:0:0:0:
192,192,241679,1,0,0:0:0:0:
64,192,241733,1,0,0:0:0:0:
448,192,241814,1,0,0:0:0:0:
320,192,241895,1,0,0:0:0:0:
192,192,241949,1,0,0:0:0:0:
64,192,242003,1,0,0:0:0:0:
192,192,242057,1,0,0:0:0:0:
64,192,242138,1,0,0:0:0:0:
320,192,242219,1,0,0:0:0:0:
192,192,242273,1,0,0:0:0:0:
320,192,242327,1,0,0:0:0:0:
448,192,242381,1,0,0:0:0:0:
192,192,242463,1,0,0:0:0:0:
448,192,242544,1,0,0:0:0:0:
320,192,242598,1,0,0:0:0:0:
192,192,242652,1,0,0:0:0:0:
320,192,242706,1,0,0:0:0:0:
64,192,242706,1,0,0:0:0:0:
192,192,242787,1,0,0:0:0:0:
448,192,242868,1,0,0:0:0:0:
320,192,242949,1,0,0:0:0:0:
192,192,243030,1,0,0:0:0:0:
448,192,243030,1,0,0:0:0:0:
64,192,243111,1,0,0:0:0:0:
320,192,243192,1,0,0:0:0:0:
192,192,243273,1,0,0:0:0:0:
64,192,243354,1,0,0:0:0:0:
448,192,243354,1,0,0:0:0:0:
320,192,243436,1,0,0:0:0:0:
64,192,243517,1,0,0:0:0:0:
192,192,243571,1,0,0:0:0:0:
320,192,243625,1,0,0:0:0:0:
192,192,243679,1,0,0:0:0:0:
64,192,243679,1,0,0:0:0:0:
448,192,243760,1,0,0:0:0:0:
320,192,243841,1,0,0:0:0:0:
64,192,243841,1,0,0:0:0:0:
192,192,243922,1,0,0:0:0:0:
64,192,244003,1,0,0:0:0:0:
320,192,244003,1,0,0:0:0:0:
448,192,244003,1,0,0:0:0:0:
448,192,244165,1,0,0:0:0:0:
320,192,244246,1,0,0:0:0:0:
192,192,244327,1,0,0:0:0:0:
64,192,244327,1,0,0:0:0:0:
320,192,244408,1,0,0:0:0:0:
448,192,244490,1,0,0:0:0:0:
448,192,244814,1,0,0:0:0:0:
192,192,244895,1,0,0:0:0:0:
64,192,244976,1,0,0:0:0:0:
320,192,244976,1,0,0:0:0:0:
192,192,245057,1,0,0:0:0:0:
320,192,245138,1,0,0:0:0:0:
448,192,245219,1,0,0:0:0:0:
64,192,245300,1,0,0:0:0:0:
192,192,245300,1,0,0:0:0:0:
320,192,245381,1,0,0:0:0:0:
448,192,245463,1,0,0:0:0:0:
64,192,245544,1,0,0:0:0:0:
192,192,245625,1,0,0:0:0:0:
448,192,245625,1,0,0:0:0:0:
320,192,245706,1,0,0:0:0:0:
192,192,245787,1,0,0:0:0:0:
64,192,245868,1,0,0:0:0:0:
448,192,245949,1,0,0:0:0:0:
192,192,245949,1,0,0:0:0:0:
320,192,246003,1,0,0:0:0:0:
192,192,246057,1,0,0:0:0:0:
64,192,246111,1,0,0:0:0:0:
320,192,246381,1,0,0:0:0:0:
448,192,246436,1,0,0:0:0:0:
64,192,246760,1,0,0:0:0:0:
448,192,247084,1,0,0:0:0:0:
64,192,247165,1,0,0:0:0:0:
192,192,247246,1,0,0:0:0:0:
320,192,247300,1,0,0:0:0:0:
448,192,247354,1,0,0:0:0:0:
64,192,247408,1,0,0:0:0:0:
192,192,247463,1,0,0:0:0:0:
320,192,247517,1,0,0:0:0:0:
64,192,247571,1,0,0:0:0:0:
320,192,247652,1,0,0:0:0:0:
448,192,247733,1,0,0:0:0:0:
320,192,247773,1,0,0:0:0:0:
192,192,247814,1,0,0:0:0:0:
64,192,247854,1,0,0:0:0:0:
64,192,248057,1,0,0:0:0:0:
192,192,248098,1,0,0:0:0:0:
320,192,248138,1,0,0:0:0:0:
448,192,248179,1,0,0:0:0:0:
192,192,248219,1,0,0:0:0:0:
64,192,248219,1,0,0:0:0:0:
320,192,248300,1,0,0:0:0:0:
448,192,248300,1,0,0:0:0:0:
192,192,248381,1,0,0:0:0:0:
64,192,248381,1,0,0:0:0:0:
320,192,248463,1,0,0:0:0:0:
448,192,248463,1,0,0:0:0:0:
192,192,248544,1,0,0:0:0:0:
64,192,248544,1,0,0:0:0:0:
320,192,248625,1,0,0:0:0:0:
448,192,248625,1,0,0:0:0:0:
64,192,248706,1,0,0:0:0:0:
192,192,248746,1,0,0:0:0:0:
320,192,248787,1,0,0:0:0:0:
448,192,248827,1,0,0:0:0:0:
192,192,248868,1,0,0:0:0:0:
64,192,248868,1,0,0:0:0:0:
448,192,248949,1,0,0:0:0:0:
320,192,248949,1,0,0:0:0:0:
192,192,249030,1,0,0:0:0:0:
64,192,249030,1,0,0:0:0:0:
448,192,249071,1,0,0:0:0:0:
320,192,249111,1,0,0:0:0:0:
192,192,249152,1,0,0:0:0:0:
64,192,249192,1,0,0:0:0:0:
448,192,249192,1,0,0:0:0:0:
320,192,249354,1,0,0:0:0:0:
448,192,249679,1,0,0:0:0:0:
64,192,250003,1,0,0:0:0:0:
192,192,250084,1,0,0:0:0:0:
448,192,250165,1,0,0:0:0:0:
320,192,250246,1,0,0:0:0:0:
64,192,250327,1,0,0:0:0:0:
448,192,250327,1,0,0:0:0:0:
320,192,250408,1,0,0:0:0:0:
448,192,250490,1,0,0:0:0:0:
64,192,250490,1,0,0:0:0:0:
192,192,250490,1,0,0:0:0:0:
320,192,250652,1,0,0:0:0:0:
192,192,251138,1,0,0:0:0:0:
64,192,251138,1,0,0:0:0:0:
320,192,251463,1,0,0:0:0:0:
448,192,251463,1,0,0:0:0:0:
192,192,251787,1,0,0:0:0:0:
64,192,251787,1,0,0:0:0:0:
320,192,251868,1,0,0:0:0:0:
448,192,251868,1,0,0:0:0:0:
64,192,251949,1,0,0:0:0:0:
192,192,251949,1,0,0:0:0:0:
320,192,252030,1,0,0:0:0:0:
448,192,252030,1,0,0:0:0:0:
64,192,252111,1,0,0:0:0:0:
192,192,252111,1,0,0:0:0:0:
320,192,252192,1,0,0:0:0:0:
448,192,252192,1,0,0:0:0:0:
192,192,252273,1,0,0:0:0:0:
64,192,252273,1,0,0:0:0:0:
320,192,252354,1,0,0:0:0:0:
448,192,252354,1,0,0:0:0:0:
192,192,252436,1,0,0:0:0:0:
64,192,252436,1,0,0:0:0:0:
320,192,252517,1,0,0:0:0:0:
448,192,252517,1,0,0:0:0:0:
192,192,252598,1,0,0:0:0:0:
64,192,252598,1,0,0:0:0:0:
320,192,252679,1,0,0:0:0:0:
448,192,252679,1,0,0:0:0:0:
192,192,252760,1,0,0:0:0:0:
64,192,252760,1,0,0:0:0:0:
320,192,252841,1,0,0:0:0:0:
448,192,252841,1,0,0:0:0:0:
64,192,252922,1,0,0:0:0:0:
192,192,252922,1,0,0:0:0:0:
320,192,253003,1,0,0:0:0:0:
448,192,253003,1,0,0:0:0:0:
192,192,253084,1,0,0:0:0:0:
64,192,253084,1,0,0:0:0:0:
320,192,253165,1,0,0:0:0:0:
448,192,253165,1,0,0:0:0:0:
64,192,253246,1,0,0:0:0:0:
192,192,253287,1,0,0:0:0:0:
320,192,253327,1,0,0:0:0:0:
448,192,253368,1,0,0:0:0:0:
192,192,253408,1,0,0:0:0:0:
64,192,253408,1,0,0:0:0:0:
320,192,253490,1,0,0:0:0:0:
448,192,253490,1,0,0:0:0:0:
64,192,253571,1,0,0:0:0:0:
192,192,253611,1,0,0:0:0:0:
320,192,253652,1,0,0:0:0:0:
448,192,253692,1,0,0:0:0:0:
192,192,253733,1,0,0:0:0:0:
64,192,253733,1,0,0:0:0:0:
448,192,253814,1,0,0:0:0:0:
320,192,253814,1,0,0:0:0:0:
192,192,253895,1,0,0:0:0:0:
64,192,253895,1,0,0:0:0:0:
320,192,253976,1,0,0:0:0:0:
448,192,253976,1,0,0:0:0:0:
64,192,254057,1,0,0:0:0:0:
192,192,254098,1,0,0:0:0:0:
320,192,254138,1,0,0:0:0:0:
448,192,254179,1,0,0:0:0:0:
64,192,254219,1,0,0:0:0:0:
192,192,254260,1,0,0:0:0:0:
320,192,254300,1,0,0:0:0:0:
448,192,254341,1,0,0:0:0:0:
192,192,254381,1,0,0:0:0:0:
64,192,254381,1,0,0:0:0:0:
64,192,254706,128,0,260868:0:0:0:0:
448,192,254706,128,0,260868:0:0:0:0:
