osu file format v14

[General]
AudioFilename: audio.mp3
AudioLeadIn: 0
PreviewTime: 150549
Countdown: 0
SampleSet: Normal
StackLeniency: 0.7
Mode: 1
LetterboxInBreaks: 0
WidescreenStoryboard: 0

[Editor]
Bookmarks: 233576
DistanceSpacing: 2.8
BeatDivisor: 4
GridSize: 32
TimelineZoom: 0.8

[Metadata]
Title:Akasha
TitleUnicode:Akasha
Artist:xi
ArtistUnicode:xi
Creator:Nardoxyribonucleic
Version:Kantan
Source:
Tags:Taiko Featured Artist FA Mappers' Guild MG Electronic Instrumental piano 100sec records BlackBN BlackBq iloveyou4ever
BeatmapID:3389809
BeatmapSetID:1400132

[Difficulty]
HPDrainRate:7
CircleSize:5
OverallDifficulty:3
ApproachRate:3
SliderMultiplier:1.4
SliderTickRate:1

[Events]
//Background and Video events
0,0,"bg.jpg",0,0
//Break Periods
2,129992,138730
//Storyboard Layer 0 (Background)
//Storyboard Layer 1 (Fail)
//Storyboard Layer 2 (Pass)
//Storyboard Layer 3 (Foreground)
//Storyboard Layer 4 (Overlay)
//Storyboard Sound Samples

[TimingPoints]
1360,324.324324324324,4,1,0,20,1,0
1360,-111.111111111111,4,1,0,20,0,0
22116,-111.111111111111,4,1,0,50,0,0
42873,-100,4,1,0,80,0,0
63792,-100,4,1,0,50,0,0
66224,-105.263157894737,4,1,0,60,0,0
75954,-104.166666666667,4,1,0,60,0,0
76278,-102.040816326531,4,1,0,60,0,0
76603,-100,4,1,0,70,0,0
88278,-100,4,1,0,80,0,0
109035,-100,4,1,0,80,0,1
129792,-100,4,1,0,80,0,0
131089,-111.111111111111,4,1,0,50,0,0
140170,-100,4,1,0,65,0,0
150549,-100,4,1,0,80,0,0
171305,-100,4,1,0,70,0,0
182008,-100,4,1,0,80,0,1
212819,-100,4,1,0,80,0,0
254819,-100,4,1,0,50,0,0
255468,-100,4,1,0,45,0,0
256116,-100,4,1,0,40,0,0
256765,-100,4,1,0,35,0,0
257414,-100,4,1,0,30,0,0
258062,-100,4,1,0,25,0,0
258711,-100,4,1,0,20,0,0
259359,-100,4,1,0,15,0,0
260008,-100,4,1,0,10,0,0
260657,-100,4,1,0,5,0,0

[HitObjects]
256,192,22116,5,4,0:0:0:0:
256,192,23414,1,8,0:0:0:0:
256,192,27305,1,0,0:0:0:0:
256,192,28603,1,8,0:0:0:0:
256,192,29900,1,0,0:0:0:0:
256,192,31197,1,8,0:0:0:0:
256,192,32495,1,0,0:0:0:0:
256,192,33468,1,0,0:0:0:0:
256,192,33792,1,8,0:0:0:0:
256,192,35089,1,0,0:0:0:0:
256,192,36387,1,8,0:0:0:0:
256,192,37684,1,0,0:0:0:0:
256,192,38981,1,8,0:0:0:0:
256,192,40278,1,0,0:0:0:0:
256,192,41251,1,0,0:0:0:0:
256,192,41576,1,8,0:0:0:0:
256,192,42873,1,4,0:0:0:0:
256,192,43359,1,8,0:0:0:0:
256,192,44170,1,0,0:0:0:0:
256,192,44495,1,0,0:0:0:0:
256,192,44819,1,8,0:0:0:0:
256,192,45468,1,0,0:0:0:0:
256,192,46441,1,8,0:0:0:0:
256,192,46765,1,0,0:0:0:0:
256,192,47251,1,8,0:0:0:0:
256,192,47576,1,8,0:0:0:0:
256,192,48062,1,4,0:0:0:0:
256,192,48549,1,8,0:0:0:0:
256,192,49359,1,0,0:0:0:0:
256,192,50008,1,8,0:0:0:0:
256,192,50332,1,8,0:0:0:0:
256,192,50657,1,0,0:0:0:0:
256,192,51305,1,0,0:0:0:0:
256,192,51954,1,8,0:0:0:0:
256,192,52603,1,0,0:0:0:0:
256,192,52927,1,8,0:0:0:0:
256,192,53251,1,4,0:0:0:0:
256,192,53738,1,8,0:0:0:0:
256,192,54549,1,0,0:0:0:0:
256,192,54873,1,0,0:0:0:0:
256,192,55197,1,8,0:0:0:0:
256,192,55846,1,0,0:0:0:0:
256,192,56819,1,0,0:0:0:0:
256,192,57143,1,8,0:0:0:0:
256,192,57630,1,0,0:0:0:0:
256,192,57954,1,0,0:0:0:0:
256,192,58441,1,4,0:0:0:0:
256,192,58927,1,8,0:0:0:0:
256,192,59738,1,0,0:0:0:0:
256,192,60387,1,8,0:0:0:0:
256,192,60711,1,8,0:0:0:0:
256,192,61035,1,0,0:0:0:0:
256,192,61684,1,8,0:0:0:0:
256,192,62332,1,8,0:0:0:0:
256,192,62657,1,0,0:0:0:0:
256,192,62981,1,8,0:0:0:0:
256,192,63305,1,0,0:0:0:0:
256,192,63630,1,4,0:0:0:0:
256,192,63792,12,0,65900,0:0:0:0:
256,192,66224,5,4,0:0:0:0:
256,192,67522,1,0,0:0:0:0:
256,192,68819,1,8,0:0:0:0:
256,192,70116,1,8,0:0:0:0:
256,192,70603,1,0,0:0:0:0:
256,192,71414,1,8,0:0:0:0:
256,192,72711,1,8,0:0:0:0:
256,192,73197,1,0,0:0:0:0:
256,192,74008,1,8,0:0:0:0:
256,192,74981,1,0,0:0:0:0:
256,192,75305,1,8,0:0:0:0:
256,192,75954,1,0,0:0:0:0:
256,192,76278,1,8,0:0:0:0:
256,192,76603,1,4,0:0:0:0:
256,192,77251,1,8,0:0:0:0:
256,192,77900,1,0,0:0:0:0:
256,192,79197,1,12,0:0:0:0:
256,192,79846,1,0,0:0:0:0:
256,192,80495,1,8,0:0:0:0:
256,192,81792,1,4,0:0:0:0:
256,192,82765,1,0,0:0:0:0:
256,192,83089,1,12,0:0:0:0:
256,192,84062,1,8,0:0:0:0:
256,192,84387,1,4,0:0:0:0:
256,192,85035,1,0,0:0:0:0:
256,192,85684,1,8,0:0:0:0:
256,192,86008,1,0,0:0:0:0:
256,192,86332,1,8,0:0:0:0:
256,192,86657,1,8,0:0:0:0:
256,192,86981,2,0,L|416:192,3,140
256,192,88278,1,4,0:0:0:0:
256,192,88765,1,8,0:0:0:0:
256,192,89576,1,8,0:0:0:0:
256,192,90224,1,8,0:0:0:0:
256,192,90549,1,8,0:0:0:0:
256,192,90873,1,0,0:0:0:0:
256,192,91359,1,0,0:0:0:0:
256,192,92170,1,8,0:0:0:0:
256,192,92819,1,0,0:0:0:0:
256,192,93143,1,8,0:0:0:0:
256,192,93468,1,4,0:0:0:0:
256,192,93954,1,8,0:0:0:0:
256,192,94765,1,0,0:0:0:0:
256,192,95738,1,8,0:0:0:0:
256,192,96062,1,4,0:0:0:0:
256,192,96549,1,0,0:0:0:0:
256,192,97359,1,8,0:0:0:0:
256,192,97684,1,8,0:0:0:0:
256,192,98008,1,8,0:0:0:0:
256,192,98657,1,4,0:0:0:0:
256,192,99143,1,8,0:0:0:0:
256,192,99954,1,8,0:0:0:0:
256,192,100441,1,8,0:0:0:0:
256,192,101251,1,0,0:0:0:0:
256,192,101738,1,8,0:0:0:0:
256,192,102549,1,8,0:0:0:0:
256,192,103035,1,0,0:0:0:0:
256,192,103846,1,12,0:0:0:0:
256,192,104819,1,8,0:0:0:0:
256,192,105143,1,0,0:0:0:0:
256,192,105792,1,8,0:0:0:0:
256,192,106116,1,0,0:0:0:0:
256,192,106441,1,0,0:0:0:0:
256,192,107089,1,0,0:0:0:0:
256,192,107414,2,0,L|352:192,6,70
256,192,109035,1,4,0:0:0:0:
256,192,109684,1,0,0:0:0:0:
256,192,110008,1,8,0:0:0:0:
256,192,110332,1,0,0:0:0:0:
256,192,110981,1,8,0:0:0:0:
256,192,111305,1,0,0:0:0:0:
256,192,111630,1,8,0:0:0:0:
256,192,112278,1,0,0:0:0:0:
256,192,112927,1,8,0:0:0:0:
256,192,113414,1,0,0:0:0:0:
256,192,114224,1,8,0:0:0:0:
256,192,115197,1,0,0:0:0:0:
256,192,115522,1,8,0:0:0:0:
256,192,116008,1,0,0:0:0:0:
256,192,116819,1,8,0:0:0:0:
256,192,117468,1,0,0:0:0:0:
256,192,118116,1,0,0:0:0:0:
256,192,118441,1,0,0:0:0:0:
256,192,118765,1,8,0:0:0:0:
256,192,119089,1,8,0:0:0:0:
256,192,119414,1,4,0:0:0:0:
256,192,120062,1,0,0:0:0:0:
256,192,120387,1,8,0:0:0:0:
256,192,120711,1,0,0:0:0:0:
256,192,121359,1,8,0:0:0:0:
256,192,121684,1,0,0:0:0:0:
256,192,122008,1,8,0:0:0:0:
256,192,122657,1,8,0:0:0:0:
256,192,123305,1,0,0:0:0:0:
256,192,123792,1,8,0:0:0:0:
256,192,124603,1,4,0:0:0:0:
256,192,125089,1,8,0:0:0:0:
256,192,125900,1,12,0:0:0:0:
256,192,126549,1,0,0:0:0:0:
256,192,126873,1,8,0:0:0:0:
256,192,127197,1,4,0:0:0:0:
256,192,127846,1,0,0:0:0:0:
256,192,128495,1,8,0:0:0:0:
256,192,128819,1,0,0:0:0:0:
256,192,129143,1,8,0:0:0:0:
256,192,129468,1,8,0:0:0:0:
256,192,129792,1,4,0:0:0:0:
256,192,140170,5,4,0:0:0:0:
256,192,141468,1,8,0:0:0:0:
256,192,142765,1,4,0:0:0:0:
256,192,144062,1,8,0:0:0:0:
256,192,145359,1,4,0:0:0:0:
256,192,146657,1,4,0:0:0:0:
256,192,147954,1,4,0:0:0:0:
256,192,148603,1,4,0:0:0:0:
256,192,149251,1,0,0:0:0:0:
256,192,149900,1,8,0:0:0:0:
256,192,150224,1,8,0:0:0:0:
256,192,150549,1,4,0:0:0:0:
256,192,151522,1,8,0:0:0:0:
256,192,151846,1,0,0:0:0:0:
256,192,152495,1,8,0:0:0:0:
256,192,152819,1,8,0:0:0:0:
256,192,153143,1,0,0:0:0:0:
256,192,153792,1,0,0:0:0:0:
256,192,154441,1,8,0:0:0:0:
256,192,154765,1,0,0:0:0:0:
256,192,155089,1,8,0:0:0:0:
256,192,155414,1,8,0:0:0:0:
256,192,155738,1,4,0:0:0:0:
256,192,156711,1,8,0:0:0:0:
256,192,157035,1,8,0:0:0:0:
256,192,157684,1,0,0:0:0:0:
256,192,158008,1,8,0:0:0:0:
256,192,158332,1,4,0:0:0:0:
256,192,158981,1,0,0:0:0:0:
256,192,159630,1,8,0:0:0:0:
256,192,159954,1,8,0:0:0:0:
256,192,160278,1,8,0:0:0:0:
256,192,160603,1,0,0:0:0:0:
256,192,160927,1,4,0:0:0:0:
256,192,161900,1,8,0:0:0:0:
256,192,162224,1,0,0:0:0:0:
256,192,162873,1,8,0:0:0:0:
256,192,163197,1,8,0:0:0:0:
256,192,163522,1,0,0:0:0:0:
256,192,164170,1,0,0:0:0:0:
256,192,164819,1,8,0:0:0:0:
256,192,165143,1,0,0:0:0:0:
256,192,165468,1,8,0:0:0:0:
256,192,165792,1,8,0:0:0:0:
256,192,166116,1,4,0:0:0:0:
256,192,166765,1,8,0:0:0:0:
256,192,167089,1,0,0:0:0:0:
256,192,167414,1,4,0:0:0:0:
256,192,168062,1,8,0:0:0:0:
256,192,168387,1,8,0:0:0:0:
256,192,168711,1,4,0:0:0:0:
256,192,169359,1,8,0:0:0:0:
256,192,169684,2,0,L|352:192,6,70
256,192,171305,1,4,0:0:0:0:
256,192,172603,1,0,0:0:0:0:
256,192,173900,1,8,0:0:0:0:
256,192,175197,1,8,0:0:0:0:
256,192,175684,1,0,0:0:0:0:
256,192,176495,1,8,0:0:0:0:
256,192,177792,1,8,0:0:0:0:
256,192,178278,1,0,0:0:0:0:
256,192,179089,1,8,0:0:0:0:
256,192,180062,1,0,0:0:0:0:
256,192,180387,1,8,0:0:0:0:
256,192,180711,1,0,0:0:0:0:
256,192,181035,1,0,0:0:0:0:
256,192,181684,1,0,0:0:0:0:
256,192,182008,1,12,0:0:0:0:
256,192,182657,1,8,0:0:0:0:
256,192,182981,1,0,0:0:0:0:
256,192,183630,1,8,0:0:0:0:
256,192,183954,1,0,0:0:0:0:
256,192,184278,1,8,0:0:0:0:
256,192,184927,1,8,0:0:0:0:
256,192,185576,1,0,0:0:0:0:
256,192,186062,1,8,0:0:0:0:
256,192,186873,1,4,0:0:0:0:
256,192,187359,1,8,0:0:0:0:
256,192,188170,1,12,0:0:0:0:
256,192,189143,1,8,0:0:0:0:
256,192,189468,1,4,0:0:0:0:
256,192,190116,1,0,0:0:0:0:
256,192,190765,1,8,0:0:0:0:
256,192,191089,1,0,0:0:0:0:
256,192,191414,1,8,0:0:0:0:
256,192,191738,1,8,0:0:0:0:
256,192,192062,1,4,0:0:0:0:
256,192,192711,1,0,0:0:0:0:
256,192,193359,1,0,0:0:0:0:
256,192,193684,1,0,0:0:0:0:
256,192,194008,1,8,0:0:0:0:
256,192,194657,1,8,0:0:0:0:
256,192,195305,1,8,0:0:0:0:
256,192,195630,1,0,0:0:0:0:
256,192,195954,1,8,0:0:0:0:
256,192,196441,1,0,0:0:0:0:
256,192,197251,1,8,0:0:0:0:
256,192,198224,1,0,0:0:0:0:
256,192,198549,1,8,0:0:0:0:
256,192,199035,1,0,0:0:0:0:
256,192,199846,1,0,0:0:0:0:
256,192,200495,1,8,0:0:0:0:
256,192,200819,1,8,0:0:0:0:
256,192,201143,1,0,0:0:0:0:
256,192,201468,1,0,0:0:0:0:
256,192,201792,1,8,0:0:0:0:
256,192,202441,1,4,0:0:0:0:
256,192,203089,1,0,0:0:0:0:
256,192,203414,1,8,0:0:0:0:
256,192,203738,1,0,0:0:0:0:
256,192,204387,1,8,0:0:0:0:
256,192,204711,1,0,0:0:0:0:
256,192,205035,1,8,0:0:0:0:
256,192,205684,1,8,0:0:0:0:
256,192,206332,1,0,0:0:0:0:
256,192,206819,1,8,0:0:0:0:
256,192,207630,1,4,0:0:0:0:
256,192,208116,1,8,0:0:0:0:
256,192,208927,1,12,0:0:0:0:
256,192,209576,1,0,0:0:0:0:
256,192,209900,1,8,0:0:0:0:
256,192,210224,1,4,0:0:0:0:
256,192,210873,1,0,0:0:0:0:
256,192,211197,1,0,0:0:0:0:
256,192,211522,1,8,0:0:0:0:
256,192,211846,1,0,0:0:0:0:
256,192,212170,1,8,0:0:0:0:
256,192,212495,1,8,0:0:0:0:
256,192,212819,1,4,0:0:0:0:
256,192,213305,1,8,0:0:0:0:
256,192,214116,1,0,0:0:0:0:
256,192,214441,1,0,0:0:0:0:
256,192,214765,1,8,0:0:0:0:
256,192,215414,1,0,0:0:0:0:
256,192,216387,1,8,0:0:0:0:
256,192,216711,1,0,0:0:0:0:
256,192,217197,1,8,0:0:0:0:
256,192,217522,1,8,0:0:0:0:
256,192,218008,1,4,0:0:0:0:
256,192,218495,1,8,0:0:0:0:
256,192,219305,1,0,0:0:0:0:
256,192,219954,1,8,0:0:0:0:
256,192,220278,1,8,0:0:0:0:
256,192,220603,1,0,0:0:0:0:
256,192,221251,1,0,0:0:0:0:
256,192,221900,1,8,0:0:0:0:
256,192,222549,1,0,0:0:0:0:
256,192,222873,1,8,0:0:0:0:
256,192,223197,1,4,0:0:0:0:
256,192,223684,1,8,0:0:0:0:
256,192,224495,1,0,0:0:0:0:
256,192,224819,1,0,0:0:0:0:
256,192,225143,1,8,0:0:0:0:
256,192,225792,1,0,0:0:0:0:
256,192,226765,1,0,0:0:0:0:
256,192,227089,1,8,0:0:0:0:
256,192,227576,1,0,0:0:0:0:
256,192,227900,1,0,0:0:0:0:
256,192,228387,1,4,0:0:0:0:
256,192,228873,1,8,0:0:0:0:
256,192,229684,1,0,0:0:0:0:
256,192,230332,1,8,0:0:0:0:
256,192,230657,1,8,0:0:0:0:
256,192,230981,1,0,0:0:0:0:
256,192,231630,1,8,0:0:0:0:
256,192,232278,1,8,0:0:0:0:
256,192,232603,1,0,0:0:0:0:
256,192,232927,1,8,0:0:0:0:
256,192,233251,1,0,0:0:0:0:
256,192,233576,1,4,0:0:0:0:
256,192,234062,1,8,0:0:0:0:
256,192,234873,1,0,0:0:0:0:
256,192,235197,1,0,0:0:0:0:
256,192,235522,1,8,0:0:0:0:
256,192,236170,1,0,0:0:0:0:
256,192,237143,1,8,0:0:0:0:
256,192,237468,1,8,0:0:0:0:
256,192,237954,1,0,0:0:0:0:
256,192,238278,1,8,0:0:0:0:
256,192,238765,1,4,0:0:0:0:
256,192,239251,1,8,0:0:0:0:
256,192,240062,1,0,0:0:0:0:
256,192,240711,1,8,0:0:0:0:
256,192,241035,1,0,0:0:0:0:
256,192,241359,1,8,0:0:0:0:
256,192,242008,1,0,0:0:0:0:
256,192,242657,1,8,0:0:0:0:
256,192,242981,1,8,0:0:0:0:
256,192,243305,1,0,0:0:0:0:
256,192,243630,1,8,0:0:0:0:
256,192,243954,1,4,0:0:0:0:
256,192,244441,1,8,0:0:0:0:
256,192,245251,1,0,0:0:0:0:
256,192,245576,1,0,0:0:0:0:
256,192,245900,1,8,0:0:0:0:
256,192,246549,1,0,0:0:0:0:
256,192,247522,1,0,0:0:0:0:
256,192,247846,1,8,0:0:0:0:
256,192,248332,1,0,0:0:0:0:
256,192,248657,1,0,0:0:0:0:
256,192,249143,1,4,0:0:0:0:
256,192,249630,1,8,0:0:0:0:
256,192,250441,1,0,0:0:0:0:
256,192,251089,1,8,0:0:0:0:
256,192,251414,1,8,0:0:0:0:
256,192,251738,1,4,0:0:0:0:
256,192,252387,1,8,0:0:0:0:
256,192,252711,1,0,0:0:0:0:
256,192,253035,1,8,0:0:0:0:
256,192,253359,1,0,0:0:0:0:
256,192,253684,1,8,0:0:0:0:
256,192,254008,1,8,0:0:0:0:
256,192,254657,1,4,0:0:0:0:
256,192,254819,12,0,260657,0:0:0:0:
