osu file format v14

[General]
AudioFilename: audio.mp3
AudioLeadIn: 0
PreviewTime: 150549
Countdown: 0
SampleSet: Normal
StackLeniency: 0.7
Mode: 1
LetterboxInBreaks: 0
WidescreenStoryboard: 0

[Editor]
Bookmarks: 233576
DistanceSpacing: 2.8
BeatDivisor: 4
GridSize: 32
TimelineZoom: 1

[Metadata]
Title:Akasha
TitleUnicode:Akasha
Artist:xi
ArtistUnicode:xi
Creator:Nardoxyribonucleic
Version:Inner Oni
Source:
Tags:Taiko Featured Artist FA Mappers' Guild MG Electronic Instrumental piano 100sec records BlackBN BlackBq iloveyou4ever
BeatmapID:3083925
BeatmapSetID:1400132

[Difficulty]
HPDrainRate:6
CircleSize:5
OverallDifficulty:6.5
ApproachRate:7
SliderMultiplier:1.4
SliderTickRate:1

[Events]
//Background and Video events
0,0,"bg.jpg",0,0
//Break Periods
//Storyboard Layer 0 (Background)
//Storyboard Layer 1 (Fail)
//Storyboard Layer 2 (Pass)
//Storyboard Layer 3 (Foreground)
//Storyboard Layer 4 (Overlay)
//Storyboard Sound Samples

[TimingPoints]
1360,324.324324324324,4,1,0,20,1,0
1360,-125,4,1,0,20,0,0
22116,-125,4,1,0,50,0,0
42873,-100,4,1,0,80,0,0
63792,-100,4,1,0,50,0,0
66224,-111.111111111111,4,1,0,60,0,0
75873,-109.89010989011,4,1,0,60,0,0
75954,-108.695652173913,4,1,0,60,0,0
76116,-106.382978723404,4,1,0,60,0,0
76278,-104.166666666667,4,1,0,60,0,0
76359,-103.092783505155,4,1,0,60,0,0
76441,-102.040816326531,4,1,0,60,0,0
76603,-100,4,1,0,70,0,0
88278,-100,4,1,0,80,0,0
109035,-95.2380952380952,4,1,0,80,0,1
129792,-100,4,1,0,80,0,0
131089,-125,4,1,0,50,0,0
138224,-119.047619047619,4,1,0,50,0,0
138873,-113.636363636364,4,1,0,50,0,0
139522,-108.695652173913,4,1,0,50,0,0
140170,-100,4,1,0,65,0,0
150549,-100,4,1,0,80,0,0
166116,-95.2380952380952,4,1,0,80,0,0
167414,-90.9090909090909,4,1,0,80,0,0
168711,-86.9565217391304,4,1,0,80,0,0
171305,-100,4,1,0,70,0,0
182008,-90.9090909090909,4,1,0,80,0,1
212819,-100,4,1,0,80,0,0
254657,-66.6666666666667,4,1,0,80,0,0
254819,-66.6666666666667,4,1,0,50,0,0
255468,-66.6666666666667,4,1,0,45,0,0
256116,-66.6666666666667,4,1,0,40,0,0
256765,-66.6666666666667,4,1,0,35,0,0
257414,-66.6666666666667,4,1,0,30,0,0
258062,-66.6666666666667,4,1,0,25,0,0
258711,-66.6666666666667,4,1,0,20,0,0
259359,-66.6666666666667,4,1,0,15,0,0
260008,-66.6666666666667,4,1,0,10,0,0
260657,-66.6666666666667,4,1,0,5,0,0

[HitObjects]
256,192,22116,5,4,0:0:0:0:
256,192,23414,1,8,0:0:0:0:
256,192,26981,1,8,0:0:0:0:
256,192,27143,1,8,0:0:0:0:
256,192,27305,1,0,0:0:0:0:
256,192,28603,1,8,0:0:0:0:
256,192,29576,1,8,0:0:0:0:
256,192,29738,1,0,0:0:0:0:
256,192,29900,1,0,0:0:0:0:
256,192,31197,1,8,0:0:0:0:
256,192,32008,1,8,0:0:0:0:
256,192,32170,1,0,0:0:0:0:
256,192,32495,1,0,0:0:0:0:
256,192,33468,1,0,0:0:0:0:
256,192,33792,1,8,0:0:0:0:
256,192,35089,1,0,0:0:0:0:
256,192,36062,1,0,0:0:0:0:
256,192,36224,1,0,0:0:0:0:
256,192,36387,1,8,0:0:0:0:
256,192,36873,1,8,0:0:0:0:
256,192,37035,1,0,0:0:0:0:
256,192,37359,1,8,0:0:0:0:
256,192,37522,1,8,0:0:0:0:
256,192,37684,1,0,0:0:0:0:
256,192,38981,1,8,0:0:0:0:
256,192,39954,1,8,0:0:0:0:
256,192,40116,1,0,0:0:0:0:
256,192,40278,1,8,0:0:0:0:
256,192,41251,1,0,0:0:0:0:
256,192,41576,1,8,0:0:0:0:
256,192,42549,1,0,0:0:0:0:
256,192,42873,1,4,0:0:0:0:
256,192,43197,1,0,0:0:0:0:
256,192,43359,1,8,0:0:0:0:
256,192,43441,1,8,0:0:0:0:
256,192,43522,1,8,0:0:0:0:
256,192,43684,1,0,0:0:0:0:
256,192,43846,1,8,0:0:0:0:
256,192,43927,1,8,0:0:0:0:
256,192,44008,1,0,0:0:0:0:
256,192,44170,1,0,0:0:0:0:
256,192,44332,1,8,0:0:0:0:
256,192,44495,1,8,0:0:0:0:
256,192,44657,1,0,0:0:0:0:
256,192,44738,1,0,0:0:0:0:
256,192,44819,1,0,0:0:0:0:
256,192,44981,1,8,0:0:0:0:
256,192,45143,1,0,0:0:0:0:
256,192,45224,1,0,0:0:0:0:
256,192,45305,1,8,0:0:0:0:
256,192,45468,1,0,0:0:0:0:
256,192,45630,1,8,0:0:0:0:
256,192,45954,1,8,0:0:0:0:
256,192,46035,1,0,0:0:0:0:
256,192,46116,1,8,0:0:0:0:
256,192,46278,1,0,0:0:0:0:
256,192,46441,1,8,0:0:0:0:
256,192,46522,1,8,0:0:0:0:
256,192,46603,1,0,0:0:0:0:
256,192,46684,1,0,0:0:0:0:
256,192,46765,1,8,0:0:0:0:
256,192,46927,1,8,0:0:0:0:
256,192,47089,1,8,0:0:0:0:
256,192,47251,1,0,0:0:0:0:
256,192,47576,1,8,0:0:0:0:
256,192,47657,1,8,0:0:0:0:
256,192,47738,1,0,0:0:0:0:
256,192,47900,1,8,0:0:0:0:
256,192,48062,1,4,0:0:0:0:
256,192,48387,1,0,0:0:0:0:
256,192,48549,1,8,0:0:0:0:
256,192,48630,1,8,0:0:0:0:
256,192,48711,1,8,0:0:0:0:
256,192,48873,1,0,0:0:0:0:
256,192,48954,1,0,0:0:0:0:
256,192,49035,1,8,0:0:0:0:
256,192,49116,1,8,0:0:0:0:
256,192,49197,1,0,0:0:0:0:
256,192,49359,1,0,0:0:0:0:
256,192,49522,1,8,0:0:0:0:
256,192,49684,1,8,0:0:0:0:
256,192,49846,1,0,0:0:0:0:
256,192,49927,1,0,0:0:0:0:
256,192,50008,1,8,0:0:0:0:
256,192,50170,1,0,0:0:0:0:
256,192,50332,1,8,0:0:0:0:
256,192,50414,1,0,0:0:0:0:
256,192,50495,1,0,0:0:0:0:
256,192,50576,1,8,0:0:0:0:
256,192,50657,1,0,0:0:0:0:
256,192,50819,1,0,0:0:0:0:
256,192,50900,1,0,0:0:0:0:
256,192,50981,1,8,0:0:0:0:
256,192,51143,1,0,0:0:0:0:
256,192,51305,1,8,0:0:0:0:
256,192,51468,1,0,0:0:0:0:
256,192,51549,1,0,0:0:0:0:
256,192,51630,1,8,0:0:0:0:
256,192,51711,1,0,0:0:0:0:
256,192,51792,1,8,0:0:0:0:
256,192,51846,1,8,0:0:0:0:
256,192,51900,1,8,0:0:0:0:
256,192,51954,1,0,0:0:0:0:
256,192,52116,1,8,0:0:0:0:
256,192,52278,1,8,0:0:0:0:
256,192,52441,1,0,0:0:0:0:
256,192,52522,1,8,0:0:0:0:
256,192,52603,1,8,0:0:0:0:
256,192,52765,1,0,0:0:0:0:
256,192,52846,1,0,0:0:0:0:
256,192,52927,1,8,0:0:0:0:
256,192,53008,1,0,0:0:0:0:
256,192,53089,1,8,0:0:0:0:
256,192,53251,1,4,0:0:0:0:
256,192,53576,1,0,0:0:0:0:
256,192,53738,1,8,0:0:0:0:
256,192,53819,1,8,0:0:0:0:
256,192,53900,1,8,0:0:0:0:
256,192,54062,1,0,0:0:0:0:
256,192,54224,1,8,0:0:0:0:
256,192,54305,1,8,0:0:0:0:
256,192,54387,1,0,0:0:0:0:
256,192,54549,1,0,0:0:0:0:
256,192,54711,1,8,0:0:0:0:
256,192,54873,1,8,0:0:0:0:
256,192,55035,1,0,0:0:0:0:
256,192,55116,1,0,0:0:0:0:
256,192,55197,1,0,0:0:0:0:
256,192,55359,1,8,0:0:0:0:
256,192,55522,1,0,0:0:0:0:
256,192,55603,1,0,0:0:0:0:
256,192,55684,1,8,0:0:0:0:
256,192,55846,1,0,0:0:0:0:
256,192,56008,1,8,0:0:0:0:
256,192,56332,1,8,0:0:0:0:
256,192,56414,1,0,0:0:0:0:
256,192,56495,1,8,0:0:0:0:
256,192,56657,1,8,0:0:0:0:
256,192,56738,1,0,0:0:0:0:
256,192,56819,1,8,0:0:0:0:
256,192,56900,1,0,0:0:0:0:
256,192,56981,1,8,0:0:0:0:
256,192,57062,1,8,0:0:0:0:
256,192,57143,1,0,0:0:0:0:
256,192,57305,1,8,0:0:0:0:
256,192,57468,1,8,0:0:0:0:
256,192,57630,1,0,0:0:0:0:
256,192,57954,1,0,0:0:0:0:
256,192,58035,1,0,0:0:0:0:
256,192,58116,1,8,0:0:0:0:
256,192,58278,1,8,0:0:0:0:
256,192,58441,1,4,0:0:0:0:
256,192,58603,1,8,0:0:0:0:
256,192,58684,1,8,0:0:0:0:
256,192,58765,1,8,0:0:0:0:
256,192,58927,1,0,0:0:0:0:
256,192,59251,1,0,0:0:0:0:
256,192,59414,1,8,0:0:0:0:
256,192,59495,1,8,0:0:0:0:
256,192,59576,1,0,0:0:0:0:
256,192,59738,1,0,0:0:0:0:
256,192,59900,1,8,0:0:0:0:
256,192,60062,1,8,0:0:0:0:
256,192,60224,1,0,0:0:0:0:
256,192,60305,1,0,0:0:0:0:
256,192,60387,1,8,0:0:0:0:
256,192,60549,1,0,0:0:0:0:
256,192,60711,1,8,0:0:0:0:
256,192,60792,1,0,0:0:0:0:
256,192,60873,1,0,0:0:0:0:
256,192,60954,1,8,0:0:0:0:
256,192,61035,1,0,0:0:0:0:
256,192,61197,1,0,0:0:0:0:
256,192,61251,1,0,0:0:0:0:
256,192,61305,1,0,0:0:0:0:
256,192,61359,1,8,0:0:0:0:
256,192,61522,1,0,0:0:0:0:
256,192,61684,1,8,0:0:0:0:
256,192,61765,1,0,0:0:0:0:
256,192,61846,1,8,0:0:0:0:
256,192,61927,1,8,0:0:0:0:
256,192,62008,1,0,0:0:0:0:
256,192,62170,1,8,0:0:0:0:
256,192,62251,1,8,0:0:0:0:
256,192,62332,1,8,0:0:0:0:
256,192,62414,1,8,0:0:0:0:
256,192,62495,1,0,0:0:0:0:
256,192,62576,1,0,0:0:0:0:
256,192,62657,1,8,0:0:0:0:
256,192,62819,1,0,0:0:0:0:
256,192,62900,1,0,0:0:0:0:
256,192,62981,1,8,0:0:0:0:
256,192,63062,1,8,0:0:0:0:
256,192,63143,1,0,0:0:0:0:
256,192,63224,1,8,0:0:0:0:
256,192,63305,1,0,0:0:0:0:
256,192,63387,1,8,0:0:0:0:
256,192,63468,1,0,0:0:0:0:
256,192,63630,1,4,0:0:0:0:
256,192,63792,12,0,65900,0:0:0:0:
256,192,66224,5,4,0:0:0:0:
256,192,66468,1,0,0:0:0:0:
256,192,66711,1,0,0:0:0:0:
256,192,66873,1,8,0:0:0:0:
256,192,67116,1,0,0:0:0:0:
256,192,67359,1,8,0:0:0:0:
256,192,67522,1,0,0:0:0:0:
256,192,67765,1,0,0:0:0:0:
256,192,68008,1,0,0:0:0:0:
256,192,68170,1,8,0:0:0:0:
256,192,68414,1,0,0:0:0:0:
256,192,68657,1,8,0:0:0:0:
256,192,68819,1,8,0:0:0:0:
256,192,69062,1,8,0:0:0:0:
256,192,69305,1,8,0:0:0:0:
256,192,69468,1,8,0:0:0:0:
256,192,69711,1,8,0:0:0:0:
256,192,69954,1,0,0:0:0:0:
256,192,70116,1,8,0:0:0:0:
256,192,70359,1,0,0:0:0:0:
256,192,70603,1,0,0:0:0:0:
256,192,71089,1,8,0:0:0:0:
256,192,71251,1,0,0:0:0:0:
256,192,71414,1,8,0:0:0:0:
256,192,71657,1,8,0:0:0:0:
256,192,71900,1,8,0:0:0:0:
256,192,72062,1,8,0:0:0:0:
256,192,72305,1,8,0:0:0:0:
256,192,72549,1,0,0:0:0:0:
256,192,72711,1,8,0:0:0:0:
256,192,72954,1,0,0:0:0:0:
256,192,73197,1,0,0:0:0:0:
256,192,73522,1,0,0:0:0:0:
256,192,73684,1,8,0:0:0:0:
256,192,74008,1,8,0:0:0:0:
256,192,74495,1,8,0:0:0:0:
256,192,74576,1,8,0:0:0:0:
256,192,74657,1,0,0:0:0:0:
256,192,74981,1,0,0:0:0:0:
256,192,75143,1,0,0:0:0:0:
256,192,75305,1,8,0:0:0:0:
256,192,75549,1,8,0:0:0:0:
256,192,75630,1,0,0:0:0:0:
256,192,75792,1,0,0:0:0:0:
256,192,75873,1,8,0:0:0:0:
256,192,75954,1,8,0:0:0:0:
256,192,76116,1,0,0:0:0:0:
256,192,76278,1,8,0:0:0:0:
256,192,76359,1,0,0:0:0:0:
256,192,76441,1,8,0:0:0:0:
256,192,76603,1,4,0:0:0:0:
256,192,76765,1,0,0:0:0:0:
256,192,76846,1,8,0:0:0:0:
256,192,77089,1,0,0:0:0:0:
256,192,77251,1,8,0:0:0:0:
256,192,77414,1,8,0:0:0:0:
256,192,77495,1,0,0:0:0:0:
256,192,77738,1,8,0:0:0:0:
256,192,77819,1,8,0:0:0:0:
256,192,77900,1,0,0:0:0:0:
256,192,78062,1,0,0:0:0:0:
256,192,78143,1,8,0:0:0:0:
256,192,78387,1,0,0:0:0:0:
256,192,78549,1,8,0:0:0:0:
256,192,78711,1,8,0:0:0:0:
256,192,78792,1,0,0:0:0:0:
256,192,79035,1,8,0:0:0:0:
256,192,79197,1,12,0:0:0:0:
256,192,79359,1,0,0:0:0:0:
256,192,79441,1,8,0:0:0:0:
256,192,79684,1,0,0:0:0:0:
256,192,79846,1,8,0:0:0:0:
256,192,80008,1,8,0:0:0:0:
256,192,80089,1,8,0:0:0:0:
256,192,80332,1,0,0:0:0:0:
256,192,80414,1,8,0:0:0:0:
256,192,80495,1,0,0:0:0:0:
256,192,80657,1,8,0:0:0:0:
256,192,80738,1,0,0:0:0:0:
256,192,80981,1,8,0:0:0:0:
256,192,81305,1,0,0:0:0:0:
256,192,81468,1,8,0:0:0:0:
256,192,81630,1,0,0:0:0:0:
256,192,81792,1,4,0:0:0:0:
256,192,82278,1,8,0:0:0:0:
256,192,82603,1,0,0:0:0:0:
256,192,82765,1,8,0:0:0:0:
256,192,82927,1,0,0:0:0:0:
256,192,83008,1,0,0:0:0:0:
256,192,83089,1,8,0:0:0:0:
256,192,83251,1,0,0:0:0:0:
256,192,83414,1,8,0:0:0:0:
256,192,83576,1,0,0:0:0:0:
256,192,83657,1,0,0:0:0:0:
256,192,83738,1,8,0:0:0:0:
256,192,83819,1,8,0:0:0:0:
256,192,83900,1,0,0:0:0:0:
256,192,84062,1,8,0:0:0:0:
256,192,84224,1,0,0:0:0:0:
256,192,84305,1,0,0:0:0:0:
256,192,84387,1,8,0:0:0:0:
256,192,84549,1,0,0:0:0:0:
256,192,84873,1,8,0:0:0:0:
256,192,84954,1,8,0:0:0:0:
256,192,85035,1,0,0:0:0:0:
256,192,85197,1,0,0:0:0:0:
256,192,85359,1,8,0:0:0:0:
256,192,85522,1,0,0:0:0:0:
256,192,85603,1,0,0:0:0:0:
256,192,85684,1,8,0:0:0:0:
256,192,85846,1,0,0:0:0:0:
256,192,85927,1,0,0:0:0:0:
256,192,86008,1,8,0:0:0:0:
256,192,86089,1,0,0:0:0:0:
256,192,86170,1,0,0:0:0:0:
256,192,86332,1,8,0:0:0:0:
256,192,86414,1,8,0:0:0:0:
256,192,86495,1,0,0:0:0:0:
256,192,86576,1,0,0:0:0:0:
256,192,86657,1,8,0:0:0:0:
256,192,86819,1,0,0:0:0:0:
256,192,86900,1,0,0:0:0:0:
256,192,86981,1,8,0:0:0:0:
256,192,87062,1,8,0:0:0:0:
256,192,87143,1,8,0:0:0:0:
256,192,87224,1,0,0:0:0:0:
256,192,87305,1,8,0:0:0:0:
256,192,87468,1,0,0:0:0:0:
256,192,87549,1,0,0:0:0:0:
256,192,87630,1,8,0:0:0:0:
256,192,87711,1,8,0:0:0:0:
256,192,87792,1,0,0:0:0:0:
256,192,87873,1,0,0:0:0:0:
256,192,87954,1,8,0:0:0:0:
256,192,88035,1,0,0:0:0:0:
256,192,88116,1,8,0:0:0:0:
256,192,88278,1,4,0:0:0:0:
256,192,88522,1,0,0:0:0:0:
256,192,88765,1,8,0:0:0:0:
256,192,89089,1,0,0:0:0:0:
256,192,89170,1,8,0:0:0:0:
256,192,89251,1,0,0:0:0:0:
256,192,89414,1,8,0:0:0:0:
256,192,89495,1,0,0:0:0:0:
256,192,89576,1,8,0:0:0:0:
256,192,89657,1,8,0:0:0:0:
256,192,89819,1,0,0:0:0:0:
256,192,89900,1,8,0:0:0:0:
256,192,90062,1,0,0:0:0:0:
256,192,90224,1,8,0:0:0:0:
256,192,90305,1,8,0:0:0:0:
256,192,90468,1,0,0:0:0:0:
256,192,90630,1,8,0:0:0:0:
256,192,90711,1,8,0:0:0:0:
256,192,90792,1,0,0:0:0:0:
256,192,90873,1,8,0:0:0:0:
256,192,91116,1,8,0:0:0:0:
256,192,91359,1,0,0:0:0:0:
256,192,91684,1,8,0:0:0:0:
256,192,91765,1,0,0:0:0:0:
256,192,91846,1,8,0:0:0:0:
256,192,92008,1,0,0:0:0:0:
256,192,92089,1,8,0:0:0:0:
256,192,92170,1,8,0:0:0:0:
256,192,92251,1,0,0:0:0:0:
256,192,92414,1,0,0:0:0:0:
256,192,92495,1,8,0:0:0:0:
256,192,92657,1,0,0:0:0:0:
256,192,92819,1,0,0:0:0:0:
256,192,92900,1,8,0:0:0:0:
256,192,92981,1,8,0:0:0:0:
256,192,93062,1,0,0:0:0:0:
256,192,93143,1,8,0:0:0:0:
256,192,93305,1,0,0:0:0:0:
256,192,93387,1,8,0:0:0:0:
256,192,93468,1,0,0:0:0:0:
256,192,93711,1,8,0:0:0:0:
256,192,93954,1,8,0:0:0:0:
256,192,94278,1,0,0:0:0:0:
256,192,94359,1,0,0:0:0:0:
256,192,94441,1,8,0:0:0:0:
256,192,94603,1,0,0:0:0:0:
256,192,94684,1,8,0:0:0:0:
256,192,94765,1,0,0:0:0:0:
256,192,94927,1,0,0:0:0:0:
256,192,95008,1,0,0:0:0:0:
256,192,95089,1,8,0:0:0:0:
256,192,95251,1,0,0:0:0:0:
256,192,95414,1,8,0:0:0:0:
256,192,95495,1,0,0:0:0:0:
256,192,95576,1,0,0:0:0:0:
256,192,95657,1,0,0:0:0:0:
256,192,95738,1,8,0:0:0:0:
256,192,95900,1,8,0:0:0:0:
256,192,95981,1,8,0:0:0:0:
256,192,96062,1,0,0:0:0:0:
256,192,96305,1,8,0:0:0:0:
256,192,96549,1,0,0:0:0:0:
256,192,96873,1,0,0:0:0:0:
256,192,96954,1,0,0:0:0:0:
256,192,97035,1,8,0:0:0:0:
256,192,97116,1,0,0:0:0:0:
256,192,97197,1,0,0:0:0:0:
256,192,97359,1,8,0:0:0:0:
256,192,97522,1,8,0:0:0:0:
256,192,97603,1,0,0:0:0:0:
256,192,97684,1,8,0:0:0:0:
256,192,97846,1,8,0:0:0:0:
256,192,97927,1,8,0:0:0:0:
256,192,98008,1,0,0:0:0:0:
256,192,98170,1,8,0:0:0:0:
256,192,98332,1,0,0:0:0:0:
256,192,98495,1,8,0:0:0:0:
256,192,98576,1,8,0:0:0:0:
256,192,98657,1,0,0:0:0:0:
256,192,98900,1,0,0:0:0:0:
256,192,99143,1,8,0:0:0:0:
256,192,99305,1,0,0:0:0:0:
256,192,99468,1,8,0:0:0:0:
256,192,99549,1,8,0:0:0:0:
256,192,99630,1,0,0:0:0:0:
256,192,99792,1,0,0:0:0:0:
256,192,99873,1,0,0:0:0:0:
256,192,99954,1,8,0:0:0:0:
256,192,100197,1,8,0:0:0:0:
256,192,100441,1,8,0:0:0:0:
256,192,100603,1,0,0:0:0:0:
256,192,100765,1,0,0:0:0:0:
256,192,100846,1,0,0:0:0:0:
256,192,100927,1,8,0:0:0:0:
256,192,101089,1,8,0:0:0:0:
256,192,101170,1,8,0:0:0:0:
256,192,101251,1,0,0:0:0:0:
256,192,101495,1,0,0:0:0:0:
256,192,101738,1,8,0:0:0:0:
256,192,101900,1,0,0:0:0:0:
256,192,102062,1,8,0:0:0:0:
256,192,102143,1,8,0:0:0:0:
256,192,102224,1,0,0:0:0:0:
256,192,102387,1,0,0:0:0:0:
256,192,102468,1,0,0:0:0:0:
256,192,102549,1,8,0:0:0:0:
256,192,102792,1,8,0:0:0:0:
256,192,103035,1,0,0:0:0:0:
256,192,103359,1,8,0:0:0:0:
256,192,103522,1,0,0:0:0:0:
256,192,103603,1,8,0:0:0:0:
256,192,103684,1,0,0:0:0:0:
256,192,103846,1,12,0:0:0:0:
256,192,104008,1,0,0:0:0:0:
256,192,104170,1,8,0:0:0:0:
256,192,104332,1,8,0:0:0:0:
256,192,104414,1,0,0:0:0:0:
256,192,104495,1,8,0:0:0:0:
256,192,104657,1,0,0:0:0:0:
256,192,104819,1,8,0:0:0:0:
256,192,104900,1,8,0:0:0:0:
256,192,104981,1,0,0:0:0:0:
256,192,105062,1,0,0:0:0:0:
256,192,105143,1,0,0:0:0:0:
256,192,105305,1,8,0:0:0:0:
256,192,105468,1,0,0:0:0:0:
256,192,105630,1,8,0:0:0:0:
256,192,105711,1,8,0:0:0:0:
256,192,105792,1,0,0:0:0:0:
256,192,105954,1,0,0:0:0:0:
256,192,106116,1,8,0:0:0:0:
256,192,106278,1,8,0:0:0:0:
256,192,106359,1,0,0:0:0:0:
256,192,106441,1,8,0:0:0:0:
256,192,106522,1,0,0:0:0:0:
256,192,106603,1,0,0:0:0:0:
256,192,106684,1,8,0:0:0:0:
256,192,106765,1,0,0:0:0:0:
256,192,106846,1,0,0:0:0:0:
256,192,106927,1,8,0:0:0:0:
256,192,107008,1,0,0:0:0:0:
256,192,107089,1,8,0:0:0:0:
256,192,107251,1,0,0:0:0:0:
256,192,107414,1,8,0:0:0:0:
256,192,107495,1,0,0:0:0:0:
256,192,107576,1,0,0:0:0:0:
256,192,107657,1,0,0:0:0:0:
256,192,107738,1,8,0:0:0:0:
256,192,107819,1,8,0:0:0:0:
256,192,107900,1,0,0:0:0:0:
256,192,107954,1,0,0:0:0:0:
256,192,108008,1,0,0:0:0:0:
256,192,108062,1,8,0:0:0:0:
256,192,108224,1,0,0:0:0:0:
256,192,108387,1,8,0:0:0:0:
256,192,108468,1,8,0:0:0:0:
256,192,108549,1,0,0:0:0:0:
256,192,108630,1,0,0:0:0:0:
256,192,108711,1,8,0:0:0:0:
256,192,108792,1,8,0:0:0:0:
256,192,108873,1,0,0:0:0:0:
256,192,109035,1,4,0:0:0:0:
256,192,109197,1,0,0:0:0:0:
256,192,109278,1,8,0:0:0:0:
256,192,109522,1,0,0:0:0:0:
256,192,109684,1,8,0:0:0:0:
256,192,109846,1,8,0:0:0:0:
256,192,109927,1,8,0:0:0:0:
256,192,110008,1,0,0:0:0:0:
256,192,110170,1,8,0:0:0:0:
256,192,110332,1,0,0:0:0:0:
256,192,110495,1,0,0:0:0:0:
256,192,110576,1,8,0:0:0:0:
256,192,110819,1,0,0:0:0:0:
256,192,110981,1,8,0:0:0:0:
256,192,111143,1,0,0:0:0:0:
256,192,111224,1,8,0:0:0:0:
256,192,111305,1,0,0:0:0:0:
256,192,111468,1,8,0:0:0:0:
256,192,111630,1,8,0:0:0:0:
256,192,111792,1,0,0:0:0:0:
256,192,111873,1,8,0:0:0:0:
256,192,112116,1,8,0:0:0:0:
256,192,112197,1,8,0:0:0:0:
256,192,112278,1,8,0:0:0:0:
256,192,112441,1,0,0:0:0:0:
256,192,112522,1,8,0:0:0:0:
256,192,112684,1,8,0:0:0:0:
256,192,112765,1,0,0:0:0:0:
256,192,112927,1,8,0:0:0:0:
256,192,113089,1,0,0:0:0:0:
256,192,113170,1,8,0:0:0:0:
256,192,113414,1,0,0:0:0:0:
256,192,113738,1,0,0:0:0:0:
256,192,113819,1,0,0:0:0:0:
256,192,113900,1,8,0:0:0:0:
256,192,114062,1,0,0:0:0:0:
256,192,114224,1,8,0:0:0:0:
256,192,114387,1,0,0:0:0:0:
256,192,114468,1,8,0:0:0:0:
256,192,114711,1,8,0:0:0:0:
256,192,114792,1,8,0:0:0:0:
256,192,114873,1,8,0:0:0:0:
256,192,115035,1,0,0:0:0:0:
256,192,115116,1,8,0:0:0:0:
256,192,115278,1,8,0:0:0:0:
256,192,115359,1,0,0:0:0:0:
256,192,115522,1,8,0:0:0:0:
256,192,115684,1,0,0:0:0:0:
256,192,115765,1,8,0:0:0:0:
256,192,116008,1,0,0:0:0:0:
256,192,116332,1,0,0:0:0:0:
256,192,116495,1,8,0:0:0:0:
256,192,116657,1,0,0:0:0:0:
256,192,116738,1,0,0:0:0:0:
256,192,116819,1,8,0:0:0:0:
256,192,116981,1,0,0:0:0:0:
256,192,117143,1,0,0:0:0:0:
256,192,117305,1,8,0:0:0:0:
256,192,117387,1,8,0:0:0:0:
256,192,117468,1,0,0:0:0:0:
256,192,117792,1,0,0:0:0:0:
256,192,117954,1,0,0:0:0:0:
256,192,118116,1,8,0:0:0:0:
256,192,118278,1,8,0:0:0:0:
256,192,118332,1,8,0:0:0:0:
256,192,118387,1,8,0:0:0:0:
256,192,118441,1,0,0:0:0:0:
256,192,118603,1,0,0:0:0:0:
256,192,118684,1,0,0:0:0:0:
256,192,118765,1,8,0:0:0:0:
256,192,118846,1,0,0:0:0:0:
256,192,118927,1,0,0:0:0:0:
256,192,119008,1,8,0:0:0:0:
256,192,119089,1,8,0:0:0:0:
256,192,119251,1,8,0:0:0:0:
256,192,119332,1,0,0:0:0:0:
256,192,119414,1,8,0:0:0:0:
256,192,119576,1,0,0:0:0:0:
256,192,119657,1,8,0:0:0:0:
256,192,119900,1,0,0:0:0:0:
256,192,120062,1,8,0:0:0:0:
256,192,120224,1,8,0:0:0:0:
256,192,120305,1,8,0:0:0:0:
256,192,120387,1,0,0:0:0:0:
256,192,120549,1,8,0:0:0:0:
256,192,120711,1,0,0:0:0:0:
256,192,120873,1,0,0:0:0:0:
256,192,120954,1,8,0:0:0:0:
256,192,121197,1,0,0:0:0:0:
256,192,121359,1,8,0:0:0:0:
256,192,121522,1,0,0:0:0:0:
256,192,121603,1,8,0:0:0:0:
256,192,121684,1,0,0:0:0:0:
256,192,121846,1,8,0:0:0:0:
256,192,122008,1,8,0:0:0:0:
256,192,122170,1,0,0:0:0:0:
256,192,122251,1,8,0:0:0:0:
256,192,122495,1,0,0:0:0:0:
256,192,122657,1,8,0:0:0:0:
256,192,122819,1,8,0:0:0:0:
256,192,122900,1,8,0:0:0:0:
256,192,123143,1,0,0:0:0:0:
256,192,123224,1,8,0:0:0:0:
256,192,123305,1,0,0:0:0:0:
256,192,123468,1,8,0:0:0:0:
256,192,123549,1,0,0:0:0:0:
256,192,123792,1,8,0:0:0:0:
256,192,123954,1,4,0:0:0:0:
256,192,124116,1,0,0:0:0:0:
256,192,124197,1,0,0:0:0:0:
256,192,124278,1,8,0:0:0:0:
256,192,124441,1,8,0:0:0:0:
256,192,124603,1,0,0:0:0:0:
256,192,124765,1,0,0:0:0:0:
256,192,124846,1,0,0:0:0:0:
256,192,124927,1,0,0:0:0:0:
256,192,125089,1,8,0:0:0:0:
256,192,125414,1,0,0:0:0:0:
256,192,125576,1,8,0:0:0:0:
256,192,125738,1,0,0:0:0:0:
256,192,125819,1,0,0:0:0:0:
256,192,125900,1,8,0:0:0:0:
256,192,126062,1,0,0:0:0:0:
256,192,126224,1,8,0:0:0:0:
256,192,126387,1,0,0:0:0:0:
256,192,126549,1,8,0:0:0:0:
256,192,126630,1,8,0:0:0:0:
256,192,126711,1,0,0:0:0:0:
256,192,126792,1,0,0:0:0:0:
256,192,126873,1,8,0:0:0:0:
256,192,127035,1,0,0:0:0:0:
256,192,127197,1,8,0:0:0:0:
256,192,127359,1,8,0:0:0:0:
256,192,127522,1,0,0:0:0:0:
256,192,127603,1,0,0:0:0:0:
256,192,127684,1,8,0:0:0:0:
256,192,127765,1,8,0:0:0:0:
256,192,127846,1,0,0:0:0:0:
256,192,128008,1,0,0:0:0:0:
256,192,128089,1,0,0:0:0:0:
256,192,128170,1,8,0:0:0:0:
256,192,128332,1,0,0:0:0:0:
256,192,128414,1,0,0:0:0:0:
256,192,128495,1,8,0:0:0:0:
256,192,128576,1,8,0:0:0:0:
256,192,128657,1,0,0:0:0:0:
256,192,128738,1,8,0:0:0:0:
256,192,128819,1,0,0:0:0:0:
256,192,128981,1,0,0:0:0:0:
256,192,129035,1,0,0:0:0:0:
256,192,129089,1,0,0:0:0:0:
256,192,129143,1,8,0:0:0:0:
256,192,129224,1,0,0:0:0:0:
256,192,129305,1,8,0:0:0:0:
256,192,129387,1,0,0:0:0:0:
256,192,129468,1,8,0:0:0:0:
256,192,129549,1,8,0:0:0:0:
256,192,129630,1,0,0:0:0:0:
256,192,129792,1,4,0:0:0:0:
256,192,131089,1,8,0:0:0:0:
256,192,132062,1,0,0:0:0:0:
256,192,132224,1,8,0:0:0:0:
256,192,132387,1,0,0:0:0:0:
256,192,133359,1,0,0:0:0:0:
256,192,133684,1,8,0:0:0:0:
256,192,134657,1,8,0:0:0:0:
256,192,134981,1,0,0:0:0:0:
256,192,135954,1,0,0:0:0:0:
256,192,136278,1,8,0:0:0:0:
256,192,137251,1,0,0:0:0:0:
256,192,137414,1,0,0:0:0:0:
256,192,137576,1,8,0:0:0:0:
256,192,138224,1,8,0:0:0:0:
256,192,138873,1,0,0:0:0:0:
256,192,139522,1,8,0:0:0:0:
256,192,140170,1,4,0:0:0:0:
256,192,140332,1,8,0:0:0:0:
256,192,140495,1,8,0:0:0:0:
256,192,140576,1,0,0:0:0:0:
256,192,140657,1,0,0:0:0:0:
256,192,140738,1,8,0:0:0:0:
256,192,140819,1,0,0:0:0:0:
256,192,140981,1,8,0:0:0:0:
256,192,141143,1,0,0:0:0:0:
256,192,141224,1,0,0:0:0:0:
256,192,141305,1,8,0:0:0:0:
256,192,141359,1,8,0:0:0:0:
256,192,141414,1,8,0:0:0:0:
256,192,141468,1,0,0:0:0:0:
256,192,141630,1,8,0:0:0:0:
256,192,141792,1,8,0:0:0:0:
256,192,141873,1,0,0:0:0:0:
256,192,141954,1,8,0:0:0:0:
256,192,142116,1,8,0:0:0:0:
256,192,142197,1,0,0:0:0:0:
256,192,142278,1,0,0:0:0:0:
256,192,142359,1,8,0:0:0:0:
256,192,142441,1,8,0:0:0:0:
256,192,142603,1,8,0:0:0:0:
256,192,142765,1,4,0:0:0:0:
256,192,142927,1,8,0:0:0:0:
256,192,143089,1,0,0:0:0:0:
256,192,143170,1,8,0:0:0:0:
256,192,143251,1,0,0:0:0:0:
256,192,143332,1,0,0:0:0:0:
256,192,143414,1,8,0:0:0:0:
256,192,143576,1,8,0:0:0:0:
256,192,143657,1,0,0:0:0:0:
256,192,143738,1,8,0:0:0:0:
256,192,143819,1,8,0:0:0:0:
256,192,143900,1,0,0:0:0:0:
256,192,143954,1,0,0:0:0:0:
256,192,144008,1,0,0:0:0:0:
256,192,144062,1,8,0:0:0:0:
256,192,144224,1,0,0:0:0:0:
256,192,144305,1,8,0:0:0:0:
256,192,144387,1,8,0:0:0:0:
256,192,144468,1,0,0:0:0:0:
256,192,144549,1,0,0:0:0:0:
256,192,144630,1,8,0:0:0:0:
256,192,144711,1,8,0:0:0:0:
256,192,144792,1,0,0:0:0:0:
256,192,144873,1,0,0:0:0:0:
256,192,144954,1,8,0:0:0:0:
256,192,145035,1,0,0:0:0:0:
256,192,145197,1,8,0:0:0:0:
256,192,145359,1,4,0:0:0:0:
256,192,145522,1,8,0:0:0:0:
256,192,145684,1,8,0:0:0:0:
256,192,145765,1,0,0:0:0:0:
256,192,145846,1,0,0:0:0:0:
256,192,145927,1,8,0:0:0:0:
256,192,146008,1,8,0:0:0:0:
256,192,146089,1,0,0:0:0:0:
256,192,146170,1,0,0:0:0:0:
256,192,146251,1,8,0:0:0:0:
256,192,146332,1,0,0:0:0:0:
256,192,146495,1,8,0:0:0:0:
256,192,146657,1,4,0:0:0:0:
256,192,146819,1,8,0:0:0:0:
256,192,146981,1,0,0:0:0:0:
256,192,147062,1,8,0:0:0:0:
256,192,147143,1,8,0:0:0:0:
256,192,147224,1,0,0:0:0:0:
256,192,147305,1,0,0:0:0:0:
256,192,147387,1,8,0:0:0:0:
256,192,147468,1,8,0:0:0:0:
256,192,147549,1,0,0:0:0:0:
256,192,147630,1,8,0:0:0:0:
256,192,147792,1,8,0:0:0:0:
256,192,147954,1,4,0:0:0:0:
256,192,148116,1,8,0:0:0:0:
256,192,148441,1,8,0:0:0:0:
256,192,148603,1,4,0:0:0:0:
256,192,148765,1,8,0:0:0:0:
256,192,149089,1,8,0:0:0:0:
256,192,149143,1,8,0:0:0:0:
256,192,149197,1,8,0:0:0:0:
256,192,149251,1,0,0:0:0:0:
256,192,149414,1,8,0:0:0:0:
256,192,149495,1,0,0:0:0:0:
256,192,149657,1,8,0:0:0:0:
256,192,149738,1,0,0:0:0:0:
256,192,149900,1,8,0:0:0:0:
256,192,149981,1,0,0:0:0:0:
256,192,150062,1,0,0:0:0:0:
256,192,150143,1,0,0:0:0:0:
256,192,150224,1,8,0:0:0:0:
256,192,150387,1,8,0:0:0:0:
256,192,150549,1,4,0:0:0:0:
256,192,150792,1,8,0:0:0:0:
256,192,150873,1,8,0:0:0:0:
256,192,151116,1,0,0:0:0:0:
256,192,151197,1,0,0:0:0:0:
256,192,151359,1,8,0:0:0:0:
256,192,151441,1,0,0:0:0:0:
256,192,151522,1,8,0:0:0:0:
256,192,151684,1,8,0:0:0:0:
256,192,151846,1,0,0:0:0:0:
256,192,151927,1,8,0:0:0:0:
256,192,152008,1,8,0:0:0:0:
256,192,152089,1,0,0:0:0:0:
256,192,152170,1,8,0:0:0:0:
256,192,152251,1,8,0:0:0:0:
256,192,152332,1,0,0:0:0:0:
256,192,152495,1,8,0:0:0:0:
256,192,152576,1,0,0:0:0:0:
256,192,152657,1,0,0:0:0:0:
256,192,152738,1,0,0:0:0:0:
256,192,152819,1,8,0:0:0:0:
256,192,152900,1,0,0:0:0:0:
256,192,152981,1,8,0:0:0:0:
256,192,153062,1,8,0:0:0:0:
256,192,153143,1,0,0:0:0:0:
256,192,153387,1,8,0:0:0:0:
256,192,153468,1,8,0:0:0:0:
256,192,153711,1,0,0:0:0:0:
256,192,153792,1,0,0:0:0:0:
256,192,153954,1,0,0:0:0:0:
256,192,154035,1,0,0:0:0:0:
256,192,154116,1,8,0:0:0:0:
256,192,154278,1,8,0:0:0:0:
256,192,154441,1,8,0:0:0:0:
256,192,154522,1,8,0:0:0:0:
256,192,154603,1,0,0:0:0:0:
256,192,154765,1,0,0:0:0:0:
256,192,154927,1,0,0:0:0:0:
256,192,155008,1,8,0:0:0:0:
256,192,155089,1,8,0:0:0:0:
256,192,155170,1,0,0:0:0:0:
256,192,155251,1,0,0:0:0:0:
256,192,155332,1,0,0:0:0:0:
256,192,155414,1,8,0:0:0:0:
256,192,155495,1,8,0:0:0:0:
256,192,155576,1,0,0:0:0:0:
256,192,155738,1,4,0:0:0:0:
256,192,155981,1,8,0:0:0:0:
256,192,156062,1,8,0:0:0:0:
256,192,156305,1,0,0:0:0:0:
256,192,156387,1,0,0:0:0:0:
256,192,156549,1,8,0:0:0:0:
256,192,156630,1,0,0:0:0:0:
256,192,156711,1,8,0:0:0:0:
256,192,156873,1,8,0:0:0:0:
256,192,157035,1,0,0:0:0:0:
256,192,157116,1,8,0:0:0:0:
256,192,157197,1,8,0:0:0:0:
256,192,157278,1,0,0:0:0:0:
256,192,157359,1,8,0:0:0:0:
256,192,157441,1,8,0:0:0:0:
256,192,157522,1,0,0:0:0:0:
256,192,157684,1,8,0:0:0:0:
256,192,157765,1,0,0:0:0:0:
256,192,157846,1,0,0:0:0:0:
256,192,157927,1,0,0:0:0:0:
256,192,158008,1,8,0:0:0:0:
256,192,158089,1,8,0:0:0:0:
256,192,158170,1,8,0:0:0:0:
256,192,158251,1,0,0:0:0:0:
256,192,158332,1,8,0:0:0:0:
256,192,158576,1,8,0:0:0:0:
256,192,158657,1,8,0:0:0:0:
256,192,158900,1,0,0:0:0:0:
256,192,158981,1,0,0:0:0:0:
256,192,159143,1,0,0:0:0:0:
256,192,159224,1,0,0:0:0:0:
256,192,159305,1,8,0:0:0:0:
256,192,159468,1,8,0:0:0:0:
256,192,159630,1,8,0:0:0:0:
256,192,159711,1,0,0:0:0:0:
256,192,159792,1,0,0:0:0:0:
256,192,159873,1,0,0:0:0:0:
256,192,159954,1,8,0:0:0:0:
256,192,160116,1,0,0:0:0:0:
256,192,160170,1,0,0:0:0:0:
256,192,160224,1,0,0:0:0:0:
256,192,160278,1,8,0:0:0:0:
256,192,160359,1,8,0:0:0:0:
256,192,160441,1,0,0:0:0:0:
256,192,160522,1,0,0:0:0:0:
256,192,160603,1,8,0:0:0:0:
256,192,160684,1,0,0:0:0:0:
256,192,160765,1,8,0:0:0:0:
256,192,160927,1,4,0:0:0:0:
256,192,161170,1,8,0:0:0:0:
256,192,161251,1,8,0:0:0:0:
256,192,161495,1,0,0:0:0:0:
256,192,161576,1,0,0:0:0:0:
256,192,161738,1,8,0:0:0:0:
256,192,161819,1,0,0:0:0:0:
256,192,161900,1,8,0:0:0:0:
256,192,162062,1,8,0:0:0:0:
256,192,162224,1,0,0:0:0:0:
256,192,162305,1,8,0:0:0:0:
256,192,162387,1,8,0:0:0:0:
256,192,162468,1,0,0:0:0:0:
256,192,162549,1,8,0:0:0:0:
256,192,162630,1,8,0:0:0:0:
256,192,162711,1,0,0:0:0:0:
256,192,162873,1,8,0:0:0:0:
256,192,162954,1,0,0:0:0:0:
256,192,163035,1,0,0:0:0:0:
256,192,163116,1,0,0:0:0:0:
256,192,163197,1,8,0:0:0:0:
256,192,163278,1,0,0:0:0:0:
256,192,163359,1,8,0:0:0:0:
256,192,163441,1,8,0:0:0:0:
256,192,163522,1,0,0:0:0:0:
256,192,163765,1,8,0:0:0:0:
256,192,163846,1,8,0:0:0:0:
256,192,164089,1,0,0:0:0:0:
256,192,164170,1,0,0:0:0:0:
256,192,164332,1,0,0:0:0:0:
256,192,164414,1,0,0:0:0:0:
256,192,164495,1,8,0:0:0:0:
256,192,164657,1,8,0:0:0:0:
256,192,164819,1,8,0:0:0:0:
256,192,164900,1,8,0:0:0:0:
256,192,164981,1,0,0:0:0:0:
256,192,165143,1,0,0:0:0:0:
256,192,165305,1,0,0:0:0:0:
256,192,165387,1,8,0:0:0:0:
256,192,165468,1,8,0:0:0:0:
256,192,165549,1,0,0:0:0:0:
256,192,165630,1,0,0:0:0:0:
256,192,165711,1,0,0:0:0:0:
256,192,165792,1,8,0:0:0:0:
256,192,165873,1,8,0:0:0:0:
256,192,165954,1,0,0:0:0:0:
256,192,166116,1,4,0:0:0:0:
256,192,166359,1,8,0:0:0:0:
256,192,166441,1,8,0:0:0:0:
256,192,166684,1,0,0:0:0:0:
256,192,166765,1,0,0:0:0:0:
256,192,166927,1,0,0:0:0:0:
256,192,167008,1,0,0:0:0:0:
256,192,167089,1,8,0:0:0:0:
256,192,167251,1,8,0:0:0:0:
256,192,167414,1,4,0:0:0:0:
256,192,167657,1,8,0:0:0:0:
256,192,167738,1,8,0:0:0:0:
256,192,167981,1,0,0:0:0:0:
256,192,168062,1,0,0:0:0:0:
256,192,168224,1,0,0:0:0:0:
256,192,168305,1,0,0:0:0:0:
256,192,168387,1,8,0:0:0:0:
256,192,168468,1,8,0:0:0:0:
256,192,168549,1,0,0:0:0:0:
256,192,168711,1,4,0:0:0:0:
256,192,168954,1,8,0:0:0:0:
256,192,169035,1,8,0:0:0:0:
256,192,169278,1,0,0:0:0:0:
256,192,169359,1,0,0:0:0:0:
256,192,169522,1,0,0:0:0:0:
256,192,169603,1,0,0:0:0:0:
256,192,169684,1,8,0:0:0:0:
256,192,169846,1,8,0:0:0:0:
256,192,170008,1,8,0:0:0:0:
256,192,170089,1,8,0:0:0:0:
256,192,170170,1,0,0:0:0:0:
256,192,170251,1,0,0:0:0:0:
256,192,170332,1,8,0:0:0:0:
256,192,170495,1,8,0:0:0:0:
256,192,170576,1,0,0:0:0:0:
256,192,170657,1,8,0:0:0:0:
256,192,170711,1,8,0:0:0:0:
256,192,170765,1,8,0:0:0:0:
256,192,170819,1,0,0:0:0:0:
256,192,170900,1,0,0:0:0:0:
256,192,170981,1,8,0:0:0:0:
256,192,171062,1,8,0:0:0:0:
256,192,171143,1,0,0:0:0:0:
256,192,171305,1,4,0:0:0:0:
256,192,171468,1,0,0:0:0:0:
256,192,171549,1,8,0:0:0:0:
256,192,171792,1,0,0:0:0:0:
256,192,171954,1,8,0:0:0:0:
256,192,172116,1,8,0:0:0:0:
256,192,172197,1,0,0:0:0:0:
256,192,172441,1,8,0:0:0:0:
256,192,172522,1,8,0:0:0:0:
256,192,172603,1,0,0:0:0:0:
256,192,172765,1,0,0:0:0:0:
256,192,172846,1,8,0:0:0:0:
256,192,173089,1,0,0:0:0:0:
256,192,173251,1,8,0:0:0:0:
256,192,173414,1,8,0:0:0:0:
256,192,173495,1,0,0:0:0:0:
256,192,173738,1,8,0:0:0:0:
256,192,173900,1,12,0:0:0:0:
256,192,174062,1,0,0:0:0:0:
256,192,174143,1,8,0:0:0:0:
256,192,174387,1,8,0:0:0:0:
256,192,174468,1,8,0:0:0:0:
256,192,174549,1,8,0:0:0:0:
256,192,174711,1,0,0:0:0:0:
256,192,174792,1,8,0:0:0:0:
256,192,175035,1,0,0:0:0:0:
256,192,175197,1,8,0:0:0:0:
256,192,175359,1,0,0:0:0:0:
256,192,175441,1,8,0:0:0:0:
256,192,175684,1,0,0:0:0:0:
256,192,176008,1,0,0:0:0:0:
256,192,176089,1,0,0:0:0:0:
256,192,176170,1,8,0:0:0:0:
256,192,176332,1,0,0:0:0:0:
256,192,176495,1,12,0:0:0:0:
256,192,176657,1,0,0:0:0:0:
256,192,176738,1,8,0:0:0:0:
256,192,176981,1,8,0:0:0:0:
256,192,177062,1,8,0:0:0:0:
256,192,177143,1,8,0:0:0:0:
256,192,177305,1,0,0:0:0:0:
256,192,177387,1,8,0:0:0:0:
256,192,177630,1,0,0:0:0:0:
256,192,177792,1,8,0:0:0:0:
256,192,177954,1,0,0:0:0:0:
256,192,178035,1,8,0:0:0:0:
256,192,178278,1,0,0:0:0:0:
256,192,178603,1,0,0:0:0:0:
256,192,178765,1,8,0:0:0:0:
256,192,178927,1,0,0:0:0:0:
256,192,179008,1,0,0:0:0:0:
256,192,179089,1,8,0:0:0:0:
256,192,179251,1,0,0:0:0:0:
256,192,179414,1,0,0:0:0:0:
256,192,179576,1,8,0:0:0:0:
256,192,179657,1,8,0:0:0:0:
256,192,179738,1,0,0:0:0:0:
256,192,179900,1,0,0:0:0:0:
256,192,180062,1,8,0:0:0:0:
256,192,180224,1,0,0:0:0:0:
256,192,180305,1,0,0:0:0:0:
256,192,180387,1,8,0:0:0:0:
256,192,180468,1,0,0:0:0:0:
256,192,180549,1,8,0:0:0:0:
256,192,180603,1,8,0:0:0:0:
256,192,180657,1,8,0:0:0:0:
256,192,180711,1,0,0:0:0:0:
256,192,180873,1,0,0:0:0:0:
256,192,180954,1,0,0:0:0:0:
256,192,181035,1,8,0:0:0:0:
256,192,181116,1,0,0:0:0:0:
256,192,181197,1,0,0:0:0:0:
256,192,181278,1,8,0:0:0:0:
256,192,181359,1,8,0:0:0:0:
256,192,181441,1,0,0:0:0:0:
256,192,181522,1,8,0:0:0:0:
256,192,181684,1,0,0:0:0:0:
256,192,182008,1,12,0:0:0:0:
256,192,182170,1,0,0:0:0:0:
256,192,182332,1,8,0:0:0:0:
256,192,182495,1,8,0:0:0:0:
256,192,182576,1,8,0:0:0:0:
256,192,182657,1,0,0:0:0:0:
256,192,182819,1,8,0:0:0:0:
256,192,182900,1,0,0:0:0:0:
256,192,182981,1,8,0:0:0:0:
256,192,183143,1,0,0:0:0:0:
256,192,183224,1,8,0:0:0:0:
256,192,183468,1,0,0:0:0:0:
256,192,183630,1,8,0:0:0:0:
256,192,183792,1,0,0:0:0:0:
256,192,183873,1,8,0:0:0:0:
256,192,183954,1,0,0:0:0:0:
256,192,184116,1,0,0:0:0:0:
256,192,184197,1,0,0:0:0:0:
256,192,184278,1,8,0:0:0:0:
256,192,184441,1,0,0:0:0:0:
256,192,184522,1,8,0:0:0:0:
256,192,184765,1,0,0:0:0:0:
256,192,184927,1,8,0:0:0:0:
256,192,185089,1,8,0:0:0:0:
256,192,185170,1,8,0:0:0:0:
256,192,185251,1,0,0:0:0:0:
256,192,185414,1,0,0:0:0:0:
256,192,185495,1,8,0:0:0:0:
256,192,185576,1,0,0:0:0:0:
256,192,185738,1,8,0:0:0:0:
256,192,185819,1,0,0:0:0:0:
256,192,185981,1,0,0:0:0:0:
256,192,186062,1,8,0:0:0:0:
256,192,186224,1,4,0:0:0:0:
256,192,186387,1,0,0:0:0:0:
256,192,186468,1,0,0:0:0:0:
256,192,186549,1,8,0:0:0:0:
256,192,186711,1,8,0:0:0:0:
256,192,186873,1,0,0:0:0:0:
256,192,187035,1,0,0:0:0:0:
256,192,187116,1,0,0:0:0:0:
256,192,187197,1,0,0:0:0:0:
256,192,187359,1,8,0:0:0:0:
256,192,187684,1,0,0:0:0:0:
256,192,187846,1,8,0:0:0:0:
256,192,188008,1,0,0:0:0:0:
256,192,188089,1,0,0:0:0:0:
256,192,188170,1,8,0:0:0:0:
256,192,188332,1,0,0:0:0:0:
256,192,188495,1,8,0:0:0:0:
256,192,188576,1,0,0:0:0:0:
256,192,188657,1,0,0:0:0:0:
256,192,188819,1,8,0:0:0:0:
256,192,188900,1,8,0:0:0:0:
256,192,188981,1,0,0:0:0:0:
256,192,189062,1,0,0:0:0:0:
256,192,189143,1,8,0:0:0:0:
256,192,189305,1,0,0:0:0:0:
256,192,189468,1,8,0:0:0:0:
256,192,189630,1,8,0:0:0:0:
256,192,189792,1,0,0:0:0:0:
256,192,189873,1,0,0:0:0:0:
256,192,189954,1,8,0:0:0:0:
256,192,190035,1,8,0:0:0:0:
256,192,190116,1,0,0:0:0:0:
256,192,190278,1,0,0:0:0:0:
256,192,190359,1,0,0:0:0:0:
256,192,190441,1,8,0:0:0:0:
256,192,190603,1,0,0:0:0:0:
256,192,190765,1,8,0:0:0:0:
256,192,190846,1,8,0:0:0:0:
256,192,190927,1,0,0:0:0:0:
256,192,191008,1,8,0:0:0:0:
256,192,191089,1,0,0:0:0:0:
256,192,191251,1,0,0:0:0:0:
256,192,191305,1,0,0:0:0:0:
256,192,191359,1,0,0:0:0:0:
256,192,191414,1,8,0:0:0:0:
256,192,191576,1,8,0:0:0:0:
256,192,191657,1,0,0:0:0:0:
256,192,191738,1,8,0:0:0:0:
256,192,191819,1,8,0:0:0:0:
256,192,191900,1,0,0:0:0:0:
256,192,192062,1,4,0:0:0:0:
256,192,192224,1,8,0:0:0:0:
256,192,192305,1,0,0:0:0:0:
256,192,192549,1,0,0:0:0:0:
256,192,192711,1,8,0:0:0:0:
256,192,192873,1,0,0:0:0:0:
256,192,192954,1,0,0:0:0:0:
256,192,193035,1,0,0:0:0:0:
256,192,193197,1,8,0:0:0:0:
256,192,193359,1,0,0:0:0:0:
256,192,193522,1,8,0:0:0:0:
256,192,193603,1,0,0:0:0:0:
256,192,193846,1,0,0:0:0:0:
256,192,194008,1,8,0:0:0:0:
256,192,194170,1,0,0:0:0:0:
256,192,194251,1,0,0:0:0:0:
256,192,194332,1,0,0:0:0:0:
256,192,194495,1,8,0:0:0:0:
256,192,194657,1,8,0:0:0:0:
256,192,194819,1,0,0:0:0:0:
256,192,194900,1,8,0:0:0:0:
256,192,195143,1,8,0:0:0:0:
256,192,195305,1,8,0:0:0:0:
256,192,195468,1,0,0:0:0:0:
256,192,195549,1,8,0:0:0:0:
256,192,195711,1,8,0:0:0:0:
256,192,195792,1,0,0:0:0:0:
256,192,195954,1,8,0:0:0:0:
256,192,196116,1,0,0:0:0:0:
256,192,196197,1,8,0:0:0:0:
256,192,196441,1,0,0:0:0:0:
256,192,196765,1,0,0:0:0:0:
256,192,196846,1,0,0:0:0:0:
256,192,196927,1,8,0:0:0:0:
256,192,197089,1,0,0:0:0:0:
256,192,197251,1,8,0:0:0:0:
256,192,197414,1,0,0:0:0:0:
256,192,197495,1,8,0:0:0:0:
256,192,197738,1,8,0:0:0:0:
256,192,197900,1,8,0:0:0:0:
256,192,198062,1,0,0:0:0:0:
256,192,198143,1,8,0:0:0:0:
256,192,198305,1,8,0:0:0:0:
256,192,198387,1,0,0:0:0:0:
256,192,198549,1,8,0:0:0:0:
256,192,198711,1,0,0:0:0:0:
256,192,198792,1,8,0:0:0:0:
256,192,199035,1,0,0:0:0:0:
256,192,199359,1,0,0:0:0:0:
256,192,199522,1,8,0:0:0:0:
256,192,199684,1,0,0:0:0:0:
256,192,199765,1,0,0:0:0:0:
256,192,199846,1,8,0:0:0:0:
256,192,200008,1,0,0:0:0:0:
256,192,200170,1,0,0:0:0:0:
256,192,200332,1,8,0:0:0:0:
256,192,200414,1,0,0:0:0:0:
256,192,200495,1,8,0:0:0:0:
256,192,200576,1,8,0:0:0:0:
256,192,200657,1,0,0:0:0:0:
256,192,200819,1,8,0:0:0:0:
256,192,200981,1,0,0:0:0:0:
256,192,201062,1,8,0:0:0:0:
256,192,201143,1,0,0:0:0:0:
256,192,201224,1,0,0:0:0:0:
256,192,201305,1,8,0:0:0:0:
256,192,201359,1,8,0:0:0:0:
256,192,201414,1,8,0:0:0:0:
256,192,201468,1,0,0:0:0:0:
256,192,201630,1,0,0:0:0:0:
256,192,201711,1,0,0:0:0:0:
256,192,201792,1,8,0:0:0:0:
256,192,201873,1,8,0:0:0:0:
256,192,201954,1,0,0:0:0:0:
256,192,202035,1,0,0:0:0:0:
256,192,202116,1,8,0:0:0:0:
256,192,202197,1,0,0:0:0:0:
256,192,202278,1,8,0:0:0:0:
256,192,202441,1,4,0:0:0:0:
256,192,202603,1,8,0:0:0:0:
256,192,202684,1,0,0:0:0:0:
256,192,202846,1,8,0:0:0:0:
256,192,202927,1,0,0:0:0:0:
256,192,203089,1,8,0:0:0:0:
256,192,203251,1,0,0:0:0:0:
256,192,203332,1,8,0:0:0:0:
256,192,203495,1,0,0:0:0:0:
256,192,203576,1,8,0:0:0:0:
256,192,203738,1,0,0:0:0:0:
256,192,203900,1,8,0:0:0:0:
256,192,203981,1,0,0:0:0:0:
256,192,204143,1,8,0:0:0:0:
256,192,204224,1,0,0:0:0:0:
256,192,204387,1,8,0:0:0:0:
256,192,204549,1,0,0:0:0:0:
256,192,204630,1,8,0:0:0:0:
256,192,204873,1,12,0:0:0:0:
256,192,205035,1,12,0:0:0:0:
256,192,205197,1,0,0:0:0:0:
256,192,205278,1,8,0:0:0:0:
256,192,205441,1,8,0:0:0:0:
256,192,205522,1,0,0:0:0:0:
256,192,205684,1,8,0:0:0:0:
256,192,205765,1,0,0:0:0:0:
256,192,205846,1,8,0:0:0:0:
256,192,205927,1,8,0:0:0:0:
256,192,206089,1,0,0:0:0:0:
256,192,206170,1,0,0:0:0:0:
256,192,206251,1,8,0:0:0:0:
256,192,206332,1,0,0:0:0:0:
256,192,206495,1,8,0:0:0:0:
256,192,206576,1,0,0:0:0:0:
256,192,206738,1,0,0:0:0:0:
256,192,206819,1,8,0:0:0:0:
256,192,206981,1,4,0:0:0:0:
256,192,207143,1,0,0:0:0:0:
256,192,207224,1,0,0:0:0:0:
256,192,207305,1,8,0:0:0:0:
256,192,207468,1,8,0:0:0:0:
256,192,207630,1,0,0:0:0:0:
256,192,207792,1,0,0:0:0:0:
256,192,207873,1,0,0:0:0:0:
256,192,207954,1,0,0:0:0:0:
256,192,208116,1,8,0:0:0:0:
256,192,208441,1,0,0:0:0:0:
256,192,208603,1,8,0:0:0:0:
256,192,208765,1,0,0:0:0:0:
256,192,208846,1,0,0:0:0:0:
256,192,208927,1,8,0:0:0:0:
256,192,209089,1,0,0:0:0:0:
256,192,209251,1,8,0:0:0:0:
256,192,209414,1,0,0:0:0:0:
256,192,209576,1,8,0:0:0:0:
256,192,209657,1,8,0:0:0:0:
256,192,209738,1,0,0:0:0:0:
256,192,209819,1,0,0:0:0:0:
256,192,209900,1,8,0:0:0:0:
256,192,210062,1,0,0:0:0:0:
256,192,210224,1,8,0:0:0:0:
256,192,210387,1,0,0:0:0:0:
256,192,210549,1,0,0:0:0:0:
256,192,210630,1,0,0:0:0:0:
256,192,210711,1,8,0:0:0:0:
256,192,210792,1,8,0:0:0:0:
256,192,210873,1,0,0:0:0:0:
256,192,211035,1,0,0:0:0:0:
256,192,211116,1,0,0:0:0:0:
256,192,211197,1,8,0:0:0:0:
256,192,211359,1,8,0:0:0:0:
256,192,211441,1,0,0:0:0:0:
256,192,211522,1,8,0:0:0:0:
256,192,211603,1,8,0:0:0:0:
256,192,211684,1,0,0:0:0:0:
256,192,211846,1,0,0:0:0:0:
256,192,211927,1,8,0:0:0:0:
256,192,212008,1,0,0:0:0:0:
256,192,212062,1,0,0:0:0:0:
256,192,212116,1,0,0:0:0:0:
256,192,212170,1,8,0:0:0:0:
256,192,212251,1,0,0:0:0:0:
256,192,212332,1,8,0:0:0:0:
256,192,212414,1,0,0:0:0:0:
256,192,212495,1,8,0:0:0:0:
256,192,212576,1,8,0:0:0:0:
256,192,212657,1,0,0:0:0:0:
256,192,212819,1,4,0:0:0:0:
256,192,212981,1,0,0:0:0:0:
256,192,213143,1,8,0:0:0:0:
256,192,213305,1,8,0:0:0:0:
256,192,213630,1,0,0:0:0:0:
256,192,213792,1,8,0:0:0:0:
256,192,213873,1,8,0:0:0:0:
256,192,213954,1,0,0:0:0:0:
256,192,214116,1,0,0:0:0:0:
256,192,214278,1,8,0:0:0:0:
256,192,214359,1,0,0:0:0:0:
256,192,214441,1,8,0:0:0:0:
256,192,214603,1,0,0:0:0:0:
256,192,214684,1,0,0:0:0:0:
256,192,214765,1,0,0:0:0:0:
256,192,214927,1,8,0:0:0:0:
256,192,215089,1,0,0:0:0:0:
256,192,215170,1,0,0:0:0:0:
256,192,215251,1,8,0:0:0:0:
256,192,215414,1,0,0:0:0:0:
256,192,215576,1,8,0:0:0:0:
256,192,215900,1,8,0:0:0:0:
256,192,215981,1,0,0:0:0:0:
256,192,216062,1,8,0:0:0:0:
256,192,216224,1,0,0:0:0:0:
256,192,216387,1,8,0:0:0:0:
256,192,216468,1,8,0:0:0:0:
256,192,216549,1,0,0:0:0:0:
256,192,216630,1,0,0:0:0:0:
256,192,216711,1,8,0:0:0:0:
256,192,216873,1,8,0:0:0:0:
256,192,217035,1,8,0:0:0:0:
256,192,217197,1,0,0:0:0:0:
256,192,217522,1,8,0:0:0:0:
256,192,217603,1,8,0:0:0:0:
256,192,217684,1,0,0:0:0:0:
256,192,217846,1,8,0:0:0:0:
256,192,218008,1,4,0:0:0:0:
256,192,218332,1,0,0:0:0:0:
256,192,218495,1,8,0:0:0:0:
256,192,218576,1,8,0:0:0:0:
256,192,218657,1,8,0:0:0:0:
256,192,218819,1,0,0:0:0:0:
256,192,218900,1,0,0:0:0:0:
256,192,218981,1,8,0:0:0:0:
256,192,219062,1,8,0:0:0:0:
256,192,219143,1,0,0:0:0:0:
256,192,219305,1,0,0:0:0:0:
256,192,219468,1,8,0:0:0:0:
256,192,219549,1,0,0:0:0:0:
256,192,219630,1,8,0:0:0:0:
256,192,219711,1,8,0:0:0:0:
256,192,219792,1,0,0:0:0:0:
256,192,219954,1,8,0:0:0:0:
256,192,220116,1,0,0:0:0:0:
256,192,220278,1,8,0:0:0:0:
256,192,220359,1,0,0:0:0:0:
256,192,220441,1,0,0:0:0:0:
256,192,220522,1,8,0:0:0:0:
256,192,220603,1,0,0:0:0:0:
256,192,220765,1,0,0:0:0:0:
256,192,220846,1,0,0:0:0:0:
256,192,220927,1,8,0:0:0:0:
256,192,221089,1,0,0:0:0:0:
256,192,221251,1,8,0:0:0:0:
256,192,221414,1,0,0:0:0:0:
256,192,221495,1,0,0:0:0:0:
256,192,221576,1,8,0:0:0:0:
256,192,221657,1,0,0:0:0:0:
256,192,221738,1,8,0:0:0:0:
256,192,221792,1,8,0:0:0:0:
256,192,221846,1,8,0:0:0:0:
256,192,221900,1,0,0:0:0:0:
256,192,222062,1,8,0:0:0:0:
256,192,222224,1,8,0:0:0:0:
256,192,222387,1,0,0:0:0:0:
256,192,222468,1,0,0:0:0:0:
256,192,222549,1,8,0:0:0:0:
256,192,222630,1,0,0:0:0:0:
256,192,222711,1,0,0:0:0:0:
256,192,222792,1,0,0:0:0:0:
256,192,222873,1,8,0:0:0:0:
256,192,222954,1,0,0:0:0:0:
256,192,223035,1,8,0:0:0:0:
256,192,223197,1,4,0:0:0:0:
256,192,223522,1,0,0:0:0:0:
256,192,223684,1,8,0:0:0:0:
256,192,223765,1,8,0:0:0:0:
256,192,223846,1,8,0:0:0:0:
256,192,224008,1,0,0:0:0:0:
256,192,224170,1,8,0:0:0:0:
256,192,224251,1,8,0:0:0:0:
256,192,224332,1,0,0:0:0:0:
256,192,224495,1,0,0:0:0:0:
256,192,224657,1,8,0:0:0:0:
256,192,224738,1,0,0:0:0:0:
256,192,224819,1,8,0:0:0:0:
256,192,224981,1,0,0:0:0:0:
256,192,225062,1,0,0:0:0:0:
256,192,225143,1,0,0:0:0:0:
256,192,225305,1,8,0:0:0:0:
256,192,225468,1,0,0:0:0:0:
256,192,225549,1,0,0:0:0:0:
256,192,225630,1,8,0:0:0:0:
256,192,225792,1,0,0:0:0:0:
256,192,225954,1,8,0:0:0:0:
256,192,226278,1,8,0:0:0:0:
256,192,226359,1,0,0:0:0:0:
256,192,226441,1,8,0:0:0:0:
256,192,226603,1,8,0:0:0:0:
256,192,226684,1,0,0:0:0:0:
256,192,226765,1,8,0:0:0:0:
256,192,226846,1,0,0:0:0:0:
256,192,226927,1,8,0:0:0:0:
256,192,227008,1,8,0:0:0:0:
256,192,227089,1,0,0:0:0:0:
256,192,227251,1,8,0:0:0:0:
256,192,227414,1,8,0:0:0:0:
256,192,227576,1,0,0:0:0:0:
256,192,227900,1,0,0:0:0:0:
256,192,227981,1,0,0:0:0:0:
256,192,228062,1,8,0:0:0:0:
256,192,228224,1,8,0:0:0:0:
256,192,228387,1,4,0:0:0:0:
256,192,228549,1,8,0:0:0:0:
256,192,228630,1,8,0:0:0:0:
256,192,228711,1,8,0:0:0:0:
256,192,228873,1,0,0:0:0:0:
256,192,229197,1,0,0:0:0:0:
256,192,229359,1,8,0:0:0:0:
256,192,229441,1,8,0:0:0:0:
256,192,229522,1,0,0:0:0:0:
256,192,229684,1,0,0:0:0:0:
256,192,229846,1,8,0:0:0:0:
256,192,230008,1,8,0:0:0:0:
256,192,230170,1,0,0:0:0:0:
256,192,230251,1,0,0:0:0:0:
256,192,230332,1,8,0:0:0:0:
256,192,230495,1,0,0:0:0:0:
256,192,230657,1,8,0:0:0:0:
256,192,230738,1,0,0:0:0:0:
256,192,230819,1,0,0:0:0:0:
256,192,230900,1,8,0:0:0:0:
256,192,230981,1,0,0:0:0:0:
256,192,231143,1,0,0:0:0:0:
256,192,231197,1,0,0:0:0:0:
256,192,231251,1,0,0:0:0:0:
256,192,231305,1,8,0:0:0:0:
256,192,231468,1,0,0:0:0:0:
256,192,231630,1,8,0:0:0:0:
256,192,231711,1,0,0:0:0:0:
256,192,231792,1,8,0:0:0:0:
256,192,231873,1,8,0:0:0:0:
256,192,231954,1,0,0:0:0:0:
256,192,232116,1,8,0:0:0:0:
256,192,232197,1,8,0:0:0:0:
256,192,232278,1,8,0:0:0:0:
256,192,232359,1,8,0:0:0:0:
256,192,232441,1,0,0:0:0:0:
256,192,232522,1,0,0:0:0:0:
256,192,232603,1,8,0:0:0:0:
256,192,232765,1,0,0:0:0:0:
256,192,232846,1,0,0:0:0:0:
256,192,232927,1,8,0:0:0:0:
256,192,233008,1,8,0:0:0:0:
256,192,233089,1,0,0:0:0:0:
256,192,233170,1,8,0:0:0:0:
256,192,233251,1,0,0:0:0:0:
256,192,233332,1,8,0:0:0:0:
256,192,233414,1,0,0:0:0:0:
256,192,233576,1,4,0:0:0:0:
256,192,233738,1,0,0:0:0:0:
256,192,233900,1,8,0:0:0:0:
256,192,234062,1,8,0:0:0:0:
256,192,234387,1,0,0:0:0:0:
256,192,234549,1,8,0:0:0:0:
256,192,234630,1,8,0:0:0:0:
256,192,234711,1,0,0:0:0:0:
256,192,234873,1,0,0:0:0:0:
256,192,235035,1,8,0:0:0:0:
256,192,235116,1,0,0:0:0:0:
256,192,235197,1,8,0:0:0:0:
256,192,235359,1,0,0:0:0:0:
256,192,235441,1,0,0:0:0:0:
256,192,235522,1,0,0:0:0:0:
256,192,235684,1,8,0:0:0:0:
256,192,235846,1,0,0:0:0:0:
256,192,235927,1,0,0:0:0:0:
256,192,236008,1,8,0:0:0:0:
256,192,236170,1,0,0:0:0:0:
256,192,236332,1,8,0:0:0:0:
256,192,236657,1,8,0:0:0:0:
256,192,236738,1,0,0:0:0:0:
256,192,236819,1,8,0:0:0:0:
256,192,236981,1,0,0:0:0:0:
256,192,237143,1,8,0:0:0:0:
256,192,237224,1,8,0:0:0:0:
256,192,237305,1,0,0:0:0:0:
256,192,237387,1,0,0:0:0:0:
256,192,237468,1,8,0:0:0:0:
256,192,237630,1,0,0:0:0:0:
256,192,237792,1,8,0:0:0:0:
256,192,237954,1,0,0:0:0:0:
256,192,238278,1,8,0:0:0:0:
256,192,238359,1,8,0:0:0:0:
256,192,238441,1,8,0:0:0:0:
256,192,238603,1,8,0:0:0:0:
256,192,238765,1,4,0:0:0:0:
256,192,238927,1,0,0:0:0:0:
256,192,239008,1,0,0:0:0:0:
256,192,239089,1,0,0:0:0:0:
256,192,239251,1,8,0:0:0:0:
256,192,239576,1,0,0:0:0:0:
256,192,239657,1,0,0:0:0:0:
256,192,239738,1,8,0:0:0:0:
256,192,239819,1,8,0:0:0:0:
256,192,239900,1,0,0:0:0:0:
256,192,240062,1,8,0:0:0:0:
256,192,240224,1,0,0:0:0:0:
256,192,240305,1,0,0:0:0:0:
256,192,240387,1,8,0:0:0:0:
256,192,240549,1,0,0:0:0:0:
256,192,240711,1,8,0:0:0:0:
256,192,240873,1,0,0:0:0:0:
256,192,240954,1,0,0:0:0:0:
256,192,241035,1,8,0:0:0:0:
256,192,241116,1,0,0:0:0:0:
256,192,241197,1,0,0:0:0:0:
256,192,241278,1,8,0:0:0:0:
256,192,241359,1,0,0:0:0:0:
256,192,241522,1,0,0:0:0:0:
256,192,241603,1,0,0:0:0:0:
256,192,241684,1,8,0:0:0:0:
256,192,241846,1,0,0:0:0:0:
256,192,242008,1,8,0:0:0:0:
256,192,242089,1,8,0:0:0:0:
256,192,242170,1,0,0:0:0:0:
256,192,242251,1,0,0:0:0:0:
256,192,242332,1,8,0:0:0:0:
256,192,242495,1,8,0:0:0:0:
256,192,242549,1,8,0:0:0:0:
256,192,242603,1,8,0:0:0:0:
256,192,242657,1,0,0:0:0:0:
256,192,242819,1,8,0:0:0:0:
256,192,242981,1,8,0:0:0:0:
256,192,243143,1,0,0:0:0:0:
256,192,243224,1,0,0:0:0:0:
256,192,243305,1,8,0:0:0:0:
256,192,243387,1,0,0:0:0:0:
256,192,243468,1,0,0:0:0:0:
256,192,243549,1,0,0:0:0:0:
256,192,243630,1,8,0:0:0:0:
256,192,243711,1,0,0:0:0:0:
256,192,243792,1,8,0:0:0:0:
256,192,243954,1,4,0:0:0:0:
256,192,244116,1,0,0:0:0:0:
256,192,244197,1,0,0:0:0:0:
256,192,244278,1,0,0:0:0:0:
256,192,244441,1,8,0:0:0:0:
256,192,244765,1,0,0:0:0:0:
256,192,244927,1,8,0:0:0:0:
256,192,245008,1,8,0:0:0:0:
256,192,245089,1,0,0:0:0:0:
256,192,245251,1,8,0:0:0:0:
256,192,245414,1,0,0:0:0:0:
256,192,245495,1,0,0:0:0:0:
256,192,245576,1,8,0:0:0:0:
256,192,245738,1,0,0:0:0:0:
256,192,245819,1,0,0:0:0:0:
256,192,245900,1,0,0:0:0:0:
256,192,246062,1,8,0:0:0:0:
256,192,246224,1,0,0:0:0:0:
256,192,246305,1,0,0:0:0:0:
256,192,246387,1,8,0:0:0:0:
256,192,246549,1,4,0:0:0:0:
256,192,246711,1,8,0:0:0:0:
256,192,247035,1,8,0:0:0:0:
256,192,247116,1,0,0:0:0:0:
256,192,247197,1,8,0:0:0:0:
256,192,247278,1,8,0:0:0:0:
256,192,247359,1,8,0:0:0:0:
256,192,247441,1,0,0:0:0:0:
256,192,247522,1,8,0:0:0:0:
256,192,247684,1,8,0:0:0:0:
256,192,247765,1,8,0:0:0:0:
256,192,247846,1,0,0:0:0:0:
256,192,247927,1,8,0:0:0:0:
256,192,248008,1,0,0:0:0:0:
256,192,248089,1,0,0:0:0:0:
256,192,248170,1,8,0:0:0:0:
256,192,248332,1,0,0:0:0:0:
256,192,248495,1,8,0:0:0:0:
256,192,248576,1,8,0:0:0:0:
256,192,248657,1,0,0:0:0:0:
256,192,248738,1,0,0:0:0:0:
256,192,248819,1,8,0:0:0:0:
256,192,248981,1,8,0:0:0:0:
256,192,249143,1,4,0:0:0:0:
256,192,249305,1,8,0:0:0:0:
256,192,249387,1,8,0:0:0:0:
256,192,249468,1,8,0:0:0:0:
256,192,249630,1,0,0:0:0:0:
256,192,249954,1,0,0:0:0:0:
256,192,250116,1,8,0:0:0:0:
256,192,250197,1,8,0:0:0:0:
256,192,250278,1,0,0:0:0:0:
256,192,250441,1,0,0:0:0:0:
256,192,250603,1,8,0:0:0:0:
256,192,250684,1,0,0:0:0:0:
256,192,250765,1,8,0:0:0:0:
256,192,250927,1,0,0:0:0:0:
256,192,251008,1,0,0:0:0:0:
256,192,251089,1,8,0:0:0:0:
256,192,251170,1,8,0:0:0:0:
256,192,251251,1,0,0:0:0:0:
256,192,251414,1,8,0:0:0:0:
256,192,251576,1,0,0:0:0:0:
256,192,251657,1,8,0:0:0:0:
256,192,251738,1,0,0:0:0:0:
256,192,251819,1,8,0:0:0:0:
256,192,251900,1,0,0:0:0:0:
256,192,251954,1,0,0:0:0:0:
256,192,252008,1,0,0:0:0:0:
256,192,252062,1,8,0:0:0:0:
256,192,252224,1,0,0:0:0:0:
256,192,252305,1,8,0:0:0:0:
256,192,252387,1,8,0:0:0:0:
256,192,252468,1,0,0:0:0:0:
256,192,252549,1,8,0:0:0:0:
256,192,252630,1,0,0:0:0:0:
256,192,252711,1,8,0:0:0:0:
256,192,252792,1,0,0:0:0:0:
256,192,252873,1,8,0:0:0:0:
256,192,252954,1,8,0:0:0:0:
256,192,253035,1,8,0:0:0:0:
256,192,253116,1,8,0:0:0:0:
256,192,253197,1,0,0:0:0:0:
256,192,253359,1,8,0:0:0:0:
256,192,253441,1,0,0:0:0:0:
256,192,253522,1,8,0:0:0:0:
256,192,253603,1,0,0:0:0:0:
256,192,253684,1,8,0:0:0:0:
256,192,253765,1,8,0:0:0:0:
256,192,253846,1,0,0:0:0:0:
256,192,254008,1,8,0:0:0:0:
256,192,254089,1,8,0:0:0:0:
256,192,254170,1,8,0:0:0:0:
256,192,254251,1,0,0:0:0:0:
256,192,254657,1,4,0:0:0:0:
256,192,254819,12,0,260657,0:0:0:0:
