osu file format v14

[General]
AudioFilename: ANiMA [ DL FROM WORLD FRAGMENTS ALBUM ]_0,96.mp3
AudioLeadIn: 0
PreviewTime: 247875
Countdown: 0
SampleSet: None
StackLeniency: 0.7
Mode: 3
LetterboxInBreaks: 0
SpecialStyle: 0
WidescreenStoryboard: 0

[Editor]
Bookmarks: 1025
DistanceSpacing: 1.2
BeatDivisor: 12
GridSize: 4
TimelineZoom: 3.299999

[Metadata]
Title:ANiMA - New World -
TitleUnicode:ANiMA - New World -
Artist:xi
ArtistUnicode:xi
Creator:Yomiel
Version:moni x aya x _S h i r o_ x0,96
Source:Deemo
Tags:O2JAM Full version Deemo Rayark Deemo's collection Vol. 2 xi moni aya _S_h_i_r_o_ monizotic Lostcool ET
BeatmapID:1425833
BeatmapSetID:673763

[Difficulty]
HPDrainRate:7
CircleSize:7
OverallDifficulty:7
ApproachRate:5
SliderMultiplier:1.4
SliderTickRate:1

[Events]
//Background and Video events
0,0,"eiei.jpg",0,0
//Break Periods
//Storyboard Layer 0 (Background)
//Storyboard Layer 1 (Fail)
//Storyboard Layer 2 (Pass)
//Storyboard Layer 3 (Foreground)
//Storyboard Sound Samples

[TimingPoints]
578,340.599455040872,4,1,0,0,1,0

[HitObjects]
329,192,556,5,0,0:0:0:0:
182,192,578,5,0,0:0:0:0:
109,192,578,1,0,0:0:0:0:
402,192,578,1,0,0:0:0:0:
109,192,3983,1,0,0:0:0:0:
402,192,3983,1,0,0:0:0:0:
182,192,4664,1,0,0:0:0:0:
329,192,4664,1,0,0:0:0:0:
475,192,5345,1,0,0:0:0:0:
36,192,5345,1,0,0:0:0:0:
256,192,5345,1,0,0:0:0:0:
182,192,5984,1,0,0:0:0:0:
36,192,6027,1,0,0:0:0:0:
329,192,6027,1,0,0:0:0:0:
475,192,6027,1,0,0:0:0:0:
256,192,6708,1,0,0:0:0:0:
402,192,7304,1,0,0:0:0:0:
256,192,7346,1,0,0:0:0:0:
109,192,7389,1,0,0:0:0:0:
256,192,8070,1,0,0:0:0:0:
256,192,8752,1,0,0:0:0:0:
109,192,8752,1,0,0:0:0:0:
402,192,8752,1,0,0:0:0:0:
182,192,10114,1,0,0:0:0:0:
36,192,10114,1,0,0:0:0:0:
329,192,10114,1,0,0:0:0:0:
475,192,10114,1,0,0:0:0:0:
402,192,10795,1,0,0:0:0:0:
256,192,11093,1,0,0:0:0:0:
36,192,11477,1,0,0:0:0:0:
182,192,11477,1,0,0:0:0:0:
329,192,11477,1,0,0:0:0:0:
475,192,11477,1,0,0:0:0:0:
256,192,12158,1,0,0:0:0:0:
109,192,12796,1,0,0:0:0:0:
402,192,12839,1,0,0:0:0:0:
256,192,12839,1,0,0:0:0:0:
256,192,14031,1,0,0:0:0:0:
182,192,14159,1,0,0:0:0:0:
329,192,14202,1,0,0:0:0:0:
36,192,14202,128,0,14882:0:0:0:0:
475,192,14243,1,0,0:0:0:0:
402,192,14882,1,0,0:0:0:0:
256,192,14882,1,0,0:0:0:0:
109,192,14882,128,0,15563:0:0:0:0:
329,192,15563,1,0,0:0:0:0:
182,192,15563,1,0,0:0:0:0:
475,192,15563,128,0,16244:0:0:0:0:
402,192,16244,128,0,16926:0:0:0:0:
256,192,16244,1,0,0:0:0:0:
109,192,16244,1,0,0:0:0:0:
36,192,16883,1,0,0:0:0:0:
182,192,16926,1,0,0:0:0:0:
329,192,16968,1,0,0:0:0:0:
256,192,17607,1,0,0:0:0:0:
402,192,18245,1,0,0:0:0:0:
109,192,18288,1,0,0:0:0:0:
256,192,18288,1,0,0:0:0:0:
475,192,18969,1,0,0:0:0:0:
329,192,18969,1,0,0:0:0:0:
182,192,18969,1,0,0:0:0:0:
36,192,18969,1,0,0:0:0:0:
109,192,19183,1,0,0:0:0:0:
182,192,19183,1,0,0:0:0:0:
329,192,19395,1,0,0:0:0:0:
402,192,19395,1,0,0:0:0:0:
256,192,19651,128,0,20843:0:0:0:0:
475,192,19651,1,0,0:0:0:0:
329,192,19651,1,0,0:0:0:0:
36,192,19651,1,0,0:0:0:0:
182,192,19651,1,0,0:0:0:0:
109,192,20332,1,0,0:0:0:0:
402,192,20332,1,0,0:0:0:0:
109,192,21013,1,0,0:0:0:0:
402,192,21013,1,0,0:0:0:0:
182,192,21013,1,0,0:0:0:0:
329,192,21013,1,0,0:0:0:0:
256,192,21056,128,0,21609:0:0:0:0:
256,192,21694,1,0,0:0:0:0:
182,192,22035,128,0,22120:0:0:0:0:
329,192,22120,128,0,22205:0:0:0:0:
475,192,22205,128,0,22290:0:0:0:0:
109,192,22205,128,0,22290:0:0:0:0:
256,192,22290,128,0,22376:0:0:0:0:
402,192,22376,128,0,22461:0:0:0:0:
329,192,22376,1,0,0:0:0:0:
475,192,22376,1,0,0:0:0:0:
109,192,22376,128,0,22631:0:0:0:0:
36,192,22376,128,0,23653:0:0:0:0:
182,192,22461,128,0,22545:0:0:0:0:
329,192,22545,128,0,22631:0:0:0:0:
475,192,22631,128,0,22716:0:0:0:0:
256,192,22716,128,0,22802:0:0:0:0:
109,192,22716,128,0,22971:0:0:0:0:
402,192,22802,128,0,22886:0:0:0:0:
182,192,22886,128,0,22971:0:0:0:0:
329,192,22971,128,0,23057:0:0:0:0:
475,192,23057,128,0,23142:0:0:0:0:
109,192,23057,128,0,23312:0:0:0:0:
256,192,23142,128,0,23227:0:0:0:0:
402,192,23227,128,0,23312:0:0:0:0:
182,192,23312,128,0,23397:0:0:0:0:
329,192,23397,128,0,23483:0:0:0:0:
109,192,23397,128,0,23653:0:0:0:0:
475,192,23483,128,0,23567:0:0:0:0:
256,192,23567,128,0,23653:0:0:0:0:
402,192,23653,128,0,23738:0:0:0:0:
182,192,23738,128,0,24334:0:0:0:0:
36,192,23738,128,0,23993:0:0:0:0:
256,192,23738,1,0,0:0:0:0:
109,192,23738,1,0,0:0:0:0:
329,192,23823,128,0,23908:0:0:0:0:
475,192,23908,128,0,23993:0:0:0:0:
256,192,23993,128,0,24079:0:0:0:0:
402,192,24079,128,0,24164:0:0:0:0:
36,192,24079,128,0,24334:0:0:0:0:
109,192,24164,128,0,24248:0:0:0:0:
256,192,24248,128,0,24334:0:0:0:0:
402,192,24334,128,0,24419:0:0:0:0:
329,192,24419,128,0,25015:0:0:0:0:
475,192,24419,128,0,24675:0:0:0:0:
109,192,24419,1,0,0:0:0:0:
182,192,24505,128,0,24589:0:0:0:0:
36,192,24589,128,0,24675:0:0:0:0:
256,192,24675,128,0,24760:0:0:0:0:
475,192,24760,128,0,25015:0:0:0:0:
109,192,24760,128,0,24845:0:0:0:0:
402,192,24845,128,0,24930:0:0:0:0:
256,192,24930,128,0,25015:0:0:0:0:
109,192,25015,128,0,25101:0:0:0:0:
475,192,25101,128,0,26378:0:0:0:0:
402,192,25101,128,0,25356:0:0:0:0:
182,192,25101,1,0,0:0:0:0:
36,192,25101,1,0,0:0:0:0:
329,192,25185,128,0,25270:0:0:0:0:
182,192,25270,128,0,25356:0:0:0:0:
36,192,25356,128,0,25441:0:0:0:0:
402,192,25441,128,0,25696:0:0:0:0:
256,192,25441,128,0,25526:0:0:0:0:
109,192,25526,128,0,25611:0:0:0:0:
329,192,25611,128,0,25696:0:0:0:0:
182,192,25696,128,0,25782:0:0:0:0:
402,192,25782,128,0,26037:0:0:0:0:
36,192,25782,128,0,25866:0:0:0:0:
256,192,25866,128,0,25952:0:0:0:0:
109,192,25952,128,0,26037:0:0:0:0:
329,192,26037,128,0,26122:0:0:0:0:
402,192,26122,128,0,26378:0:0:0:0:
182,192,26122,128,0,26207:0:0:0:0:
36,192,26207,128,0,26292:0:0:0:0:
256,192,26292,128,0,26378:0:0:0:0:
109,192,26378,128,0,26463:0:0:0:0:
329,192,26463,128,0,26547:0:0:0:0:
182,192,26547,128,0,26633:0:0:0:0:
402,192,26633,128,0,26718:0:0:0:0:
256,192,26718,128,0,26804:0:0:0:0:
475,192,26804,128,0,26888:0:0:0:0:
36,192,26804,128,0,27059:0:0:0:0:
182,192,26804,128,0,27059:0:0:0:0:
329,192,26888,128,0,26973:0:0:0:0:
402,192,27059,128,0,27144:0:0:0:0:
109,192,27144,128,0,27400:0:0:0:0:
256,192,27144,128,0,27400:0:0:0:0:
329,192,27144,1,0,0:0:0:0:
475,192,27229,128,0,27314:0:0:0:0:
36,192,27314,128,0,27400:0:0:0:0:
182,192,27314,128,0,27400:0:0:0:0:
402,192,27314,1,0,0:0:0:0:
182,192,27485,128,0,27740:0:0:0:0:
329,192,27485,128,0,27740:0:0:0:0:
475,192,27485,1,0,0:0:0:0:
109,192,27655,128,0,27740:0:0:0:0:
256,192,27655,128,0,27740:0:0:0:0:
402,192,27655,1,0,0:0:0:0:
475,192,27826,128,0,28081:0:0:0:0:
256,192,27826,1,0,0:0:0:0:
109,192,27826,1,0,0:0:0:0:
402,192,27910,1,0,0:0:0:0:
36,192,27995,128,0,28251:0:0:0:0:
182,192,27995,1,0,0:0:0:0:
329,192,28081,1,0,0:0:0:0:
402,192,28166,128,0,28421:0:0:0:0:
475,192,28166,128,0,28251:0:0:0:0:
109,192,28166,1,0,0:0:0:0:
256,192,28251,1,0,0:0:0:0:
109,192,28336,128,0,28591:0:0:0:0:
36,192,28336,128,0,28421:0:0:0:0:
475,192,28336,1,0,0:0:0:0:
256,192,28421,1,0,0:0:0:0:
329,192,28506,128,0,28762:0:0:0:0:
402,192,28506,128,0,28591:0:0:0:0:
36,192,28506,1,0,0:0:0:0:
475,192,28591,1,0,0:0:0:0:
182,192,28677,128,0,28932:0:0:0:0:
109,192,28677,128,0,28762:0:0:0:0:
256,192,28677,1,0,0:0:0:0:
36,192,28762,1,0,0:0:0:0:
329,192,28846,128,0,28932:0:0:0:0:
402,192,28846,1,0,0:0:0:0:
256,192,28932,1,0,0:0:0:0:
182,192,29017,128,0,29103:0:0:0:0:
109,192,29017,1,0,0:0:0:0:
329,192,29103,1,0,0:0:0:0:
402,192,29145,1,0,0:0:0:0:
256,192,29187,1,0,0:0:0:0:
36,192,29187,128,0,29443:0:0:0:0:
475,192,29187,1,0,0:0:0:0:
109,192,29272,1,0,0:0:0:0:
329,192,29358,1,0,0:0:0:0:
475,192,29358,128,0,29613:0:0:0:0:
182,192,29443,1,0,0:0:0:0:
402,192,29528,1,0,0:0:0:0:
36,192,29528,128,0,29613:0:0:0:0:
109,192,29528,128,0,29784:0:0:0:0:
256,192,29613,1,0,0:0:0:0:
36,192,29698,1,0,0:0:0:0:
475,192,29698,128,0,29784:0:0:0:0:
402,192,29698,128,0,29954:0:0:0:0:
256,192,29784,1,0,0:0:0:0:
475,192,29868,1,0,0:0:0:0:
109,192,29868,128,0,29954:0:0:0:0:
182,192,29868,128,0,30125:0:0:0:0:
36,192,29954,1,0,0:0:0:0:
256,192,30039,1,0,0:0:0:0:
402,192,30039,128,0,30125:0:0:0:0:
329,192,30039,128,0,30294:0:0:0:0:
475,192,30125,1,0,0:0:0:0:
109,192,30209,1,0,0:0:0:0:
182,192,30209,128,0,30294:0:0:0:0:
256,192,30294,1,0,0:0:0:0:
402,192,30380,1,0,0:0:0:0:
329,192,30380,128,0,30465:0:0:0:0:
36,192,30465,1,0,0:0:0:0:
182,192,30507,1,0,0:0:0:0:
475,192,30550,1,0,0:0:0:0:
329,192,30550,1,0,0:0:0:0:
109,192,30550,1,0,0:0:0:0:
402,192,30550,1,0,0:0:0:0:
256,192,30635,1,0,0:0:0:0:
182,192,30635,1,0,0:0:0:0:
36,192,30720,1,0,0:0:0:0:
402,192,30720,1,0,0:0:0:0:
109,192,30720,1,0,0:0:0:0:
329,192,30720,1,0,0:0:0:0:
475,192,30720,1,0,0:0:0:0:
109,192,30890,1,0,0:0:0:0:
256,192,30890,1,0,0:0:0:0:
475,192,30890,1,0,0:0:0:0:
182,192,30890,1,0,0:0:0:0:
329,192,30976,1,0,0:0:0:0:
402,192,30976,1,0,0:0:0:0:
36,192,31061,1,0,0:0:0:0:
182,192,31061,1,0,0:0:0:0:
109,192,31061,1,0,0:0:0:0:
256,192,31061,1,0,0:0:0:0:
475,192,31061,1,0,0:0:0:0:
329,192,31231,1,0,0:0:0:0:
475,192,31231,1,0,0:0:0:0:
109,192,31231,1,0,0:0:0:0:
182,192,31231,1,0,0:0:0:0:
256,192,31316,1,0,0:0:0:0:
36,192,31316,1,0,0:0:0:0:
182,192,31402,1,0,0:0:0:0:
402,192,31402,1,0,0:0:0:0:
109,192,31402,1,0,0:0:0:0:
475,192,31402,1,0,0:0:0:0:
329,192,31402,1,0,0:0:0:0:
402,192,31571,1,0,0:0:0:0:
256,192,31571,1,0,0:0:0:0:
329,192,31571,1,0,0:0:0:0:
36,192,31571,1,0,0:0:0:0:
182,192,31657,1,0,0:0:0:0:
109,192,31657,1,0,0:0:0:0:
475,192,31742,1,0,0:0:0:0:
36,192,31742,1,0,0:0:0:0:
402,192,31742,1,0,0:0:0:0:
329,192,31742,1,0,0:0:0:0:
256,192,31742,1,0,0:0:0:0:
329,192,31912,1,0,0:0:0:0:
182,192,31912,1,0,0:0:0:0:
402,192,31912,1,0,0:0:0:0:
109,192,31912,1,0,0:0:0:0:
475,192,31912,1,0,0:0:0:0:
256,192,31997,1,0,0:0:0:0:
36,192,31997,1,0,0:0:0:0:
475,192,32083,1,0,0:0:0:0:
109,192,32083,1,0,0:0:0:0:
329,192,32083,1,0,0:0:0:0:
402,192,32083,1,0,0:0:0:0:
182,192,32083,1,0,0:0:0:0:
36,192,32253,128,0,32508:0:0:0:0:
256,192,32253,1,0,0:0:0:0:
402,192,32253,1,0,0:0:0:0:
109,192,32253,1,0,0:0:0:0:
182,192,32338,128,0,32508:0:0:0:0:
329,192,32423,128,0,32508:0:0:0:0:
475,192,32423,1,0,0:0:0:0:
402,192,32593,128,0,32848:0:0:0:0:
182,192,32593,1,0,0:0:0:0:
36,192,32593,1,0,0:0:0:0:
329,192,32593,1,0,0:0:0:0:
256,192,32679,128,0,32848:0:0:0:0:
109,192,32764,128,0,32848:0:0:0:0:
475,192,32764,1,0,0:0:0:0:
182,192,32934,128,0,33189:0:0:0:0:
109,192,32934,1,0,0:0:0:0:
256,192,32934,1,0,0:0:0:0:
402,192,32934,1,0,0:0:0:0:
329,192,33019,128,0,33189:0:0:0:0:
475,192,33105,128,0,33189:0:0:0:0:
36,192,33105,1,0,0:0:0:0:
329,192,33275,1,0,0:0:0:0:
475,192,33275,1,0,0:0:0:0:
182,192,33275,1,0,0:0:0:0:
36,192,33360,1,0,0:0:0:0:
109,192,33360,1,0,0:0:0:0:
402,192,33445,1,0,0:0:0:0:
256,192,33445,1,0,0:0:0:0:
182,192,33530,1,0,0:0:0:0:
109,192,33530,1,0,0:0:0:0:
329,192,33615,1,0,0:0:0:0:
475,192,33615,1,0,0:0:0:0:
36,192,33615,1,0,0:0:0:0:
182,192,33701,1,0,0:0:0:0:
256,192,33701,1,0,0:0:0:0:
402,192,33786,1,0,0:0:0:0:
109,192,33786,1,0,0:0:0:0:
256,192,33870,1,0,0:0:0:0:
329,192,33870,1,0,0:0:0:0:
182,192,33956,1,0,0:0:0:0:
475,192,33956,1,0,0:0:0:0:
36,192,33956,1,0,0:0:0:0:
329,192,34041,1,0,0:0:0:0:
402,192,34041,1,0,0:0:0:0:
475,192,34127,128,0,34211:0:0:0:0:
36,192,34127,128,0,34211:0:0:0:0:
109,192,34127,1,0,0:0:0:0:
256,192,34127,1,0,0:0:0:0:
402,192,34296,128,0,34382:0:0:0:0:
109,192,34296,128,0,34382:0:0:0:0:
329,192,34296,1,0,0:0:0:0:
182,192,34296,1,0,0:0:0:0:
329,192,34467,128,0,34552:0:0:0:0:
182,192,34467,128,0,34552:0:0:0:0:
36,192,34467,1,0,0:0:0:0:
475,192,34467,1,0,0:0:0:0:
402,192,34552,1,0,0:0:0:0:
109,192,34594,1,0,0:0:0:0:
256,192,34637,128,0,34722:0:0:0:0:
36,192,34637,1,0,0:0:0:0:
182,192,34637,1,0,0:0:0:0:
329,192,34637,1,0,0:0:0:0:
475,192,34722,1,0,0:0:0:0:
402,192,34722,1,0,0:0:0:0:
256,192,34808,1,0,0:0:0:0:
109,192,34808,1,0,0:0:0:0:
402,192,34892,1,0,0:0:0:0:
329,192,34892,1,0,0:0:0:0:
182,192,34978,1,0,0:0:0:0:
36,192,34978,1,0,0:0:0:0:
475,192,34978,1,0,0:0:0:0:
329,192,35063,1,0,0:0:0:0:
256,192,35063,1,0,0:0:0:0:
109,192,35148,1,0,0:0:0:0:
402,192,35148,1,0,0:0:0:0:
256,192,35233,1,0,0:0:0:0:
182,192,35233,1,0,0:0:0:0:
36,192,35318,1,0,0:0:0:0:
475,192,35318,1,0,0:0:0:0:
329,192,35318,1,0,0:0:0:0:
182,192,35404,1,0,0:0:0:0:
109,192,35404,1,0,0:0:0:0:
256,192,35488,128,0,35573:0:0:0:0:
402,192,35488,1,0,0:0:0:0:
329,192,35488,1,0,0:0:0:0:
329,192,35659,128,0,35744:0:0:0:0:
182,192,35659,128,0,35744:0:0:0:0:
36,192,35659,1,0,0:0:0:0:
256,192,35659,1,0,0:0:0:0:
475,192,35659,1,0,0:0:0:0:
402,192,35829,128,0,35914:0:0:0:0:
109,192,35829,128,0,35914:0:0:0:0:
182,192,35829,1,0,0:0:0:0:
329,192,35829,1,0,0:0:0:0:
36,192,36000,128,0,36085:0:0:0:0:
475,192,36000,128,0,36085:0:0:0:0:
256,192,36000,1,0,0:0:0:0:
109,192,36000,1,0,0:0:0:0:
402,192,36000,1,0,0:0:0:0:
329,192,36085,1,0,0:0:0:0:
182,192,36085,1,0,0:0:0:0:
36,192,36169,1,0,0:0:0:0:
475,192,36169,1,0,0:0:0:0:
109,192,36255,1,0,0:0:0:0:
402,192,36255,1,0,0:0:0:0:
182,192,36340,1,0,0:0:0:0:
329,192,36340,1,0,0:0:0:0:
36,192,36426,1,0,0:0:0:0:
475,192,36426,1,0,0:0:0:0:
256,192,36426,1,0,0:0:0:0:
109,192,36510,1,0,0:0:0:0:
402,192,36510,1,0,0:0:0:0:
182,192,36595,1,0,0:0:0:0:
329,192,36595,1,0,0:0:0:0:
36,192,36681,128,0,36766:0:0:0:0:
475,192,36681,128,0,36766:0:0:0:0:
402,192,36681,128,0,36766:0:0:0:0:
109,192,36681,128,0,36766:0:0:0:0:
256,192,36681,1,0,0:0:0:0:
182,192,36766,1,0,0:0:0:0:
329,192,36766,1,0,0:0:0:0:
109,192,36851,1,0,0:0:0:0:
402,192,36851,1,0,0:0:0:0:
475,192,36936,1,0,0:0:0:0:
36,192,36936,1,0,0:0:0:0:
402,192,37021,1,0,0:0:0:0:
182,192,37021,1,0,0:0:0:0:
109,192,37107,1,0,0:0:0:0:
329,192,37107,1,0,0:0:0:0:
36,192,37191,1,0,0:0:0:0:
402,192,37191,1,0,0:0:0:0:
475,192,37277,1,0,0:0:0:0:
109,192,37277,1,0,0:0:0:0:
329,192,37362,128,0,37447:0:0:0:0:
402,192,37362,128,0,37447:0:0:0:0:
182,192,37362,1,0,0:0:0:0:
256,192,37362,128,0,37447:0:0:0:0:
36,192,37447,1,0,0:0:0:0:
475,192,37447,1,0,0:0:0:0:
109,192,37532,1,0,0:0:0:0:
402,192,37532,1,0,0:0:0:0:
182,192,37617,1,0,0:0:0:0:
329,192,37617,1,0,0:0:0:0:
402,192,37703,1,0,0:0:0:0:
109,192,37703,1,0,0:0:0:0:
475,192,37788,1,0,0:0:0:0:
36,192,37788,1,0,0:0:0:0:
182,192,37872,1,0,0:0:0:0:
329,192,37872,1,0,0:0:0:0:
36,192,37958,1,0,0:0:0:0:
402,192,37958,1,0,0:0:0:0:
256,192,38043,128,0,38129:0:0:0:0:
109,192,38043,128,0,38129:0:0:0:0:
182,192,38043,128,0,38129:0:0:0:0:
475,192,38043,1,0,0:0:0:0:
329,192,38129,1,0,0:0:0:0:
36,192,38129,1,0,0:0:0:0:
402,192,38213,1,0,0:0:0:0:
109,192,38213,1,0,0:0:0:0:
475,192,38298,1,0,0:0:0:0:
182,192,38298,1,0,0:0:0:0:
256,192,38384,1,0,0:0:0:0:
36,192,38384,1,0,0:0:0:0:
329,192,38469,1,0,0:0:0:0:
109,192,38469,1,0,0:0:0:0:
402,192,38554,1,0,0:0:0:0:
182,192,38554,1,0,0:0:0:0:
475,192,38639,1,0,0:0:0:0:
256,192,38639,1,0,0:0:0:0:
36,192,38725,1,0,0:0:0:0:
182,192,38725,1,0,0:0:0:0:
109,192,38725,1,0,0:0:0:0:
329,192,38809,1,0,0:0:0:0:
402,192,38809,1,0,0:0:0:0:
475,192,38809,1,0,0:0:0:0:
182,192,38894,1,0,0:0:0:0:
109,192,38894,1,0,0:0:0:0:
256,192,38894,1,0,0:0:0:0:
402,192,38980,1,0,0:0:0:0:
475,192,38980,1,0,0:0:0:0:
36,192,38980,1,0,0:0:0:0:
182,192,39065,1,0,0:0:0:0:
256,192,39065,1,0,0:0:0:0:
329,192,39065,1,0,0:0:0:0:
475,192,39150,1,0,0:0:0:0:
36,192,39150,1,0,0:0:0:0:
109,192,39150,1,0,0:0:0:0:
256,192,39235,1,0,0:0:0:0:
329,192,39235,1,0,0:0:0:0:
402,192,39235,1,0,0:0:0:0:
36,192,39320,1,0,0:0:0:0:
109,192,39320,1,0,0:0:0:0:
182,192,39320,1,0,0:0:0:0:
329,192,39406,1,0,0:0:0:0:
475,192,39406,128,0,39490:0:0:0:0:
402,192,39406,128,0,39490:0:0:0:0:
256,192,39490,1,0,0:0:0:0:
109,192,39490,1,0,0:0:0:0:
182,192,39490,1,0,0:0:0:0:
36,192,39576,128,0,39661:0:0:0:0:
402,192,39576,1,0,0:0:0:0:
475,192,39576,128,0,39661:0:0:0:0:
182,192,39661,1,0,0:0:0:0:
329,192,39661,1,0,0:0:0:0:
256,192,39661,1,0,0:0:0:0:
109,192,39746,128,0,39831:0:0:0:0:
36,192,39746,128,0,39831:0:0:0:0:
475,192,39746,1,0,0:0:0:0:
256,192,39831,1,0,0:0:0:0:
329,192,39831,1,0,0:0:0:0:
402,192,39831,1,0,0:0:0:0:
36,192,39916,1,0,0:0:0:0:
109,192,39916,128,0,40002:0:0:0:0:
182,192,39916,128,0,40002:0:0:0:0:
475,192,39916,1,0,0:0:0:0:
329,192,40002,128,0,40087:0:0:0:0:
402,192,40002,128,0,40087:0:0:0:0:
256,192,40087,128,0,40171:0:0:0:0:
182,192,40087,128,0,40171:0:0:0:0:
109,192,40087,1,0,0:0:0:0:
36,192,40087,1,0,0:0:0:0:
475,192,40087,1,0,0:0:0:0:
402,192,40171,1,0,0:0:0:0:
329,192,40171,1,0,0:0:0:0:
109,192,40257,1,0,0:0:0:0:
256,192,40257,1,0,0:0:0:0:
329,192,40342,1,0,0:0:0:0:
475,192,40342,1,0,0:0:0:0:
256,192,40428,128,0,40512:0:0:0:0:
109,192,40428,128,0,40512:0:0:0:0:
402,192,40428,128,0,40512:0:0:0:0:
182,192,40428,1,0,0:0:0:0:
36,192,40428,1,0,0:0:0:0:
475,192,40512,1,0,0:0:0:0:
329,192,40512,1,0,0:0:0:0:
36,192,40597,1,0,0:0:0:0:
182,192,40597,1,0,0:0:0:0:
402,192,40683,1,0,0:0:0:0:
256,192,40683,1,0,0:0:0:0:
182,192,40768,128,0,40853:0:0:0:0:
36,192,40768,128,0,40853:0:0:0:0:
329,192,40768,128,0,40853:0:0:0:0:
475,192,40768,128,0,40853:0:0:0:0:
109,192,40768,1,0,0:0:0:0:
402,192,40853,1,0,0:0:0:0:
182,192,40938,1,0,0:0:0:0:
109,192,40938,1,0,0:0:0:0:
329,192,41023,1,0,0:0:0:0:
475,192,41023,1,0,0:0:0:0:
109,192,41109,128,0,41151:0:0:0:0:
402,192,41109,128,0,41151:0:0:0:0:
182,192,41109,1,0,0:0:0:0:
36,192,41109,1,0,0:0:0:0:
256,192,41193,128,0,41236:0:0:0:0:
402,192,41279,128,0,41321:0:0:0:0:
109,192,41279,128,0,41321:0:0:0:0:
329,192,41279,1,0,0:0:0:0:
182,192,41279,1,0,0:0:0:0:
36,192,41279,1,0,0:0:0:0:
475,192,41279,1,0,0:0:0:0:
256,192,41364,128,0,41407:0:0:0:0:
402,192,41450,128,0,41705:0:0:0:0:
109,192,41450,128,0,41705:0:0:0:0:
182,192,41450,1,0,0:0:0:0:
36,192,41450,1,0,0:0:0:0:
329,192,41450,1,0,0:0:0:0:
475,192,41450,1,0,0:0:0:0:
329,192,41705,128,0,41747:0:0:0:0:
182,192,41747,128,0,41790:0:0:0:0:
475,192,41790,128,0,41832:0:0:0:0:
36,192,41832,128,0,41875:0:0:0:0:
402,192,41875,128,0,41917:0:0:0:0:
109,192,41917,128,0,41960:0:0:0:0:
329,192,41960,128,0,42003:0:0:0:0:
256,192,41960,1,0,0:0:0:0:
182,192,42003,128,0,42045:0:0:0:0:
402,192,42045,128,0,42088:0:0:0:0:
109,192,42088,128,0,42131:0:0:0:0:
475,192,42131,128,0,42172:0:0:0:0:
256,192,42131,1,0,0:0:0:0:
36,192,42172,128,0,42215:0:0:0:0:
329,192,42215,128,0,42258:0:0:0:0:
182,192,42258,128,0,42301:0:0:0:0:
402,192,42301,128,0,42343:0:0:0:0:
109,192,42343,128,0,42386:0:0:0:0:
329,192,42386,128,0,42429:0:0:0:0:
182,192,42429,128,0,42470:0:0:0:0:
475,192,42470,128,0,42513:0:0:0:0:
36,192,42513,128,0,42556:0:0:0:0:
402,192,42556,128,0,42598:0:0:0:0:
109,192,42598,128,0,42641:0:0:0:0:
329,192,42641,128,0,42684:0:0:0:0:
256,192,42641,1,0,0:0:0:0:
182,192,42684,128,0,42727:0:0:0:0:
402,192,42727,128,0,42769:0:0:0:0:
109,192,42769,128,0,42811:0:0:0:0:
182,192,42811,1,0,0:0:0:0:
329,192,42811,1,0,0:0:0:0:
475,192,42811,128,0,43067:0:0:0:0:
36,192,42811,128,0,43067:0:0:0:0:
109,192,43152,128,0,43408:0:0:0:0:
182,192,43152,1,0,0:0:0:0:
329,192,43152,1,0,0:0:0:0:
402,192,43152,128,0,43408:0:0:0:0:
329,192,43492,128,0,43600:0:0:0:0:
182,192,43492,128,0,43600:0:0:0:0:
475,192,43492,128,0,43600:0:0:0:0:
36,192,43492,1,0,0:0:0:0:
109,192,43492,1,0,0:0:0:0:
256,192,43492,1,0,0:0:0:0:
402,192,43492,1,0,0:0:0:0:
256,192,43600,128,0,43727:0:0:0:0:
109,192,43600,128,0,43727:0:0:0:0:
402,192,43600,128,0,43727:0:0:0:0:
475,192,43663,1,0,0:0:0:0:
182,192,43727,128,0,43833:0:0:0:0:
36,192,43727,128,0,43833:0:0:0:0:
329,192,43727,128,0,43833:0:0:0:0:
109,192,43833,128,0,43940:0:0:0:0:
256,192,43833,128,0,43940:0:0:0:0:
402,192,43833,128,0,43940:0:0:0:0:
475,192,43833,1,0,0:0:0:0:
182,192,43940,128,0,44067:0:0:0:0:
329,192,43940,128,0,44067:0:0:0:0:
475,192,43940,128,0,44067:0:0:0:0:
36,192,44004,1,0,0:0:0:0:
256,192,44067,128,0,44173:0:0:0:0:
402,192,44067,128,0,44173:0:0:0:0:
109,192,44067,128,0,44173:0:0:0:0:
329,192,44173,1,0,0:0:0:0:
182,192,44173,1,0,0:0:0:0:
36,192,44173,1,0,0:0:0:0:
475,192,44173,1,0,0:0:0:0:
182,192,44514,1,0,0:0:0:0:
329,192,44514,1,0,0:0:0:0:
329,192,44855,128,0,45195:0:0:0:0:
475,192,44855,128,0,45195:0:0:0:0:
182,192,44855,1,0,0:0:0:0:
36,192,44855,1,0,0:0:0:0:
109,192,45026,1,0,0:0:0:0:
256,192,45026,1,0,0:0:0:0:
182,192,45111,1,0,0:0:0:0:
402,192,45195,1,0,0:0:0:0:
36,192,45195,1,0,0:0:0:0:
109,192,45195,128,0,45452:0:0:0:0:
256,192,45195,128,0,45452:0:0:0:0:
475,192,45536,128,0,45621:0:0:0:0:
256,192,45536,1,0,0:0:0:0:
329,192,45536,1,0,0:0:0:0:
109,192,45536,1,0,0:0:0:0:
36,192,45536,128,0,46005:0:0:0:0:
182,192,45536,128,0,46005:0:0:0:0:
402,192,45621,128,0,45707:0:0:0:0:
329,192,45707,128,0,45791:0:0:0:0:
256,192,45791,128,0,45877:0:0:0:0:
402,192,45877,128,0,45962:0:0:0:0:
109,192,45877,1,0,0:0:0:0:
475,192,45877,1,0,0:0:0:0:
329,192,45962,128,0,46047:0:0:0:0:
256,192,46047,128,0,46132:0:0:0:0:
475,192,46047,128,0,46132:0:0:0:0:
109,192,46047,128,0,46515:0:0:0:0:
182,192,46132,128,0,46217:0:0:0:0:
402,192,46132,128,0,46217:0:0:0:0:
329,192,46217,128,0,46303:0:0:0:0:
36,192,46217,1,0,0:0:0:0:
475,192,46217,1,0,0:0:0:0:
256,192,46303,128,0,46388:0:0:0:0:
182,192,46388,128,0,46472:0:0:0:0:
402,192,46388,128,0,46472:0:0:0:0:
329,192,46472,128,0,46558:0:0:0:0:
256,192,46558,128,0,46643:0:0:0:0:
36,192,46558,128,0,46856:0:0:0:0:
475,192,46558,128,0,46856:0:0:0:0:
109,192,46558,1,0,0:0:0:0:
402,192,46558,1,0,0:0:0:0:
182,192,46643,128,0,46729:0:0:0:0:
329,192,46643,128,0,46729:0:0:0:0:
109,192,46729,128,0,46813:0:0:0:0:
402,192,46729,128,0,46813:0:0:0:0:
256,192,46813,128,0,46898:0:0:0:0:
475,192,46898,1,0,0:0:0:0:
329,192,46898,128,0,46984:0:0:0:0:
182,192,46898,128,0,46984:0:0:0:0:
109,192,46898,1,0,0:0:0:0:
36,192,46984,128,0,47069:0:0:0:0:
402,192,46984,128,0,47069:0:0:0:0:
256,192,46984,128,0,47069:0:0:0:0:
109,192,47069,128,0,47154:0:0:0:0:
329,192,47069,128,0,47196:0:0:0:0:
475,192,47069,128,0,47196:0:0:0:0:
182,192,47154,128,0,47239:0:0:0:0:
36,192,47239,1,0,0:0:0:0:
402,192,47239,128,0,47537:0:0:0:0:
475,192,47239,1,0,0:0:0:0:
329,192,47239,1,0,0:0:0:0:
256,192,47239,128,0,47325:0:0:0:0:
109,192,47325,128,0,47410:0:0:0:0:
182,192,47410,128,0,47494:0:0:0:0:
256,192,47494,128,0,47580:0:0:0:0:
36,192,47580,128,0,47665:0:0:0:0:
475,192,47580,128,0,47835:0:0:0:0:
182,192,47580,1,0,0:0:0:0:
329,192,47580,128,0,47878:0:0:0:0:
402,192,47580,1,0,0:0:0:0:
109,192,47665,128,0,47751:0:0:0:0:
182,192,47751,128,0,47835:0:0:0:0:
402,192,47751,1,0,0:0:0:0:
256,192,47835,128,0,47920:0:0:0:0:
475,192,47920,128,0,48006:0:0:0:0:
36,192,47920,128,0,48176:0:0:0:0:
109,192,47920,1,0,0:0:0:0:
329,192,47920,1,0,0:0:0:0:
182,192,47920,128,0,48218:0:0:0:0:
402,192,48006,128,0,48091:0:0:0:0:
329,192,48091,128,0,48176:0:0:0:0:
109,192,48091,1,0,0:0:0:0:
256,192,48176,128,0,48261:0:0:0:0:
36,192,48261,128,0,48346:0:0:0:0:
182,192,48261,1,0,0:0:0:0:
402,192,48261,1,0,0:0:0:0:
475,192,48261,128,0,48730:0:0:0:0:
329,192,48261,128,0,48730:0:0:0:0:
109,192,48346,128,0,48432:0:0:0:0:
182,192,48432,128,0,48516:0:0:0:0:
256,192,48516,128,0,48602:0:0:0:0:
109,192,48602,128,0,48687:0:0:0:0:
402,192,48602,1,0,0:0:0:0:
36,192,48602,1,0,0:0:0:0:
182,192,48687,128,0,48772:0:0:0:0:
256,192,48772,128,0,48857:0:0:0:0:
36,192,48772,128,0,48857:0:0:0:0:
402,192,48772,128,0,49240:0:0:0:0:
329,192,48857,128,0,48942:0:0:0:0:
109,192,48857,128,0,48942:0:0:0:0:
182,192,48942,128,0,49028:0:0:0:0:
475,192,48942,1,0,0:0:0:0:
36,192,48942,1,0,0:0:0:0:
256,192,49028,128,0,49113:0:0:0:0:
329,192,49113,128,0,49197:0:0:0:0:
109,192,49113,128,0,49197:0:0:0:0:
182,192,49197,128,0,49283:0:0:0:0:
256,192,49283,128,0,49368:0:0:0:0:
475,192,49283,128,0,49581:0:0:0:0:
36,192,49283,128,0,49581:0:0:0:0:
402,192,49283,1,0,0:0:0:0:
109,192,49283,1,0,0:0:0:0:
329,192,49368,128,0,49453:0:0:0:0:
182,192,49368,128,0,49453:0:0:0:0:
402,192,49453,128,0,49538:0:0:0:0:
109,192,49453,128,0,49538:0:0:0:0:
256,192,49538,128,0,49623:0:0:0:0:
36,192,49623,1,0,0:0:0:0:
182,192,49623,128,0,49709:0:0:0:0:
329,192,49623,128,0,49709:0:0:0:0:
402,192,49623,1,0,0:0:0:0:
475,192,49709,128,0,49793:0:0:0:0:
109,192,49709,128,0,49793:0:0:0:0:
256,192,49709,128,0,49793:0:0:0:0:
402,192,49793,128,0,49879:0:0:0:0:
182,192,49793,128,0,49921:0:0:0:0:
36,192,49793,128,0,49921:0:0:0:0:
329,192,49879,128,0,49964:0:0:0:0:
475,192,49964,1,0,0:0:0:0:
109,192,49964,128,0,50262:0:0:0:0:
36,192,49964,1,0,0:0:0:0:
182,192,49964,1,0,0:0:0:0:
256,192,49964,128,0,50050:0:0:0:0:
402,192,50050,128,0,50134:0:0:0:0:
329,192,50134,128,0,50219:0:0:0:0:
256,192,50219,128,0,50305:0:0:0:0:
475,192,50305,128,0,50390:0:0:0:0:
36,192,50305,128,0,50560:0:0:0:0:
329,192,50305,1,0,0:0:0:0:
182,192,50305,128,0,50603:0:0:0:0:
109,192,50305,1,0,0:0:0:0:
402,192,50390,128,0,50475:0:0:0:0:
329,192,50475,128,0,50560:0:0:0:0:
109,192,50475,1,0,0:0:0:0:
256,192,50560,128,0,50645:0:0:0:0:
36,192,50645,128,0,50731:0:0:0:0:
475,192,50645,128,0,50901:0:0:0:0:
402,192,50645,1,0,0:0:0:0:
182,192,50645,1,0,0:0:0:0:
329,192,50645,128,0,50943:0:0:0:0:
109,192,50731,128,0,50815:0:0:0:0:
182,192,50815,128,0,50901:0:0:0:0:
402,192,50815,1,0,0:0:0:0:
256,192,50901,128,0,50986:0:0:0:0:
36,192,50986,128,0,51454:0:0:0:0:
182,192,50986,128,0,51454:0:0:0:0:
475,192,50986,128,0,51113:0:0:0:0:
109,192,50986,1,0,0:0:0:0:
329,192,50986,1,0,0:0:0:0:
402,192,51071,128,0,51198:0:0:0:0:
329,192,51156,128,0,51284:0:0:0:0:
109,192,51156,128,0,51198:0:0:0:0:
475,192,51156,128,0,51198:0:0:0:0:
256,192,51241,128,0,51369:0:0:0:0:
402,192,51327,128,0,51454:0:0:0:0:
475,192,51327,1,0,0:0:0:0:
109,192,51327,1,0,0:0:0:0:
329,192,51412,128,0,51539:0:0:0:0:
109,192,51496,128,0,51965:0:0:0:0:
256,192,51496,128,0,51625:0:0:0:0:
475,192,51496,128,0,51625:0:0:0:0:
36,192,51496,128,0,51539:0:0:0:0:
182,192,51582,128,0,51710:0:0:0:0:
402,192,51582,128,0,51710:0:0:0:0:
36,192,51667,1,0,0:0:0:0:
475,192,51667,1,0,0:0:0:0:
329,192,51667,128,0,51794:0:0:0:0:
256,192,51753,128,0,51880:0:0:0:0:
182,192,51837,128,0,51965:0:0:0:0:
402,192,51837,128,0,51965:0:0:0:0:
475,192,51837,128,0,51880:0:0:0:0:
36,192,51837,128,0,51880:0:0:0:0:
329,192,51922,128,0,52008:0:0:0:0:
36,192,52008,128,0,52306:0:0:0:0:
475,192,52008,128,0,52306:0:0:0:0:
256,192,52008,128,0,52093:0:0:0:0:
402,192,52008,1,0,0:0:0:0:
109,192,52008,1,0,0:0:0:0:
329,192,52093,128,0,52220:0:0:0:0:
182,192,52093,128,0,52220:0:0:0:0:
109,192,52178,128,0,52306:0:0:0:0:
402,192,52178,128,0,52306:0:0:0:0:
256,192,52263,128,0,52348:0:0:0:0:
329,192,52348,128,0,52434:0:0:0:0:
182,192,52348,128,0,52434:0:0:0:0:
109,192,52348,1,0,0:0:0:0:
475,192,52348,1,0,0:0:0:0:
402,192,52434,128,0,52518:0:0:0:0:
36,192,52434,128,0,52561:0:0:0:0:
256,192,52434,128,0,52518:0:0:0:0:
109,192,52518,128,0,52646:0:0:0:0:
329,192,52518,128,0,52646:0:0:0:0:
475,192,52518,128,0,52646:0:0:0:0:
182,192,52604,128,0,52732:0:0:0:0:
402,192,52689,128,0,52987:0:0:0:0:
256,192,52689,128,0,52816:0:0:0:0:
329,192,52689,1,0,0:0:0:0:
475,192,52689,1,0,0:0:0:0:
36,192,52689,1,0,0:0:0:0:
109,192,52773,128,0,52902:0:0:0:0:
182,192,52859,128,0,52987:0:0:0:0:
36,192,52859,128,0,52902:0:0:0:0:
329,192,52859,128,0,52902:0:0:0:0:
475,192,52859,128,0,52902:0:0:0:0:
256,192,52944,128,0,53072:0:0:0:0:
475,192,53030,128,0,53285:0:0:0:0:
329,192,53030,128,0,53328:0:0:0:0:
36,192,53030,128,0,53157:0:0:0:0:
402,192,53030,1,0,0:0:0:0:
182,192,53030,1,0,0:0:0:0:
109,192,53114,128,0,53242:0:0:0:0:
182,192,53200,128,0,53328:0:0:0:0:
402,192,53200,128,0,53242:0:0:0:0:
36,192,53200,128,0,53242:0:0:0:0:
256,192,53285,128,0,53413:0:0:0:0:
36,192,53370,128,0,53626:0:0:0:0:
182,192,53370,128,0,53668:0:0:0:0:
475,192,53370,128,0,53497:0:0:0:0:
329,192,53370,1,0,0:0:0:0:
109,192,53370,1,0,0:0:0:0:
402,192,53455,128,0,53583:0:0:0:0:
329,192,53540,128,0,53668:0:0:0:0:
475,192,53540,128,0,53583:0:0:0:0:
109,192,53540,128,0,53583:0:0:0:0:
256,192,53626,128,0,53754:0:0:0:0:
182,192,53711,1,0,0:0:0:0:
36,192,53711,1,0,0:0:0:0:
109,192,53711,128,0,54136:0:0:0:0:
475,192,53711,128,0,53754:0:0:0:0:
402,192,53711,1,0,0:0:0:0:
329,192,53795,128,0,53838:0:0:0:0:
182,192,53881,128,0,53923:0:0:0:0:
256,192,53881,1,0,0:0:0:0:
475,192,53881,1,0,0:0:0:0:
402,192,53966,128,0,54009:0:0:0:0:
256,192,54052,128,0,54094:0:0:0:0:
329,192,54052,1,0,0:0:0:0:
182,192,54052,1,0,0:0:0:0:
36,192,54052,1,0,0:0:0:0:
475,192,54136,128,0,54179:0:0:0:0:
402,192,54221,128,0,54647:0:0:0:0:
329,192,54221,128,0,54264:0:0:0:0:
36,192,54221,128,0,54264:0:0:0:0:
256,192,54221,1,0,0:0:0:0:
109,192,54221,1,0,0:0:0:0:
182,192,54307,128,0,54350:0:0:0:0:
329,192,54392,128,0,54434:0:0:0:0:
256,192,54392,1,0,0:0:0:0:
475,192,54392,1,0,0:0:0:0:
36,192,54392,1,0,0:0:0:0:
109,192,54477,128,0,54519:0:0:0:0:
256,192,54562,128,0,54605:0:0:0:0:
329,192,54562,1,0,0:0:0:0:
36,192,54562,1,0,0:0:0:0:
182,192,54647,128,0,54690:0:0:0:0:
36,192,54733,128,0,55158:0:0:0:0:
475,192,54733,128,0,55158:0:0:0:0:
329,192,54733,128,0,54775:0:0:0:0:
256,192,54733,1,0,0:0:0:0:
402,192,54733,1,0,0:0:0:0:
109,192,54733,1,0,0:0:0:0:
182,192,54817,128,0,54860:0:0:0:0:
402,192,54903,128,0,54945:0:0:0:0:
329,192,54903,1,0,0:0:0:0:
109,192,54903,1,0,0:0:0:0:
256,192,54988,128,0,55031:0:0:0:0:
329,192,55073,128,0,55115:0:0:0:0:
182,192,55073,1,0,0:0:0:0:
402,192,55073,1,0,0:0:0:0:
109,192,55158,128,0,55201:0:0:0:0:
402,192,55243,128,0,55286:0:0:0:0:
182,192,55243,1,0,0:0:0:0:
36,192,55243,1,0,0:0:0:0:
256,192,55329,128,0,55371:0:0:0:0:
475,192,55329,1,0,0:0:0:0:
329,192,55371,1,0,0:0:0:0:
182,192,55414,1,0,0:0:0:0:
36,192,55414,1,0,0:0:0:0:
109,192,55414,128,0,55755:0:0:0:0:
402,192,55414,128,0,55755:0:0:0:0:
256,192,55584,1,0,0:0:0:0:
475,192,55755,128,0,56095:0:0:0:0:
182,192,55755,128,0,55839:0:0:0:0:
329,192,55755,1,0,0:0:0:0:
36,192,55755,1,0,0:0:0:0:
256,192,55839,128,0,55925:0:0:0:0:
329,192,55925,128,0,56010:0:0:0:0:
109,192,55925,1,0,0:0:0:0:
402,192,56010,128,0,56095:0:0:0:0:
182,192,56010,1,0,0:0:0:0:
36,192,56095,128,0,56435:0:0:0:0:
329,192,56095,128,0,56180:0:0:0:0:
109,192,56095,1,0,0:0:0:0:
256,192,56095,1,0,0:0:0:0:
256,192,56180,128,0,56265:0:0:0:0:
182,192,56265,128,0,56351:0:0:0:0:
475,192,56265,1,0,0:0:0:0:
109,192,56351,128,0,56435:0:0:0:0:
402,192,56351,1,0,0:0:0:0:
329,192,56435,1,0,0:0:0:0:
475,192,56435,1,0,0:0:0:0:
182,192,56435,1,0,0:0:0:0:
182,192,56520,128,0,56606:0:0:0:0:
329,192,56520,128,0,56606:0:0:0:0:
475,192,56520,128,0,56606:0:0:0:0:
182,192,56691,1,0,0:0:0:0:
36,192,56691,1,0,0:0:0:0:
329,192,56691,1,0,0:0:0:0:
329,192,56776,128,0,56861:0:0:0:0:
182,192,56776,128,0,56861:0:0:0:0:
36,192,56776,128,0,56861:0:0:0:0:
109,192,57032,1,0,0:0:0:0:
402,192,57032,1,0,0:0:0:0:
329,192,57032,1,0,0:0:0:0:
182,192,57032,1,0,0:0:0:0:
36,192,57116,1,0,0:0:0:0:
475,192,57116,128,0,57159:0:0:0:0:
256,192,57116,1,0,0:0:0:0:
36,192,57202,128,0,57457:0:0:0:0:
402,192,57202,1,0,0:0:0:0:
109,192,57287,128,0,57457:0:0:0:0:
329,192,57287,1,0,0:0:0:0:
256,192,57287,128,0,57330:0:0:0:0:
182,192,57372,128,0,57457:0:0:0:0:
402,192,57372,1,0,0:0:0:0:
475,192,57457,1,0,0:0:0:0:
256,192,57457,1,0,0:0:0:0:
475,192,57542,128,0,57797:0:0:0:0:
182,192,57542,1,0,0:0:0:0:
402,192,57628,128,0,57797:0:0:0:0:
109,192,57628,1,0,0:0:0:0:
329,192,57713,128,0,57797:0:0:0:0:
36,192,57713,1,0,0:0:0:0:
256,192,57797,128,0,58394:0:0:0:0:
182,192,57797,1,0,0:0:0:0:
109,192,57797,1,0,0:0:0:0:
402,192,57968,1,0,0:0:0:0:
109,192,58011,1,0,0:0:0:0:
329,192,58054,1,0,0:0:0:0:
182,192,58095,1,0,0:0:0:0:
109,192,58138,1,0,0:0:0:0:
402,192,58138,1,0,0:0:0:0:
475,192,58138,1,0,0:0:0:0:
36,192,58138,1,0,0:0:0:0:
182,192,58223,1,0,0:0:0:0:
329,192,58223,1,0,0:0:0:0:
36,192,58309,1,0,0:0:0:0:
475,192,58309,1,0,0:0:0:0:
402,192,58394,1,0,0:0:0:0:
109,192,58394,1,0,0:0:0:0:
36,192,58479,128,0,59076:0:0:0:0:
475,192,58479,128,0,59076:0:0:0:0:
329,192,58479,1,0,0:0:0:0:
182,192,58479,1,0,0:0:0:0:
109,192,58479,128,0,58521:0:0:0:0:
256,192,58564,1,0,0:0:0:0:
329,192,58650,1,0,0:0:0:0:
402,192,58650,128,0,58692:0:0:0:0:
256,192,58735,1,0,0:0:0:0:
182,192,58819,1,0,0:0:0:0:
329,192,58819,128,0,59076:0:0:0:0:
109,192,58819,128,0,58862:0:0:0:0:
256,192,58905,1,0,0:0:0:0:
182,192,58990,1,0,0:0:0:0:
402,192,58990,128,0,59033:0:0:0:0:
109,192,59076,1,0,0:0:0:0:
329,192,59160,128,0,59586:0:0:0:0:
475,192,59160,128,0,59586:0:0:0:0:
36,192,59160,1,0,0:0:0:0:
182,192,59160,1,0,0:0:0:0:
256,192,59160,1,0,0:0:0:0:
402,192,59160,1,0,0:0:0:0:
109,192,59245,1,0,0:0:0:0:
402,192,59331,1,0,0:0:0:0:
182,192,59331,128,0,59373:0:0:0:0:
36,192,59416,128,0,59458:0:0:0:0:
402,192,59501,1,0,0:0:0:0:
256,192,59501,128,0,59543:0:0:0:0:
109,192,59586,128,0,59629:0:0:0:0:
475,192,59671,1,0,0:0:0:0:
329,192,59671,128,0,59714:0:0:0:0:
182,192,59756,128,0,59798:0:0:0:0:
256,192,59841,128,0,60012:0:0:0:0:
402,192,59841,128,0,60012:0:0:0:0:
329,192,59841,1,0,0:0:0:0:
36,192,59841,1,0,0:0:0:0:
109,192,59841,1,0,0:0:0:0:
475,192,59927,1,0,0:0:0:0:
182,192,59927,128,0,59969:0:0:0:0:
109,192,60012,1,0,0:0:0:0:
329,192,60012,128,0,60055:0:0:0:0:
475,192,60096,1,0,0:0:0:0:
36,192,60096,128,0,60139:0:0:0:0:
329,192,60182,128,0,60353:0:0:0:0:
182,192,60182,128,0,60353:0:0:0:0:
109,192,60182,1,0,0:0:0:0:
256,192,60182,1,0,0:0:0:0:
402,192,60182,128,0,60225:0:0:0:0:
475,192,60267,1,0,0:0:0:0:
36,192,60267,128,0,60310:0:0:0:0:
109,192,60353,1,0,0:0:0:0:
402,192,60353,128,0,60395:0:0:0:0:
329,192,60437,1,0,0:0:0:0:
182,192,60437,128,0,60480:0:0:0:0:
256,192,60522,128,0,60693:0:0:0:0:
109,192,60522,128,0,60693:0:0:0:0:
36,192,60522,1,0,0:0:0:0:
402,192,60522,1,0,0:0:0:0:
475,192,60522,128,0,60565:0:0:0:0:
329,192,60608,1,0,0:0:0:0:
182,192,60608,128,0,60651:0:0:0:0:
36,192,60693,1,0,0:0:0:0:
402,192,60693,128,0,60736:0:0:0:0:
256,192,60778,1,0,0:0:0:0:
109,192,60778,128,0,60820:0:0:0:0:
182,192,60863,128,0,61034:0:0:0:0:
36,192,60863,128,0,61034:0:0:0:0:
475,192,60863,1,0,0:0:0:0:
329,192,60863,128,0,60906:0:0:0:0:
402,192,60948,1,0,0:0:0:0:
109,192,60948,128,0,60991:0:0:0:0:
329,192,61034,128,0,61204:0:0:0:0:
256,192,61034,128,0,61077:0:0:0:0:
475,192,61118,128,0,61204:0:0:0:0:
109,192,61118,1,0,0:0:0:0:
402,192,61118,128,0,61161:0:0:0:0:
256,192,61204,128,0,61375:0:0:0:0:
182,192,61204,1,0,0:0:0:0:
36,192,61204,128,0,61246:0:0:0:0:
402,192,61289,128,0,61375:0:0:0:0:
109,192,61289,128,0,61332:0:0:0:0:
182,192,61375,128,0,61544:0:0:0:0:
36,192,61375,1,0,0:0:0:0:
329,192,61459,128,0,61544:0:0:0:0:
475,192,61459,128,0,61502:0:0:0:0:
402,192,61459,1,0,0:0:0:0:
36,192,61544,1,0,0:0:0:0:
109,192,61544,1,0,0:0:0:0:
256,192,61544,128,0,61800:0:0:0:0:
109,192,61630,1,0,0:0:0:0:
36,192,61630,1,0,0:0:0:0:
402,192,61715,1,0,0:0:0:0:
475,192,61715,1,0,0:0:0:0:
36,192,61715,1,0,0:0:0:0:
475,192,61800,1,0,0:0:0:0:
402,192,61800,1,0,0:0:0:0:
36,192,61885,1,0,0:0:0:0:
109,192,61885,1,0,0:0:0:0:
475,192,61885,1,0,0:0:0:0:
256,192,61885,128,0,62140:0:0:0:0:
109,192,62140,1,0,0:0:0:0:
402,192,62140,1,0,0:0:0:0:
256,192,62183,1,0,0:0:0:0:
182,192,62226,128,0,62481:0:0:0:0:
329,192,62226,128,0,62481:0:0:0:0:
36,192,62226,1,0,0:0:0:0:
475,192,62226,1,0,0:0:0:0:
109,192,62566,128,0,62821:0:0:0:0:
402,192,62566,128,0,62821:0:0:0:0:
36,192,62566,1,0,0:0:0:0:
475,192,62566,1,0,0:0:0:0:
256,192,62566,1,0,0:0:0:0:
182,192,62737,1,0,0:0:0:0:
329,192,62737,1,0,0:0:0:0:
256,192,62907,128,0,62992:0:0:0:0:
109,192,62907,1,0,0:0:0:0:
402,192,62907,1,0,0:0:0:0:
36,192,62907,1,0,0:0:0:0:
475,192,62907,1,0,0:0:0:0:
182,192,62992,128,0,63077:0:0:0:0:
329,192,62992,128,0,63077:0:0:0:0:
109,192,63077,128,0,63162:0:0:0:0:
402,192,63077,128,0,63162:0:0:0:0:
256,192,63077,1,0,0:0:0:0:
475,192,63162,128,0,63247:0:0:0:0:
36,192,63162,128,0,63247:0:0:0:0:
182,192,63162,1,0,0:0:0:0:
329,192,63162,1,0,0:0:0:0:
256,192,63247,1,0,0:0:0:0:
109,192,63247,128,0,63503:0:0:0:0:
402,192,63247,128,0,63503:0:0:0:0:
182,192,63503,1,0,0:0:0:0:
329,192,63503,1,0,0:0:0:0:
256,192,63545,1,0,0:0:0:0:
182,192,63588,128,0,63843:0:0:0:0:
329,192,63588,128,0,63843:0:0:0:0:
36,192,63588,1,0,0:0:0:0:
475,192,63588,1,0,0:0:0:0:
109,192,63588,1,0,0:0:0:0:
402,192,63588,1,0,0:0:0:0:
256,192,63758,1,0,0:0:0:0:
36,192,63758,1,0,0:0:0:0:
475,192,63758,1,0,0:0:0:0:
256,192,63929,128,0,64184:0:0:0:0:
182,192,63929,1,0,0:0:0:0:
109,192,63929,1,0,0:0:0:0:
329,192,63929,1,0,0:0:0:0:
402,192,63929,1,0,0:0:0:0:
182,192,64098,1,0,0:0:0:0:
329,192,64098,1,0,0:0:0:0:
109,192,64184,1,0,0:0:0:0:
402,192,64184,1,0,0:0:0:0:
36,192,64269,1,0,0:0:0:0:
475,192,64269,1,0,0:0:0:0:
256,192,64269,1,0,0:0:0:0:
36,192,64355,128,0,64439:0:0:0:0:
475,192,64355,128,0,64439:0:0:0:0:
109,192,64355,1,0,0:0:0:0:
402,192,64355,1,0,0:0:0:0:
109,192,64439,128,0,64525:0:0:0:0:
402,192,64439,128,0,64525:0:0:0:0:
182,192,64439,1,0,0:0:0:0:
329,192,64439,1,0,0:0:0:0:
182,192,64525,128,0,64610:0:0:0:0:
329,192,64525,128,0,64610:0:0:0:0:
36,192,64610,128,0,65206:0:0:0:0:
475,192,64610,128,0,65206:0:0:0:0:
109,192,64610,1,0,0:0:0:0:
402,192,64610,1,0,0:0:0:0:
256,192,64610,1,0,0:0:0:0:
109,192,64951,1,0,0:0:0:0:
182,192,64951,1,0,0:0:0:0:
256,192,64951,1,0,0:0:0:0:
182,192,65036,1,0,0:0:0:0:
109,192,65036,1,0,0:0:0:0:
329,192,65036,1,0,0:0:0:0:
109,192,65120,1,0,0:0:0:0:
182,192,65120,1,0,0:0:0:0:
402,192,65120,1,0,0:0:0:0:
182,192,65206,1,0,0:0:0:0:
109,192,65206,1,0,0:0:0:0:
329,192,65206,1,0,0:0:0:0:
475,192,65291,128,0,65972:0:0:0:0:
109,192,65291,1,0,0:0:0:0:
182,192,65291,1,0,0:0:0:0:
36,192,65291,128,0,65887:0:0:0:0:
256,192,65291,1,0,0:0:0:0:
402,192,65291,1,0,0:0:0:0:
329,192,65632,1,0,0:0:0:0:
402,192,65632,1,0,0:0:0:0:
256,192,65632,1,0,0:0:0:0:
329,192,65717,1,0,0:0:0:0:
402,192,65717,1,0,0:0:0:0:
182,192,65717,1,0,0:0:0:0:
402,192,65802,1,0,0:0:0:0:
329,192,65802,1,0,0:0:0:0:
109,192,65802,1,0,0:0:0:0:
329,192,65887,1,0,0:0:0:0:
402,192,65887,1,0,0:0:0:0:
182,192,65887,1,0,0:0:0:0:
36,192,65972,1,0,0:0:0:0:
329,192,65972,1,0,0:0:0:0:
402,192,65972,1,0,0:0:0:0:
256,192,65972,1,0,0:0:0:0:
109,192,65972,1,0,0:0:0:0:
182,192,66058,1,0,0:0:0:0:
36,192,66142,128,0,66207:0:0:0:0:
256,192,66142,1,0,0:0:0:0:
475,192,66142,1,0,0:0:0:0:
329,192,66185,1,0,0:0:0:0:
109,192,66207,128,0,66313:0:0:0:0:
402,192,66228,1,0,0:0:0:0:
182,192,66248,128,0,66419:0:0:0:0:
475,192,66270,1,0,0:0:0:0:
256,192,66313,128,0,66483:0:0:0:0:
329,192,66313,1,0,0:0:0:0:
475,192,66377,128,0,66419:0:0:0:0:
36,192,66398,128,0,66483:0:0:0:0:
402,192,66419,128,0,66547:0:0:0:0:
329,192,66483,128,0,66654:0:0:0:0:
109,192,66483,128,0,66568:0:0:0:0:
256,192,66547,128,0,66717:0:0:0:0:
182,192,66568,128,0,66654:0:0:0:0:
475,192,66654,128,0,66738:0:0:0:0:
36,192,66654,1,0,0:0:0:0:
402,192,66738,128,0,66823:0:0:0:0:
109,192,66738,1,0,0:0:0:0:
329,192,66823,128,0,66909:0:0:0:0:
182,192,66823,1,0,0:0:0:0:
36,192,66823,1,0,0:0:0:0:
256,192,66909,128,0,66994:0:0:0:0:
109,192,66909,1,0,0:0:0:0:
402,192,66909,1,0,0:0:0:0:
329,192,66994,1,0,0:0:0:0:
475,192,66994,1,0,0:0:0:0:
182,192,66994,128,0,67164:0:0:0:0:
109,192,67037,128,0,67164:0:0:0:0:
402,192,67079,1,0,0:0:0:0:
36,192,67079,128,0,67164:0:0:0:0:
256,192,67121,128,0,67164:0:0:0:0:
475,192,67164,1,0,0:0:0:0:
329,192,67164,128,0,67292:0:0:0:0:
402,192,67207,128,0,67292:0:0:0:0:
475,192,67250,128,0,67292:0:0:0:0:
182,192,67250,1,0,0:0:0:0:
36,192,67250,1,0,0:0:0:0:
256,192,67292,128,0,67335:0:0:0:0:
36,192,67335,128,0,67590:0:0:0:0:
329,192,67335,1,0,0:0:0:0:
402,192,67335,1,0,0:0:0:0:
475,192,67335,1,0,0:0:0:0:
182,192,67335,128,0,67590:0:0:0:0:
109,192,67335,1,0,0:0:0:0:
36,192,67676,128,0,67739:0:0:0:0:
109,192,67676,128,0,67739:0:0:0:0:
475,192,67676,128,0,67739:0:0:0:0:
256,192,67676,1,0,0:0:0:0:
402,192,67676,1,0,0:0:0:0:
329,192,67676,1,0,0:0:0:0:
109,192,67782,128,0,67845:0:0:0:0:
182,192,67782,128,0,67845:0:0:0:0:
475,192,67782,128,0,67845:0:0:0:0:
329,192,67845,1,0,0:0:0:0:
402,192,67909,128,0,67952:0:0:0:0:
182,192,67909,128,0,67952:0:0:0:0:
256,192,67909,128,0,67952:0:0:0:0:
402,192,68016,128,0,68080:0:0:0:0:
182,192,68016,128,0,68080:0:0:0:0:
109,192,68016,128,0,68080:0:0:0:0:
256,192,68016,1,0,0:0:0:0:
475,192,68016,1,0,0:0:0:0:
36,192,68016,1,0,0:0:0:0:
329,192,68122,128,0,68186:0:0:0:0:
36,192,68122,128,0,68186:0:0:0:0:
109,192,68122,128,0,68186:0:0:0:0:
256,192,68186,1,0,0:0:0:0:
329,192,68250,128,0,68292:0:0:0:0:
109,192,68250,128,0,68292:0:0:0:0:
182,192,68250,128,0,68292:0:0:0:0:
182,192,68357,128,0,68420:0:0:0:0:
256,192,68357,128,0,68420:0:0:0:0:
402,192,68357,128,0,68420:0:0:0:0:
36,192,68357,1,0,0:0:0:0:
475,192,68357,1,0,0:0:0:0:
329,192,68357,1,0,0:0:0:0:
256,192,68463,128,0,68527:0:0:0:0:
182,192,68463,128,0,68527:0:0:0:0:
402,192,68463,128,0,68527:0:0:0:0:
109,192,68527,1,0,0:0:0:0:
256,192,68590,128,0,68633:0:0:0:0:
329,192,68590,128,0,68633:0:0:0:0:
475,192,68590,128,0,68633:0:0:0:0:
36,192,68697,128,0,69038:0:0:0:0:
109,192,68697,1,0,0:0:0:0:
402,192,68697,1,0,0:0:0:0:
182,192,68697,1,0,0:0:0:0:
256,192,68782,1,0,0:0:0:0:
329,192,68867,1,0,0:0:0:0:
475,192,68867,128,0,68910:0:0:0:0:
402,192,68867,1,0,0:0:0:0:
109,192,68953,1,0,0:0:0:0:
182,192,68995,1,0,0:0:0:0:
475,192,69038,128,0,69379:0:0:0:0:
329,192,69038,1,0,0:0:0:0:
256,192,69038,1,0,0:0:0:0:
402,192,69038,128,0,69080:0:0:0:0:
109,192,69122,1,0,0:0:0:0:
256,192,69208,1,0,0:0:0:0:
182,192,69208,1,0,0:0:0:0:
329,192,69208,128,0,69251:0:0:0:0:
109,192,69293,1,0,0:0:0:0:
256,192,69379,128,0,69719:0:0:0:0:
329,192,69379,1,0,0:0:0:0:
182,192,69379,1,0,0:0:0:0:
36,192,69379,1,0,0:0:0:0:
402,192,69379,128,0,69420:0:0:0:0:
109,192,69463,1,0,0:0:0:0:
182,192,69548,1,0,0:0:0:0:
475,192,69548,128,0,69591:0:0:0:0:
402,192,69548,1,0,0:0:0:0:
109,192,69634,1,0,0:0:0:0:
182,192,69719,1,0,0:0:0:0:
329,192,69719,1,0,0:0:0:0:
475,192,69719,1,0,0:0:0:0:
36,192,69719,1,0,0:0:0:0:
109,192,69719,128,0,69975:0:0:0:0:
256,192,69804,1,0,0:0:0:0:
402,192,69804,1,0,0:0:0:0:
475,192,69889,1,0,0:0:0:0:
329,192,69889,1,0,0:0:0:0:
182,192,69975,1,0,0:0:0:0:
256,192,69975,1,0,0:0:0:0:
182,192,70059,128,0,70315:0:0:0:0:
36,192,70059,128,0,70315:0:0:0:0:
109,192,70059,128,0,70102:0:0:0:0:
475,192,70059,1,0,0:0:0:0:
402,192,70059,1,0,0:0:0:0:
329,192,70059,1,0,0:0:0:0:
329,192,70144,128,0,70230:0:0:0:0:
109,192,70230,128,0,70272:0:0:0:0:
475,192,70230,1,0,0:0:0:0:
256,192,70230,1,0,0:0:0:0:
402,192,70315,128,0,70400:0:0:0:0:
109,192,70400,128,0,70656:0:0:0:0:
256,192,70400,128,0,70656:0:0:0:0:
182,192,70400,128,0,70442:0:0:0:0:
329,192,70400,1,0,0:0:0:0:
36,192,70400,1,0,0:0:0:0:
475,192,70485,128,0,70570:0:0:0:0:
182,192,70570,128,0,70613:0:0:0:0:
329,192,70570,1,0,0:0:0:0:
402,192,70570,1,0,0:0:0:0:
36,192,70656,128,0,70740:0:0:0:0:
182,192,70740,128,0,70996:0:0:0:0:
329,192,70740,128,0,70996:0:0:0:0:
256,192,70740,128,0,70783:0:0:0:0:
402,192,70740,1,0,0:0:0:0:
475,192,70740,1,0,0:0:0:0:
109,192,70826,128,0,70911:0:0:0:0:
256,192,70911,128,0,70954:0:0:0:0:
402,192,70911,1,0,0:0:0:0:
36,192,70911,1,0,0:0:0:0:
475,192,70996,128,0,71081:0:0:0:0:
256,192,71081,128,0,71337:0:0:0:0:
402,192,71081,128,0,71337:0:0:0:0:
329,192,71081,128,0,71123:0:0:0:0:
36,192,71081,1,0,0:0:0:0:
109,192,71081,1,0,0:0:0:0:
182,192,71166,128,0,71252:0:0:0:0:
329,192,71252,128,0,71294:0:0:0:0:
36,192,71252,1,0,0:0:0:0:
475,192,71252,1,0,0:0:0:0:
109,192,71337,128,0,71421:0:0:0:0:
329,192,71421,1,0,0:0:0:0:
475,192,71421,1,0,0:0:0:0:
36,192,71421,128,0,71678:0:0:0:0:
182,192,71421,128,0,71678:0:0:0:0:
402,192,71507,1,0,0:0:0:0:
109,192,71507,128,0,71678:0:0:0:0:
256,192,71507,128,0,71592:0:0:0:0:
475,192,71592,1,0,0:0:0:0:
329,192,71592,128,0,71678:0:0:0:0:
402,192,71678,1,0,0:0:0:0:
256,192,71678,128,0,71762:0:0:0:0:
329,192,71762,1,0,0:0:0:0:
182,192,71762,128,0,71847:0:0:0:0:
109,192,71762,128,0,71933:0:0:0:0:
36,192,71762,128,0,72018:0:0:0:0:
475,192,71762,128,0,72018:0:0:0:0:
256,192,71847,1,0,0:0:0:0:
402,192,71847,128,0,72018:0:0:0:0:
182,192,71933,1,0,0:0:0:0:
329,192,71933,128,0,72018:0:0:0:0:
256,192,72018,1,0,0:0:0:0:
109,192,72018,1,0,0:0:0:0:
36,192,72103,128,0,72359:0:0:0:0:
182,192,72103,1,0,0:0:0:0:
329,192,72103,1,0,0:0:0:0:
402,192,72103,1,0,0:0:0:0:
475,192,72103,1,0,0:0:0:0:
256,192,72188,1,0,0:0:0:0:
109,192,72188,128,0,72359:0:0:0:0:
475,192,72273,1,0,0:0:0:0:
182,192,72273,128,0,72359:0:0:0:0:
329,192,72273,1,0,0:0:0:0:
402,192,72359,1,0,0:0:0:0:
475,192,72443,128,0,72700:0:0:0:0:
329,192,72443,1,0,0:0:0:0:
256,192,72443,1,0,0:0:0:0:
182,192,72443,1,0,0:0:0:0:
109,192,72443,1,0,0:0:0:0:
36,192,72443,1,0,0:0:0:0:
36,192,72614,1,0,0:0:0:0:
109,192,72614,1,0,0:0:0:0:
182,192,72614,1,0,0:0:0:0:
256,192,72614,1,0,0:0:0:0:
109,192,72784,128,0,72955:0:0:0:0:
402,192,72784,128,0,72955:0:0:0:0:
36,192,72784,1,0,0:0:0:0:
182,192,72784,1,0,0:0:0:0:
329,192,72784,1,0,0:0:0:0:
475,192,72784,1,0,0:0:0:0:
256,192,72869,128,0,72912:0:0:0:0:
182,192,72955,1,0,0:0:0:0:
329,192,72955,1,0,0:0:0:0:
256,192,73040,128,0,73082:0:0:0:0:
36,192,73125,128,0,73189:0:0:0:0:
475,192,73125,128,0,73189:0:0:0:0:
402,192,73125,128,0,73189:0:0:0:0:
109,192,73125,1,0,0:0:0:0:
182,192,73125,1,0,0:0:0:0:
329,192,73125,1,0,0:0:0:0:
36,192,73231,128,0,73295:0:0:0:0:
402,192,73231,128,0,73295:0:0:0:0:
329,192,73231,128,0,73295:0:0:0:0:
182,192,73295,1,0,0:0:0:0:
109,192,73359,128,0,73402:0:0:0:0:
329,192,73359,128,0,73402:0:0:0:0:
256,192,73359,128,0,73402:0:0:0:0:
109,192,73465,128,0,73530:0:0:0:0:
329,192,73465,128,0,73530:0:0:0:0:
402,192,73465,128,0,73530:0:0:0:0:
36,192,73465,1,0,0:0:0:0:
182,192,73465,1,0,0:0:0:0:
475,192,73465,1,0,0:0:0:0:
182,192,73571,128,0,73636:0:0:0:0:
402,192,73571,128,0,73636:0:0:0:0:
475,192,73571,128,0,73636:0:0:0:0:
256,192,73636,1,0,0:0:0:0:
182,192,73700,128,0,73742:0:0:0:0:
402,192,73700,128,0,73742:0:0:0:0:
329,192,73700,128,0,73742:0:0:0:0:
109,192,73806,128,0,73870:0:0:0:0:
329,192,73806,128,0,73870:0:0:0:0:
256,192,73806,128,0,73870:0:0:0:0:
36,192,73806,1,0,0:0:0:0:
475,192,73806,1,0,0:0:0:0:
182,192,73806,1,0,0:0:0:0:
109,192,73912,128,0,73977:0:0:0:0:
256,192,73912,128,0,73977:0:0:0:0:
329,192,73912,128,0,73977:0:0:0:0:
402,192,73977,1,0,0:0:0:0:
36,192,74040,128,0,74083:0:0:0:0:
256,192,74040,128,0,74083:0:0:0:0:
182,192,74040,128,0,74083:0:0:0:0:
475,192,74146,128,0,74487:0:0:0:0:
402,192,74146,1,0,0:0:0:0:
182,192,74146,1,0,0:0:0:0:
109,192,74146,128,0,74189:0:0:0:0:
329,192,74146,1,0,0:0:0:0:
256,192,74232,1,0,0:0:0:0:
36,192,74317,1,0,0:0:0:0:
182,192,74317,128,0,74360:0:0:0:0:
329,192,74317,1,0,0:0:0:0:
402,192,74402,1,0,0:0:0:0:
329,192,74444,1,0,0:0:0:0:
36,192,74487,128,0,74828:0:0:0:0:
256,192,74487,1,0,0:0:0:0:
109,192,74487,128,0,74530:0:0:0:0:
182,192,74487,1,0,0:0:0:0:
402,192,74572,1,0,0:0:0:0:
329,192,74658,1,0,0:0:0:0:
182,192,74658,128,0,74701:0:0:0:0:
109,192,74658,1,0,0:0:0:0:
402,192,74742,1,0,0:0:0:0:
256,192,74828,128,0,75168:0:0:0:0:
475,192,74828,1,0,0:0:0:0:
109,192,74828,128,0,74870:0:0:0:0:
182,192,74828,1,0,0:0:0:0:
329,192,74828,1,0,0:0:0:0:
402,192,74913,1,0,0:0:0:0:
329,192,74998,1,0,0:0:0:0:
36,192,74998,1,0,0:0:0:0:
182,192,74998,128,0,75041:0:0:0:0:
402,192,75083,1,0,0:0:0:0:
475,192,75168,1,0,0:0:0:0:
36,192,75168,128,0,75254:0:0:0:0:
182,192,75168,1,0,0:0:0:0:
329,192,75168,1,0,0:0:0:0:
109,192,75254,128,0,75339:0:0:0:0:
182,192,75339,128,0,75423:0:0:0:0:
329,192,75339,1,0,0:0:0:0:
475,192,75339,1,0,0:0:0:0:
402,192,75339,1,0,0:0:0:0:
256,192,75423,128,0,75509:0:0:0:0:
329,192,75509,128,0,75680:0:0:0:0:
36,192,75509,1,0,0:0:0:0:
182,192,75509,1,0,0:0:0:0:
475,192,75509,1,0,0:0:0:0:
402,192,75594,128,0,75764:0:0:0:0:
109,192,75594,1,0,0:0:0:0:
475,192,75680,128,0,75850:0:0:0:0:
182,192,75680,1,0,0:0:0:0:
36,192,75680,1,0,0:0:0:0:
36,192,75764,128,0,75935:0:0:0:0:
256,192,75764,1,0,0:0:0:0:
109,192,75764,1,0,0:0:0:0:
109,192,75850,128,0,76020:0:0:0:0:
329,192,75850,1,0,0:0:0:0:
182,192,75850,1,0,0:0:0:0:
182,192,75935,128,0,76105:0:0:0:0:
402,192,75935,1,0,0:0:0:0:
256,192,75935,1,0,0:0:0:0:
256,192,76020,128,0,76190:0:0:0:0:
475,192,76020,1,0,0:0:0:0:
475,192,76105,128,0,76276:0:0:0:0:
402,192,76105,1,0,0:0:0:0:
182,192,76190,128,0,76276:0:0:0:0:
329,192,76190,1,0,0:0:0:0:
36,192,76190,1,0,0:0:0:0:
109,192,76190,1,0,0:0:0:0:
109,192,76276,128,0,76361:0:0:0:0:
256,192,76276,1,0,0:0:0:0:
36,192,76361,128,0,76445:0:0:0:0:
475,192,76361,128,0,76531:0:0:0:0:
182,192,76361,1,0,0:0:0:0:
329,192,76361,128,0,76445:0:0:0:0:
402,192,76445,128,0,76616:0:0:0:0:
109,192,76445,1,0,0:0:0:0:
256,192,76445,128,0,76531:0:0:0:0:
329,192,76531,128,0,76702:0:0:0:0:
36,192,76531,1,0,0:0:0:0:
182,192,76531,128,0,76616:0:0:0:0:
256,192,76616,128,0,76786:0:0:0:0:
475,192,76616,1,0,0:0:0:0:
109,192,76616,128,0,76702:0:0:0:0:
182,192,76702,128,0,76871:0:0:0:0:
402,192,76702,1,0,0:0:0:0:
36,192,76702,128,0,76786:0:0:0:0:
329,192,76786,1,0,0:0:0:0:
256,192,76871,1,0,0:0:0:0:
36,192,76871,1,0,0:0:0:0:
329,192,76914,1,0,0:0:0:0:
182,192,76935,1,0,0:0:0:0:
402,192,76957,1,0,0:0:0:0:
109,192,76978,1,0,0:0:0:0:
475,192,77000,1,0,0:0:0:0:
36,192,77041,1,0,0:0:0:0:
402,192,77041,1,0,0:0:0:0:
329,192,77084,1,0,0:0:0:0:
109,192,77106,1,0,0:0:0:0:
256,192,77127,1,0,0:0:0:0:
182,192,77148,1,0,0:0:0:0:
256,192,77212,1,0,0:0:0:0:
475,192,77212,1,0,0:0:0:0:
109,192,77255,1,0,0:0:0:0:
329,192,77276,1,0,0:0:0:0:
36,192,77297,1,0,0:0:0:0:
402,192,77318,1,0,0:0:0:0:
109,192,77340,1,0,0:0:0:0:
329,192,77382,1,0,0:0:0:0:
182,192,77382,1,0,0:0:0:0:
256,192,77446,1,0,0:0:0:0:
329,192,77467,1,0,0:0:0:0:
182,192,77489,1,0,0:0:0:0:
402,192,77510,1,0,0:0:0:0:
109,192,77553,1,0,0:0:0:0:
475,192,77553,1,0,0:0:0:0:
36,192,77553,1,0,0:0:0:0:
402,192,77595,1,0,0:0:0:0:
182,192,77616,1,0,0:0:0:0:
329,192,77638,1,0,0:0:0:0:
256,192,77659,1,0,0:0:0:0:
329,192,77722,1,0,0:0:0:0:
182,192,77722,1,0,0:0:0:0:
109,192,77765,1,0,0:0:0:0:
402,192,77787,1,0,0:0:0:0:
182,192,77808,1,0,0:0:0:0:
329,192,77830,1,0,0:0:0:0:
256,192,77893,1,0,0:0:0:0:
475,192,77893,128,0,78148:0:0:0:0:
402,192,77893,1,0,0:0:0:0:
36,192,77893,128,0,78148:0:0:0:0:
109,192,77893,1,0,0:0:0:0:
182,192,77979,1,0,0:0:0:0:
329,192,78063,1,0,0:0:0:0:
256,192,78063,128,0,78148:0:0:0:0:
182,192,78148,1,0,0:0:0:0:
182,192,78234,128,0,78319:0:0:0:0:
109,192,78234,128,0,78404:0:0:0:0:
36,192,78234,128,0,78489:0:0:0:0:
475,192,78234,128,0,78319:0:0:0:0:
329,192,78234,1,0,0:0:0:0:
256,192,78319,1,0,0:0:0:0:
402,192,78319,128,0,78404:0:0:0:0:
329,192,78404,128,0,78489:0:0:0:0:
182,192,78404,1,0,0:0:0:0:
475,192,78404,1,0,0:0:0:0:
256,192,78489,128,0,78575:0:0:0:0:
109,192,78489,1,0,0:0:0:0:
402,192,78489,1,0,0:0:0:0:
475,192,78575,128,0,78830:0:0:0:0:
182,192,78575,128,0,78660:0:0:0:0:
36,192,78575,1,0,0:0:0:0:
329,192,78575,1,0,0:0:0:0:
402,192,78660,128,0,78830:0:0:0:0:
109,192,78660,128,0,78744:0:0:0:0:
256,192,78660,1,0,0:0:0:0:
329,192,78744,128,0,78830:0:0:0:0:
36,192,78744,128,0,78830:0:0:0:0:
182,192,78744,1,0,0:0:0:0:
256,192,78830,128,0,78915:0:0:0:0:
109,192,78830,1,0,0:0:0:0:
182,192,78915,1,0,0:0:0:0:
329,192,78915,128,0,79001:0:0:0:0:
402,192,78915,128,0,79085:0:0:0:0:
475,192,78915,128,0,79170:0:0:0:0:
36,192,78915,128,0,79001:0:0:0:0:
109,192,79001,128,0,79085:0:0:0:0:
256,192,79001,1,0,0:0:0:0:
182,192,79085,128,0,79170:0:0:0:0:
329,192,79085,1,0,0:0:0:0:
36,192,79085,1,0,0:0:0:0:
256,192,79170,128,0,79256:0:0:0:0:
402,192,79170,1,0,0:0:0:0:
109,192,79170,1,0,0:0:0:0:
36,192,79256,128,0,79511:0:0:0:0:
329,192,79256,128,0,79341:0:0:0:0:
182,192,79256,1,0,0:0:0:0:
475,192,79256,1,0,0:0:0:0:
109,192,79341,128,0,79511:0:0:0:0:
402,192,79341,128,0,79426:0:0:0:0:
256,192,79341,1,0,0:0:0:0:
182,192,79426,128,0,79511:0:0:0:0:
475,192,79426,128,0,79511:0:0:0:0:
329,192,79426,1,0,0:0:0:0:
256,192,79511,128,0,79596:0:0:0:0:
402,192,79511,1,0,0:0:0:0:
329,192,79596,128,0,79682:0:0:0:0:
475,192,79596,128,0,79682:0:0:0:0:
36,192,79596,1,0,0:0:0:0:
109,192,79596,1,0,0:0:0:0:
402,192,79682,1,0,0:0:0:0:
182,192,79682,1,0,0:0:0:0:
329,192,79766,128,0,79852:0:0:0:0:
475,192,79766,128,0,79852:0:0:0:0:
109,192,79766,1,0,0:0:0:0:
182,192,79852,1,0,0:0:0:0:
36,192,79852,1,0,0:0:0:0:
402,192,79937,128,0,80022:0:0:0:0:
256,192,79937,128,0,80022:0:0:0:0:
475,192,79937,1,0,0:0:0:0:
109,192,79937,1,0,0:0:0:0:
329,192,80022,1,0,0:0:0:0:
182,192,80022,1,0,0:0:0:0:
402,192,80107,128,0,80192:0:0:0:0:
256,192,80107,128,0,80192:0:0:0:0:
109,192,80107,1,0,0:0:0:0:
36,192,80192,1,0,0:0:0:0:
329,192,80278,128,0,80363:0:0:0:0:
182,192,80278,128,0,80363:0:0:0:0:
109,192,80278,1,0,0:0:0:0:
402,192,80278,1,0,0:0:0:0:
256,192,80363,1,0,0:0:0:0:
475,192,80363,1,0,0:0:0:0:
36,192,80363,1,0,0:0:0:0:
182,192,80447,128,0,80533:0:0:0:0:
329,192,80447,128,0,80533:0:0:0:0:
402,192,80447,1,0,0:0:0:0:
109,192,80447,1,0,0:0:0:0:
475,192,80533,1,0,0:0:0:0:
36,192,80533,1,0,0:0:0:0:
256,192,80618,128,0,80703:0:0:0:0:
109,192,80618,128,0,80703:0:0:0:0:
402,192,80618,1,0,0:0:0:0:
182,192,80618,1,0,0:0:0:0:
329,192,80703,1,0,0:0:0:0:
36,192,80703,1,0,0:0:0:0:
109,192,80788,128,0,80873:0:0:0:0:
256,192,80788,128,0,80873:0:0:0:0:
402,192,80788,1,0,0:0:0:0:
36,192,80873,1,0,0:0:0:0:
475,192,80873,1,0,0:0:0:0:
329,192,80959,128,0,81043:0:0:0:0:
402,192,80959,128,0,81129:0:0:0:0:
475,192,80959,128,0,81214:0:0:0:0:
36,192,80959,128,0,81043:0:0:0:0:
182,192,80959,1,0,0:0:0:0:
256,192,81043,1,0,0:0:0:0:
109,192,81043,128,0,81129:0:0:0:0:
182,192,81129,128,0,81214:0:0:0:0:
329,192,81129,1,0,0:0:0:0:
36,192,81129,1,0,0:0:0:0:
256,192,81214,128,0,81300:0:0:0:0:
402,192,81214,1,0,0:0:0:0:
109,192,81214,1,0,0:0:0:0:
36,192,81300,128,0,81555:0:0:0:0:
329,192,81300,128,0,81384:0:0:0:0:
182,192,81300,1,0,0:0:0:0:
475,192,81300,1,0,0:0:0:0:
109,192,81384,128,0,81555:0:0:0:0:
402,192,81384,128,0,81469:0:0:0:0:
256,192,81384,1,0,0:0:0:0:
182,192,81469,128,0,81555:0:0:0:0:
475,192,81469,128,0,81555:0:0:0:0:
329,192,81469,1,0,0:0:0:0:
256,192,81555,128,0,81640:0:0:0:0:
402,192,81555,1,0,0:0:0:0:
329,192,81640,1,0,0:0:0:0:
182,192,81640,128,0,81725:0:0:0:0:
109,192,81640,128,0,81810:0:0:0:0:
36,192,81640,128,0,81895:0:0:0:0:
475,192,81640,128,0,81725:0:0:0:0:
402,192,81725,128,0,81810:0:0:0:0:
256,192,81725,1,0,0:0:0:0:
329,192,81810,128,0,81895:0:0:0:0:
182,192,81810,1,0,0:0:0:0:
475,192,81810,1,0,0:0:0:0:
256,192,81895,128,0,81981:0:0:0:0:
109,192,81895,1,0,0:0:0:0:
402,192,81895,1,0,0:0:0:0:
475,192,81981,128,0,82236:0:0:0:0:
182,192,81981,128,0,82065:0:0:0:0:
36,192,81981,1,0,0:0:0:0:
329,192,81981,1,0,0:0:0:0:
402,192,82065,128,0,82236:0:0:0:0:
109,192,82065,128,0,82151:0:0:0:0:
256,192,82065,1,0,0:0:0:0:
329,192,82151,128,0,82236:0:0:0:0:
36,192,82151,128,0,82236:0:0:0:0:
182,192,82151,1,0,0:0:0:0:
256,192,82236,128,0,82321:0:0:0:0:
109,192,82236,1,0,0:0:0:0:
36,192,82321,128,0,82406:0:0:0:0:
182,192,82321,128,0,82406:0:0:0:0:
475,192,82321,1,0,0:0:0:0:
329,192,82321,1,0,0:0:0:0:
109,192,82406,1,0,0:0:0:0:
402,192,82406,1,0,0:0:0:0:
182,192,82491,128,0,82577:0:0:0:0:
36,192,82491,128,0,82577:0:0:0:0:
256,192,82491,1,0,0:0:0:0:
475,192,82491,1,0,0:0:0:0:
329,192,82577,1,0,0:0:0:0:
109,192,82662,128,0,82746:0:0:0:0:
256,192,82662,128,0,82746:0:0:0:0:
475,192,82662,1,0,0:0:0:0:
36,192,82662,1,0,0:0:0:0:
402,192,82662,1,0,0:0:0:0:
182,192,82746,1,0,0:0:0:0:
329,192,82746,1,0,0:0:0:0:
109,192,82832,128,0,82917:0:0:0:0:
256,192,82832,128,0,82917:0:0:0:0:
402,192,82832,1,0,0:0:0:0:
36,192,82917,1,0,0:0:0:0:
475,192,82917,1,0,0:0:0:0:
182,192,83003,128,0,83087:0:0:0:0:
329,192,83003,128,0,83087:0:0:0:0:
402,192,83003,1,0,0:0:0:0:
109,192,83003,1,0,0:0:0:0:
256,192,83087,1,0,0:0:0:0:
36,192,83087,1,0,0:0:0:0:
475,192,83087,1,0,0:0:0:0:
329,192,83172,128,0,83258:0:0:0:0:
182,192,83172,128,0,83258:0:0:0:0:
109,192,83172,1,0,0:0:0:0:
402,192,83172,1,0,0:0:0:0:
36,192,83258,1,0,0:0:0:0:
475,192,83258,1,0,0:0:0:0:
256,192,83343,128,0,83428:0:0:0:0:
402,192,83343,128,0,83428:0:0:0:0:
109,192,83343,1,0,0:0:0:0:
182,192,83343,1,0,0:0:0:0:
329,192,83343,1,0,0:0:0:0:
475,192,83428,1,0,0:0:0:0:
256,192,83513,128,0,83598:0:0:0:0:
402,192,83513,128,0,83598:0:0:0:0:
182,192,83513,1,0,0:0:0:0:
36,192,83513,1,0,0:0:0:0:
109,192,83513,1,0,0:0:0:0:
329,192,83598,1,0,0:0:0:0:
36,192,83684,128,0,83768:0:0:0:0:
475,192,83684,128,0,83939:0:0:0:0:
182,192,83684,1,0,0:0:0:0:
256,192,83684,1,0,0:0:0:0:
109,192,83768,128,0,83854:0:0:0:0:
402,192,83768,128,0,83939:0:0:0:0:
182,192,83854,128,0,83939:0:0:0:0:
329,192,83854,128,0,83939:0:0:0:0:
256,192,83854,1,0,0:0:0:0:
36,192,83854,1,0,0:0:0:0:
109,192,83939,128,0,84023:0:0:0:0:
182,192,84023,128,0,84109:0:0:0:0:
329,192,84023,128,0,84109:0:0:0:0:
402,192,84023,128,0,84194:0:0:0:0:
475,192,84023,128,0,84280:0:0:0:0:
36,192,84023,1,0,0:0:0:0:
256,192,84109,128,0,84194:0:0:0:0:
182,192,84194,128,0,84280:0:0:0:0:
36,192,84194,1,0,0:0:0:0:
109,192,84194,1,0,0:0:0:0:
256,192,84280,128,0,84364:0:0:0:0:
329,192,84364,128,0,84450:0:0:0:0:
36,192,84364,128,0,84620:0:0:0:0:
182,192,84364,1,0,0:0:0:0:
402,192,84364,1,0,0:0:0:0:
475,192,84364,1,0,0:0:0:0:
256,192,84450,128,0,84535:0:0:0:0:
109,192,84450,128,0,84620:0:0:0:0:
329,192,84535,128,0,84620:0:0:0:0:
182,192,84535,128,0,84620:0:0:0:0:
475,192,84535,1,0,0:0:0:0:
402,192,84620,128,0,84705:0:0:0:0:
329,192,84705,128,0,84790:0:0:0:0:
182,192,84705,128,0,84790:0:0:0:0:
109,192,84705,128,0,84876:0:0:0:0:
36,192,84705,128,0,84961:0:0:0:0:
475,192,84705,1,0,0:0:0:0:
402,192,84790,128,0,84876:0:0:0:0:
256,192,84790,1,0,0:0:0:0:
475,192,84876,128,0,84961:0:0:0:0:
182,192,84876,1,0,0:0:0:0:
329,192,84876,1,0,0:0:0:0:
402,192,84961,1,0,0:0:0:0:
109,192,84961,1,0,0:0:0:0:
256,192,85045,128,0,85302:0:0:0:0:
36,192,85045,128,0,85302:0:0:0:0:
475,192,85045,128,0,85302:0:0:0:0:
182,192,85045,128,0,85131:0:0:0:0:
109,192,85045,128,0,85131:0:0:0:0:
329,192,85045,128,0,85131:0:0:0:0:
402,192,85045,128,0,85131:0:0:0:0:
109,192,85216,128,0,85259:0:0:0:0:
182,192,85216,128,0,85259:0:0:0:0:
329,192,85216,128,0,85259:0:0:0:0:
402,192,85216,128,0,85259:0:0:0:0:
109,192,85386,128,0,85642:0:0:0:0:
182,192,85386,128,0,85642:0:0:0:0:
402,192,85386,128,0,85642:0:0:0:0:
36,192,85386,128,0,85514:0:0:0:0:
256,192,85386,128,0,85514:0:0:0:0:
329,192,85386,128,0,85514:0:0:0:0:
475,192,85386,128,0,85514:0:0:0:0:
36,192,85557,128,0,85600:0:0:0:0:
256,192,85557,128,0,85600:0:0:0:0:
329,192,85557,128,0,85600:0:0:0:0:
475,192,85557,128,0,85600:0:0:0:0:
402,192,85727,128,0,85983:0:0:0:0:
329,192,85727,128,0,85983:0:0:0:0:
109,192,85727,128,0,85983:0:0:0:0:
36,192,85727,128,0,85812:0:0:0:0:
182,192,85727,128,0,85812:0:0:0:0:
256,192,85727,128,0,85812:0:0:0:0:
475,192,85727,128,0,85812:0:0:0:0:
182,192,85897,128,0,85940:0:0:0:0:
256,192,85897,128,0,85940:0:0:0:0:
36,192,85897,128,0,85940:0:0:0:0:
475,192,85897,128,0,85940:0:0:0:0:
36,192,86067,128,0,86323:0:0:0:0:
182,192,86067,128,0,86323:0:0:0:0:
475,192,86067,128,0,86323:0:0:0:0:
109,192,86067,128,0,86195:0:0:0:0:
256,192,86067,128,0,86195:0:0:0:0:
329,192,86067,128,0,86195:0:0:0:0:
402,192,86067,128,0,86195:0:0:0:0:
109,192,86238,128,0,86281:0:0:0:0:
256,192,86238,128,0,86281:0:0:0:0:
329,192,86238,128,0,86281:0:0:0:0:
402,192,86238,128,0,86281:0:0:0:0:
36,192,86408,128,0,86664:0:0:0:0:
256,192,86408,128,0,86664:0:0:0:0:
475,192,86408,128,0,86664:0:0:0:0:
109,192,86408,128,0,86664:0:0:0:0:
182,192,86408,128,0,86536:0:0:0:0:
329,192,86408,128,0,86493:0:0:0:0:
402,192,86408,128,0,86493:0:0:0:0:
182,192,86579,128,0,86621:0:0:0:0:
329,192,86579,128,0,86621:0:0:0:0:
402,192,86579,128,0,86621:0:0:0:0:
329,192,86748,128,0,87005:0:0:0:0:
402,192,86748,128,0,87005:0:0:0:0:
109,192,86748,128,0,87005:0:0:0:0:
475,192,86748,128,0,87005:0:0:0:0:
182,192,86748,128,0,86834:0:0:0:0:
256,192,86748,128,0,86877:0:0:0:0:
36,192,86748,128,0,86834:0:0:0:0:
256,192,86919,128,0,86962:0:0:0:0:
182,192,86919,128,0,86962:0:0:0:0:
36,192,86919,128,0,86962:0:0:0:0:
36,192,87089,128,0,87345:0:0:0:0:
109,192,87089,128,0,87345:0:0:0:0:
182,192,87089,128,0,87345:0:0:0:0:
402,192,87089,128,0,87345:0:0:0:0:
256,192,87089,128,0,87175:0:0:0:0:
329,192,87089,128,0,87217:0:0:0:0:
475,192,87089,128,0,87175:0:0:0:0:
256,192,87260,128,0,87303:0:0:0:0:
329,192,87260,128,0,87303:0:0:0:0:
475,192,87260,128,0,87303:0:0:0:0:
109,192,87430,128,0,87685:0:0:0:0:
182,192,87430,128,0,87685:0:0:0:0:
329,192,87430,128,0,87685:0:0:0:0:
402,192,87430,128,0,87685:0:0:0:0:
256,192,87430,128,0,87515:0:0:0:0:
36,192,87430,128,0,87558:0:0:0:0:
475,192,87430,128,0,87515:0:0:0:0:
36,192,87601,128,0,87643:0:0:0:0:
256,192,87601,128,0,87643:0:0:0:0:
475,192,87601,128,0,87643:0:0:0:0:
36,192,87770,1,0,0:0:0:0:
182,192,87770,1,0,0:0:0:0:
475,192,87770,1,0,0:0:0:0:
256,192,87770,1,0,0:0:0:0:
109,192,87856,1,0,0:0:0:0:
475,192,87856,1,0,0:0:0:0:
36,192,87941,1,0,0:0:0:0:
182,192,87941,1,0,0:0:0:0:
402,192,87941,1,0,0:0:0:0:
256,192,87941,1,0,0:0:0:0:
109,192,88026,1,0,0:0:0:0:
402,192,88026,1,0,0:0:0:0:
36,192,88111,1,0,0:0:0:0:
182,192,88111,1,0,0:0:0:0:
329,192,88111,1,0,0:0:0:0:
256,192,88111,1,0,0:0:0:0:
109,192,88196,1,0,0:0:0:0:
329,192,88196,1,0,0:0:0:0:
36,192,88282,1,0,0:0:0:0:
182,192,88282,1,0,0:0:0:0:
402,192,88282,1,0,0:0:0:0:
256,192,88282,1,0,0:0:0:0:
109,192,88366,1,0,0:0:0:0:
402,192,88366,1,0,0:0:0:0:
36,192,88452,1,0,0:0:0:0:
182,192,88452,1,0,0:0:0:0:
475,192,88452,1,0,0:0:0:0:
256,192,88452,1,0,0:0:0:0:
109,192,88537,1,0,0:0:0:0:
475,192,88537,1,0,0:0:0:0:
36,192,88622,1,0,0:0:0:0:
182,192,88622,1,0,0:0:0:0:
402,192,88622,1,0,0:0:0:0:
256,192,88622,1,0,0:0:0:0:
109,192,88707,1,0,0:0:0:0:
402,192,88707,1,0,0:0:0:0:
36,192,88792,1,0,0:0:0:0:
182,192,88792,1,0,0:0:0:0:
256,192,88792,1,0,0:0:0:0:
475,192,88792,128,0,88835:0:0:0:0:
402,192,88835,128,0,88878:0:0:0:0:
329,192,88878,128,0,88920:0:0:0:0:
256,192,88920,128,0,88963:0:0:0:0:
182,192,88963,128,0,89006:0:0:0:0:
109,192,89006,128,0,89047:0:0:0:0:
36,192,89047,128,0,89090:0:0:0:0:
329,192,89133,128,0,89388:0:0:0:0:
256,192,89133,128,0,89176:0:0:0:0:
475,192,89133,1,0,0:0:0:0:
109,192,89133,1,0,0:0:0:0:
36,192,89133,1,0,0:0:0:0:
402,192,89133,1,0,0:0:0:0:
182,192,89218,128,0,89261:0:0:0:0:
475,192,89304,128,0,89559:0:0:0:0:
109,192,89304,128,0,89345:0:0:0:0:
256,192,89304,1,0,0:0:0:0:
402,192,89304,1,0,0:0:0:0:
36,192,89388,128,0,89431:0:0:0:0:
256,192,89473,128,0,89729:0:0:0:0:
109,192,89473,128,0,89516:0:0:0:0:
402,192,89473,1,0,0:0:0:0:
329,192,89473,1,0,0:0:0:0:
182,192,89559,128,0,89602:0:0:0:0:
402,192,89644,128,0,89900:0:0:0:0:
109,192,89644,128,0,89686:0:0:0:0:
329,192,89644,1,0,0:0:0:0:
475,192,89644,1,0,0:0:0:0:
36,192,89729,128,0,89771:0:0:0:0:
182,192,89814,128,0,90069:0:0:0:0:
329,192,89814,128,0,89857:0:0:0:0:
256,192,89814,1,0,0:0:0:0:
475,192,89814,1,0,0:0:0:0:
109,192,89900,128,0,89942:0:0:0:0:
329,192,89985,128,0,90240:0:0:0:0:
402,192,89985,128,0,90027:0:0:0:0:
256,192,89985,1,0,0:0:0:0:
36,192,89985,1,0,0:0:0:0:
475,192,90069,128,0,90112:0:0:0:0:
109,192,90155,128,0,90410:0:0:0:0:
402,192,90155,128,0,90197:0:0:0:0:
182,192,90155,1,0,0:0:0:0:
256,192,90155,1,0,0:0:0:0:
36,192,90240,128,0,90283:0:0:0:0:
256,192,90326,128,0,90581:0:0:0:0:
329,192,90326,128,0,90367:0:0:0:0:
182,192,90326,1,0,0:0:0:0:
475,192,90326,1,0,0:0:0:0:
402,192,90410,128,0,90453:0:0:0:0:
36,192,90495,128,0,90751:0:0:0:0:
182,192,90495,128,0,90538:0:0:0:0:
109,192,90495,1,0,0:0:0:0:
475,192,90495,1,0,0:0:0:0:
329,192,90581,128,0,90623:0:0:0:0:
182,192,90666,128,0,90921:0:0:0:0:
402,192,90666,128,0,90708:0:0:0:0:
475,192,90666,1,0,0:0:0:0:
109,192,90666,1,0,0:0:0:0:
256,192,90666,1,0,0:0:0:0:
329,192,90751,128,0,90793:0:0:0:0:
36,192,90836,128,0,91091:0:0:0:0:
256,192,90836,128,0,90879:0:0:0:0:
402,192,90836,1,0,0:0:0:0:
475,192,90836,1,0,0:0:0:0:
109,192,90921,128,0,90964:0:0:0:0:
256,192,91006,128,0,91262:0:0:0:0:
402,192,91006,128,0,91048:0:0:0:0:
475,192,91006,1,0,0:0:0:0:
182,192,91006,1,0,0:0:0:0:
329,192,91091,128,0,91134:0:0:0:0:
109,192,91177,128,0,91432:0:0:0:0:
402,192,91177,128,0,91219:0:0:0:0:
36,192,91177,1,0,0:0:0:0:
475,192,91177,1,0,0:0:0:0:
182,192,91262,128,0,91305:0:0:0:0:
329,192,91346,128,0,91603:0:0:0:0:
475,192,91346,128,0,91389:0:0:0:0:
256,192,91346,1,0,0:0:0:0:
36,192,91346,1,0,0:0:0:0:
402,192,91432,128,0,91475:0:0:0:0:
182,192,91517,128,0,91772:0:0:0:0:
109,192,91517,128,0,91560:0:0:0:0:
256,192,91517,1,0,0:0:0:0:
475,192,91517,1,0,0:0:0:0:
36,192,91603,128,0,91645:0:0:0:0:
402,192,91687,128,0,91943:0:0:0:0:
109,192,91687,128,0,91730:0:0:0:0:
256,192,91687,1,0,0:0:0:0:
329,192,91687,1,0,0:0:0:0:
475,192,91772,128,0,91815:0:0:0:0:
256,192,91858,128,0,92113:0:0:0:0:
182,192,91858,128,0,91901:0:0:0:0:
36,192,91858,1,0,0:0:0:0:
329,192,91858,1,0,0:0:0:0:
109,192,91943,128,0,91986:0:0:0:0:
475,192,92028,128,0,92284:0:0:0:0:
36,192,92028,128,0,92070:0:0:0:0:
182,192,92028,1,0,0:0:0:0:
329,192,92028,1,0,0:0:0:0:
402,192,92028,1,0,0:0:0:0:
109,192,92113,128,0,92156:0:0:0:0:
329,192,92198,128,0,92454:0:0:0:0:
182,192,92198,128,0,92241:0:0:0:0:
36,192,92198,1,0,0:0:0:0:
402,192,92198,1,0,0:0:0:0:
256,192,92284,128,0,92327:0:0:0:0:
475,192,92368,128,0,92625:0:0:0:0:
182,192,92368,128,0,92411:0:0:0:0:
402,192,92368,1,0,0:0:0:0:
36,192,92368,1,0,0:0:0:0:
109,192,92454,128,0,92496:0:0:0:0:
256,192,92539,128,0,92794:0:0:0:0:
182,192,92539,128,0,92582:0:0:0:0:
36,192,92539,1,0,0:0:0:0:
329,192,92539,1,0,0:0:0:0:
402,192,92539,1,0,0:0:0:0:
109,192,92625,128,0,92666:0:0:0:0:
402,192,92709,128,0,92965:0:0:0:0:
36,192,92709,128,0,92752:0:0:0:0:
182,192,92709,1,0,0:0:0:0:
329,192,92709,1,0,0:0:0:0:
475,192,92709,1,0,0:0:0:0:
109,192,92794,128,0,92837:0:0:0:0:
182,192,92880,128,0,93135:0:0:0:0:
329,192,92880,128,0,92922:0:0:0:0:
256,192,92880,1,0,0:0:0:0:
36,192,92880,1,0,0:0:0:0:
475,192,92965,128,0,93007:0:0:0:0:
329,192,93050,128,0,93220:0:0:0:0:
109,192,93050,128,0,93092:0:0:0:0:
36,192,93050,1,0,0:0:0:0:
402,192,93050,1,0,0:0:0:0:
256,192,93135,128,0,93178:0:0:0:0:
36,192,93220,1,0,0:0:0:0:
182,192,93220,1,0,0:0:0:0:
402,192,93220,1,0,0:0:0:0:
475,192,93220,1,0,0:0:0:0:
182,192,93390,1,0,0:0:0:0:
329,192,93390,1,0,0:0:0:0:
36,192,93390,1,0,0:0:0:0:
475,192,93390,1,0,0:0:0:0:
402,192,93433,1,0,0:0:0:0:
109,192,93433,1,0,0:0:0:0:
256,192,93476,1,0,0:0:0:0:
109,192,93518,1,0,0:0:0:0:
402,192,93518,1,0,0:0:0:0:
182,192,93561,1,0,0:0:0:0:
329,192,93561,1,0,0:0:0:0:
36,192,93561,1,0,0:0:0:0:
475,192,93561,1,0,0:0:0:0:
109,192,93731,1,0,0:0:0:0:
256,192,93731,1,0,0:0:0:0:
402,192,93731,1,0,0:0:0:0:
36,192,93902,1,0,0:0:0:0:
475,192,93902,1,0,0:0:0:0:
182,192,93902,1,0,0:0:0:0:
329,192,93902,1,0,0:0:0:0:
402,192,93987,1,0,0:0:0:0:
256,192,93987,1,0,0:0:0:0:
109,192,93987,1,0,0:0:0:0:
475,192,94071,1,0,0:0:0:0:
36,192,94071,1,0,0:0:0:0:
182,192,94071,1,0,0:0:0:0:
329,192,94071,1,0,0:0:0:0:
109,192,94157,1,0,0:0:0:0:
256,192,94157,1,0,0:0:0:0:
402,192,94157,1,0,0:0:0:0:
475,192,94242,1,0,0:0:0:0:
36,192,94242,1,0,0:0:0:0:
182,192,94242,128,0,94497:0:0:0:0:
329,192,94242,128,0,94497:0:0:0:0:
36,192,94583,128,0,94881:0:0:0:0:
475,192,94583,128,0,94753:0:0:0:0:
329,192,94583,128,0,94667:0:0:0:0:
402,192,94583,128,0,94667:0:0:0:0:
109,192,94583,1,0,0:0:0:0:
182,192,94583,1,0,0:0:0:0:
182,192,94667,128,0,94753:0:0:0:0:
256,192,94667,128,0,94923:0:0:0:0:
329,192,94753,128,0,94881:0:0:0:0:
402,192,94753,128,0,94838:0:0:0:0:
182,192,94838,128,0,95008:0:0:0:0:
109,192,94838,128,0,94881:0:0:0:0:
109,192,94923,128,0,95221:0:0:0:0:
402,192,94923,128,0,94966:0:0:0:0:
475,192,94923,128,0,94966:0:0:0:0:
256,192,95008,128,0,95093:0:0:0:0:
329,192,95008,128,0,95179:0:0:0:0:
36,192,95008,128,0,95093:0:0:0:0:
475,192,95093,128,0,95136:0:0:0:0:
402,192,95093,128,0,95136:0:0:0:0:
256,192,95179,128,0,95264:0:0:0:0:
182,192,95179,128,0,95221:0:0:0:0:
182,192,95264,128,0,95562:0:0:0:0:
36,192,95264,128,0,95519:0:0:0:0:
402,192,95264,128,0,95519:0:0:0:0:
475,192,95264,128,0,95348:0:0:0:0:
329,192,95348,128,0,95434:0:0:0:0:
109,192,95348,128,0,95434:0:0:0:0:
475,192,95434,128,0,95562:0:0:0:0:
256,192,95434,128,0,95519:0:0:0:0:
329,192,95519,128,0,95562:0:0:0:0:
109,192,95519,128,0,95689:0:0:0:0:
256,192,95605,128,0,95903:0:0:0:0:
402,192,95605,128,0,95689:0:0:0:0:
36,192,95605,128,0,95647:0:0:0:0:
182,192,95689,128,0,95775:0:0:0:0:
36,192,95689,128,0,95903:0:0:0:0:
475,192,95689,128,0,95860:0:0:0:0:
109,192,95775,128,0,95903:0:0:0:0:
402,192,95775,128,0,95945:0:0:0:0:
182,192,95860,128,0,95903:0:0:0:0:
329,192,95860,128,0,96115:0:0:0:0:
475,192,95945,128,0,96243:0:0:0:0:
256,192,95945,128,0,96201:0:0:0:0:
36,192,95945,128,0,96030:0:0:0:0:
402,192,96030,128,0,96243:0:0:0:0:
109,192,96030,128,0,96115:0:0:0:0:
182,192,96115,128,0,96243:0:0:0:0:
36,192,96115,128,0,96201:0:0:0:0:
329,192,96201,128,0,96370:0:0:0:0:
109,192,96201,128,0,96243:0:0:0:0:
256,192,96286,128,0,96584:0:0:0:0:
36,192,96286,128,0,96541:0:0:0:0:
182,192,96286,128,0,96370:0:0:0:0:
402,192,96286,128,0,96456:0:0:0:0:
109,192,96370,128,0,96498:0:0:0:0:
475,192,96370,128,0,96541:0:0:0:0:
182,192,96456,128,0,96498:0:0:0:0:
329,192,96456,128,0,96498:0:0:0:0:
402,192,96541,128,0,96584:0:0:0:0:
109,192,96541,128,0,96584:0:0:0:0:
256,192,96627,128,0,96796:0:0:0:0:
36,192,96627,128,0,96925:0:0:0:0:
475,192,96627,128,0,96711:0:0:0:0:
329,192,96711,128,0,96925:0:0:0:0:
109,192,96711,128,0,96796:0:0:0:0:
182,192,96796,128,0,96925:0:0:0:0:
402,192,96796,128,0,96839:0:0:0:0:
256,192,96882,128,0,96925:0:0:0:0:
475,192,96882,128,0,97308:0:0:0:0:
109,192,96882,128,0,96925:0:0:0:0:
402,192,96967,128,0,97308:0:0:0:0:
182,192,96967,128,0,97009:0:0:0:0:
36,192,96967,128,0,97009:0:0:0:0:
329,192,97052,128,0,97222:0:0:0:0:
109,192,97052,128,0,97094:0:0:0:0:
256,192,97052,128,0,97094:0:0:0:0:
182,192,97137,128,0,97180:0:0:0:0:
36,192,97137,128,0,97180:0:0:0:0:
109,192,97222,128,0,97265:0:0:0:0:
36,192,97308,1,0,0:0:0:0:
182,192,97308,1,0,0:0:0:0:
256,192,97308,1,0,0:0:0:0:
329,192,97308,1,0,0:0:0:0:
109,192,97308,1,0,0:0:0:0:
402,192,97648,128,0,97818:0:0:0:0:
36,192,97648,128,0,97946:0:0:0:0:
182,192,97648,1,0,0:0:0:0:
256,192,97648,1,0,0:0:0:0:
475,192,97648,1,0,0:0:0:0:
329,192,97733,128,0,97904:0:0:0:0:
109,192,97733,128,0,97946:0:0:0:0:
182,192,97818,128,0,97904:0:0:0:0:
475,192,97818,128,0,98073:0:0:0:0:
256,192,97904,128,0,97946:0:0:0:0:
402,192,97904,128,0,97988:0:0:0:0:
109,192,97988,128,0,98073:0:0:0:0:
182,192,97988,128,0,98159:0:0:0:0:
329,192,97988,128,0,98031:0:0:0:0:
36,192,97988,1,0,0:0:0:0:
256,192,98073,128,0,98244:0:0:0:0:
402,192,98073,128,0,98116:0:0:0:0:
329,192,98159,128,0,98329:0:0:0:0:
36,192,98159,128,0,98244:0:0:0:0:
109,192,98159,128,0,98329:0:0:0:0:
475,192,98159,128,0,98202:0:0:0:0:
402,192,98244,128,0,98287:0:0:0:0:
182,192,98244,128,0,98414:0:0:0:0:
256,192,98329,128,0,98414:0:0:0:0:
475,192,98329,128,0,98585:0:0:0:0:
36,192,98329,128,0,98371:0:0:0:0:
402,192,98329,1,0,0:0:0:0:
329,192,98414,128,0,98500:0:0:0:0:
109,192,98414,128,0,98457:0:0:0:0:
256,192,98500,128,0,98585:0:0:0:0:
109,192,98500,128,0,98585:0:0:0:0:
36,192,98500,128,0,98669:0:0:0:0:
402,192,98500,128,0,98542:0:0:0:0:
182,192,98585,128,0,98755:0:0:0:0:
329,192,98585,128,0,98628:0:0:0:0:
402,192,98669,128,0,98840:0:0:0:0:
109,192,98669,128,0,98840:0:0:0:0:
475,192,98669,128,0,98712:0:0:0:0:
256,192,98669,1,0,0:0:0:0:
36,192,98755,128,0,98926:0:0:0:0:
329,192,98755,128,0,98797:0:0:0:0:
475,192,98840,128,0,98926:0:0:0:0:
256,192,98840,128,0,99010:0:0:0:0:
182,192,98840,128,0,98926:0:0:0:0:
109,192,98926,128,0,98968:0:0:0:0:
329,192,98926,128,0,99010:0:0:0:0:
182,192,99010,128,0,99095:0:0:0:0:
402,192,99010,128,0,99181:0:0:0:0:
36,192,99010,128,0,99181:0:0:0:0:
475,192,99010,1,0,0:0:0:0:
109,192,99095,128,0,99138:0:0:0:0:
329,192,99095,128,0,99266:0:0:0:0:
256,192,99181,128,0,99223:0:0:0:0:
182,192,99181,128,0,99266:0:0:0:0:
475,192,99181,128,0,99521:0:0:0:0:
402,192,99266,128,0,99351:0:0:0:0:
109,192,99266,128,0,99351:0:0:0:0:
329,192,99351,128,0,99436:0:0:0:0:
182,192,99351,128,0,99436:0:0:0:0:
36,192,99351,128,0,99436:0:0:0:0:
256,192,99351,1,0,0:0:0:0:
402,192,99436,128,0,99521:0:0:0:0:
109,192,99436,128,0,99479:0:0:0:0:
329,192,99521,128,0,99607:0:0:0:0:
182,192,99521,128,0,99607:0:0:0:0:
36,192,99521,128,0,99564:0:0:0:0:
109,192,99607,128,0,99691:0:0:0:0:
256,192,99607,128,0,99691:0:0:0:0:
402,192,99607,128,0,99648:0:0:0:0:
182,192,99691,128,0,99777:0:0:0:0:
329,192,99691,128,0,99777:0:0:0:0:
475,192,99691,128,0,99734:0:0:0:0:
36,192,99691,1,0,0:0:0:0:
402,192,99777,128,0,99862:0:0:0:0:
109,192,99777,128,0,99862:0:0:0:0:
256,192,99777,128,0,99819:0:0:0:0:
182,192,99862,128,0,99947:0:0:0:0:
329,192,99862,128,0,99947:0:0:0:0:
475,192,99862,128,0,99947:0:0:0:0:
36,192,99862,128,0,99905:0:0:0:0:
256,192,99947,128,0,99989:0:0:0:0:
109,192,100032,128,0,100117:0:0:0:0:
402,192,100032,128,0,100117:0:0:0:0:
36,192,100032,128,0,100288:0:0:0:0:
475,192,100032,128,0,100203:0:0:0:0:
182,192,100117,128,0,100203:0:0:0:0:
329,192,100117,128,0,100288:0:0:0:0:
256,192,100203,128,0,100288:0:0:0:0:
109,192,100203,128,0,100372:0:0:0:0:
402,192,100203,128,0,100288:0:0:0:0:
182,192,100288,128,0,100372:0:0:0:0:
36,192,100372,128,0,100394:0:0:0:0:
402,192,100372,128,0,100394:0:0:0:0:
475,192,100372,128,0,100394:0:0:0:0:
329,192,100372,128,0,100394:0:0:0:0:
256,192,100415,128,0,100437:0:0:0:0:
109,192,100458,128,0,100479:0:0:0:0:
329,192,100501,128,0,100521:0:0:0:0:
182,192,100543,128,0,100564:0:0:0:0:
402,192,100586,128,0,100607:0:0:0:0:
109,192,100629,128,0,100650:0:0:0:0:
475,192,100670,128,0,100692:0:0:0:0:
36,192,100713,128,0,100735:0:0:0:0:
182,192,100713,128,0,100735:0:0:0:0:
256,192,100713,128,0,100735:0:0:0:0:
329,192,100713,128,0,100735:0:0:0:0:
109,192,100884,1,0,0:0:0:0:
256,192,100884,1,0,0:0:0:0:
329,192,100884,1,0,0:0:0:0:
402,192,100884,1,0,0:0:0:0:
36,192,100969,1,0,0:0:0:0:
182,192,101054,1,0,0:0:0:0:
329,192,101054,1,0,0:0:0:0:
402,192,101054,1,0,0:0:0:0:
475,192,101054,1,0,0:0:0:0:
109,192,101139,1,0,0:0:0:0:
256,192,101225,1,0,0:0:0:0:
402,192,101225,1,0,0:0:0:0:
475,192,101225,1,0,0:0:0:0:
36,192,101225,1,0,0:0:0:0:
182,192,101309,1,0,0:0:0:0:
475,192,101394,128,0,101480:0:0:0:0:
329,192,101394,128,0,101480:0:0:0:0:
109,192,101394,1,0,0:0:0:0:
36,192,101394,1,0,0:0:0:0:
402,192,101480,128,0,101565:0:0:0:0:
256,192,101480,128,0,101565:0:0:0:0:
329,192,101565,128,0,101650:0:0:0:0:
182,192,101565,128,0,101650:0:0:0:0:
109,192,101650,128,0,101735:0:0:0:0:
256,192,101650,128,0,101735:0:0:0:0:
402,192,101735,128,0,101820:0:0:0:0:
475,192,101735,128,0,101990:0:0:0:0:
36,192,101735,128,0,102076:0:0:0:0:
182,192,101820,128,0,101906:0:0:0:0:
256,192,101820,128,0,101906:0:0:0:0:
109,192,101820,128,0,101906:0:0:0:0:
329,192,101906,128,0,102161:0:0:0:0:
402,192,101906,128,0,101990:0:0:0:0:
109,192,101990,128,0,102076:0:0:0:0:
182,192,101990,128,0,102076:0:0:0:0:
256,192,102076,128,0,102161:0:0:0:0:
402,192,102076,128,0,102161:0:0:0:0:
475,192,102076,128,0,102246:0:0:0:0:
182,192,102161,128,0,102246:0:0:0:0:
109,192,102246,128,0,102331:0:0:0:0:
402,192,102246,128,0,102289:0:0:0:0:
36,192,102331,128,0,102502:0:0:0:0:
329,192,102331,128,0,102373:0:0:0:0:
475,192,102331,128,0,102373:0:0:0:0:
109,192,102416,128,0,102587:0:0:0:0:
256,192,102416,128,0,102459:0:0:0:0:
402,192,102416,1,0,0:0:0:0:
182,192,102502,128,0,102671:0:0:0:0:
329,192,102502,128,0,102544:0:0:0:0:
475,192,102502,1,0,0:0:0:0:
256,192,102587,128,0,102757:0:0:0:0:
402,192,102587,128,0,102630:0:0:0:0:
36,192,102587,1,0,0:0:0:0:
475,192,102671,128,0,102757:0:0:0:0:
329,192,102671,128,0,102757:0:0:0:0:
109,192,102671,1,0,0:0:0:0:
36,192,102757,128,0,102842:0:0:0:0:
182,192,102757,128,0,102842:0:0:0:0:
109,192,102842,128,0,102928:0:0:0:0:
256,192,102842,128,0,102928:0:0:0:0:
402,192,102842,128,0,102885:0:0:0:0:
182,192,102928,128,0,103012:0:0:0:0:
329,192,102928,128,0,103012:0:0:0:0:
475,192,102928,128,0,102970:0:0:0:0:
256,192,103012,128,0,103097:0:0:0:0:
402,192,103012,128,0,103097:0:0:0:0:
36,192,103012,128,0,103055:0:0:0:0:
109,192,103097,128,0,103183:0:0:0:0:
182,192,103097,128,0,103183:0:0:0:0:
475,192,103097,128,0,103140:0:0:0:0:
256,192,103183,128,0,103268:0:0:0:0:
329,192,103183,128,0,103268:0:0:0:0:
36,192,103183,128,0,103226:0:0:0:0:
402,192,103268,128,0,103353:0:0:0:0:
475,192,103268,128,0,103353:0:0:0:0:
182,192,103268,128,0,103310:0:0:0:0:
36,192,103353,128,0,103438:0:0:0:0:
109,192,103353,128,0,103438:0:0:0:0:
329,192,103353,128,0,103395:0:0:0:0:
182,192,103438,128,0,104119:0:0:0:0:
256,192,103438,128,0,104290:0:0:0:0:
475,192,103438,128,0,103523:0:0:0:0:
329,192,103438,128,0,103693:0:0:0:0:
402,192,103438,1,0,0:0:0:0:
109,192,103523,128,0,103609:0:0:0:0:
402,192,103609,128,0,103693:0:0:0:0:
36,192,103693,128,0,103779:0:0:0:0:
329,192,103779,128,0,104034:0:0:0:0:
109,192,103779,128,0,103864:0:0:0:0:
402,192,103779,1,0,0:0:0:0:
475,192,103864,128,0,103950:0:0:0:0:
36,192,103950,128,0,104034:0:0:0:0:
402,192,104034,128,0,104375:0:0:0:0:
109,192,104119,128,0,104460:0:0:0:0:
329,192,104119,128,0,104205:0:0:0:0:
475,192,104119,128,0,104205:0:0:0:0:
36,192,104290,128,0,104375:0:0:0:0:
182,192,104290,128,0,104375:0:0:0:0:
256,192,104375,1,0,0:0:0:0:
475,192,104460,128,0,104545:0:0:0:0:
256,192,104460,128,0,104801:0:0:0:0:
182,192,104460,128,0,104545:0:0:0:0:
36,192,104545,128,0,104631:0:0:0:0:
402,192,104545,128,0,104631:0:0:0:0:
329,192,104631,128,0,104801:0:0:0:0:
109,192,104631,128,0,104715:0:0:0:0:
182,192,104715,128,0,104801:0:0:0:0:
475,192,104715,1,0,0:0:0:0:
36,192,104801,128,0,104886:0:0:0:0:
109,192,104801,128,0,104886:0:0:0:0:
402,192,104801,128,0,104886:0:0:0:0:
475,192,104801,128,0,104886:0:0:0:0:
182,192,104886,128,0,104929:0:0:0:0:
256,192,104886,128,0,104929:0:0:0:0:
329,192,104970,128,0,105013:0:0:0:0:
475,192,104970,128,0,105013:0:0:0:0:
109,192,105056,1,0,0:0:0:0:
256,192,105056,128,0,105098:0:0:0:0:
109,192,105141,128,0,105227:0:0:0:0:
182,192,105141,128,0,105227:0:0:0:0:
329,192,105141,128,0,105227:0:0:0:0:
402,192,105141,128,0,105227:0:0:0:0:
36,192,105141,128,0,105184:0:0:0:0:
475,192,105141,128,0,105184:0:0:0:0:
256,192,105227,128,0,105269:0:0:0:0:
475,192,105311,128,0,105354:0:0:0:0:
109,192,105311,128,0,105354:0:0:0:0:
402,192,105396,128,0,105439:0:0:0:0:
36,192,105396,128,0,105439:0:0:0:0:
109,192,105482,128,0,105567:0:0:0:0:
182,192,105482,128,0,105652:0:0:0:0:
256,192,105482,128,0,105737:0:0:0:0:
329,192,105482,128,0,105822:0:0:0:0:
402,192,105482,128,0,105908:0:0:0:0:
475,192,105482,128,0,105992:0:0:0:0:
36,192,105567,128,0,105652:0:0:0:0:
109,192,105652,128,0,105737:0:0:0:0:
182,192,105737,128,0,105822:0:0:0:0:
256,192,105822,128,0,105843:0:0:0:0:
36,192,105822,128,0,105992:0:0:0:0:
109,192,105822,128,0,105908:0:0:0:0:
329,192,105908,128,0,105929:0:0:0:0:
402,192,105992,128,0,106014:0:0:0:0:
109,192,105992,128,0,106291:0:0:0:0:
182,192,105992,128,0,106078:0:0:0:0:
475,192,106078,128,0,106100:0:0:0:0:
182,192,106163,128,0,106631:0:0:0:0:
256,192,106163,128,0,106333:0:0:0:0:
329,192,106163,128,0,106184:0:0:0:0:
36,192,106163,128,0,106333:0:0:0:0:
402,192,106248,128,0,106269:0:0:0:0:
475,192,106333,128,0,106355:0:0:0:0:
109,192,106333,1,0,0:0:0:0:
402,192,106418,128,0,106440:0:0:0:0:
109,192,106504,128,0,106673:0:0:0:0:
329,192,106504,128,0,106525:0:0:0:0:
36,192,106504,128,0,106673:0:0:0:0:
402,192,106589,128,0,106610:0:0:0:0:
256,192,106673,128,0,106695:0:0:0:0:
182,192,106673,1,0,0:0:0:0:
329,192,106759,128,0,106781:0:0:0:0:
36,192,106844,128,0,106930:0:0:0:0:
182,192,106844,128,0,106930:0:0:0:0:
109,192,106844,128,0,106887:0:0:0:0:
402,192,106844,128,0,106865:0:0:0:0:
475,192,106930,128,0,106951:0:0:0:0:
109,192,107014,128,0,107100:0:0:0:0:
256,192,107014,128,0,107100:0:0:0:0:
402,192,107014,128,0,107036:0:0:0:0:
182,192,107014,128,0,107057:0:0:0:0:
329,192,107100,128,0,107121:0:0:0:0:
36,192,107100,128,0,107142:0:0:0:0:
329,192,107185,128,0,107270:0:0:0:0:
475,192,107185,128,0,107270:0:0:0:0:
182,192,107185,128,0,107206:0:0:0:0:
402,192,107185,128,0,107206:0:0:0:0:
109,192,107270,128,0,107291:0:0:0:0:
402,192,107355,128,0,107440:0:0:0:0:
256,192,107355,128,0,107440:0:0:0:0:
36,192,107355,128,0,107377:0:0:0:0:
329,192,107355,128,0,107377:0:0:0:0:
109,192,107440,128,0,107461:0:0:0:0:
475,192,107440,128,0,107483:0:0:0:0:
182,192,107526,128,0,107611:0:0:0:0:
329,192,107526,128,0,107611:0:0:0:0:
402,192,107526,128,0,107611:0:0:0:0:
256,192,107526,128,0,107546:0:0:0:0:
109,192,107611,128,0,107632:0:0:0:0:
256,192,107695,128,0,107781:0:0:0:0:
402,192,107695,128,0,107781:0:0:0:0:
475,192,107695,128,0,107781:0:0:0:0:
36,192,107695,128,0,107717:0:0:0:0:
329,192,107695,128,0,107717:0:0:0:0:
182,192,107781,128,0,107802:0:0:0:0:
329,192,107866,128,0,107952:0:0:0:0:
475,192,107866,128,0,107952:0:0:0:0:
109,192,107866,128,0,107887:0:0:0:0:
402,192,107866,128,0,107887:0:0:0:0:
36,192,107952,128,0,108036:0:0:0:0:
256,192,107952,128,0,108036:0:0:0:0:
329,192,108036,1,0,0:0:0:0:
475,192,108036,1,0,0:0:0:0:
182,192,108036,1,0,0:0:0:0:
402,192,108121,1,0,0:0:0:0:
256,192,108121,1,0,0:0:0:0:
109,192,108121,1,0,0:0:0:0:
329,192,108207,1,0,0:0:0:0:
36,192,108207,128,0,108483:0:0:0:0:
182,192,108207,128,0,108228:0:0:0:0:
109,192,108291,128,0,108483:0:0:0:0:
402,192,108291,1,0,0:0:0:0:
256,192,108291,128,0,108313:0:0:0:0:
182,192,108377,128,0,108483:0:0:0:0:
475,192,108377,1,0,0:0:0:0:
329,192,108377,128,0,108398:0:0:0:0:
256,192,108462,128,0,108483:0:0:0:0:
402,192,108462,1,0,0:0:0:0:
475,192,108547,128,0,108823:0:0:0:0:
329,192,108547,1,0,0:0:0:0:
182,192,108547,128,0,108568:0:0:0:0:
402,192,108632,128,0,108823:0:0:0:0:
109,192,108632,128,0,108654:0:0:0:0:
256,192,108632,1,0,0:0:0:0:
329,192,108717,128,0,108823:0:0:0:0:
182,192,108717,1,0,0:0:0:0:
36,192,108717,128,0,108739:0:0:0:0:
109,192,108803,128,0,108823:0:0:0:0:
256,192,108803,1,0,0:0:0:0:
182,192,108888,128,0,108994:0:0:0:0:
36,192,108888,128,0,109229:0:0:0:0:
329,192,108888,1,0,0:0:0:0:
402,192,108972,1,0,0:0:0:0:
256,192,108972,128,0,108994:0:0:0:0:
329,192,109058,128,0,109164:0:0:0:0:
475,192,109058,1,0,0:0:0:0:
109,192,109058,128,0,109080:0:0:0:0:
402,192,109143,128,0,109164:0:0:0:0:
182,192,109143,128,0,109164:0:0:0:0:
109,192,109229,128,0,109335:0:0:0:0:
402,192,109229,128,0,109569:0:0:0:0:
256,192,109229,128,0,109250:0:0:0:0:
182,192,109313,128,0,109335:0:0:0:0:
329,192,109313,1,0,0:0:0:0:
256,192,109398,128,0,109505:0:0:0:0:
475,192,109398,1,0,0:0:0:0:
36,192,109398,128,0,109420:0:0:0:0:
329,192,109484,128,0,109505:0:0:0:0:
109,192,109484,1,0,0:0:0:0:
36,192,109569,128,0,109845:0:0:0:0:
182,192,109569,128,0,109590:0:0:0:0:
475,192,109569,128,0,109590:0:0:0:0:
109,192,109654,128,0,109676:0:0:0:0:
256,192,109654,1,0,0:0:0:0:
402,192,109654,128,0,109676:0:0:0:0:
182,192,109739,128,0,109845:0:0:0:0:
475,192,109739,128,0,109782:0:0:0:0:
329,192,109739,128,0,109761:0:0:0:0:
256,192,109825,128,0,109845:0:0:0:0:
402,192,109825,1,0,0:0:0:0:
109,192,109910,128,0,110208:0:0:0:0:
329,192,109910,128,0,109931:0:0:0:0:
182,192,109994,128,0,110037:0:0:0:0:
402,192,109994,1,0,0:0:0:0:
36,192,109994,128,0,110016:0:0:0:0:
256,192,110080,128,0,110208:0:0:0:0:
475,192,110080,128,0,110165:0:0:0:0:
329,192,110165,128,0,110251:0:0:0:0:
36,192,110165,128,0,110208:0:0:0:0:
182,192,110251,128,0,110548:0:0:0:0:
402,192,110251,128,0,110335:0:0:0:0:
475,192,110251,128,0,110292:0:0:0:0:
256,192,110335,128,0,110420:0:0:0:0:
109,192,110335,128,0,110378:0:0:0:0:
329,192,110420,128,0,110548:0:0:0:0:
36,192,110420,1,0,0:0:0:0:
475,192,110420,1,0,0:0:0:0:
109,192,110506,1,0,0:0:0:0:
256,192,110506,1,0,0:0:0:0:
402,192,110506,1,0,0:0:0:0:
36,192,110591,128,0,110846:0:0:0:0:
475,192,110591,128,0,110846:0:0:0:0:
182,192,110591,1,0,0:0:0:0:
329,192,110591,1,0,0:0:0:0:
109,192,110676,128,0,110761:0:0:0:0:
402,192,110676,128,0,110761:0:0:0:0:
182,192,110761,128,0,110804:0:0:0:0:
329,192,110761,128,0,110804:0:0:0:0:
109,192,110846,128,0,110889:0:0:0:0:
402,192,110846,128,0,110889:0:0:0:0:
36,192,110932,128,0,110973:0:0:0:0:
475,192,110932,128,0,110973:0:0:0:0:
256,192,110932,128,0,111016:0:0:0:0:
329,192,111016,128,0,111102:0:0:0:0:
109,192,111016,128,0,111102:0:0:0:0:
402,192,111102,128,0,111187:0:0:0:0:
182,192,111102,128,0,111187:0:0:0:0:
256,192,111187,128,0,111272:0:0:0:0:
475,192,111187,128,0,111272:0:0:0:0:
109,192,111272,128,0,111314:0:0:0:0:
182,192,111272,128,0,111442:0:0:0:0:
36,192,111272,128,0,111357:0:0:0:0:
402,192,111272,128,0,111357:0:0:0:0:
329,192,111272,1,0,0:0:0:0:
256,192,111357,128,0,111421:0:0:0:0:
475,192,111357,128,0,111442:0:0:0:0:
329,192,111442,1,0,0:0:0:0:
402,192,111442,1,0,0:0:0:0:
109,192,111442,128,0,111463:0:0:0:0:
36,192,111442,128,0,111485:0:0:0:0:
475,192,111528,1,0,0:0:0:0:
182,192,111528,128,0,111697:0:0:0:0:
256,192,111528,128,0,111613:0:0:0:0:
402,192,111613,1,0,0:0:0:0:
36,192,111613,128,0,111868:0:0:0:0:
109,192,111613,128,0,111783:0:0:0:0:
329,192,111613,128,0,111783:0:0:0:0:
475,192,111697,128,0,111868:0:0:0:0:
256,192,111697,128,0,111868:0:0:0:0:
402,192,111783,128,0,111953:0:0:0:0:
182,192,111783,128,0,111953:0:0:0:0:
329,192,111868,128,0,112038:0:0:0:0:
109,192,111868,128,0,111953:0:0:0:0:
256,192,111953,128,0,112123:0:0:0:0:
475,192,111953,128,0,112209:0:0:0:0:
36,192,111953,1,0,0:0:0:0:
402,192,112038,1,0,0:0:0:0:
109,192,112038,1,0,0:0:0:0:
182,192,112123,1,0,0:0:0:0:
329,192,112123,1,0,0:0:0:0:
36,192,112123,128,0,112421:0:0:0:0:
402,192,112209,1,0,0:0:0:0:
256,192,112209,1,0,0:0:0:0:
109,192,112293,128,0,112443:0:0:0:0:
329,192,112293,128,0,112336:0:0:0:0:
475,192,112293,128,0,112379:0:0:0:0:
182,192,112379,128,0,112464:0:0:0:0:
256,192,112379,128,0,112550:0:0:0:0:
402,192,112464,128,0,112550:0:0:0:0:
475,192,112464,128,0,112634:0:0:0:0:
109,192,112550,128,0,112634:0:0:0:0:
182,192,112550,128,0,112719:0:0:0:0:
329,192,112634,128,0,112719:0:0:0:0:
402,192,112634,128,0,112805:0:0:0:0:
256,192,112634,1,0,0:0:0:0:
36,192,112634,1,0,0:0:0:0:
36,192,112719,128,0,112890:0:0:0:0:
109,192,112719,128,0,112805:0:0:0:0:
256,192,112805,128,0,112975:0:0:0:0:
329,192,112805,128,0,112890:0:0:0:0:
475,192,112890,1,0,0:0:0:0:
182,192,112890,1,0,0:0:0:0:
402,192,112975,1,0,0:0:0:0:
36,192,112975,128,0,113060:0:0:0:0:
329,192,112975,128,0,113060:0:0:0:0:
475,192,112975,128,0,113060:0:0:0:0:
109,192,112975,1,0,0:0:0:0:
256,192,113060,1,0,0:0:0:0:
109,192,113060,128,0,113145:0:0:0:0:
182,192,113145,128,0,113231:0:0:0:0:
475,192,113145,128,0,113231:0:0:0:0:
329,192,113145,128,0,113231:0:0:0:0:
36,192,113145,1,0,0:0:0:0:
402,192,113231,128,0,113273:0:0:0:0:
256,192,113231,128,0,113273:0:0:0:0:
109,192,113231,128,0,113315:0:0:0:0:
475,192,113315,1,0,0:0:0:0:
329,192,113315,128,0,113401:0:0:0:0:
182,192,113315,128,0,113401:0:0:0:0:
36,192,113315,1,0,0:0:0:0:
402,192,113401,1,0,0:0:0:0:
256,192,113401,128,0,113443:0:0:0:0:
109,192,113401,128,0,113443:0:0:0:0:
329,192,113486,1,0,0:0:0:0:
182,192,113486,128,0,113571:0:0:0:0:
36,192,113486,128,0,113571:0:0:0:0:
475,192,113486,1,0,0:0:0:0:
256,192,113571,1,0,0:0:0:0:
109,192,113571,128,0,113613:0:0:0:0:
402,192,113571,1,0,0:0:0:0:
182,192,113656,1,0,0:0:0:0:
329,192,113656,1,0,0:0:0:0:
475,192,113656,128,0,113827:0:0:0:0:
182,192,113741,128,0,113827:0:0:0:0:
109,192,113741,1,0,0:0:0:0:
402,192,113741,128,0,113784:0:0:0:0:
329,192,113827,128,0,113912:0:0:0:0:
36,192,113827,1,0,0:0:0:0:
256,192,113827,128,0,113996:0:0:0:0:
475,192,113912,128,0,113996:0:0:0:0:
182,192,113912,1,0,0:0:0:0:
109,192,113912,128,0,113954:0:0:0:0:
329,192,113996,1,0,0:0:0:0:
36,192,113996,128,0,114082:0:0:0:0:
402,192,113996,128,0,114039:0:0:0:0:
475,192,114082,1,0,0:0:0:0:
109,192,114082,128,0,114167:0:0:0:0:
256,192,114082,128,0,114253:0:0:0:0:
182,192,114167,128,0,114210:0:0:0:0:
329,192,114167,1,0,0:0:0:0:
475,192,114210,128,0,114253:0:0:0:0:
109,192,114253,128,0,114294:0:0:0:0:
402,192,114294,128,0,114337:0:0:0:0:
36,192,114337,128,0,114508:0:0:0:0:
256,192,114337,128,0,114508:0:0:0:0:
329,192,114337,128,0,114380:0:0:0:0:
182,192,114337,1,0,0:0:0:0:
109,192,114422,1,0,0:0:0:0:
475,192,114422,1,0,0:0:0:0:
402,192,114508,1,0,0:0:0:0:
329,192,114508,1,0,0:0:0:0:
182,192,114508,1,0,0:0:0:0:
109,192,114593,1,0,0:0:0:0:
256,192,114593,1,0,0:0:0:0:
475,192,114593,1,0,0:0:0:0:
109,192,114678,128,0,114848:0:0:0:0:
329,192,114678,128,0,114848:0:0:0:0:
402,192,114678,128,0,114720:0:0:0:0:
36,192,114678,128,0,114720:0:0:0:0:
256,192,114763,1,0,0:0:0:0:
475,192,114763,1,0,0:0:0:0:
402,192,114848,1,0,0:0:0:0:
182,192,114848,1,0,0:0:0:0:
36,192,114848,1,0,0:0:0:0:
109,192,114934,1,0,0:0:0:0:
329,192,114934,1,0,0:0:0:0:
256,192,114934,1,0,0:0:0:0:
475,192,114934,1,0,0:0:0:0:
182,192,115018,128,0,115104:0:0:0:0:
402,192,115018,128,0,115104:0:0:0:0:
36,192,115018,128,0,115061:0:0:0:0:
109,192,115104,128,0,115232:0:0:0:0:
475,192,115104,128,0,115273:0:0:0:0:
256,192,115104,128,0,115189:0:0:0:0:
329,192,115104,128,0,115189:0:0:0:0:
402,192,115189,128,0,115273:0:0:0:0:
182,192,115189,128,0,115402:0:0:0:0:
36,192,115189,128,0,115232:0:0:0:0:
329,192,115273,128,0,115359:0:0:0:0:
256,192,115273,128,0,115444:0:0:0:0:
402,192,115359,128,0,115572:0:0:0:0:
109,192,115359,128,0,115444:0:0:0:0:
475,192,115359,128,0,115402:0:0:0:0:
36,192,115444,128,0,115828:0:0:0:0:
329,192,115444,128,0,115614:0:0:0:0:
109,192,115530,128,0,115614:0:0:0:0:
256,192,115530,128,0,115614:0:0:0:0:
475,192,115530,128,0,115572:0:0:0:0:
182,192,115614,128,0,115828:0:0:0:0:
329,192,115700,128,0,115828:0:0:0:0:
402,192,115700,128,0,115828:0:0:0:0:
109,192,115700,128,0,115828:0:0:0:0:
256,192,115700,128,0,115828:0:0:0:0:
475,192,115700,128,0,115828:0:0:0:0:
36,192,115870,128,0,115913:0:0:0:0:
182,192,115870,128,0,115913:0:0:0:0:
475,192,115870,128,0,115913:0:0:0:0:
109,192,115870,128,0,115955:0:0:0:0:
329,192,115870,128,0,115913:0:0:0:0:
402,192,115870,128,0,115955:0:0:0:0:
256,192,115870,1,0,0:0:0:0:
256,192,116040,1,0,0:0:0:0:
182,192,116040,1,0,0:0:0:0:
109,192,116040,1,0,0:0:0:0:
36,192,116040,1,0,0:0:0:0:
329,192,116040,1,0,0:0:0:0:
402,192,116040,1,0,0:0:0:0:
475,192,116040,1,0,0:0:0:0:
36,192,116211,1,0,0:0:0:0:
109,192,116232,1,0,0:0:0:0:
182,192,116275,1,0,0:0:0:0:
256,192,116295,1,0,0:0:0:0:
329,192,116317,128,0,116509:0:0:0:0:
402,192,116360,128,0,116530:0:0:0:0:
36,192,116381,128,0,116403:0:0:0:0:
109,192,116381,128,0,116444:0:0:0:0:
182,192,116381,128,0,116466:0:0:0:0:
256,192,116381,128,0,116487:0:0:0:0:
475,192,116381,128,0,116594:0:0:0:0:
402,192,116552,128,0,116615:0:0:0:0:
329,192,116552,128,0,116636:0:0:0:0:
256,192,116552,128,0,116658:0:0:0:0:
182,192,116552,128,0,116679:0:0:0:0:
109,192,116552,128,0,116701:0:0:0:0:
36,192,116552,128,0,116721:0:0:0:0:
329,192,116721,1,0,0:0:0:0:
475,192,116721,128,0,116743:0:0:0:0:
256,192,116807,1,0,0:0:0:0:
402,192,116807,128,0,116828:0:0:0:0:
182,192,116892,1,0,0:0:0:0:
329,192,116892,128,0,116913:0:0:0:0:
109,192,116977,1,0,0:0:0:0:
256,192,116977,128,0,116998:0:0:0:0:
402,192,117062,1,0,0:0:0:0:
36,192,117062,128,0,117084:0:0:0:0:
182,192,117062,128,0,117105:0:0:0:0:
329,192,117062,128,0,117126:0:0:0:0:
475,192,117062,128,0,117147:0:0:0:0:
109,192,117233,128,0,117254:0:0:0:0:
182,192,117233,128,0,117275:0:0:0:0:
256,192,117233,128,0,117296:0:0:0:0:
329,192,117233,128,0,117317:0:0:0:0:
402,192,117233,128,0,117339:0:0:0:0:
475,192,117233,128,0,117360:0:0:0:0:
36,192,117403,1,0,0:0:0:0:
329,192,117403,1,0,0:0:0:0:
182,192,117403,128,0,117425:0:0:0:0:
109,192,117488,1,0,0:0:0:0:
256,192,117488,128,0,117509:0:0:0:0:
182,192,117573,1,0,0:0:0:0:
329,192,117573,128,0,117594:0:0:0:0:
256,192,117658,1,0,0:0:0:0:
402,192,117658,128,0,117680:0:0:0:0:
475,192,117743,128,0,117764:0:0:0:0:
329,192,117743,128,0,117786:0:0:0:0:
182,192,117743,128,0,117807:0:0:0:0:
36,192,117743,128,0,117829:0:0:0:0:
182,192,117914,128,0,118084:0:0:0:0:
329,192,117914,128,0,118084:0:0:0:0:
402,192,117914,128,0,117956:0:0:0:0:
475,192,117914,128,0,117935:0:0:0:0:
109,192,117914,128,0,117956:0:0:0:0:
36,192,117914,128,0,117935:0:0:0:0:
256,192,118084,1,0,0:0:0:0:
109,192,118084,1,0,0:0:0:0:
402,192,118084,1,0,0:0:0:0:
182,192,118169,1,0,0:0:0:0:
329,192,118169,1,0,0:0:0:0:
256,192,118255,1,0,0:0:0:0:
109,192,118255,1,0,0:0:0:0:
402,192,118255,1,0,0:0:0:0:
329,192,118339,1,0,0:0:0:0:
182,192,118339,1,0,0:0:0:0:
36,192,118339,1,0,0:0:0:0:
475,192,118339,1,0,0:0:0:0:
109,192,118425,1,0,0:0:0:0:
256,192,118425,1,0,0:0:0:0:
402,192,118425,1,0,0:0:0:0:
256,192,118595,128,0,118616:0:0:0:0:
182,192,118595,128,0,118637:0:0:0:0:
109,192,118595,128,0,118659:0:0:0:0:
36,192,118595,128,0,118680:0:0:0:0:
402,192,118616,1,0,0:0:0:0:
329,192,118659,1,0,0:0:0:0:
256,192,118680,1,0,0:0:0:0:
475,192,118702,128,0,118786:0:0:0:0:
182,192,118702,1,0,0:0:0:0:
402,192,118722,128,0,118786:0:0:0:0:
109,192,118744,1,0,0:0:0:0:
329,192,118744,128,0,118786:0:0:0:0:
256,192,118765,128,0,118786:0:0:0:0:
256,192,119106,128,0,119127:0:0:0:0:
182,192,119106,128,0,119148:0:0:0:0:
109,192,119106,128,0,119169:0:0:0:0:
36,192,119106,128,0,119191:0:0:0:0:
329,192,119106,128,0,119148:0:0:0:0:
402,192,119106,128,0,119169:0:0:0:0:
475,192,119106,128,0,119191:0:0:0:0:
256,192,119212,1,0,0:0:0:0:
36,192,119234,128,0,119318:0:0:0:0:
475,192,119234,128,0,119318:0:0:0:0:
109,192,119255,128,0,119318:0:0:0:0:
402,192,119255,128,0,119318:0:0:0:0:
182,192,119276,128,0,119318:0:0:0:0:
329,192,119276,128,0,119318:0:0:0:0:
256,192,119297,128,0,119318:0:0:0:0:
36,192,119446,128,0,119467:0:0:0:0:
182,192,119446,1,0,0:0:0:0:
329,192,119446,1,0,0:0:0:0:
256,192,119532,1,0,0:0:0:0:
402,192,119532,1,0,0:0:0:0:
109,192,119532,128,0,119553:0:0:0:0:
329,192,119616,1,0,0:0:0:0:
475,192,119616,1,0,0:0:0:0:
182,192,119616,128,0,119638:0:0:0:0:
109,192,119702,128,0,119723:0:0:0:0:
256,192,119702,1,0,0:0:0:0:
402,192,119702,1,0,0:0:0:0:
109,192,119787,128,0,119851:0:0:0:0:
36,192,119787,128,0,119851:0:0:0:0:
182,192,119787,128,0,119808:0:0:0:0:
402,192,119787,128,0,119808:0:0:0:0:
475,192,119787,128,0,119830:0:0:0:0:
329,192,119787,1,0,0:0:0:0:
256,192,119787,1,0,0:0:0:0:
36,192,119893,128,0,119979:0:0:0:0:
109,192,119893,128,0,119979:0:0:0:0:
182,192,119915,128,0,119979:0:0:0:0:
256,192,119936,128,0,119979:0:0:0:0:
475,192,119936,128,0,119979:0:0:0:0:
329,192,119957,128,0,119979:0:0:0:0:
402,192,119957,128,0,119979:0:0:0:0:
329,192,120128,128,0,120148:0:0:0:0:
256,192,120128,1,0,0:0:0:0:
109,192,120128,1,0,0:0:0:0:
36,192,120128,1,0,0:0:0:0:
402,192,120213,128,0,120234:0:0:0:0:
475,192,120213,1,0,0:0:0:0:
182,192,120213,1,0,0:0:0:0:
109,192,120297,128,0,120319:0:0:0:0:
36,192,120297,1,0,0:0:0:0:
329,192,120297,1,0,0:0:0:0:
182,192,120383,128,0,120405:0:0:0:0:
256,192,120383,1,0,0:0:0:0:
402,192,120383,1,0,0:0:0:0:
109,192,120468,128,0,120489:0:0:0:0:
36,192,120468,128,0,120511:0:0:0:0:
329,192,120468,128,0,120489:0:0:0:0:
402,192,120468,128,0,120511:0:0:0:0:
182,192,120468,1,0,0:0:0:0:
256,192,120468,1,0,0:0:0:0:
475,192,120468,128,0,120532:0:0:0:0:
256,192,120575,128,0,120660:0:0:0:0:
329,192,120575,128,0,120660:0:0:0:0:
182,192,120595,128,0,120660:0:0:0:0:
109,192,120617,128,0,120660:0:0:0:0:
402,192,120617,128,0,120660:0:0:0:0:
36,192,120638,128,0,120660:0:0:0:0:
475,192,120638,128,0,120660:0:0:0:0:
475,192,120809,128,0,120894:0:0:0:0:
256,192,120809,1,0,0:0:0:0:
36,192,120809,1,0,0:0:0:0:
402,192,120894,128,0,120979:0:0:0:0:
182,192,120894,1,0,0:0:0:0:
109,192,120894,1,0,0:0:0:0:
329,192,120979,128,0,121064:0:0:0:0:
36,192,120979,1,0,0:0:0:0:
256,192,120979,1,0,0:0:0:0:
402,192,121064,128,0,121150:0:0:0:0:
182,192,121064,1,0,0:0:0:0:
109,192,121064,1,0,0:0:0:0:
475,192,121150,128,0,121447:0:0:0:0:
36,192,121150,128,0,121447:0:0:0:0:
256,192,121150,128,0,121447:0:0:0:0:
109,192,121319,1,0,0:0:0:0:
182,192,121362,1,0,0:0:0:0:
402,192,121405,1,0,0:0:0:0:
109,192,121405,1,0,0:0:0:0:
329,192,121447,1,0,0:0:0:0:
402,192,121490,1,0,0:0:0:0:
256,192,121490,1,0,0:0:0:0:
36,192,121490,1,0,0:0:0:0:
109,192,121490,1,0,0:0:0:0:
475,192,121490,1,0,0:0:0:0:
182,192,121831,128,0,122341:0:0:0:0:
109,192,121831,128,0,122427:0:0:0:0:
329,192,121831,128,0,122256:0:0:0:0:
402,192,121831,128,0,122171:0:0:0:0:
475,192,121831,1,0,0:0:0:0:
36,192,121831,1,0,0:0:0:0:
256,192,121831,1,0,0:0:0:0:
475,192,122171,128,0,122682:0:0:0:0:
402,192,122256,128,0,122596:0:0:0:0:
329,192,122341,128,0,122512:0:0:0:0:
182,192,122427,128,0,122682:0:0:0:0:
109,192,122512,128,0,122596:0:0:0:0:
256,192,122512,128,0,122937:0:0:0:0:
36,192,122512,1,0,0:0:0:0:
36,192,122596,128,0,122853:0:0:0:0:
329,192,122596,128,0,122853:0:0:0:0:
402,192,122682,128,0,122767:0:0:0:0:
109,192,122682,128,0,122767:0:0:0:0:
182,192,122767,128,0,123278:0:0:0:0:
475,192,122767,128,0,122937:0:0:0:0:
402,192,122853,128,0,123022:0:0:0:0:
109,192,122853,128,0,123022:0:0:0:0:
329,192,122937,128,0,123108:0:0:0:0:
36,192,122937,128,0,123108:0:0:0:0:
256,192,123022,128,0,123193:0:0:0:0:
475,192,123022,128,0,123278:0:0:0:0:
402,192,123108,128,0,123193:0:0:0:0:
109,192,123108,128,0,123193:0:0:0:0:
329,192,123193,128,0,123448:0:0:0:0:
36,192,123193,128,0,123363:0:0:0:0:
256,192,123278,128,0,123704:0:0:0:0:
109,192,123278,128,0,123448:0:0:0:0:
402,192,123278,128,0,123363:0:0:0:0:
182,192,123363,128,0,123534:0:0:0:0:
475,192,123363,128,0,123448:0:0:0:0:
36,192,123448,128,0,123704:0:0:0:0:
402,192,123448,128,0,123534:0:0:0:0:
109,192,123534,128,0,123875:0:0:0:0:
329,192,123534,128,0,123618:0:0:0:0:
475,192,123534,128,0,123618:0:0:0:0:
182,192,123618,128,0,123789:0:0:0:0:
402,192,123618,128,0,123704:0:0:0:0:
475,192,123704,128,0,123789:0:0:0:0:
329,192,123704,128,0,123789:0:0:0:0:
402,192,123789,128,0,123832:0:0:0:0:
36,192,123789,128,0,124130:0:0:0:0:
256,192,123789,128,0,123875:0:0:0:0:
329,192,123875,128,0,123916:0:0:0:0:
182,192,123875,128,0,123959:0:0:0:0:
475,192,123875,128,0,124044:0:0:0:0:
402,192,123875,1,0,0:0:0:0:
256,192,123959,128,0,124002:0:0:0:0:
109,192,123959,128,0,124044:0:0:0:0:
329,192,123959,1,0,0:0:0:0:
182,192,124044,128,0,124087:0:0:0:0:
402,192,124044,128,0,124130:0:0:0:0:
256,192,124044,1,0,0:0:0:0:
109,192,124130,128,0,124172:0:0:0:0:
475,192,124130,128,0,124215:0:0:0:0:
329,192,124130,128,0,124215:0:0:0:0:
182,192,124130,1,0,0:0:0:0:
402,192,124215,128,0,124300:0:0:0:0:
36,192,124215,128,0,124470:0:0:0:0:
182,192,124215,128,0,124257:0:0:0:0:
256,192,124215,1,0,0:0:0:0:
475,192,124300,128,0,124385:0:0:0:0:
109,192,124300,128,0,124385:0:0:0:0:
256,192,124300,128,0,124342:0:0:0:0:
329,192,124300,1,0,0:0:0:0:
182,192,124385,128,0,124470:0:0:0:0:
329,192,124385,128,0,124428:0:0:0:0:
402,192,124385,1,0,0:0:0:0:
256,192,124470,128,0,124556:0:0:0:0:
109,192,124470,128,0,124556:0:0:0:0:
402,192,124470,128,0,124513:0:0:0:0:
475,192,124470,1,0,0:0:0:0:
329,192,124556,128,0,124597:0:0:0:0:
36,192,124556,128,0,124640:0:0:0:0:
475,192,124556,128,0,124726:0:0:0:0:
182,192,124556,128,0,124640:0:0:0:0:
256,192,124640,128,0,124683:0:0:0:0:
109,192,124640,128,0,124726:0:0:0:0:
402,192,124640,128,0,124811:0:0:0:0:
329,192,124640,1,0,0:0:0:0:
182,192,124726,128,0,124768:0:0:0:0:
36,192,124726,128,0,124896:0:0:0:0:
256,192,124726,1,0,0:0:0:0:
109,192,124811,128,0,124854:0:0:0:0:
329,192,124811,128,0,125066:0:0:0:0:
475,192,124811,128,0,124896:0:0:0:0:
182,192,124811,1,0,0:0:0:0:
182,192,124896,128,0,124938:0:0:0:0:
256,192,124896,128,0,125152:0:0:0:0:
402,192,124896,128,0,124981:0:0:0:0:
109,192,124896,1,0,0:0:0:0:
36,192,124981,128,0,125023:0:0:0:0:
475,192,124981,128,0,125237:0:0:0:0:
182,192,124981,1,0,0:0:0:0:
109,192,125066,128,0,125109:0:0:0:0:
402,192,125066,128,0,125152:0:0:0:0:
36,192,125066,1,0,0:0:0:0:
182,192,125152,128,0,125194:0:0:0:0:
329,192,125152,128,0,125237:0:0:0:0:
36,192,125152,128,0,125577:0:0:0:0:
109,192,125152,1,0,0:0:0:0:
109,192,125237,128,0,125492:0:0:0:0:
182,192,125237,1,0,0:0:0:0:
402,192,125237,128,0,125321:0:0:0:0:
256,192,125237,128,0,125279:0:0:0:0:
475,192,125321,128,0,125364:0:0:0:0:
329,192,125321,128,0,125407:0:0:0:0:
256,192,125321,1,0,0:0:0:0:
182,192,125321,128,0,125407:0:0:0:0:
402,192,125407,128,0,125450:0:0:0:0:
256,192,125407,128,0,125492:0:0:0:0:
475,192,125407,1,0,0:0:0:0:
329,192,125492,128,0,125535:0:0:0:0:
182,192,125492,128,0,125577:0:0:0:0:
402,192,125492,1,0,0:0:0:0:
256,192,125577,128,0,125662:0:0:0:0:
402,192,125577,128,0,125662:0:0:0:0:
329,192,125577,1,0,0:0:0:0:
109,192,125577,128,0,125662:0:0:0:0:
36,192,125662,128,0,125705:0:0:0:0:
182,192,125662,128,0,125747:0:0:0:0:
475,192,125662,128,0,125833:0:0:0:0:
109,192,125747,128,0,125790:0:0:0:0:
256,192,125747,128,0,125833:0:0:0:0:
36,192,125747,1,0,0:0:0:0:
402,192,125747,128,0,126003:0:0:0:0:
182,192,125833,128,0,125876:0:0:0:0:
329,192,125833,128,0,125917:0:0:0:0:
109,192,125833,1,0,0:0:0:0:
109,192,125917,128,0,125960:0:0:0:0:
256,192,125917,128,0,126003:0:0:0:0:
182,192,125917,1,0,0:0:0:0:
475,192,125917,128,0,126088:0:0:0:0:
36,192,125917,128,0,126088:0:0:0:0:
329,192,126003,128,0,126045:0:0:0:0:
182,192,126003,128,0,126173:0:0:0:0:
402,192,126088,128,0,126131:0:0:0:0:
256,192,126088,128,0,126173:0:0:0:0:
109,192,126088,128,0,126258:0:0:0:0:
329,192,126088,1,0,0:0:0:0:
475,192,126173,128,0,126216:0:0:0:0:
36,192,126173,128,0,126343:0:0:0:0:
329,192,126173,128,0,126258:0:0:0:0:
402,192,126173,1,0,0:0:0:0:
402,192,126258,128,0,126301:0:0:0:0:
182,192,126258,128,0,126429:0:0:0:0:
475,192,126258,1,0,0:0:0:0:
256,192,126258,128,0,126343:0:0:0:0:
329,192,126343,128,0,126386:0:0:0:0:
109,192,126343,128,0,126514:0:0:0:0:
402,192,126343,1,0,0:0:0:0:
256,192,126429,128,0,126471:0:0:0:0:
36,192,126429,128,0,126684:0:0:0:0:
475,192,126429,128,0,126514:0:0:0:0:
329,192,126429,1,0,0:0:0:0:
182,192,126514,128,0,126557:0:0:0:0:
402,192,126514,128,0,126598:0:0:0:0:
256,192,126514,1,0,0:0:0:0:
109,192,126598,128,0,126641:0:0:0:0:
329,192,126598,128,0,126769:0:0:0:0:
475,192,126598,128,0,126684:0:0:0:0:
182,192,126598,1,0,0:0:0:0:
182,192,126684,128,0,126727:0:0:0:0:
402,192,126684,128,0,126855:0:0:0:0:
109,192,126684,1,0,0:0:0:0:
256,192,126769,128,0,126812:0:0:0:0:
36,192,126769,128,0,126790:0:0:0:0:
475,192,126769,128,0,126939:0:0:0:0:
182,192,126769,1,0,0:0:0:0:
329,192,126855,128,0,126897:0:0:0:0:
109,192,126855,128,0,126876:0:0:0:0:
256,192,126855,1,0,0:0:0:0:
182,192,126939,128,0,126961:0:0:0:0:
402,192,126939,128,0,126982:0:0:0:0:
329,192,126939,1,0,0:0:0:0:
36,192,126939,128,0,127195:0:0:0:0:
475,192,127025,128,0,127067:0:0:0:0:
256,192,127025,128,0,127046:0:0:0:0:
402,192,127025,1,0,0:0:0:0:
109,192,127025,128,0,127195:0:0:0:0:
329,192,127110,128,0,127131:0:0:0:0:
475,192,127110,1,0,0:0:0:0:
182,192,127110,128,0,127195:0:0:0:0:
402,192,127195,128,0,127216:0:0:0:0:
475,192,127280,128,0,130005:0:0:0:0:
182,192,127280,1,0,0:0:0:0:
256,192,127280,1,0,0:0:0:0:
109,192,127280,128,0,128642:0:0:0:0:
36,192,127280,1,0,0:0:0:0:
329,192,127280,1,0,0:0:0:0:
36,192,128642,128,0,130005:0:0:0:0:
256,192,128642,128,0,130005:0:0:0:0:
109,192,130005,5,0,0:0:0:0:
402,192,130005,1,0,0:0:0:0:
182,192,130005,1,0,0:0:0:0:
329,192,130005,1,0,0:0:0:0:
182,192,131367,1,0,0:0:0:0:
475,192,131367,1,0,0:0:0:0:
109,192,132687,1,0,0:0:0:0:
256,192,132730,1,0,0:0:0:0:
402,192,132730,1,0,0:0:0:0:
256,192,133411,1,0,0:0:0:0:
36,192,134433,1,0,0:0:0:0:
256,192,134433,1,0,0:0:0:0:
109,192,134773,1,0,0:0:0:0:
329,192,134773,1,0,0:0:0:0:
182,192,135114,1,0,0:0:0:0:
402,192,135114,1,0,0:0:0:0:
256,192,135455,1,0,0:0:0:0:
475,192,135455,1,0,0:0:0:0:
36,192,135455,1,0,0:0:0:0:
475,192,136795,1,0,0:0:0:0:
36,192,136795,1,0,0:0:0:0:
109,192,136817,1,0,0:0:0:0:
182,192,136817,1,0,0:0:0:0:
329,192,136817,1,0,0:0:0:0:
402,192,136817,1,0,0:0:0:0:
109,192,137498,1,0,0:0:0:0:
182,192,137498,1,0,0:0:0:0:
329,192,137498,1,0,0:0:0:0:
402,192,137498,1,0,0:0:0:0:
109,192,138180,1,0,0:0:0:0:
402,192,138180,1,0,0:0:0:0:
256,192,138180,1,0,0:0:0:0:
182,192,138180,1,0,0:0:0:0:
182,192,138861,1,0,0:0:0:0:
329,192,138861,1,0,0:0:0:0:
256,192,139882,1,0,0:0:0:0:
475,192,139882,1,0,0:0:0:0:
402,192,140222,1,0,0:0:0:0:
182,192,140222,1,0,0:0:0:0:
329,192,140563,1,0,0:0:0:0:
109,192,140563,1,0,0:0:0:0:
475,192,140862,1,0,0:0:0:0:
256,192,140904,1,0,0:0:0:0:
36,192,140904,1,0,0:0:0:0:
109,192,141756,1,0,0:0:0:0:
256,192,141756,1,0,0:0:0:0:
182,192,141926,1,0,0:0:0:0:
329,192,141926,1,0,0:0:0:0:
256,192,142096,1,0,0:0:0:0:
402,192,142096,1,0,0:0:0:0:
36,192,142182,1,0,0:0:0:0:
182,192,142223,1,0,0:0:0:0:
329,192,142266,1,0,0:0:0:0:
475,192,142266,1,0,0:0:0:0:
402,192,143118,1,0,0:0:0:0:
256,192,143118,1,0,0:0:0:0:
329,192,143288,1,0,0:0:0:0:
182,192,143288,1,0,0:0:0:0:
256,192,143459,1,0,0:0:0:0:
109,192,143459,1,0,0:0:0:0:
182,192,143629,1,0,0:0:0:0:
36,192,143629,1,0,0:0:0:0:
329,192,143629,1,0,0:0:0:0:
475,192,143629,1,0,0:0:0:0:
182,192,144310,1,0,0:0:0:0:
329,192,144310,1,0,0:0:0:0:
109,192,144991,1,0,0:0:0:0:
402,192,144991,1,0,0:0:0:0:
182,192,144991,128,0,145672:0:0:0:0:
329,192,144991,128,0,145672:0:0:0:0:
36,192,145672,1,0,0:0:0:0:
475,192,145672,1,0,0:0:0:0:
256,192,145672,128,0,146268:0:0:0:0:
109,192,145672,128,0,146268:0:0:0:0:
402,192,145672,128,0,146268:0:0:0:0:
256,192,146354,1,0,0:0:0:0:
402,192,146354,1,0,0:0:0:0:
109,192,146354,1,0,0:0:0:0:
182,192,146694,128,0,146864:0:0:0:0:
256,192,147035,1,0,0:0:0:0:
402,192,147035,1,0,0:0:0:0:
329,192,147035,128,0,147205:0:0:0:0:
109,192,147376,128,0,147545:0:0:0:0:
329,192,147716,1,0,0:0:0:0:
182,192,147716,1,0,0:0:0:0:
36,192,147716,1,0,0:0:0:0:
475,192,147716,1,0,0:0:0:0:
402,192,147716,128,0,148567:0:0:0:0:
109,192,148567,1,0,0:0:0:0:
256,192,148567,1,0,0:0:0:0:
182,192,148738,1,0,0:0:0:0:
329,192,148738,1,0,0:0:0:0:
256,192,148908,1,0,0:0:0:0:
402,192,148908,1,0,0:0:0:0:
475,192,149079,1,0,0:0:0:0:
329,192,149079,1,0,0:0:0:0:
182,192,149079,1,0,0:0:0:0:
36,192,149079,1,0,0:0:0:0:
256,192,149079,128,0,150441:0:0:0:0:
109,192,150441,1,0,0:0:0:0:
402,192,150441,1,0,0:0:0:0:
182,192,150441,1,0,0:0:0:0:
329,192,150441,1,0,0:0:0:0:
182,192,151122,1,0,0:0:0:0:
329,192,151122,1,0,0:0:0:0:
402,192,151463,1,0,0:0:0:0:
109,192,151547,1,0,0:0:0:0:
329,192,151633,1,0,0:0:0:0:
182,192,151718,1,0,0:0:0:0:
256,192,151804,128,0,153081:0:0:0:0:
36,192,151804,128,0,151888:0:0:0:0:
109,192,151804,1,0,0:0:0:0:
329,192,151804,1,0,0:0:0:0:
402,192,151804,1,0,0:0:0:0:
475,192,151804,1,0,0:0:0:0:
475,192,151888,128,0,151973:0:0:0:0:
109,192,151973,128,0,152059:0:0:0:0:
402,192,152059,128,0,152144:0:0:0:0:
182,192,152144,128,0,152229:0:0:0:0:
329,192,152229,128,0,152314:0:0:0:0:
109,192,152314,128,0,152400:0:0:0:0:
402,192,152400,128,0,152485:0:0:0:0:
36,192,152485,128,0,152569:0:0:0:0:
475,192,152569,128,0,152655:0:0:0:0:
109,192,152655,128,0,152740:0:0:0:0:
402,192,152740,128,0,152826:0:0:0:0:
182,192,152826,128,0,152910:0:0:0:0:
329,192,152910,128,0,152995:0:0:0:0:
109,192,152995,128,0,153081:0:0:0:0:
402,192,153081,128,0,153166:0:0:0:0:
475,192,153166,128,0,154443:0:0:0:0:
256,192,153166,128,0,153251:0:0:0:0:
329,192,153166,1,0,0:0:0:0:
182,192,153166,1,0,0:0:0:0:
36,192,153166,1,0,0:0:0:0:
109,192,153166,1,0,0:0:0:0:
402,192,153251,128,0,153336:0:0:0:0:
182,192,153336,128,0,153421:0:0:0:0:
329,192,153421,128,0,153506:0:0:0:0:
109,192,153506,128,0,153591:0:0:0:0:
256,192,153591,128,0,153677:0:0:0:0:
36,192,153677,128,0,153762:0:0:0:0:
182,192,153762,128,0,153846:0:0:0:0:
36,192,153846,128,0,153932:0:0:0:0:
402,192,153846,1,0,0:0:0:0:
329,192,153846,1,0,0:0:0:0:
256,192,153932,128,0,154017:0:0:0:0:
109,192,154017,128,0,154103:0:0:0:0:
329,192,154103,128,0,154187:0:0:0:0:
182,192,154187,128,0,154272:0:0:0:0:
402,192,154272,128,0,154358:0:0:0:0:
256,192,154358,128,0,154443:0:0:0:0:
109,192,154443,128,0,154528:0:0:0:0:
36,192,154528,128,0,155806:0:0:0:0:
256,192,154528,128,0,154613:0:0:0:0:
182,192,154528,1,0,0:0:0:0:
329,192,154528,1,0,0:0:0:0:
402,192,154528,1,0,0:0:0:0:
475,192,154528,1,0,0:0:0:0:
109,192,154613,128,0,154698:0:0:0:0:
329,192,154698,128,0,154784:0:0:0:0:
182,192,154784,128,0,154868:0:0:0:0:
402,192,154868,128,0,154954:0:0:0:0:
256,192,154954,128,0,155039:0:0:0:0:
475,192,155039,128,0,155125:0:0:0:0:
182,192,155039,1,0,0:0:0:0:
329,192,155125,128,0,155209:0:0:0:0:
109,192,155125,1,0,0:0:0:0:
475,192,155209,128,0,155294:0:0:0:0:
182,192,155209,1,0,0:0:0:0:
256,192,155294,128,0,155380:0:0:0:0:
402,192,155380,128,0,155465:0:0:0:0:
182,192,155465,128,0,155550:0:0:0:0:
329,192,155550,128,0,155635:0:0:0:0:
109,192,155635,128,0,155720:0:0:0:0:
256,192,155720,128,0,155806:0:0:0:0:
402,192,155806,128,0,155890:0:0:0:0:
182,192,155890,128,0,155976:0:0:0:0:
36,192,155890,1,0,0:0:0:0:
475,192,155890,1,0,0:0:0:0:
329,192,155976,128,0,156061:0:0:0:0:
475,192,156061,128,0,156146:0:0:0:0:
109,192,156061,128,0,156146:0:0:0:0:
256,192,156146,128,0,156231:0:0:0:0:
402,192,156231,128,0,156316:0:0:0:0:
36,192,156231,128,0,156571:0:0:0:0:
329,192,156231,1,0,0:0:0:0:
109,192,156231,1,0,0:0:0:0:
182,192,156316,128,0,156402:0:0:0:0:
329,192,156402,128,0,156487:0:0:0:0:
109,192,156487,128,0,156571:0:0:0:0:
256,192,156571,128,0,156657:0:0:0:0:
475,192,156571,128,0,156912:0:0:0:0:
182,192,156571,1,0,0:0:0:0:
329,192,156571,1,0,0:0:0:0:
402,192,156657,128,0,156742:0:0:0:0:
36,192,156657,128,0,156742:0:0:0:0:
182,192,156742,128,0,156827:0:0:0:0:
329,192,156827,128,0,156912:0:0:0:0:
36,192,156912,128,0,157253:0:0:0:0:
109,192,156912,128,0,156997:0:0:0:0:
182,192,156912,1,0,0:0:0:0:
402,192,156912,1,0,0:0:0:0:
256,192,156997,128,0,157083:0:0:0:0:
402,192,157083,128,0,157167:0:0:0:0:
182,192,157167,128,0,157253:0:0:0:0:
329,192,157253,128,0,157338:0:0:0:0:
475,192,157253,128,0,158105:0:0:0:0:
256,192,157253,1,0,0:0:0:0:
402,192,157253,1,0,0:0:0:0:
109,192,157338,128,0,157423:0:0:0:0:
256,192,157423,128,0,157508:0:0:0:0:
402,192,157508,128,0,157593:0:0:0:0:
182,192,157593,128,0,157679:0:0:0:0:
109,192,157593,1,0,0:0:0:0:
329,192,157679,128,0,157764:0:0:0:0:
109,192,157764,128,0,157848:0:0:0:0:
256,192,157848,128,0,157934:0:0:0:0:
402,192,157934,128,0,158019:0:0:0:0:
36,192,157934,128,0,158019:0:0:0:0:
329,192,157934,1,0,0:0:0:0:
182,192,158019,128,0,158105:0:0:0:0:
329,192,158105,128,0,158189:0:0:0:0:
475,192,158189,128,0,158275:0:0:0:0:
36,192,158275,128,0,158360:0:0:0:0:
109,192,158275,128,0,158360:0:0:0:0:
256,192,158275,1,0,0:0:0:0:
329,192,158360,128,0,158445:0:0:0:0:
402,192,158360,128,0,158445:0:0:0:0:
182,192,158445,128,0,158530:0:0:0:0:
109,192,158445,128,0,158530:0:0:0:0:
402,192,158530,128,0,158615:0:0:0:0:
475,192,158530,128,0,158615:0:0:0:0:
329,192,158615,128,0,159211:0:0:0:0:
36,192,158615,128,0,158870:0:0:0:0:
256,192,158615,1,0,0:0:0:0:
182,192,158615,1,0,0:0:0:0:
109,192,158701,128,0,158956:0:0:0:0:
182,192,158786,128,0,159041:0:0:0:0:
475,192,158786,1,0,0:0:0:0:
256,192,158870,128,0,159127:0:0:0:0:
36,192,158956,128,0,159296:0:0:0:0:
402,192,158956,1,0,0:0:0:0:
475,192,158956,1,0,0:0:0:0:
109,192,159041,128,0,159296:0:0:0:0:
182,192,159127,128,0,159211:0:0:0:0:
402,192,159127,1,0,0:0:0:0:
256,192,159211,128,0,159296:0:0:0:0:
182,192,159296,128,0,159892:0:0:0:0:
475,192,159296,128,0,159552:0:0:0:0:
329,192,159296,1,0,0:0:0:0:
402,192,159382,128,0,159637:0:0:0:0:
329,192,159467,128,0,159722:0:0:0:0:
109,192,159467,1,0,0:0:0:0:
256,192,159552,128,0,159808:0:0:0:0:
109,192,159637,1,0,0:0:0:0:
36,192,159637,1,0,0:0:0:0:
475,192,159637,128,0,159978:0:0:0:0:
402,192,159722,128,0,159978:0:0:0:0:
329,192,159808,128,0,159892:0:0:0:0:
36,192,159808,1,0,0:0:0:0:
256,192,159892,128,0,159978:0:0:0:0:
36,192,159978,128,0,161255:0:0:0:0:
109,192,159978,1,0,0:0:0:0:
182,192,159978,1,0,0:0:0:0:
329,192,159978,128,0,160063:0:0:0:0:
475,192,160063,128,0,160148:0:0:0:0:
256,192,160148,128,0,160233:0:0:0:0:
402,192,160233,128,0,160318:0:0:0:0:
182,192,160318,128,0,160404:0:0:0:0:
475,192,160318,1,0,0:0:0:0:
329,192,160404,128,0,160488:0:0:0:0:
109,192,160488,128,0,160573:0:0:0:0:
256,192,160573,128,0,160659:0:0:0:0:
402,192,160659,128,0,160744:0:0:0:0:
329,192,160659,1,0,0:0:0:0:
182,192,160744,128,0,160829:0:0:0:0:
329,192,160829,128,0,160914:0:0:0:0:
475,192,160914,128,0,161000:0:0:0:0:
109,192,160914,128,0,161000:0:0:0:0:
256,192,161000,128,0,161085:0:0:0:0:
182,192,161000,1,0,0:0:0:0:
402,192,161085,128,0,161169:0:0:0:0:
182,192,161169,128,0,161255:0:0:0:0:
329,192,161255,128,0,161340:0:0:0:0:
475,192,161340,128,0,161426:0:0:0:0:
36,192,161340,1,0,0:0:0:0:
182,192,161340,1,0,0:0:0:0:
402,192,161340,1,0,0:0:0:0:
109,192,161426,128,0,161510:0:0:0:0:
256,192,161510,128,0,161595:0:0:0:0:
402,192,161595,128,0,161681:0:0:0:0:
109,192,161681,128,0,161766:0:0:0:0:
475,192,161681,128,0,162021:0:0:0:0:
36,192,161681,1,0,0:0:0:0:
256,192,161681,1,0,0:0:0:0:
329,192,161766,128,0,161851:0:0:0:0:
182,192,161851,128,0,161936:0:0:0:0:
402,192,161936,128,0,162021:0:0:0:0:
36,192,162021,128,0,162362:0:0:0:0:
256,192,162021,128,0,162107:0:0:0:0:
182,192,162021,1,0,0:0:0:0:
329,192,162021,1,0,0:0:0:0:
109,192,162107,128,0,162191:0:0:0:0:
475,192,162107,128,0,162191:0:0:0:0:
402,192,162107,1,0,0:0:0:0:
329,192,162191,128,0,162277:0:0:0:0:
256,192,162191,1,0,0:0:0:0:
182,192,162277,128,0,162362:0:0:0:0:
109,192,162277,1,0,0:0:0:0:
475,192,162362,128,0,162703:0:0:0:0:
402,192,162362,128,0,162447:0:0:0:0:
329,192,162362,1,0,0:0:0:0:
256,192,162447,128,0,162532:0:0:0:0:
182,192,162447,1,0,0:0:0:0:
109,192,162532,128,0,162617:0:0:0:0:
36,192,162532,1,0,0:0:0:0:
329,192,162532,1,0,0:0:0:0:
402,192,162617,1,0,0:0:0:0:
329,192,162703,128,0,162723:0:0:0:0:
182,192,162703,128,0,162723:0:0:0:0:
36,192,162703,128,0,162723:0:0:0:0:
256,192,162703,1,0,0:0:0:0:
109,192,162703,1,0,0:0:0:0:
402,192,162788,128,0,162809:0:0:0:0:
475,192,162788,128,0,162809:0:0:0:0:
109,192,162872,128,0,162894:0:0:0:0:
256,192,162872,128,0,162894:0:0:0:0:
402,192,162958,128,0,162979:0:0:0:0:
329,192,162958,128,0,162979:0:0:0:0:
182,192,163043,128,0,163064:0:0:0:0:
36,192,163043,128,0,163064:0:0:0:0:
475,192,163043,128,0,163064:0:0:0:0:
329,192,163129,128,0,163150:0:0:0:0:
256,192,163129,128,0,163150:0:0:0:0:
109,192,163213,128,0,163235:0:0:0:0:
402,192,163213,128,0,163235:0:0:0:0:
182,192,163298,128,0,163319:0:0:0:0:
256,192,163298,128,0,163319:0:0:0:0:
36,192,163384,128,0,163405:0:0:0:0:
329,192,163384,128,0,163405:0:0:0:0:
475,192,163384,128,0,163405:0:0:0:0:
109,192,163469,128,0,163490:0:0:0:0:
182,192,163469,128,0,163490:0:0:0:0:
475,192,163554,128,0,163639:0:0:0:0:
402,192,163554,1,0,0:0:0:0:
256,192,163554,1,0,0:0:0:0:
36,192,163554,128,0,163639:0:0:0:0:
109,192,163725,128,0,163809:0:0:0:0:
402,192,163725,128,0,163809:0:0:0:0:
182,192,163725,1,0,0:0:0:0:
329,192,163725,1,0,0:0:0:0:
475,192,163894,1,0,0:0:0:0:
36,192,163894,1,0,0:0:0:0:
182,192,163894,128,0,163980:0:0:0:0:
329,192,163894,128,0,163980:0:0:0:0:
475,192,164022,128,0,164043:0:0:0:0:
329,192,164043,128,0,164065:0:0:0:0:
256,192,164065,128,0,164150:0:0:0:0:
182,192,164065,128,0,164086:0:0:0:0:
36,192,164150,128,0,164171:0:0:0:0:
109,192,164150,128,0,164171:0:0:0:0:
256,192,164235,128,0,164257:0:0:0:0:
402,192,164235,128,0,164257:0:0:0:0:
109,192,164320,128,0,164341:0:0:0:0:
182,192,164320,128,0,164341:0:0:0:0:
36,192,164406,128,0,164427:0:0:0:0:
329,192,164406,128,0,164427:0:0:0:0:
475,192,164406,128,0,164427:0:0:0:0:
256,192,164490,128,0,164512:0:0:0:0:
182,192,164490,128,0,164512:0:0:0:0:
109,192,164576,128,0,164597:0:0:0:0:
402,192,164576,128,0,164597:0:0:0:0:
329,192,164661,128,0,164682:0:0:0:0:
256,192,164661,128,0,164682:0:0:0:0:
182,192,164746,128,0,164767:0:0:0:0:
475,192,164746,128,0,164767:0:0:0:0:
36,192,164746,128,0,164767:0:0:0:0:
329,192,164831,128,0,164853:0:0:0:0:
402,192,164831,128,0,164853:0:0:0:0:
256,192,164916,128,0,165002:0:0:0:0:
109,192,164916,1,0,0:0:0:0:
182,192,164916,1,0,0:0:0:0:
329,192,165087,128,0,165171:0:0:0:0:
182,192,165087,128,0,165171:0:0:0:0:
36,192,165087,1,0,0:0:0:0:
256,192,165087,1,0,0:0:0:0:
475,192,165087,1,0,0:0:0:0:
109,192,165257,128,0,165342:0:0:0:0:
402,192,165257,128,0,165342:0:0:0:0:
329,192,165257,1,0,0:0:0:0:
182,192,165257,1,0,0:0:0:0:
475,192,165428,128,0,165512:0:0:0:0:
36,192,165428,128,0,165512:0:0:0:0:
182,192,165428,1,0,0:0:0:0:
329,192,165428,1,0,0:0:0:0:
109,192,165428,1,0,0:0:0:0:
402,192,165428,1,0,0:0:0:0:
256,192,165428,128,0,165512:0:0:0:0:
475,192,165597,128,0,165619:0:0:0:0:
36,192,165597,128,0,165619:0:0:0:0:
109,192,165683,128,0,165704:0:0:0:0:
402,192,165683,128,0,165704:0:0:0:0:
182,192,165768,128,0,165789:0:0:0:0:
329,192,165768,128,0,165789:0:0:0:0:
256,192,165853,128,0,165875:0:0:0:0:
475,192,165853,128,0,165875:0:0:0:0:
36,192,165853,128,0,165875:0:0:0:0:
109,192,165938,128,0,165960:0:0:0:0:
402,192,165938,128,0,165960:0:0:0:0:
182,192,166023,128,0,166044:0:0:0:0:
329,192,166023,128,0,166044:0:0:0:0:
402,192,166109,128,0,166193:0:0:0:0:
109,192,166109,128,0,166193:0:0:0:0:
475,192,166109,128,0,166193:0:0:0:0:
36,192,166109,128,0,166193:0:0:0:0:
256,192,166109,128,0,166130:0:0:0:0:
182,192,166193,128,0,166215:0:0:0:0:
329,192,166193,128,0,166215:0:0:0:0:
109,192,166279,128,0,166301:0:0:0:0:
402,192,166279,128,0,166301:0:0:0:0:
475,192,166364,128,0,166385:0:0:0:0:
36,192,166364,128,0,166385:0:0:0:0:
109,192,166450,128,0,166470:0:0:0:0:
329,192,166450,128,0,166470:0:0:0:0:
182,192,166534,128,0,166556:0:0:0:0:
402,192,166534,128,0,166556:0:0:0:0:
475,192,166619,128,0,166640:0:0:0:0:
109,192,166619,128,0,166640:0:0:0:0:
36,192,166705,128,0,166726:0:0:0:0:
402,192,166705,128,0,166726:0:0:0:0:
182,192,166790,128,0,166875:0:0:0:0:
109,192,166790,128,0,166875:0:0:0:0:
256,192,166790,128,0,166875:0:0:0:0:
329,192,166790,1,0,0:0:0:0:
36,192,166875,128,0,166896:0:0:0:0:
475,192,166875,128,0,166896:0:0:0:0:
402,192,166960,128,0,166981:0:0:0:0:
109,192,166960,128,0,166981:0:0:0:0:
329,192,167045,128,0,167066:0:0:0:0:
182,192,167045,128,0,167066:0:0:0:0:
109,192,167131,128,0,167152:0:0:0:0:
402,192,167131,128,0,167152:0:0:0:0:
36,192,167215,128,0,167237:0:0:0:0:
475,192,167215,128,0,167237:0:0:0:0:
329,192,167301,128,0,167321:0:0:0:0:
182,192,167301,128,0,167321:0:0:0:0:
109,192,167386,128,0,167407:0:0:0:0:
475,192,167386,128,0,167407:0:0:0:0:
402,192,167470,128,0,167556:0:0:0:0:
329,192,167470,128,0,167556:0:0:0:0:
256,192,167470,128,0,167556:0:0:0:0:
36,192,167470,128,0,167492:0:0:0:0:
182,192,167556,128,0,167578:0:0:0:0:
475,192,167556,128,0,167578:0:0:0:0:
109,192,167641,128,0,167662:0:0:0:0:
402,192,167641,128,0,167662:0:0:0:0:
36,192,167727,128,0,167747:0:0:0:0:
329,192,167727,128,0,167747:0:0:0:0:
256,192,167811,128,0,167833:0:0:0:0:
475,192,167811,128,0,167833:0:0:0:0:
182,192,167896,128,0,167918:0:0:0:0:
402,192,167896,128,0,167918:0:0:0:0:
109,192,167982,128,0,168003:0:0:0:0:
329,192,167982,128,0,168003:0:0:0:0:
36,192,168067,128,0,168088:0:0:0:0:
256,192,168067,128,0,168088:0:0:0:0:
329,192,168152,1,0,0:0:0:0:
475,192,168152,128,0,168322:0:0:0:0:
402,192,168152,128,0,168237:0:0:0:0:
182,192,168152,1,0,0:0:0:0:
109,192,168152,1,0,0:0:0:0:
36,192,168237,1,0,0:0:0:0:
182,192,168237,128,0,168408:0:0:0:0:
109,192,168237,128,0,168322:0:0:0:0:
256,192,168322,1,0,0:0:0:0:
402,192,168322,128,0,168492:0:0:0:0:
329,192,168322,128,0,168408:0:0:0:0:
475,192,168408,1,0,0:0:0:0:
109,192,168408,128,0,168578:0:0:0:0:
36,192,168408,128,0,168492:0:0:0:0:
182,192,168492,1,0,0:0:0:0:
329,192,168492,128,0,168663:0:0:0:0:
256,192,168492,128,0,168578:0:0:0:0:
402,192,168578,1,0,0:0:0:0:
36,192,168578,128,0,168748:0:0:0:0:
475,192,168578,128,0,168663:0:0:0:0:
182,192,168663,1,0,0:0:0:0:
109,192,168663,1,0,0:0:0:0:
256,192,168663,128,0,168833:0:0:0:0:
475,192,168748,1,0,0:0:0:0:
329,192,168748,1,0,0:0:0:0:
402,192,168748,128,0,168833:0:0:0:0:
109,192,168833,128,0,168918:0:0:0:0:
36,192,168833,128,0,168918:0:0:0:0:
182,192,168833,128,0,169004:0:0:0:0:
256,192,168918,1,0,0:0:0:0:
402,192,168918,1,0,0:0:0:0:
329,192,168918,128,0,169004:0:0:0:0:
475,192,169004,128,0,169089:0:0:0:0:
36,192,169004,128,0,169089:0:0:0:0:
109,192,169004,1,0,0:0:0:0:
182,192,169089,1,0,0:0:0:0:
329,192,169089,1,0,0:0:0:0:
256,192,169089,128,0,169173:0:0:0:0:
402,192,169173,128,0,169259:0:0:0:0:
475,192,169173,128,0,169259:0:0:0:0:
36,192,169173,1,0,0:0:0:0:
256,192,169259,1,0,0:0:0:0:
109,192,169259,1,0,0:0:0:0:
182,192,169259,128,0,169344:0:0:0:0:
402,192,169344,128,0,169430:0:0:0:0:
329,192,169344,128,0,169430:0:0:0:0:
475,192,169344,1,0,0:0:0:0:
36,192,169344,1,0,0:0:0:0:
109,192,169430,128,0,169514:0:0:0:0:
182,192,169430,128,0,169514:0:0:0:0:
256,192,169514,128,0,169600:0:0:0:0:
329,192,169514,128,0,169600:0:0:0:0:
402,192,169514,1,0,0:0:0:0:
475,192,169514,1,0,0:0:0:0:
36,192,169514,1,0,0:0:0:0:
109,192,169600,1,0,0:0:0:0:
182,192,169600,1,0,0:0:0:0:
402,192,169685,1,0,0:0:0:0:
256,192,169685,1,0,0:0:0:0:
182,192,169770,1,0,0:0:0:0:
36,192,169770,1,0,0:0:0:0:
402,192,169855,128,0,169940:0:0:0:0:
329,192,169855,1,0,0:0:0:0:
256,192,169855,128,0,169940:0:0:0:0:
475,192,169855,1,0,0:0:0:0:
109,192,169855,128,0,169940:0:0:0:0:
36,192,169940,1,0,0:0:0:0:
182,192,169940,1,0,0:0:0:0:
475,192,170026,1,0,0:0:0:0:
329,192,170026,1,0,0:0:0:0:
109,192,170111,1,0,0:0:0:0:
256,192,170111,1,0,0:0:0:0:
329,192,170195,128,0,170281:0:0:0:0:
475,192,170195,128,0,170281:0:0:0:0:
182,192,170195,128,0,170281:0:0:0:0:
36,192,170195,128,0,170281:0:0:0:0:
402,192,170195,1,0,0:0:0:0:
109,192,170281,1,0,0:0:0:0:
329,192,170366,1,0,0:0:0:0:
402,192,170366,1,0,0:0:0:0:
36,192,170452,1,0,0:0:0:0:
182,192,170452,1,0,0:0:0:0:
329,192,170536,1,0,0:0:0:0:
475,192,170536,1,0,0:0:0:0:
402,192,170536,128,0,170579:0:0:0:0:
109,192,170536,128,0,170579:0:0:0:0:
256,192,170621,128,0,170664:0:0:0:0:
329,192,170707,1,0,0:0:0:0:
475,192,170707,1,0,0:0:0:0:
36,192,170707,1,0,0:0:0:0:
182,192,170707,1,0,0:0:0:0:
402,192,170707,128,0,170750:0:0:0:0:
109,192,170707,128,0,170750:0:0:0:0:
256,192,170791,128,0,170834:0:0:0:0:
182,192,170877,1,0,0:0:0:0:
475,192,170877,1,0,0:0:0:0:
36,192,170877,1,0,0:0:0:0:
329,192,170877,1,0,0:0:0:0:
109,192,170877,128,0,171217:0:0:0:0:
402,192,170877,128,0,171217:0:0:0:0:
256,192,171217,1,0,0:0:0:0:
475,192,171217,128,0,171260:0:0:0:0:
182,192,171260,1,0,0:0:0:0:
402,192,171260,128,0,171303:0:0:0:0:
109,192,171303,1,0,0:0:0:0:
329,192,171303,128,0,171345:0:0:0:0:
36,192,171345,1,0,0:0:0:0:
475,192,171345,1,0,0:0:0:0:
256,192,171345,128,0,171388:0:0:0:0:
402,192,171388,1,0,0:0:0:0:
182,192,171388,128,0,171431:0:0:0:0:
329,192,171431,1,0,0:0:0:0:
109,192,171431,128,0,171472:0:0:0:0:
256,192,171472,1,0,0:0:0:0:
36,192,171472,128,0,171515:0:0:0:0:
475,192,171472,128,0,171515:0:0:0:0:
182,192,171515,1,0,0:0:0:0:
402,192,171515,128,0,171558:0:0:0:0:
109,192,171558,1,0,0:0:0:0:
329,192,171558,128,0,171601:0:0:0:0:
36,192,171601,1,0,0:0:0:0:
475,192,171601,1,0,0:0:0:0:
256,192,171601,128,0,171643:0:0:0:0:
402,192,171643,1,0,0:0:0:0:
182,192,171643,128,0,171686:0:0:0:0:
329,192,171686,1,0,0:0:0:0:
109,192,171686,128,0,171729:0:0:0:0:
256,192,171729,1,0,0:0:0:0:
36,192,171729,128,0,171771:0:0:0:0:
475,192,171729,128,0,171771:0:0:0:0:
182,192,171771,1,0,0:0:0:0:
402,192,171771,128,0,171813:0:0:0:0:
109,192,171813,1,0,0:0:0:0:
329,192,171813,128,0,171856:0:0:0:0:
36,192,171856,1,0,0:0:0:0:
475,192,171856,1,0,0:0:0:0:
256,192,171856,128,0,171898:0:0:0:0:
402,192,171898,1,0,0:0:0:0:
182,192,171898,128,0,171941:0:0:0:0:
329,192,171941,1,0,0:0:0:0:
109,192,171941,128,0,171984:0:0:0:0:
256,192,171984,1,0,0:0:0:0:
36,192,171984,128,0,172027:0:0:0:0:
475,192,171984,128,0,172027:0:0:0:0:
182,192,172027,1,0,0:0:0:0:
402,192,172027,128,0,172069:0:0:0:0:
109,192,172069,1,0,0:0:0:0:
329,192,172069,128,0,172112:0:0:0:0:
36,192,172112,1,0,0:0:0:0:
475,192,172112,1,0,0:0:0:0:
256,192,172112,128,0,172154:0:0:0:0:
402,192,172154,1,0,0:0:0:0:
182,192,172154,128,0,172196:0:0:0:0:
329,192,172196,1,0,0:0:0:0:
109,192,172196,128,0,172239:0:0:0:0:
36,192,172239,128,0,172494:0:0:0:0:
475,192,172239,128,0,172494:0:0:0:0:
256,192,172239,1,0,0:0:0:0:
402,192,172239,1,0,0:0:0:0:
182,192,172580,5,0,0:0:0:0:
109,192,172580,128,0,172835:0:0:0:0:
329,192,172580,1,0,0:0:0:0:
402,192,172580,128,0,172835:0:0:0:0:
256,192,172580,1,0,0:0:0:0:
109,192,172920,1,0,0:0:0:0:
402,192,172920,1,0,0:0:0:0:
36,192,172920,1,0,0:0:0:0:
475,192,172920,1,0,0:0:0:0:
182,192,172920,1,0,0:0:0:0:
329,192,172920,1,0,0:0:0:0:
182,192,173006,1,0,0:0:0:0:
329,192,173006,1,0,0:0:0:0:
256,192,173006,1,0,0:0:0:0:
402,192,173091,1,0,0:0:0:0:
475,192,173091,1,0,0:0:0:0:
109,192,173091,1,0,0:0:0:0:
36,192,173091,1,0,0:0:0:0:
182,192,173176,1,0,0:0:0:0:
329,192,173176,1,0,0:0:0:0:
256,192,173176,1,0,0:0:0:0:
182,192,173261,1,0,0:0:0:0:
36,192,173261,1,0,0:0:0:0:
109,192,173261,1,0,0:0:0:0:
329,192,173261,1,0,0:0:0:0:
402,192,173261,1,0,0:0:0:0:
475,192,173261,1,0,0:0:0:0:
256,192,173602,128,0,174623:0:0:0:0:
36,192,173602,1,0,0:0:0:0:
109,192,173602,1,0,0:0:0:0:
475,192,173602,1,0,0:0:0:0:
329,192,173602,1,0,0:0:0:0:
36,192,173687,128,0,173857:0:0:0:0:
109,192,173687,128,0,173857:0:0:0:0:
402,192,173687,1,0,0:0:0:0:
182,192,173730,128,0,173814:0:0:0:0:
329,192,173772,1,0,0:0:0:0:
475,192,173857,1,0,0:0:0:0:
402,192,173857,1,0,0:0:0:0:
475,192,173942,128,0,174113:0:0:0:0:
402,192,173942,128,0,174113:0:0:0:0:
182,192,173942,1,0,0:0:0:0:
329,192,173985,128,0,174070:0:0:0:0:
109,192,174028,1,0,0:0:0:0:
36,192,174113,1,0,0:0:0:0:
109,192,174197,1,0,0:0:0:0:
182,192,174197,1,0,0:0:0:0:
475,192,174197,1,0,0:0:0:0:
109,192,174283,128,0,174453:0:0:0:0:
182,192,174283,128,0,174453:0:0:0:0:
402,192,174283,1,0,0:0:0:0:
36,192,174326,128,0,174411:0:0:0:0:
475,192,174368,128,0,174453:0:0:0:0:
329,192,174368,1,0,0:0:0:0:
402,192,174453,128,0,174538:0:0:0:0:
36,192,174538,128,0,174623:0:0:0:0:
109,192,174623,128,0,174709:0:0:0:0:
402,192,174623,128,0,174666:0:0:0:0:
182,192,174709,128,0,174793:0:0:0:0:
329,192,174709,128,0,174752:0:0:0:0:
109,192,174793,128,0,174879:0:0:0:0:
402,192,174793,128,0,174836:0:0:0:0:
182,192,174879,128,0,174964:0:0:0:0:
329,192,174879,128,0,174921:0:0:0:0:
256,192,174964,128,0,175305:0:0:0:0:
36,192,174964,1,0,0:0:0:0:
109,192,174964,1,0,0:0:0:0:
402,192,174964,1,0,0:0:0:0:
475,192,174964,1,0,0:0:0:0:
329,192,174964,1,0,0:0:0:0:
182,192,175134,1,0,0:0:0:0:
329,192,175134,1,0,0:0:0:0:
182,192,175305,1,0,0:0:0:0:
329,192,175305,1,0,0:0:0:0:
36,192,175305,1,0,0:0:0:0:
475,192,175305,1,0,0:0:0:0:
109,192,175368,1,0,0:0:0:0:
402,192,175368,1,0,0:0:0:0:
36,192,175411,1,0,0:0:0:0:
475,192,175411,1,0,0:0:0:0:
109,192,175475,1,0,0:0:0:0:
402,192,175475,1,0,0:0:0:0:
182,192,175539,1,0,0:0:0:0:
329,192,175539,1,0,0:0:0:0:
256,192,175582,1,0,0:0:0:0:
36,192,175645,128,0,175901:0:0:0:0:
475,192,175645,128,0,175901:0:0:0:0:
109,192,175645,1,0,0:0:0:0:
182,192,175645,1,0,0:0:0:0:
329,192,175645,1,0,0:0:0:0:
402,192,175645,1,0,0:0:0:0:
329,192,175815,1,0,0:0:0:0:
182,192,175815,1,0,0:0:0:0:
36,192,175986,128,0,176071:0:0:0:0:
475,192,175986,128,0,176071:0:0:0:0:
256,192,175986,1,0,0:0:0:0:
109,192,176071,128,0,176156:0:0:0:0:
402,192,176071,128,0,176156:0:0:0:0:
182,192,176156,128,0,176241:0:0:0:0:
329,192,176156,128,0,176241:0:0:0:0:
256,192,176156,1,0,0:0:0:0:
36,192,176241,128,0,176327:0:0:0:0:
475,192,176241,128,0,176327:0:0:0:0:
256,192,176327,128,0,176412:0:0:0:0:
402,192,176327,1,0,0:0:0:0:
109,192,176327,1,0,0:0:0:0:
182,192,176412,128,0,176496:0:0:0:0:
329,192,176412,128,0,176496:0:0:0:0:
402,192,176496,128,0,176582:0:0:0:0:
109,192,176496,128,0,176582:0:0:0:0:
475,192,176582,128,0,176667:0:0:0:0:
36,192,176582,128,0,176667:0:0:0:0:
256,192,176582,128,0,177008:0:0:0:0:
182,192,176667,128,0,176922:0:0:0:0:
329,192,176667,128,0,176922:0:0:0:0:
109,192,176753,128,0,176837:0:0:0:0:
402,192,176753,128,0,176837:0:0:0:0:
36,192,176922,128,0,177008:0:0:0:0:
475,192,176922,128,0,177008:0:0:0:0:
109,192,177008,128,0,177178:0:0:0:0:
182,192,177008,1,0,0:0:0:0:
329,192,177008,1,0,0:0:0:0:
402,192,177008,1,0,0:0:0:0:
402,192,177178,1,0,0:0:0:0:
256,192,177306,1,0,0:0:0:0:
402,192,177348,128,0,177518:0:0:0:0:
182,192,177348,1,0,0:0:0:0:
109,192,177348,1,0,0:0:0:0:
36,192,177348,1,0,0:0:0:0:
329,192,177348,1,0,0:0:0:0:
475,192,177348,1,0,0:0:0:0:
256,192,177518,1,0,0:0:0:0:
109,192,177646,1,0,0:0:0:0:
182,192,177689,128,0,177859:0:0:0:0:
329,192,177689,128,0,177859:0:0:0:0:
402,192,177689,1,0,0:0:0:0:
475,192,177689,1,0,0:0:0:0:
256,192,177689,1,0,0:0:0:0:
36,192,177689,1,0,0:0:0:0:
109,192,177859,1,0,0:0:0:0:
475,192,177987,1,0,0:0:0:0:
109,192,178030,128,0,178200:0:0:0:0:
402,192,178030,128,0,178200:0:0:0:0:
256,192,178030,1,0,0:0:0:0:
182,192,178030,1,0,0:0:0:0:
36,192,178030,1,0,0:0:0:0:
329,192,178030,1,0,0:0:0:0:
182,192,178200,1,0,0:0:0:0:
329,192,178200,1,0,0:0:0:0:
36,192,178370,128,0,178626:0:0:0:0:
109,192,178370,128,0,178497:0:0:0:0:
182,192,178370,128,0,178455:0:0:0:0:
256,192,178370,128,0,178455:0:0:0:0:
402,192,178370,1,0,0:0:0:0:
475,192,178370,1,0,0:0:0:0:
329,192,178370,1,0,0:0:0:0:
109,192,178540,128,0,178583:0:0:0:0:
182,192,178540,128,0,178583:0:0:0:0:
256,192,178540,128,0,178583:0:0:0:0:
475,192,178540,1,0,0:0:0:0:
402,192,178626,1,0,0:0:0:0:
475,192,178711,128,0,178966:0:0:0:0:
36,192,178711,1,0,0:0:0:0:
182,192,178711,1,0,0:0:0:0:
329,192,178711,1,0,0:0:0:0:
109,192,178795,1,0,0:0:0:0:
256,192,178795,1,0,0:0:0:0:
36,192,178881,1,0,0:0:0:0:
182,192,178881,1,0,0:0:0:0:
329,192,178881,1,0,0:0:0:0:
109,192,178966,1,0,0:0:0:0:
256,192,178966,1,0,0:0:0:0:
36,192,179052,128,0,179392:0:0:0:0:
182,192,179052,1,0,0:0:0:0:
329,192,179052,1,0,0:0:0:0:
402,192,179052,1,0,0:0:0:0:
475,192,179052,1,0,0:0:0:0:
109,192,179136,128,0,179307:0:0:0:0:
182,192,179221,128,0,179307:0:0:0:0:
329,192,179221,1,0,0:0:0:0:
402,192,179221,1,0,0:0:0:0:
475,192,179221,1,0,0:0:0:0:
256,192,179307,128,0,179392:0:0:0:0:
109,192,179392,128,0,179733:0:0:0:0:
475,192,179392,1,0,0:0:0:0:
402,192,179392,1,0,0:0:0:0:
329,192,179392,1,0,0:0:0:0:
182,192,179477,128,0,179647:0:0:0:0:
256,192,179562,128,0,179647:0:0:0:0:
36,192,179562,1,0,0:0:0:0:
402,192,179562,1,0,0:0:0:0:
475,192,179562,1,0,0:0:0:0:
329,192,179647,128,0,179733:0:0:0:0:
182,192,179733,128,0,180073:0:0:0:0:
475,192,179733,1,0,0:0:0:0:
402,192,179733,1,0,0:0:0:0:
256,192,179733,1,0,0:0:0:0:
36,192,179733,1,0,0:0:0:0:
402,192,179903,1,0,0:0:0:0:
329,192,179903,1,0,0:0:0:0:
109,192,179903,1,0,0:0:0:0:
36,192,180073,128,0,180201:0:0:0:0:
475,192,180073,128,0,180137:0:0:0:0:
109,192,180073,1,0,0:0:0:0:
256,192,180073,1,0,0:0:0:0:
329,192,180073,1,0,0:0:0:0:
402,192,180137,128,0,180180:0:0:0:0:
329,192,180180,128,0,180243:0:0:0:0:
36,192,180243,128,0,180371:0:0:0:0:
256,192,180243,128,0,180307:0:0:0:0:
182,192,180307,128,0,180350:0:0:0:0:
109,192,180350,128,0,180414:0:0:0:0:
475,192,180414,128,0,180755:0:0:0:0:
329,192,180414,1,0,0:0:0:0:
256,192,180414,1,0,0:0:0:0:
182,192,180414,1,0,0:0:0:0:
36,192,180414,1,0,0:0:0:0:
402,192,180498,128,0,180584:0:0:0:0:
329,192,180584,128,0,180755:0:0:0:0:
36,192,180584,1,0,0:0:0:0:
109,192,180584,1,0,0:0:0:0:
182,192,180584,1,0,0:0:0:0:
256,192,180584,1,0,0:0:0:0:
402,192,180755,128,0,181095:0:0:0:0:
36,192,180755,1,0,0:0:0:0:
109,192,180755,1,0,0:0:0:0:
182,192,180755,1,0,0:0:0:0:
256,192,180755,1,0,0:0:0:0:
329,192,180839,128,0,180925:0:0:0:0:
256,192,180925,128,0,181095:0:0:0:0:
109,192,180925,1,0,0:0:0:0:
36,192,180925,1,0,0:0:0:0:
182,192,180925,1,0,0:0:0:0:
475,192,180925,1,0,0:0:0:0:
329,192,181095,128,0,181435:0:0:0:0:
36,192,181095,1,0,0:0:0:0:
109,192,181095,1,0,0:0:0:0:
182,192,181095,1,0,0:0:0:0:
475,192,181095,1,0,0:0:0:0:
109,192,181265,1,0,0:0:0:0:
402,192,181265,1,0,0:0:0:0:
36,192,181435,128,0,181478:0:0:0:0:
182,192,181435,128,0,181478:0:0:0:0:
402,192,181435,128,0,181734:0:0:0:0:
475,192,181435,128,0,181734:0:0:0:0:
256,192,181520,128,0,181563:0:0:0:0:
109,192,181520,128,0,181563:0:0:0:0:
182,192,181606,128,0,181648:0:0:0:0:
36,192,181606,128,0,181648:0:0:0:0:
109,192,181691,128,0,181734:0:0:0:0:
256,192,181691,128,0,181734:0:0:0:0:
36,192,181776,128,0,182116:0:0:0:0:
182,192,181776,1,0,0:0:0:0:
329,192,181776,1,0,0:0:0:0:
402,192,181776,1,0,0:0:0:0:
475,192,181776,1,0,0:0:0:0:
475,192,182116,128,0,182159:0:0:0:0:
329,192,182116,128,0,182159:0:0:0:0:
109,192,182116,128,0,182415:0:0:0:0:
182,192,182116,128,0,182415:0:0:0:0:
402,192,182202,128,0,182244:0:0:0:0:
256,192,182202,128,0,182244:0:0:0:0:
329,192,182287,128,0,182330:0:0:0:0:
475,192,182287,128,0,182330:0:0:0:0:
402,192,182372,128,0,182415:0:0:0:0:
256,192,182372,128,0,182415:0:0:0:0:
475,192,182457,128,0,182797:0:0:0:0:
329,192,182457,1,0,0:0:0:0:
182,192,182457,1,0,0:0:0:0:
109,192,182457,1,0,0:0:0:0:
36,192,182457,1,0,0:0:0:0:
182,192,182797,128,0,182840:0:0:0:0:
256,192,182797,128,0,182840:0:0:0:0:
36,192,182797,128,0,183095:0:0:0:0:
109,192,182797,128,0,183095:0:0:0:0:
256,192,182883,128,0,182926:0:0:0:0:
182,192,182883,128,0,182926:0:0:0:0:
329,192,182968,128,0,183011:0:0:0:0:
402,192,182968,128,0,183011:0:0:0:0:
402,192,183054,128,0,183095:0:0:0:0:
329,192,183054,128,0,183095:0:0:0:0:
36,192,183138,128,0,183352:0:0:0:0:
475,192,183138,1,0,0:0:0:0:
256,192,183138,1,0,0:0:0:0:
109,192,183181,128,0,183309:0:0:0:0:
402,192,183203,1,0,0:0:0:0:
182,192,183223,128,0,183266:0:0:0:0:
329,192,183245,1,0,0:0:0:0:
475,192,183309,128,0,183372:0:0:0:0:
256,192,183309,1,0,0:0:0:0:
402,192,183372,128,0,183479:0:0:0:0:
182,192,183372,1,0,0:0:0:0:
329,192,183415,128,0,183586:0:0:0:0:
109,192,183415,1,0,0:0:0:0:
36,192,183479,1,0,0:0:0:0:
256,192,183521,128,0,183607:0:0:0:0:
475,192,183543,1,0,0:0:0:0:
182,192,183564,128,0,183607:0:0:0:0:
402,192,183586,1,0,0:0:0:0:
36,192,183650,128,0,183713:0:0:0:0:
329,192,183650,1,0,0:0:0:0:
109,192,183713,128,0,183819:0:0:0:0:
256,192,183713,1,0,0:0:0:0:
182,192,183756,128,0,183926:0:0:0:0:
329,192,183756,1,0,0:0:0:0:
402,192,183819,1,0,0:0:0:0:
475,192,183819,1,0,0:0:0:0:
36,192,183819,1,0,0:0:0:0:
475,192,183905,1,0,0:0:0:0:
402,192,183905,1,0,0:0:0:0:
402,192,183990,1,0,0:0:0:0:
475,192,183990,1,0,0:0:0:0:
475,192,184076,1,0,0:0:0:0:
402,192,184076,1,0,0:0:0:0:
402,192,184160,1,0,0:0:0:0:
475,192,184160,1,0,0:0:0:0:
109,192,184160,1,0,0:0:0:0:
36,192,184160,1,0,0:0:0:0:
256,192,184160,1,0,0:0:0:0:
475,192,184245,1,0,0:0:0:0:
402,192,184245,1,0,0:0:0:0:
36,192,184245,1,0,0:0:0:0:
109,192,184245,1,0,0:0:0:0:
256,192,184245,1,0,0:0:0:0:
402,192,184331,1,0,0:0:0:0:
475,192,184331,1,0,0:0:0:0:
109,192,184331,1,0,0:0:0:0:
36,192,184331,1,0,0:0:0:0:
256,192,184331,1,0,0:0:0:0:
475,192,184416,1,0,0:0:0:0:
402,192,184416,1,0,0:0:0:0:
36,192,184416,1,0,0:0:0:0:
109,192,184416,1,0,0:0:0:0:
256,192,184416,1,0,0:0:0:0:
109,192,184501,1,0,0:0:0:0:
329,192,184501,1,0,0:0:0:0:
256,192,184501,1,0,0:0:0:0:
182,192,184586,1,0,0:0:0:0:
402,192,184586,1,0,0:0:0:0:
256,192,184671,1,0,0:0:0:0:
475,192,184671,1,0,0:0:0:0:
182,192,184756,1,0,0:0:0:0:
402,192,184756,1,0,0:0:0:0:
256,192,184841,1,0,0:0:0:0:
36,192,184841,1,0,0:0:0:0:
475,192,184841,1,0,0:0:0:0:
109,192,184927,1,0,0:0:0:0:
329,192,184927,1,0,0:0:0:0:
36,192,184947,1,0,0:0:0:0:
256,192,185012,1,0,0:0:0:0:
475,192,185012,1,0,0:0:0:0:
109,192,185076,1,0,0:0:0:0:
329,192,185096,1,0,0:0:0:0:
182,192,185096,1,0,0:0:0:0:
36,192,185182,1,0,0:0:0:0:
109,192,185182,1,0,0:0:0:0:
402,192,185182,1,0,0:0:0:0:
256,192,185267,1,0,0:0:0:0:
329,192,185267,1,0,0:0:0:0:
182,192,185288,1,0,0:0:0:0:
109,192,185353,1,0,0:0:0:0:
402,192,185353,1,0,0:0:0:0:
182,192,185416,1,0,0:0:0:0:
36,192,185437,1,0,0:0:0:0:
475,192,185437,1,0,0:0:0:0:
402,192,185522,1,0,0:0:0:0:
256,192,185522,1,0,0:0:0:0:
109,192,185522,1,0,0:0:0:0:
36,192,185608,1,0,0:0:0:0:
329,192,185608,1,0,0:0:0:0:
256,192,185629,1,0,0:0:0:0:
182,192,185693,1,0,0:0:0:0:
475,192,185693,1,0,0:0:0:0:
329,192,185757,1,0,0:0:0:0:
402,192,185778,1,0,0:0:0:0:
109,192,185778,1,0,0:0:0:0:
182,192,185863,1,0,0:0:0:0:
329,192,185863,1,0,0:0:0:0:
475,192,185863,1,0,0:0:0:0:
109,192,185927,1,0,0:0:0:0:
256,192,185948,1,0,0:0:0:0:
402,192,185969,1,0,0:0:0:0:
182,192,186034,1,0,0:0:0:0:
36,192,186034,1,0,0:0:0:0:
329,192,186034,1,0,0:0:0:0:
475,192,186097,1,0,0:0:0:0:
256,192,186118,1,0,0:0:0:0:
402,192,186118,1,0,0:0:0:0:
109,192,186140,1,0,0:0:0:0:
329,192,186204,1,0,0:0:0:0:
182,192,186204,1,0,0:0:0:0:
36,192,186204,1,0,0:0:0:0:
256,192,186289,1,0,0:0:0:0:
402,192,186289,1,0,0:0:0:0:
182,192,186375,1,0,0:0:0:0:
475,192,186375,1,0,0:0:0:0:
109,192,186459,1,0,0:0:0:0:
402,192,186459,1,0,0:0:0:0:
36,192,186544,1,0,0:0:0:0:
329,192,186544,1,0,0:0:0:0:
475,192,186544,1,0,0:0:0:0:
182,192,186544,1,0,0:0:0:0:
256,192,186630,1,0,0:0:0:0:
109,192,186630,1,0,0:0:0:0:
182,192,186715,1,0,0:0:0:0:
329,192,186715,1,0,0:0:0:0:
402,192,186800,1,0,0:0:0:0:
109,192,186800,1,0,0:0:0:0:
36,192,186885,128,0,187140:0:0:0:0:
475,192,186885,128,0,187140:0:0:0:0:
182,192,186885,128,0,186970:0:0:0:0:
329,192,186885,128,0,186970:0:0:0:0:
256,192,186885,1,0,0:0:0:0:
109,192,186970,128,0,187056:0:0:0:0:
402,192,187056,128,0,187140:0:0:0:0:
182,192,187056,1,0,0:0:0:0:
329,192,187056,1,0,0:0:0:0:
256,192,187140,128,0,187226:0:0:0:0:
329,192,187226,128,0,187311:0:0:0:0:
182,192,187226,128,0,187481:0:0:0:0:
36,192,187226,1,0,0:0:0:0:
109,192,187226,1,0,0:0:0:0:
402,192,187226,1,0,0:0:0:0:
475,192,187311,128,0,187396:0:0:0:0:
256,192,187396,128,0,187481:0:0:0:0:
109,192,187396,128,0,187652:0:0:0:0:
329,192,187396,1,0,0:0:0:0:
36,192,187396,1,0,0:0:0:0:
402,192,187481,128,0,187566:0:0:0:0:
182,192,187566,128,0,187652:0:0:0:0:
36,192,187566,128,0,187821:0:0:0:0:
256,192,187566,1,0,0:0:0:0:
475,192,187566,1,0,0:0:0:0:
329,192,187652,128,0,187737:0:0:0:0:
109,192,187737,128,0,187821:0:0:0:0:
475,192,187737,128,0,187992:0:0:0:0:
402,192,187737,1,0,0:0:0:0:
182,192,187737,1,0,0:0:0:0:
256,192,187821,128,0,187907:0:0:0:0:
36,192,187907,128,0,187992:0:0:0:0:
402,192,187907,128,0,188162:0:0:0:0:
109,192,187907,1,0,0:0:0:0:
329,192,187907,1,0,0:0:0:0:
182,192,187992,128,0,188077:0:0:0:0:
36,192,188077,128,0,188162:0:0:0:0:
329,192,188077,128,0,188247:0:0:0:0:
109,192,188077,1,0,0:0:0:0:
475,192,188077,1,0,0:0:0:0:
256,192,188162,128,0,188247:0:0:0:0:
109,192,188247,128,0,188333:0:0:0:0:
402,192,188247,128,0,188417:0:0:0:0:
182,192,188247,1,0,0:0:0:0:
36,192,188247,1,0,0:0:0:0:
475,192,188247,1,0,0:0:0:0:
329,192,188333,128,0,188417:0:0:0:0:
182,192,188417,128,0,188503:0:0:0:0:
475,192,188417,128,0,188588:0:0:0:0:
256,192,188417,1,0,0:0:0:0:
36,192,188417,1,0,0:0:0:0:
402,192,188503,128,0,188588:0:0:0:0:
256,192,188588,128,0,189014:0:0:0:0:
329,192,188588,128,0,188631:0:0:0:0:
109,192,188588,1,0,0:0:0:0:
36,192,188673,1,0,0:0:0:0:
182,192,188673,128,0,188929:0:0:0:0:
402,192,188673,128,0,188716:0:0:0:0:
109,192,188758,128,0,188843:0:0:0:0:
475,192,188758,128,0,188801:0:0:0:0:
329,192,188758,1,0,0:0:0:0:
36,192,188843,128,0,188929:0:0:0:0:
402,192,188843,128,0,188886:0:0:0:0:
109,192,188929,128,0,189014:0:0:0:0:
329,192,188929,128,0,188971:0:0:0:0:
475,192,188929,1,0,0:0:0:0:
182,192,189014,128,0,189098:0:0:0:0:
402,192,189014,128,0,189057:0:0:0:0:
256,192,189098,128,0,189525:0:0:0:0:
36,192,189098,128,0,189141:0:0:0:0:
475,192,189098,1,0,0:0:0:0:
329,192,189184,128,0,189439:0:0:0:0:
109,192,189184,128,0,189227:0:0:0:0:
402,192,189184,1,0,0:0:0:0:
402,192,189269,128,0,189355:0:0:0:0:
182,192,189269,128,0,189312:0:0:0:0:
36,192,189269,1,0,0:0:0:0:
475,192,189355,128,0,189439:0:0:0:0:
109,192,189355,128,0,189397:0:0:0:0:
402,192,189439,128,0,189525:0:0:0:0:
36,192,189439,128,0,189482:0:0:0:0:
182,192,189439,1,0,0:0:0:0:
329,192,189525,128,0,189610:0:0:0:0:
475,192,189525,1,0,0:0:0:0:
109,192,189525,128,0,189567:0:0:0:0:
256,192,189610,128,0,189865:0:0:0:0:
402,192,189610,1,0,0:0:0:0:
182,192,189610,128,0,189653:0:0:0:0:
36,192,189610,1,0,0:0:0:0:
109,192,189780,128,0,189822:0:0:0:0:
182,192,189780,128,0,189822:0:0:0:0:
402,192,189780,128,0,189822:0:0:0:0:
402,192,189951,1,0,0:0:0:0:
182,192,189951,1,0,0:0:0:0:
36,192,189951,1,0,0:0:0:0:
475,192,189951,1,0,0:0:0:0:
256,192,189951,1,0,0:0:0:0:
329,192,190036,1,0,0:0:0:0:
109,192,190036,1,0,0:0:0:0:
256,192,190120,1,0,0:0:0:0:
36,192,190120,1,0,0:0:0:0:
475,192,190120,1,0,0:0:0:0:
109,192,190206,1,0,0:0:0:0:
402,192,190206,1,0,0:0:0:0:
329,192,190269,1,0,0:0:0:0:
475,192,190291,1,0,0:0:0:0:
36,192,190291,1,0,0:0:0:0:
182,192,190291,1,0,0:0:0:0:
256,192,190312,1,0,0:0:0:0:
109,192,190377,1,0,0:0:0:0:
329,192,190377,1,0,0:0:0:0:
36,192,190461,1,0,0:0:0:0:
475,192,190461,1,0,0:0:0:0:
402,192,190461,1,0,0:0:0:0:
182,192,190483,1,0,0:0:0:0:
329,192,190526,1,0,0:0:0:0:
256,192,190546,1,0,0:0:0:0:
36,192,190568,1,0,0:0:0:0:
402,192,190632,1,0,0:0:0:0:
109,192,190632,1,0,0:0:0:0:
475,192,190632,1,0,0:0:0:0:
329,192,190695,1,0,0:0:0:0:
36,192,190717,1,0,0:0:0:0:
256,192,190717,1,0,0:0:0:0:
182,192,190738,1,0,0:0:0:0:
109,192,190802,1,0,0:0:0:0:
402,192,190802,1,0,0:0:0:0:
329,192,190866,1,0,0:0:0:0:
182,192,190887,1,0,0:0:0:0:
475,192,190887,1,0,0:0:0:0:
256,192,190972,1,0,0:0:0:0:
109,192,190972,1,0,0:0:0:0:
402,192,190972,1,0,0:0:0:0:
36,192,190972,1,0,0:0:0:0:
475,192,191058,1,0,0:0:0:0:
182,192,191058,1,0,0:0:0:0:
329,192,191079,1,0,0:0:0:0:
402,192,191142,1,0,0:0:0:0:
109,192,191142,1,0,0:0:0:0:
256,192,191142,1,0,0:0:0:0:
182,192,191207,1,0,0:0:0:0:
329,192,191228,1,0,0:0:0:0:
36,192,191228,1,0,0:0:0:0:
475,192,191313,1,0,0:0:0:0:
256,192,191313,1,0,0:0:0:0:
109,192,191313,1,0,0:0:0:0:
402,192,191313,1,0,0:0:0:0:
36,192,191377,1,0,0:0:0:0:
402,192,191419,1,0,0:0:0:0:
109,192,191419,1,0,0:0:0:0:
329,192,191462,1,0,0:0:0:0:
182,192,191462,1,0,0:0:0:0:
256,192,191483,1,0,0:0:0:0:
475,192,191483,1,0,0:0:0:0:
36,192,191483,1,0,0:0:0:0:
182,192,191547,1,0,0:0:0:0:
329,192,191547,1,0,0:0:0:0:
402,192,191568,1,0,0:0:0:0:
109,192,191568,1,0,0:0:0:0:
256,192,191654,1,0,0:0:0:0:
475,192,191654,1,0,0:0:0:0:
329,192,191654,1,0,0:0:0:0:
36,192,191654,1,0,0:0:0:0:
109,192,191654,1,0,0:0:0:0:
402,192,191738,1,0,0:0:0:0:
182,192,191738,1,0,0:0:0:0:
329,192,191823,1,0,0:0:0:0:
109,192,191823,1,0,0:0:0:0:
256,192,191909,1,0,0:0:0:0:
36,192,191909,1,0,0:0:0:0:
182,192,191994,1,0,0:0:0:0:
329,192,191994,1,0,0:0:0:0:
109,192,191994,1,0,0:0:0:0:
256,192,192079,1,0,0:0:0:0:
402,192,192079,1,0,0:0:0:0:
182,192,192164,1,0,0:0:0:0:
475,192,192164,1,0,0:0:0:0:
109,192,192250,1,0,0:0:0:0:
402,192,192250,1,0,0:0:0:0:
36,192,192335,128,0,192590:0:0:0:0:
475,192,192335,128,0,192590:0:0:0:0:
182,192,192335,128,0,192419:0:0:0:0:
256,192,192335,1,0,0:0:0:0:
329,192,192335,128,0,192419:0:0:0:0:
109,192,192419,128,0,192505:0:0:0:0:
256,192,192505,128,0,192590:0:0:0:0:
182,192,192505,1,0,0:0:0:0:
329,192,192505,1,0,0:0:0:0:
402,192,192590,128,0,192676:0:0:0:0:
109,192,192676,128,0,192760:0:0:0:0:
329,192,192676,128,0,192739:0:0:0:0:
182,192,192676,1,0,0:0:0:0:
402,192,192739,128,0,192845:0:0:0:0:
36,192,192760,128,0,192931:0:0:0:0:
256,192,192760,128,0,192803:0:0:0:0:
475,192,192782,128,0,192952:0:0:0:0:
182,192,192845,128,0,192931:0:0:0:0:
109,192,192931,128,0,193101:0:0:0:0:
329,192,192931,128,0,192973:0:0:0:0:
256,192,193016,128,0,193101:0:0:0:0:
36,192,193016,1,0,0:0:0:0:
182,192,193101,128,0,193271:0:0:0:0:
402,192,193101,128,0,193143:0:0:0:0:
475,192,193101,1,0,0:0:0:0:
329,192,193186,128,0,193271:0:0:0:0:
36,192,193186,1,0,0:0:0:0:
256,192,193271,128,0,193441:0:0:0:0:
475,192,193271,128,0,193314:0:0:0:0:
109,192,193271,1,0,0:0:0:0:
402,192,193357,128,0,193441:0:0:0:0:
182,192,193357,128,0,193420:0:0:0:0:
36,192,193357,1,0,0:0:0:0:
109,192,193420,128,0,193527:0:0:0:0:
475,192,193441,128,0,193612:0:0:0:0:
329,192,193441,1,0,0:0:0:0:
36,192,193463,128,0,193590:0:0:0:0:
329,192,193527,128,0,193612:0:0:0:0:
256,192,193527,1,0,0:0:0:0:
402,192,193612,128,0,193782:0:0:0:0:
182,192,193612,128,0,193655:0:0:0:0:
109,192,193612,1,0,0:0:0:0:
256,192,193697,128,0,193782:0:0:0:0:
36,192,193697,1,0,0:0:0:0:
329,192,193782,128,0,193953:0:0:0:0:
109,192,193782,128,0,193825:0:0:0:0:
475,192,193782,1,0,0:0:0:0:
182,192,193867,128,0,193953:0:0:0:0:
402,192,193867,1,0,0:0:0:0:
256,192,193953,128,0,194122:0:0:0:0:
36,192,193953,128,0,193995:0:0:0:0:
109,192,193953,1,0,0:0:0:0:
475,192,194038,128,0,194080:0:0:0:0:
182,192,194038,1,0,0:0:0:0:
36,192,194038,1,0,0:0:0:0:
402,192,194080,128,0,194165:0:0:0:0:
329,192,194122,128,0,194251:0:0:0:0:
109,192,194122,1,0,0:0:0:0:
36,192,194208,128,0,194251:0:0:0:0:
256,192,194208,1,0,0:0:0:0:
475,192,194208,1,0,0:0:0:0:
402,192,194208,1,0,0:0:0:0:
182,192,194208,1,0,0:0:0:0:
109,192,194251,128,0,194336:0:0:0:0:
182,192,194293,128,0,194420:0:0:0:0:
329,192,194293,1,0,0:0:0:0:
475,192,194379,128,0,194420:0:0:0:0:
256,192,194379,1,0,0:0:0:0:
36,192,194379,1,0,0:0:0:0:
109,192,194379,1,0,0:0:0:0:
402,192,194420,128,0,194506:0:0:0:0:
329,192,194463,128,0,194591:0:0:0:0:
182,192,194463,1,0,0:0:0:0:
36,192,194548,128,0,194591:0:0:0:0:
256,192,194548,1,0,0:0:0:0:
475,192,194548,1,0,0:0:0:0:
402,192,194548,1,0,0:0:0:0:
109,192,194591,128,0,194677:0:0:0:0:
182,192,194634,128,0,194761:0:0:0:0:
329,192,194634,1,0,0:0:0:0:
475,192,194719,128,0,194783:0:0:0:0:
256,192,194719,1,0,0:0:0:0:
36,192,194719,1,0,0:0:0:0:
109,192,194719,1,0,0:0:0:0:
402,192,194783,128,0,194889:0:0:0:0:
182,192,194804,1,0,0:0:0:0:
329,192,194826,128,0,194953:0:0:0:0:
256,192,194889,128,0,194932:0:0:0:0:
36,192,194889,1,0,0:0:0:0:
475,192,194889,1,0,0:0:0:0:
109,192,194889,1,0,0:0:0:0:
182,192,194932,128,0,195017:0:0:0:0:
402,192,194953,128,0,195059:0:0:0:0:
109,192,194975,128,0,195017:0:0:0:0:
475,192,194995,128,0,195059:0:0:0:0:
36,192,195059,128,0,195123:0:0:0:0:
256,192,195059,1,0,0:0:0:0:
329,192,195059,1,0,0:0:0:0:
182,192,195059,1,0,0:0:0:0:
109,192,195123,128,0,195230:0:0:0:0:
402,192,195144,1,0,0:0:0:0:
182,192,195166,128,0,195293:0:0:0:0:
256,192,195230,128,0,195272:0:0:0:0:
475,192,195230,1,0,0:0:0:0:
36,192,195230,1,0,0:0:0:0:
329,192,195272,128,0,195358:0:0:0:0:
109,192,195293,128,0,195400:0:0:0:0:
402,192,195315,128,0,195358:0:0:0:0:
36,192,195336,128,0,195400:0:0:0:0:
475,192,195400,128,0,195485:0:0:0:0:
182,192,195400,128,0,195570:0:0:0:0:
256,192,195400,128,0,195442:0:0:0:0:
329,192,195400,1,0,0:0:0:0:
402,192,195400,1,0,0:0:0:0:
402,192,195485,128,0,195570:0:0:0:0:
36,192,195485,128,0,195656:0:0:0:0:
329,192,195570,128,0,195656:0:0:0:0:
109,192,195570,128,0,195613:0:0:0:0:
475,192,195570,128,0,195996:0:0:0:0:
256,192,195656,128,0,195740:0:0:0:0:
182,192,195656,128,0,195826:0:0:0:0:
402,192,195656,128,0,195826:0:0:0:0:
329,192,195740,128,0,195826:0:0:0:0:
109,192,195740,128,0,195911:0:0:0:0:
36,192,195740,128,0,195783:0:0:0:0:
256,192,195826,128,0,195911:0:0:0:0:
182,192,195911,128,0,195996:0:0:0:0:
402,192,195911,128,0,195954:0:0:0:0:
329,192,195911,128,0,195996:0:0:0:0:
36,192,195911,128,0,196166:0:0:0:0:
109,192,195996,128,0,196081:0:0:0:0:
256,192,195996,128,0,196166:0:0:0:0:
182,192,196081,128,0,196166:0:0:0:0:
475,192,196081,128,0,196252:0:0:0:0:
329,192,196081,128,0,196123:0:0:0:0:
402,192,196081,128,0,196337:0:0:0:0:
109,192,196166,128,0,196252:0:0:0:0:
36,192,196252,128,0,196337:0:0:0:0:
256,192,196252,128,0,196294:0:0:0:0:
329,192,196252,128,0,196337:0:0:0:0:
182,192,196252,128,0,196337:0:0:0:0:
109,192,196337,128,0,196421:0:0:0:0:
475,192,196337,128,0,196507:0:0:0:0:
182,192,196421,128,0,196507:0:0:0:0:
402,192,196421,128,0,196592:0:0:0:0:
329,192,196421,128,0,196464:0:0:0:0:
36,192,196421,128,0,196678:0:0:0:0:
256,192,196507,128,0,196592:0:0:0:0:
109,192,196507,128,0,196678:0:0:0:0:
182,192,196592,128,0,196678:0:0:0:0:
475,192,196592,128,0,196635:0:0:0:0:
329,192,196592,128,0,196678:0:0:0:0:
256,192,196678,128,0,196762:0:0:0:0:
402,192,196762,128,0,196847:0:0:0:0:
329,192,196762,128,0,196847:0:0:0:0:
109,192,196762,128,0,196933:0:0:0:0:
475,192,196847,1,0,0:0:0:0:
256,192,196847,128,0,196933:0:0:0:0:
329,192,196933,128,0,197018:0:0:0:0:
475,192,196933,128,0,197018:0:0:0:0:
36,192,196933,128,0,197018:0:0:0:0:
402,192,197018,1,0,0:0:0:0:
182,192,197018,128,0,197103:0:0:0:0:
402,192,197103,128,0,197188:0:0:0:0:
256,192,197103,128,0,197188:0:0:0:0:
36,192,197103,128,0,197273:0:0:0:0:
475,192,197103,128,0,197188:0:0:0:0:
329,192,197188,1,0,0:0:0:0:
109,192,197188,128,0,197273:0:0:0:0:
329,192,197273,128,0,197359:0:0:0:0:
182,192,197273,128,0,197359:0:0:0:0:
402,192,197273,128,0,197359:0:0:0:0:
256,192,197359,1,0,0:0:0:0:
36,192,197359,128,0,197443:0:0:0:0:
256,192,197443,128,0,197529:0:0:0:0:
109,192,197443,128,0,197529:0:0:0:0:
475,192,197443,128,0,197614:0:0:0:0:
329,192,197443,128,0,197529:0:0:0:0:
182,192,197529,1,0,0:0:0:0:
402,192,197529,128,0,197614:0:0:0:0:
182,192,197614,128,0,197700:0:0:0:0:
36,192,197614,128,0,197700:0:0:0:0:
256,192,197614,128,0,197700:0:0:0:0:
329,192,197700,128,0,197784:0:0:0:0:
109,192,197700,1,0,0:0:0:0:
402,192,197784,1,0,0:0:0:0:
475,192,197784,1,0,0:0:0:0:
256,192,197784,128,0,197869:0:0:0:0:
36,192,197784,1,0,0:0:0:0:
182,192,197784,1,0,0:0:0:0:
182,192,197869,128,0,197955:0:0:0:0:
256,192,197955,128,0,198040:0:0:0:0:
475,192,197955,1,0,0:0:0:0:
402,192,197955,1,0,0:0:0:0:
109,192,197955,1,0,0:0:0:0:
36,192,197955,1,0,0:0:0:0:
329,192,198040,128,0,198125:0:0:0:0:
36,192,198125,128,0,198210:0:0:0:0:
256,192,198125,128,0,198167:0:0:0:0:
475,192,198125,128,0,198295:0:0:0:0:
182,192,198125,1,0,0:0:0:0:
109,192,198210,128,0,198295:0:0:0:0:
402,192,198210,128,0,198636:0:0:0:0:
182,192,198295,128,0,198381:0:0:0:0:
329,192,198295,128,0,198338:0:0:0:0:
36,192,198295,128,0,198551:0:0:0:0:
256,192,198381,128,0,198465:0:0:0:0:
329,192,198465,128,0,198551:0:0:0:0:
475,192,198465,128,0,198508:0:0:0:0:
109,192,198465,128,0,198636:0:0:0:0:
182,192,198465,128,0,198891:0:0:0:0:
256,192,198551,128,0,198636:0:0:0:0:
329,192,198636,128,0,198720:0:0:0:0:
36,192,198636,128,0,198679:0:0:0:0:
475,192,198636,128,0,198891:0:0:0:0:
402,192,198720,128,0,198806:0:0:0:0:
329,192,198806,128,0,198891:0:0:0:0:
109,192,198806,128,0,198848:0:0:0:0:
256,192,198806,128,0,198977:0:0:0:0:
36,192,198806,128,0,199232:0:0:0:0:
402,192,198891,128,0,198977:0:0:0:0:
475,192,198977,128,0,199061:0:0:0:0:
182,192,198977,128,0,199019:0:0:0:0:
109,192,198977,128,0,199061:0:0:0:0:
402,192,199061,128,0,199146:0:0:0:0:
256,192,199061,128,0,199146:0:0:0:0:
329,192,199146,128,0,199232:0:0:0:0:
109,192,199146,128,0,199189:0:0:0:0:
475,192,199146,128,0,199317:0:0:0:0:
182,192,199146,128,0,199402:0:0:0:0:
256,192,199232,128,0,199317:0:0:0:0:
402,192,199232,128,0,199487:0:0:0:0:
329,192,199317,128,0,199402:0:0:0:0:
36,192,199317,128,0,199360:0:0:0:0:
109,192,199317,128,0,199402:0:0:0:0:
256,192,199402,128,0,199487:0:0:0:0:
109,192,199487,128,0,199572:0:0:0:0:
182,192,199487,128,0,199572:0:0:0:0:
329,192,199487,128,0,199658:0:0:0:0:
475,192,199487,128,0,199572:0:0:0:0:
36,192,199572,1,0,0:0:0:0:
256,192,199572,128,0,199658:0:0:0:0:
36,192,199658,128,0,199742:0:0:0:0:
182,192,199658,128,0,199742:0:0:0:0:
402,192,199658,128,0,199742:0:0:0:0:
475,192,199658,128,0,199742:0:0:0:0:
109,192,199742,1,0,0:0:0:0:
329,192,199742,128,0,199828:0:0:0:0:
109,192,199828,128,0,199913:0:0:0:0:
256,192,199828,128,0,199913:0:0:0:0:
402,192,199828,128,0,199998:0:0:0:0:
36,192,199828,128,0,199913:0:0:0:0:
182,192,199913,1,0,0:0:0:0:
475,192,199913,128,0,199998:0:0:0:0:
182,192,199998,128,0,200083:0:0:0:0:
329,192,199998,128,0,200083:0:0:0:0:
36,192,199998,128,0,200083:0:0:0:0:
256,192,200083,1,0,0:0:0:0:
109,192,200083,128,0,200168:0:0:0:0:
256,192,200168,128,0,200254:0:0:0:0:
402,192,200168,128,0,200254:0:0:0:0:
36,192,200168,128,0,200339:0:0:0:0:
475,192,200168,128,0,200254:0:0:0:0:
329,192,200254,1,0,0:0:0:0:
182,192,200254,128,0,200339:0:0:0:0:
329,192,200339,128,0,200423:0:0:0:0:
475,192,200339,128,0,200423:0:0:0:0:
109,192,200339,128,0,200423:0:0:0:0:
402,192,200423,1,0,0:0:0:0:
256,192,200423,128,0,200509:0:0:0:0:
182,192,200509,128,0,200594:0:0:0:0:
36,192,200509,1,0,0:0:0:0:
109,192,200509,1,0,0:0:0:0:
329,192,200509,1,0,0:0:0:0:
475,192,200509,1,0,0:0:0:0:
256,192,200594,128,0,200680:0:0:0:0:
329,192,200680,128,0,200764:0:0:0:0:
475,192,200680,1,0,0:0:0:0:
402,192,200680,1,0,0:0:0:0:
109,192,200680,1,0,0:0:0:0:
36,192,200680,1,0,0:0:0:0:
182,192,200680,1,0,0:0:0:0:
256,192,200764,128,0,200850:0:0:0:0:
475,192,200850,128,0,200935:0:0:0:0:
182,192,200850,128,0,200892:0:0:0:0:
36,192,200850,128,0,201105:0:0:0:0:
329,192,200850,1,0,0:0:0:0:
109,192,200850,1,0,0:0:0:0:
402,192,200850,1,0,0:0:0:0:
402,192,200935,128,0,201020:0:0:0:0:
256,192,200935,128,0,201020:0:0:0:0:
329,192,201020,128,0,201105:0:0:0:0:
109,192,201020,128,0,201062:0:0:0:0:
182,192,201020,128,0,201190:0:0:0:0:
475,192,201020,128,0,201276:0:0:0:0:
256,192,201105,128,0,201190:0:0:0:0:
402,192,201105,128,0,201445:0:0:0:0:
329,192,201190,128,0,201276:0:0:0:0:
36,192,201190,128,0,201233:0:0:0:0:
109,192,201190,128,0,201361:0:0:0:0:
256,192,201276,128,0,201361:0:0:0:0:
182,192,201361,128,0,201445:0:0:0:0:
475,192,201361,128,0,201403:0:0:0:0:
329,192,201361,128,0,201616:0:0:0:0:
36,192,201361,128,0,201616:0:0:0:0:
109,192,201445,128,0,201531:0:0:0:0:
256,192,201445,128,0,201871:0:0:0:0:
182,192,201531,128,0,201616:0:0:0:0:
402,192,201531,128,0,201573:0:0:0:0:
475,192,201531,128,0,201957:0:0:0:0:
109,192,201616,128,0,201702:0:0:0:0:
36,192,201702,128,0,201786:0:0:0:0:
329,192,201702,128,0,201743:0:0:0:0:
182,192,201702,128,0,201786:0:0:0:0:
402,192,201702,128,0,201786:0:0:0:0:
109,192,201786,128,0,201871:0:0:0:0:
182,192,201871,128,0,201957:0:0:0:0:
402,192,201871,128,0,201914:0:0:0:0:
329,192,201871,128,0,202127:0:0:0:0:
36,192,201871,128,0,202127:0:0:0:0:
256,192,201957,128,0,202041:0:0:0:0:
109,192,201957,128,0,202127:0:0:0:0:
182,192,202041,128,0,202127:0:0:0:0:
475,192,202041,128,0,202084:0:0:0:0:
402,192,202041,128,0,202212:0:0:0:0:
256,192,202127,128,0,202212:0:0:0:0:
36,192,202212,128,0,202467:0:0:0:0:
182,192,202212,128,0,202467:0:0:0:0:
109,192,202212,128,0,202255:0:0:0:0:
329,192,202212,128,0,202255:0:0:0:0:
475,192,202212,128,0,202340:0:0:0:0:
109,192,202382,128,0,202425:0:0:0:0:
329,192,202382,1,0,0:0:0:0:
402,192,202382,1,0,0:0:0:0:
475,192,202382,1,0,0:0:0:0:
256,192,202382,1,0,0:0:0:0:
109,192,202553,128,0,202808:0:0:0:0:
256,192,202553,128,0,202808:0:0:0:0:
182,192,202553,128,0,202595:0:0:0:0:
36,192,202553,128,0,202681:0:0:0:0:
329,192,202553,128,0,202638:0:0:0:0:
402,192,202553,128,0,202595:0:0:0:0:
475,192,202553,128,0,202595:0:0:0:0:
182,192,202722,128,0,202765:0:0:0:0:
329,192,202722,1,0,0:0:0:0:
402,192,202722,1,0,0:0:0:0:
475,192,202722,1,0,0:0:0:0:
36,192,202722,1,0,0:0:0:0:
182,192,202893,128,0,203148:0:0:0:0:
329,192,202893,128,0,203148:0:0:0:0:
256,192,202893,128,0,202979:0:0:0:0:
109,192,202893,128,0,202936:0:0:0:0:
36,192,202893,128,0,202936:0:0:0:0:
402,192,202893,128,0,203021:0:0:0:0:
475,192,202893,128,0,202936:0:0:0:0:
256,192,203063,128,0,203106:0:0:0:0:
402,192,203063,1,0,0:0:0:0:
109,192,203063,1,0,0:0:0:0:
36,192,203063,1,0,0:0:0:0:
475,192,203063,1,0,0:0:0:0:
256,192,203234,128,0,203489:0:0:0:0:
402,192,203234,128,0,203489:0:0:0:0:
329,192,203234,128,0,203362:0:0:0:0:
182,192,203234,128,0,203319:0:0:0:0:
109,192,203234,128,0,203277:0:0:0:0:
36,192,203234,128,0,203277:0:0:0:0:
475,192,203234,128,0,203277:0:0:0:0:
329,192,203404,128,0,203446:0:0:0:0:
109,192,203404,1,0,0:0:0:0:
36,192,203404,1,0,0:0:0:0:
182,192,203404,1,0,0:0:0:0:
475,192,203404,1,0,0:0:0:0:
109,192,203575,1,0,0:0:0:0:
182,192,203575,1,0,0:0:0:0:
329,192,203575,1,0,0:0:0:0:
256,192,203575,1,0,0:0:0:0:
402,192,203575,1,0,0:0:0:0:
475,192,203575,1,0,0:0:0:0:
36,192,203660,1,0,0:0:0:0:
182,192,203744,1,0,0:0:0:0:
256,192,203744,1,0,0:0:0:0:
329,192,203744,1,0,0:0:0:0:
475,192,203744,1,0,0:0:0:0:
402,192,203744,1,0,0:0:0:0:
109,192,203830,1,0,0:0:0:0:
36,192,203915,1,0,0:0:0:0:
256,192,203915,1,0,0:0:0:0:
329,192,203915,1,0,0:0:0:0:
402,192,203915,1,0,0:0:0:0:
475,192,203915,1,0,0:0:0:0:
182,192,204001,1,0,0:0:0:0:
36,192,204085,1,0,0:0:0:0:
109,192,204085,1,0,0:0:0:0:
329,192,204085,1,0,0:0:0:0:
402,192,204085,1,0,0:0:0:0:
475,192,204085,1,0,0:0:0:0:
256,192,204170,1,0,0:0:0:0:
182,192,204256,1,0,0:0:0:0:
109,192,204256,1,0,0:0:0:0:
36,192,204256,1,0,0:0:0:0:
402,192,204256,1,0,0:0:0:0:
475,192,204256,1,0,0:0:0:0:
329,192,204341,1,0,0:0:0:0:
256,192,204426,1,0,0:0:0:0:
182,192,204426,1,0,0:0:0:0:
109,192,204426,1,0,0:0:0:0:
36,192,204426,1,0,0:0:0:0:
475,192,204426,1,0,0:0:0:0:
402,192,204511,1,0,0:0:0:0:
36,192,204596,1,0,0:0:0:0:
109,192,204596,1,0,0:0:0:0:
182,192,204596,1,0,0:0:0:0:
256,192,204596,1,0,0:0:0:0:
329,192,204596,1,0,0:0:0:0:
475,192,204682,1,0,0:0:0:0:
329,192,204766,1,0,0:0:0:0:
256,192,204766,1,0,0:0:0:0:
182,192,204766,1,0,0:0:0:0:
109,192,204766,1,0,0:0:0:0:
36,192,204766,1,0,0:0:0:0:
402,192,204852,1,0,0:0:0:0:
182,192,204937,1,0,0:0:0:0:
36,192,204937,1,0,0:0:0:0:
329,192,204937,1,0,0:0:0:0:
475,192,204937,1,0,0:0:0:0:
256,192,205022,1,0,0:0:0:0:
109,192,205022,1,0,0:0:0:0:
36,192,205107,1,0,0:0:0:0:
182,192,205107,1,0,0:0:0:0:
329,192,205107,1,0,0:0:0:0:
109,192,205192,1,0,0:0:0:0:
256,192,205192,1,0,0:0:0:0:
182,192,205278,1,0,0:0:0:0:
36,192,205278,1,0,0:0:0:0:
329,192,205278,1,0,0:0:0:0:
475,192,205278,1,0,0:0:0:0:
256,192,205363,1,0,0:0:0:0:
402,192,205363,1,0,0:0:0:0:
182,192,205447,1,0,0:0:0:0:
329,192,205447,1,0,0:0:0:0:
475,192,205447,1,0,0:0:0:0:
402,192,205533,1,0,0:0:0:0:
256,192,205533,1,0,0:0:0:0:
36,192,205618,1,0,0:0:0:0:
182,192,205618,1,0,0:0:0:0:
329,192,205618,1,0,0:0:0:0:
475,192,205618,1,0,0:0:0:0:
402,192,205703,1,0,0:0:0:0:
256,192,205703,1,0,0:0:0:0:
109,192,205703,1,0,0:0:0:0:
36,192,205788,1,0,0:0:0:0:
182,192,205788,1,0,0:0:0:0:
329,192,205788,1,0,0:0:0:0:
475,192,205788,1,0,0:0:0:0:
402,192,205873,1,0,0:0:0:0:
256,192,205873,1,0,0:0:0:0:
109,192,205873,1,0,0:0:0:0:
36,192,205959,128,0,206043:0:0:0:0:
182,192,205959,128,0,206022:0:0:0:0:
256,192,206022,128,0,206065:0:0:0:0:
109,192,206043,128,0,206129:0:0:0:0:
329,192,206065,128,0,206193:0:0:0:0:
182,192,206129,128,0,206214:0:0:0:0:
402,192,206129,128,0,206235:0:0:0:0:
475,192,206193,128,0,206300:0:0:0:0:
256,192,206214,128,0,206300:0:0:0:0:
36,192,206300,128,0,206555:0:0:0:0:
109,192,206300,128,0,206384:0:0:0:0:
182,192,206300,128,0,206384:0:0:0:0:
402,192,206300,128,0,206384:0:0:0:0:
329,192,206300,128,0,206469:0:0:0:0:
256,192,206384,128,0,206555:0:0:0:0:
109,192,206469,128,0,206555:0:0:0:0:
182,192,206469,128,0,206640:0:0:0:0:
402,192,206469,128,0,206555:0:0:0:0:
475,192,206469,128,0,206725:0:0:0:0:
329,192,206555,128,0,206725:0:0:0:0:
36,192,206640,128,0,206895:0:0:0:0:
109,192,206640,128,0,206725:0:0:0:0:
402,192,206640,128,0,206725:0:0:0:0:
256,192,206640,128,0,206810:0:0:0:0:
182,192,206725,128,0,206981:0:0:0:0:
109,192,206810,128,0,206895:0:0:0:0:
329,192,206810,128,0,207065:0:0:0:0:
402,192,206810,128,0,206895:0:0:0:0:
475,192,206810,128,0,206895:0:0:0:0:
256,192,206895,128,0,207065:0:0:0:0:
36,192,206981,128,0,207236:0:0:0:0:
109,192,206981,128,0,207065:0:0:0:0:
402,192,206981,128,0,207151:0:0:0:0:
475,192,206981,128,0,207065:0:0:0:0:
182,192,207065,128,0,207406:0:0:0:0:
256,192,207151,128,0,207321:0:0:0:0:
329,192,207151,128,0,207236:0:0:0:0:
109,192,207151,128,0,207236:0:0:0:0:
475,192,207151,128,0,207236:0:0:0:0:
402,192,207236,128,0,207406:0:0:0:0:
109,192,207321,128,0,207406:0:0:0:0:
36,192,207321,128,0,207577:0:0:0:0:
329,192,207321,128,0,207491:0:0:0:0:
475,192,207321,128,0,207406:0:0:0:0:
256,192,207406,128,0,207577:0:0:0:0:
182,192,207491,128,0,207662:0:0:0:0:
109,192,207491,128,0,207577:0:0:0:0:
402,192,207491,128,0,207577:0:0:0:0:
475,192,207491,128,0,207746:0:0:0:0:
329,192,207577,128,0,207832:0:0:0:0:
256,192,207662,128,0,207746:0:0:0:0:
109,192,207662,128,0,207746:0:0:0:0:
36,192,207662,128,0,207917:0:0:0:0:
402,192,207662,128,0,207746:0:0:0:0:
182,192,207746,128,0,208003:0:0:0:0:
256,192,207832,128,0,207917:0:0:0:0:
109,192,207832,128,0,207917:0:0:0:0:
402,192,207832,128,0,208087:0:0:0:0:
475,192,207832,128,0,207917:0:0:0:0:
329,192,207917,128,0,208087:0:0:0:0:
256,192,208003,128,0,208258:0:0:0:0:
36,192,208003,128,0,208258:0:0:0:0:
109,192,208003,128,0,208087:0:0:0:0:
475,192,208003,128,0,208087:0:0:0:0:
182,192,208087,128,0,208172:0:0:0:0:
109,192,208172,128,0,208258:0:0:0:0:
329,192,208172,128,0,208343:0:0:0:0:
402,192,208172,128,0,208258:0:0:0:0:
475,192,208172,128,0,208428:0:0:0:0:
182,192,208258,128,0,208428:0:0:0:0:
256,192,208343,128,0,208598:0:0:0:0:
36,192,208343,128,0,208598:0:0:0:0:
109,192,208343,128,0,208428:0:0:0:0:
402,192,208343,128,0,208428:0:0:0:0:
329,192,208428,128,0,208513:0:0:0:0:
402,192,208513,128,0,208768:0:0:0:0:
109,192,208513,128,0,208598:0:0:0:0:
182,192,208513,128,0,208768:0:0:0:0:
475,192,208513,128,0,208598:0:0:0:0:
329,192,208598,128,0,208684:0:0:0:0:
256,192,208684,128,0,208854:0:0:0:0:
36,192,208684,128,0,208768:0:0:0:0:
109,192,208684,128,0,208939:0:0:0:0:
475,192,208684,128,0,208768:0:0:0:0:
329,192,208768,128,0,208939:0:0:0:0:
182,192,208854,128,0,208939:0:0:0:0:
36,192,208854,128,0,208939:0:0:0:0:
402,192,208854,128,0,208939:0:0:0:0:
475,192,208854,128,0,208939:0:0:0:0:
256,192,208939,128,0,209023:0:0:0:0:
109,192,209023,128,0,209109:0:0:0:0:
182,192,209023,128,0,209280:0:0:0:0:
329,192,209023,128,0,209109:0:0:0:0:
402,192,209023,128,0,209109:0:0:0:0:
475,192,209023,128,0,209109:0:0:0:0:
36,192,209109,1,0,0:0:0:0:
36,192,209194,128,0,209280:0:0:0:0:
256,192,209194,128,0,209450:0:0:0:0:
329,192,209194,128,0,209280:0:0:0:0:
402,192,209194,128,0,209280:0:0:0:0:
475,192,209194,128,0,209280:0:0:0:0:
109,192,209280,1,0,0:0:0:0:
36,192,209364,128,0,209450:0:0:0:0:
109,192,209364,128,0,209450:0:0:0:0:
402,192,209364,128,0,209450:0:0:0:0:
475,192,209364,128,0,209450:0:0:0:0:
329,192,209364,128,0,209620:0:0:0:0:
182,192,209450,1,0,0:0:0:0:
182,192,209535,128,0,209620:0:0:0:0:
109,192,209535,128,0,209620:0:0:0:0:
36,192,209535,128,0,209620:0:0:0:0:
475,192,209535,128,0,209620:0:0:0:0:
402,192,209535,128,0,209790:0:0:0:0:
256,192,209620,1,0,0:0:0:0:
256,192,209705,128,0,209790:0:0:0:0:
182,192,209705,128,0,209790:0:0:0:0:
109,192,209705,128,0,209790:0:0:0:0:
36,192,209705,128,0,209790:0:0:0:0:
475,192,209705,128,0,209961:0:0:0:0:
329,192,209790,1,0,0:0:0:0:
109,192,209876,128,0,209961:0:0:0:0:
182,192,209876,128,0,209961:0:0:0:0:
256,192,209876,128,0,209961:0:0:0:0:
329,192,209876,128,0,209961:0:0:0:0:
36,192,209876,128,0,210131:0:0:0:0:
402,192,209961,1,0,0:0:0:0:
402,192,210045,128,0,210131:0:0:0:0:
329,192,210045,128,0,210131:0:0:0:0:
256,192,210045,128,0,210131:0:0:0:0:
182,192,210045,128,0,210131:0:0:0:0:
109,192,210045,128,0,210302:0:0:0:0:
475,192,210131,1,0,0:0:0:0:
36,192,210216,128,0,210302:0:0:0:0:
182,192,210216,128,0,210302:0:0:0:0:
256,192,210216,128,0,210302:0:0:0:0:
329,192,210216,128,0,210302:0:0:0:0:
475,192,210216,128,0,210302:0:0:0:0:
402,192,210302,1,0,0:0:0:0:
36,192,210386,128,0,210451:0:0:0:0:
256,192,210386,128,0,210429:0:0:0:0:
475,192,210386,1,0,0:0:0:0:
329,192,210429,128,0,210514:0:0:0:0:
109,192,210451,128,0,210557:0:0:0:0:
402,192,210471,128,0,210600:0:0:0:0:
182,192,210493,128,0,210663:0:0:0:0:
475,192,210557,1,0,0:0:0:0:
329,192,210557,1,0,0:0:0:0:
256,192,210557,1,0,0:0:0:0:
36,192,210557,1,0,0:0:0:0:
109,192,210663,128,0,210727:0:0:0:0:
182,192,210727,128,0,210834:0:0:0:0:
329,192,210727,128,0,210769:0:0:0:0:
36,192,210727,1,0,0:0:0:0:
402,192,210769,128,0,210855:0:0:0:0:
256,192,210791,128,0,210961:0:0:0:0:
475,192,210812,128,0,210940:0:0:0:0:
36,192,210897,1,0,0:0:0:0:
109,192,210897,1,0,0:0:0:0:
402,192,210897,1,0,0:0:0:0:
329,192,210897,1,0,0:0:0:0:
182,192,210961,128,0,211004:0:0:0:0:
256,192,211004,128,0,211132:0:0:0:0:
329,192,211067,128,0,211238:0:0:0:0:
36,192,211067,128,0,211110:0:0:0:0:
475,192,211067,1,0,0:0:0:0:
182,192,211067,1,0,0:0:0:0:
109,192,211110,128,0,211195:0:0:0:0:
182,192,211153,128,0,211281:0:0:0:0:
402,192,211153,1,0,0:0:0:0:
256,192,211238,128,0,211302:0:0:0:0:
475,192,211238,1,0,0:0:0:0:
36,192,211238,1,0,0:0:0:0:
329,192,211302,128,0,211408:0:0:0:0:
109,192,211323,1,0,0:0:0:0:
402,192,211344,128,0,211408:0:0:0:0:
256,192,211408,128,0,211664:0:0:0:0:
36,192,211408,1,0,0:0:0:0:
475,192,211408,1,0,0:0:0:0:
182,192,211408,1,0,0:0:0:0:
36,192,211748,128,0,211919:0:0:0:0:
475,192,211748,128,0,211919:0:0:0:0:
256,192,211748,128,0,211834:0:0:0:0:
109,192,211748,128,0,211834:0:0:0:0:
402,192,211748,128,0,211834:0:0:0:0:
329,192,211834,128,0,211855:0:0:0:0:
182,192,211834,128,0,211855:0:0:0:0:
109,192,211919,128,0,211940:0:0:0:0:
402,192,211919,128,0,211940:0:0:0:0:
475,192,212005,128,0,212026:0:0:0:0:
36,192,212005,128,0,212026:0:0:0:0:
256,192,212089,128,0,212111:0:0:0:0:
329,192,212089,128,0,212111:0:0:0:0:
182,192,212089,128,0,212111:0:0:0:0:
475,192,212175,128,0,212195:0:0:0:0:
182,192,212260,128,0,212281:0:0:0:0:
256,192,212260,128,0,212281:0:0:0:0:
109,192,212260,128,0,212281:0:0:0:0:
402,192,212345,128,0,212366:0:0:0:0:
182,192,212430,128,0,212452:0:0:0:0:
109,192,212430,128,0,212452:0:0:0:0:
36,192,212430,128,0,212452:0:0:0:0:
329,192,212515,128,0,212536:0:0:0:0:
475,192,212601,128,0,212621:0:0:0:0:
256,192,212601,128,0,212621:0:0:0:0:
182,192,212601,128,0,212621:0:0:0:0:
109,192,212601,128,0,212621:0:0:0:0:
36,192,212685,128,0,212707:0:0:0:0:
182,192,212770,128,0,212792:0:0:0:0:
256,192,212770,128,0,212792:0:0:0:0:
329,192,212770,128,0,212792:0:0:0:0:
109,192,212856,128,0,212877:0:0:0:0:
475,192,212856,128,0,212877:0:0:0:0:
256,192,212941,128,0,212962:0:0:0:0:
329,192,212941,128,0,212962:0:0:0:0:
402,192,212941,128,0,212962:0:0:0:0:
182,192,213026,128,0,213047:0:0:0:0:
402,192,213111,128,0,213154:0:0:0:0:
475,192,213111,128,0,213196:0:0:0:0:
109,192,213111,128,0,213154:0:0:0:0:
329,192,213196,128,0,213282:0:0:0:0:
36,192,213196,128,0,213217:0:0:0:0:
402,192,213239,128,0,213282:0:0:0:0:
256,192,213282,128,0,213366:0:0:0:0:
182,192,213282,128,0,213325:0:0:0:0:
475,192,213282,128,0,213325:0:0:0:0:
109,192,213366,128,0,213431:0:0:0:0:
402,192,213366,128,0,213388:0:0:0:0:
182,192,213409,128,0,213431:0:0:0:0:
329,192,213452,128,0,213494:0:0:0:0:
402,192,213452,128,0,213537:0:0:0:0:
36,192,213452,128,0,213494:0:0:0:0:
256,192,213537,128,0,213622:0:0:0:0:
475,192,213537,128,0,213558:0:0:0:0:
329,192,213580,128,0,213622:0:0:0:0:
109,192,213622,128,0,213665:0:0:0:0:
182,192,213622,128,0,213707:0:0:0:0:
402,192,213622,128,0,213665:0:0:0:0:
36,192,213707,128,0,213792:0:0:0:0:
329,192,213707,128,0,213729:0:0:0:0:
109,192,213750,128,0,213792:0:0:0:0:
402,192,213792,128,0,213835:0:0:0:0:
475,192,213792,128,0,213878:0:0:0:0:
256,192,213792,128,0,213814:0:0:0:0:
329,192,213878,128,0,213963:0:0:0:0:
109,192,213878,128,0,213898:0:0:0:0:
402,192,213920,128,0,213963:0:0:0:0:
182,192,213963,128,0,214006:0:0:0:0:
256,192,213963,128,0,214047:0:0:0:0:
36,192,213963,128,0,214006:0:0:0:0:
109,192,214047,128,0,214112:0:0:0:0:
402,192,214047,128,0,214069:0:0:0:0:
182,192,214090,128,0,214112:0:0:0:0:
36,192,214133,128,0,214155:0:0:0:0:
329,192,214133,128,0,214155:0:0:0:0:
109,192,214176,128,0,214196:0:0:0:0:
402,192,214176,128,0,214196:0:0:0:0:
182,192,214218,128,0,214239:0:0:0:0:
475,192,214218,128,0,214239:0:0:0:0:
256,192,214261,128,0,214282:0:0:0:0:
36,192,214261,128,0,214282:0:0:0:0:
329,192,214304,128,0,214325:0:0:0:0:
109,192,214304,128,0,214325:0:0:0:0:
402,192,214345,128,0,214367:0:0:0:0:
182,192,214345,128,0,214367:0:0:0:0:
475,192,214388,128,0,214410:0:0:0:0:
109,192,214388,128,0,214410:0:0:0:0:
402,192,214431,128,0,214453:0:0:0:0:
36,192,214431,128,0,214453:0:0:0:0:
256,192,214473,128,0,214814:0:0:0:0:
329,192,214473,128,0,214814:0:0:0:0:
475,192,214473,128,0,214814:0:0:0:0:
182,192,214814,128,0,214836:0:0:0:0:
109,192,214814,128,0,214836:0:0:0:0:
402,192,214814,128,0,214942:0:0:0:0:
36,192,214900,128,0,214920:0:0:0:0:
182,192,214985,128,0,215006:0:0:0:0:
256,192,214985,128,0,215006:0:0:0:0:
329,192,214985,128,0,215006:0:0:0:0:
402,192,214985,128,0,215006:0:0:0:0:
475,192,214985,128,0,215006:0:0:0:0:
109,192,215069,128,0,215091:0:0:0:0:
256,192,215155,128,0,215176:0:0:0:0:
329,192,215155,128,0,215176:0:0:0:0:
109,192,215155,128,0,215326:0:0:0:0:
475,192,215240,128,0,215261:0:0:0:0:
182,192,215326,128,0,215346:0:0:0:0:
256,192,215326,128,0,215346:0:0:0:0:
329,192,215326,128,0,215346:0:0:0:0:
36,192,215326,128,0,215346:0:0:0:0:
402,192,215410,128,0,215432:0:0:0:0:
109,192,215495,128,0,215516:0:0:0:0:
182,192,215495,128,0,215516:0:0:0:0:
256,192,215495,128,0,215516:0:0:0:0:
475,192,215495,128,0,215666:0:0:0:0:
329,192,215581,128,0,215602:0:0:0:0:
402,192,215666,128,0,215687:0:0:0:0:
182,192,215666,128,0,215687:0:0:0:0:
109,192,215666,128,0,215687:0:0:0:0:
36,192,215666,128,0,215687:0:0:0:0:
329,192,215751,128,0,215772:0:0:0:0:
256,192,215836,128,0,215857:0:0:0:0:
402,192,215836,128,0,215857:0:0:0:0:
109,192,215836,128,0,215964:0:0:0:0:
182,192,215836,128,0,215964:0:0:0:0:
475,192,215921,128,0,215942:0:0:0:0:
402,192,216006,128,0,216028:0:0:0:0:
36,192,216006,128,0,216028:0:0:0:0:
182,192,216006,128,0,216134:0:0:0:0:
256,192,216006,128,0,216134:0:0:0:0:
109,192,216091,128,0,216113:0:0:0:0:
475,192,216091,128,0,216113:0:0:0:0:
329,192,216177,128,0,216305:0:0:0:0:
402,192,216177,128,0,216305:0:0:0:0:
36,192,216177,128,0,216197:0:0:0:0:
256,192,216177,128,0,216197:0:0:0:0:
182,192,216262,128,0,216283:0:0:0:0:
329,192,216346,128,0,216475:0:0:0:0:
256,192,216346,128,0,216475:0:0:0:0:
109,192,216346,128,0,216368:0:0:0:0:
475,192,216346,128,0,216368:0:0:0:0:
36,192,216432,128,0,216454:0:0:0:0:
402,192,216432,128,0,216454:0:0:0:0:
182,192,216517,128,0,216645:0:0:0:0:
256,192,216517,128,0,216645:0:0:0:0:
109,192,216517,128,0,216538:0:0:0:0:
329,192,216517,128,0,216538:0:0:0:0:
36,192,216603,128,0,216623:0:0:0:0:
402,192,216603,128,0,216623:0:0:0:0:
182,192,216687,128,0,216815:0:0:0:0:
109,192,216687,128,0,216815:0:0:0:0:
475,192,216687,128,0,216709:0:0:0:0:
256,192,216687,128,0,216709:0:0:0:0:
329,192,216772,128,0,216794:0:0:0:0:
36,192,216772,128,0,216794:0:0:0:0:
256,192,216858,128,0,216986:0:0:0:0:
329,192,216858,128,0,216986:0:0:0:0:
109,192,216858,128,0,216879:0:0:0:0:
402,192,216858,128,0,216879:0:0:0:0:
475,192,216943,128,0,216964:0:0:0:0:
182,192,216943,128,0,216964:0:0:0:0:
329,192,217028,128,0,217156:0:0:0:0:
402,192,217028,128,0,217156:0:0:0:0:
109,192,217028,128,0,217050:0:0:0:0:
256,192,217028,128,0,217050:0:0:0:0:
36,192,217113,128,0,217135:0:0:0:0:
182,192,217113,128,0,217135:0:0:0:0:
475,192,217113,128,0,217135:0:0:0:0:
109,192,217198,128,0,217284:0:0:0:0:
256,192,217198,128,0,217284:0:0:0:0:
329,192,217198,1,0,0:0:0:0:
182,192,217284,1,0,0:0:0:0:
475,192,217284,1,0,0:0:0:0:
182,192,217368,128,0,217454:0:0:0:0:
329,192,217368,128,0,217454:0:0:0:0:
402,192,217368,1,0,0:0:0:0:
36,192,217368,1,0,0:0:0:0:
256,192,217454,1,0,0:0:0:0:
109,192,217454,1,0,0:0:0:0:
256,192,217539,128,0,217625:0:0:0:0:
402,192,217539,128,0,217625:0:0:0:0:
36,192,217539,128,0,217837:0:0:0:0:
475,192,217539,1,0,0:0:0:0:
109,192,217582,128,0,217794:0:0:0:0:
182,192,217625,128,0,217752:0:0:0:0:
329,192,217625,1,0,0:0:0:0:
256,192,217666,128,0,217709:0:0:0:0:
475,192,217709,1,0,0:0:0:0:
256,192,217752,1,0,0:0:0:0:
182,192,217794,1,0,0:0:0:0:
402,192,217794,1,0,0:0:0:0:
109,192,217837,1,0,0:0:0:0:
475,192,217880,128,0,217965:0:0:0:0:
329,192,217880,128,0,217965:0:0:0:0:
36,192,217880,1,0,0:0:0:0:
256,192,217880,1,0,0:0:0:0:
109,192,217965,1,0,0:0:0:0:
402,192,218050,128,0,218135:0:0:0:0:
256,192,218050,128,0,218135:0:0:0:0:
182,192,218050,1,0,0:0:0:0:
329,192,218050,1,0,0:0:0:0:
36,192,218135,1,0,0:0:0:0:
475,192,218135,1,0,0:0:0:0:
182,192,218220,128,0,218306:0:0:0:0:
329,192,218220,128,0,218306:0:0:0:0:
109,192,218220,1,0,0:0:0:0:
256,192,218220,1,0,0:0:0:0:
475,192,218306,1,0,0:0:0:0:
402,192,218306,1,0,0:0:0:0:
256,192,218390,128,0,218476:0:0:0:0:
109,192,218390,1,0,0:0:0:0:
36,192,218390,1,0,0:0:0:0:
402,192,218476,1,0,0:0:0:0:
475,192,218476,1,0,0:0:0:0:
182,192,218561,128,0,218646:0:0:0:0:
329,192,218561,128,0,218646:0:0:0:0:
256,192,218561,1,0,0:0:0:0:
109,192,218561,1,0,0:0:0:0:
475,192,218646,1,0,0:0:0:0:
36,192,218646,1,0,0:0:0:0:
182,192,218731,1,0,0:0:0:0:
109,192,218731,128,0,218816:0:0:0:0:
256,192,218731,128,0,218816:0:0:0:0:
402,192,218731,1,0,0:0:0:0:
329,192,218816,1,0,0:0:0:0:
182,192,218902,128,0,218987:0:0:0:0:
36,192,218902,128,0,218987:0:0:0:0:
475,192,218902,128,0,219200:0:0:0:0:
256,192,218902,1,0,0:0:0:0:
109,192,218902,1,0,0:0:0:0:
402,192,218944,128,0,219157:0:0:0:0:
329,192,218987,128,0,219114:0:0:0:0:
256,192,219029,128,0,219071:0:0:0:0:
182,192,219071,1,0,0:0:0:0:
36,192,219071,1,0,0:0:0:0:
256,192,219114,1,0,0:0:0:0:
329,192,219157,1,0,0:0:0:0:
109,192,219157,1,0,0:0:0:0:
402,192,219200,1,0,0:0:0:0:
475,192,219242,1,0,0:0:0:0:
36,192,219242,128,0,219881:0:0:0:0:
109,192,219242,128,0,219327:0:0:0:0:
256,192,219242,128,0,219263:0:0:0:0:
182,192,219242,1,0,0:0:0:0:
402,192,219327,1,0,0:0:0:0:
109,192,219412,128,0,219881:0:0:0:0:
182,192,219412,128,0,219497:0:0:0:0:
329,192,219412,128,0,219434:0:0:0:0:
256,192,219412,1,0,0:0:0:0:
475,192,219497,1,0,0:0:0:0:
182,192,219583,128,0,219881:0:0:0:0:
256,192,219583,128,0,219667:0:0:0:0:
402,192,219583,128,0,219604:0:0:0:0:
329,192,219667,1,0,0:0:0:0:
256,192,219753,128,0,219881:0:0:0:0:
475,192,219753,128,0,219775:0:0:0:0:
402,192,219838,1,0,0:0:0:0:
256,192,219923,128,0,219966:0:0:0:0:
182,192,219923,128,0,220008:0:0:0:0:
109,192,219923,128,0,220179:0:0:0:0:
36,192,219923,128,0,220348:0:0:0:0:
329,192,219923,1,0,0:0:0:0:
475,192,220008,128,0,220434:0:0:0:0:
402,192,220008,1,0,0:0:0:0:
182,192,220093,128,0,220136:0:0:0:0:
256,192,220093,1,0,0:0:0:0:
402,192,220179,128,0,220434:0:0:0:0:
329,192,220179,1,0,0:0:0:0:
109,192,220264,128,0,220307:0:0:0:0:
182,192,220264,1,0,0:0:0:0:
329,192,220348,128,0,220434:0:0:0:0:
256,192,220348,1,0,0:0:0:0:
36,192,220434,1,0,0:0:0:0:
109,192,220434,1,0,0:0:0:0:
256,192,220434,128,0,220796:0:0:0:0:
182,192,220519,128,0,220711:0:0:0:0:
329,192,220519,128,0,220711:0:0:0:0:
109,192,220562,128,0,220626:0:0:0:0:
402,192,220562,128,0,220626:0:0:0:0:
475,192,220605,1,0,0:0:0:0:
36,192,220605,1,0,0:0:0:0:
109,192,220689,1,0,0:0:0:0:
402,192,220689,1,0,0:0:0:0:
182,192,220775,1,0,0:0:0:0:
329,192,220775,1,0,0:0:0:0:
475,192,220775,128,0,221243:0:0:0:0:
256,192,220860,1,0,0:0:0:0:
109,192,220860,128,0,220923:0:0:0:0:
402,192,220860,128,0,220923:0:0:0:0:
36,192,220945,128,0,221498:0:0:0:0:
182,192,220945,128,0,221009:0:0:0:0:
329,192,220945,128,0,221009:0:0:0:0:
256,192,221030,128,0,221094:0:0:0:0:
182,192,221115,128,0,221413:0:0:0:0:
329,192,221115,128,0,221328:0:0:0:0:
109,192,221201,128,0,221264:0:0:0:0:
402,192,221201,128,0,221264:0:0:0:0:
475,192,221286,128,0,221584:0:0:0:0:
256,192,221286,1,0,0:0:0:0:
329,192,221370,128,0,221668:0:0:0:0:
109,192,221370,1,0,0:0:0:0:
182,192,221456,128,0,221754:0:0:0:0:
256,192,221456,1,0,0:0:0:0:
36,192,221541,128,0,221839:0:0:0:0:
402,192,221541,1,0,0:0:0:0:
475,192,221627,128,0,222052:0:0:0:0:
256,192,221627,1,0,0:0:0:0:
329,192,221711,128,0,222052:0:0:0:0:
109,192,221711,1,0,0:0:0:0:
182,192,221796,128,0,221967:0:0:0:0:
256,192,221796,1,0,0:0:0:0:
36,192,221882,128,0,221967:0:0:0:0:
402,192,221882,1,0,0:0:0:0:
109,192,221967,128,0,222158:0:0:0:0:
256,192,221967,1,0,0:0:0:0:
402,192,221967,128,0,222052:0:0:0:0:
256,192,222052,128,0,222243:0:0:0:0:
36,192,222052,128,0,222094:0:0:0:0:
402,192,222137,128,0,222222:0:0:0:0:
475,192,222137,1,0,0:0:0:0:
182,192,222137,1,0,0:0:0:0:
475,192,222222,128,0,222371:0:0:0:0:
36,192,222222,1,0,0:0:0:0:
329,192,222222,1,0,0:0:0:0:
109,192,222265,128,0,222435:0:0:0:0:
36,192,222308,128,0,222392:0:0:0:0:
182,192,222308,1,0,0:0:0:0:
402,192,222308,128,0,222329:0:0:0:0:
256,192,222350,128,0,222478:0:0:0:0:
182,192,222392,128,0,222478:0:0:0:0:
329,192,222392,1,0,0:0:0:0:
402,192,222435,128,0,222606:0:0:0:0:
329,192,222478,128,0,222563:0:0:0:0:
36,192,222478,1,0,0:0:0:0:
475,192,222478,1,0,0:0:0:0:
475,192,222563,128,0,222648:0:0:0:0:
256,192,222563,1,0,0:0:0:0:
109,192,222563,1,0,0:0:0:0:
329,192,222648,1,0,0:0:0:0:
182,192,222648,128,0,222818:0:0:0:0:
36,192,222648,1,0,0:0:0:0:
256,192,222733,128,0,222904:0:0:0:0:
402,192,222733,1,0,0:0:0:0:
109,192,222733,1,0,0:0:0:0:
329,192,222818,128,0,222988:0:0:0:0:
36,192,222818,1,0,0:0:0:0:
475,192,222818,128,0,222904:0:0:0:0:
402,192,222904,128,0,223073:0:0:0:0:
182,192,222904,1,0,0:0:0:0:
109,192,222988,128,0,223159:0:0:0:0:
36,192,222988,1,0,0:0:0:0:
256,192,222988,1,0,0:0:0:0:
475,192,222988,128,0,223500:0:0:0:0:
182,192,223073,128,0,223244:0:0:0:0:
329,192,223073,1,0,0:0:0:0:
256,192,223159,128,0,223329:0:0:0:0:
36,192,223159,1,0,0:0:0:0:
402,192,223159,128,0,223244:0:0:0:0:
329,192,223244,128,0,223414:0:0:0:0:
109,192,223244,1,0,0:0:0:0:
36,192,223329,128,0,223500:0:0:0:0:
182,192,223329,1,0,0:0:0:0:
402,192,223329,128,0,223585:0:0:0:0:
109,192,223414,128,0,223585:0:0:0:0:
256,192,223414,1,0,0:0:0:0:
182,192,223500,128,0,223669:0:0:0:0:
329,192,223500,1,0,0:0:0:0:
475,192,223585,1,0,0:0:0:0:
256,192,223585,128,0,223755:0:0:0:0:
36,192,223585,128,0,223840:0:0:0:0:
402,192,223669,1,0,0:0:0:0:
475,192,223669,128,0,224010:0:0:0:0:
109,192,223669,128,0,223755:0:0:0:0:
329,192,223755,1,0,0:0:0:0:
402,192,223755,128,0,224010:0:0:0:0:
182,192,223755,1,0,0:0:0:0:
329,192,223840,128,0,224010:0:0:0:0:
109,192,223840,1,0,0:0:0:0:
256,192,223840,1,0,0:0:0:0:
256,192,223926,128,0,224010:0:0:0:0:
36,192,223926,1,0,0:0:0:0:
182,192,223926,1,0,0:0:0:0:
36,192,224010,128,0,224607:0:0:0:0:
475,192,224095,128,0,225032:0:0:0:0:
182,192,224095,1,0,0:0:0:0:
109,192,224181,128,0,224436:0:0:0:0:
402,192,224266,128,0,224521:0:0:0:0:
256,192,224266,1,0,0:0:0:0:
182,192,224351,128,0,224521:0:0:0:0:
329,192,224436,128,0,224691:0:0:0:0:
256,192,224436,1,0,0:0:0:0:
109,192,224521,128,0,224691:0:0:0:0:
402,192,224607,128,0,224862:0:0:0:0:
182,192,224607,1,0,0:0:0:0:
36,192,224691,128,0,225372:0:0:0:0:
329,192,224777,128,0,224947:0:0:0:0:
109,192,224777,1,0,0:0:0:0:
109,192,224862,128,0,225117:0:0:0:0:
256,192,224862,1,0,0:0:0:0:
402,192,224947,128,0,225117:0:0:0:0:
182,192,224947,1,0,0:0:0:0:
182,192,225032,128,0,225288:0:0:0:0:
329,192,225032,1,0,0:0:0:0:
475,192,225117,128,0,225288:0:0:0:0:
256,192,225117,1,0,0:0:0:0:
329,192,225160,1,0,0:0:0:0:
109,192,225203,128,0,225330:0:0:0:0:
256,192,225203,128,0,225245:0:0:0:0:
402,192,225203,1,0,0:0:0:0:
329,192,225245,1,0,0:0:0:0:
402,192,225288,128,0,225372:0:0:0:0:
256,192,225288,1,0,0:0:0:0:
182,192,225330,1,0,0:0:0:0:
109,192,225372,1,0,0:0:0:0:
329,192,225372,1,0,0:0:0:0:
475,192,225372,1,0,0:0:0:0:
329,192,225713,128,0,226309:0:0:0:0:
109,192,225713,1,0,0:0:0:0:
256,192,225756,128,0,226096:0:0:0:0:
182,192,225798,128,0,226182:0:0:0:0:
402,192,225798,1,0,0:0:0:0:
402,192,225884,128,0,226139:0:0:0:0:
36,192,225884,1,0,0:0:0:0:
109,192,225969,128,0,226139:0:0:0:0:
475,192,225969,1,0,0:0:0:0:
475,192,226054,128,0,226650:0:0:0:0:
36,192,226054,1,0,0:0:0:0:
36,192,226139,128,0,226225:0:0:0:0:
402,192,226225,128,0,226480:0:0:0:0:
256,192,226225,1,0,0:0:0:0:
109,192,226225,1,0,0:0:0:0:
109,192,226309,128,0,226394:0:0:0:0:
182,192,226309,1,0,0:0:0:0:
36,192,226309,128,0,226990:0:0:0:0:
329,192,226394,128,0,226480:0:0:0:0:
256,192,226394,1,0,0:0:0:0:
182,192,226480,128,0,226565:0:0:0:0:
109,192,226480,128,0,226820:0:0:0:0:
402,192,226565,128,0,226650:0:0:0:0:
329,192,226565,1,0,0:0:0:0:
256,192,226650,128,0,226735:0:0:0:0:
182,192,226650,128,0,226906:0:0:0:0:
475,192,226735,128,0,226820:0:0:0:0:
402,192,226735,1,0,0:0:0:0:
329,192,226820,128,0,227161:0:0:0:0:
256,192,226820,1,0,0:0:0:0:
475,192,226906,128,0,227373:0:0:0:0:
402,192,226906,1,0,0:0:0:0:
109,192,226906,1,0,0:0:0:0:
256,192,226990,128,0,227331:0:0:0:0:
182,192,226990,1,0,0:0:0:0:
402,192,227076,128,0,227161:0:0:0:0:
36,192,227076,1,0,0:0:0:0:
182,192,227161,128,0,227502:0:0:0:0:
109,192,227161,1,0,0:0:0:0:
329,192,227246,128,0,227331:0:0:0:0:
36,192,227246,1,0,0:0:0:0:
109,192,227331,128,0,227416:0:0:0:0:
256,192,227416,128,0,227671:0:0:0:0:
329,192,227416,1,0,0:0:0:0:
36,192,227416,1,0,0:0:0:0:
36,192,227502,128,0,228097:0:0:0:0:
402,192,227502,1,0,0:0:0:0:
329,192,227587,128,0,227842:0:0:0:0:
475,192,227587,1,0,0:0:0:0:
109,192,227587,1,0,0:0:0:0:
109,192,227671,128,0,228097:0:0:0:0:
402,192,227671,1,0,0:0:0:0:
402,192,227757,128,0,228012:0:0:0:0:
182,192,227757,1,0,0:0:0:0:
475,192,227757,1,0,0:0:0:0:
475,192,227842,128,0,228097:0:0:0:0:
182,192,227842,128,0,228097:0:0:0:0:
256,192,227928,1,0,0:0:0:0:
256,192,228012,128,0,228097:0:0:0:0:
329,192,228097,1,0,0:0:0:0:
402,192,228097,128,0,228268:0:0:0:0:
256,192,228183,1,0,0:0:0:0:
475,192,228183,128,0,228693:0:0:0:0:
36,192,228183,128,0,228353:0:0:0:0:
109,192,228183,128,0,228268:0:0:0:0:
329,192,228183,128,0,228353:0:0:0:0:
182,192,228268,1,0,0:0:0:0:
256,192,228268,128,0,228438:0:0:0:0:
182,192,228353,128,0,228438:0:0:0:0:
109,192,228353,1,0,0:0:0:0:
402,192,228353,128,0,228609:0:0:0:0:
109,192,228438,128,0,228523:0:0:0:0:
36,192,228438,1,0,0:0:0:0:
329,192,228438,128,0,228523:0:0:0:0:
182,192,228523,128,0,228609:0:0:0:0:
36,192,228523,128,0,228693:0:0:0:0:
256,192,228523,1,0,0:0:0:0:
256,192,228609,128,0,228693:0:0:0:0:
109,192,228609,1,0,0:0:0:0:
329,192,228609,1,0,0:0:0:0:
329,192,228693,128,0,228779:0:0:0:0:
182,192,228693,1,0,0:0:0:0:
402,192,228693,1,0,0:0:0:0:
402,192,228779,128,0,228864:0:0:0:0:
475,192,228779,128,0,229375:0:0:0:0:
256,192,228779,128,0,228864:0:0:0:0:
109,192,228779,128,0,229034:0:0:0:0:
36,192,228779,128,0,229119:0:0:0:0:
182,192,228864,128,0,228950:0:0:0:0:
329,192,228950,128,0,229034:0:0:0:0:
402,192,228950,128,0,229290:0:0:0:0:
256,192,228950,128,0,229034:0:0:0:0:
182,192,229034,128,0,229205:0:0:0:0:
256,192,229119,128,0,229205:0:0:0:0:
329,192,229119,128,0,229205:0:0:0:0:
109,192,229119,128,0,229375:0:0:0:0:
36,192,229205,128,0,229290:0:0:0:0:
182,192,229290,128,0,229545:0:0:0:0:
256,192,229290,128,0,229375:0:0:0:0:
329,192,229290,128,0,229375:0:0:0:0:
402,192,229375,128,0,229460:0:0:0:0:
36,192,229375,1,0,0:0:0:0:
109,192,229460,1,0,0:0:0:0:
256,192,229460,128,0,229545:0:0:0:0:
475,192,229460,128,0,229545:0:0:0:0:
36,192,229460,128,0,230056:0:0:0:0:
109,192,229545,128,0,229631:0:0:0:0:
329,192,229545,1,0,0:0:0:0:
182,192,229631,1,0,0:0:0:0:
329,192,229631,128,0,229715:0:0:0:0:
182,192,229715,128,0,229801:0:0:0:0:
402,192,229715,1,0,0:0:0:0:
329,192,229801,128,0,229886:0:0:0:0:
256,192,229801,1,0,0:0:0:0:
475,192,229801,1,0,0:0:0:0:
475,192,229886,128,0,229970:0:0:0:0:
109,192,229886,1,0,0:0:0:0:
256,192,229970,128,0,230056:0:0:0:0:
402,192,229970,1,0,0:0:0:0:
182,192,229970,1,0,0:0:0:0:
402,192,230056,128,0,230227:0:0:0:0:
329,192,230056,1,0,0:0:0:0:
109,192,230056,1,0,0:0:0:0:
182,192,230141,128,0,230227:0:0:0:0:
36,192,230141,128,0,230396:0:0:0:0:
109,192,230141,128,0,230227:0:0:0:0:
256,192,230141,128,0,230227:0:0:0:0:
475,192,230141,128,0,230311:0:0:0:0:
329,192,230227,128,0,230311:0:0:0:0:
109,192,230311,128,0,230396:0:0:0:0:
256,192,230311,128,0,230396:0:0:0:0:
182,192,230311,128,0,230396:0:0:0:0:
402,192,230311,128,0,230396:0:0:0:0:
475,192,230396,128,0,230482:0:0:0:0:
182,192,230482,128,0,230652:0:0:0:0:
329,192,230482,128,0,230652:0:0:0:0:
256,192,230482,128,0,230567:0:0:0:0:
36,192,230482,128,0,230652:0:0:0:0:
475,192,230567,128,0,230737:0:0:0:0:
109,192,230567,1,0,0:0:0:0:
402,192,230567,1,0,0:0:0:0:
256,192,230652,128,0,230737:0:0:0:0:
402,192,230652,128,0,230737:0:0:0:0:
109,192,230652,128,0,230822:0:0:0:0:
329,192,230737,1,0,0:0:0:0:
182,192,230737,1,0,0:0:0:0:
36,192,230737,128,0,230822:0:0:0:0:
256,192,230822,1,0,0:0:0:0:
402,192,230822,1,0,0:0:0:0:
475,192,230822,1,0,0:0:0:0:
182,192,230908,1,0,0:0:0:0:
329,192,230908,1,0,0:0:0:0:
109,192,230992,1,0,0:0:0:0:
256,192,230992,1,0,0:0:0:0:
402,192,230992,1,0,0:0:0:0:
36,192,230992,1,0,0:0:0:0:
182,192,231078,1,0,0:0:0:0:
329,192,231078,1,0,0:0:0:0:
475,192,231078,1,0,0:0:0:0:
256,192,231163,1,0,0:0:0:0:
402,192,231163,1,0,0:0:0:0:
109,192,231163,1,0,0:0:0:0:
36,192,231163,1,0,0:0:0:0:
182,192,231248,1,0,0:0:0:0:
475,192,231248,1,0,0:0:0:0:
402,192,231333,1,0,0:0:0:0:
109,192,231333,1,0,0:0:0:0:
256,192,231333,1,0,0:0:0:0:
36,192,231376,1,0,0:0:0:0:
329,192,231418,1,0,0:0:0:0:
182,192,231418,1,0,0:0:0:0:
475,192,231461,1,0,0:0:0:0:
256,192,231504,128,0,231589:0:0:0:0:
402,192,231504,128,0,231589:0:0:0:0:
109,192,231504,128,0,231673:0:0:0:0:
36,192,231504,128,0,231930:0:0:0:0:
329,192,231589,128,0,231673:0:0:0:0:
182,192,231673,128,0,231759:0:0:0:0:
475,192,231673,128,0,231844:0:0:0:0:
402,192,231673,128,0,231759:0:0:0:0:
109,192,231759,128,0,231930:0:0:0:0:
256,192,231759,128,0,231844:0:0:0:0:
402,192,231844,128,0,232014:0:0:0:0:
329,192,231844,128,0,231930:0:0:0:0:
182,192,231844,128,0,232014:0:0:0:0:
256,192,231930,128,0,232014:0:0:0:0:
109,192,232014,128,0,232100:0:0:0:0:
36,192,232014,1,0,0:0:0:0:
329,192,232014,128,0,232100:0:0:0:0:
475,192,232014,128,0,232100:0:0:0:0:
256,192,232100,128,0,232185:0:0:0:0:
182,192,232100,1,0,0:0:0:0:
36,192,232185,1,0,0:0:0:0:
475,192,232185,1,0,0:0:0:0:
402,192,232185,1,0,0:0:0:0:
329,192,232270,1,0,0:0:0:0:
109,192,232270,1,0,0:0:0:0:
475,192,232355,1,0,0:0:0:0:
256,192,232355,1,0,0:0:0:0:
36,192,232355,1,0,0:0:0:0:
109,192,232440,1,0,0:0:0:0:
402,192,232440,1,0,0:0:0:0:
256,192,232526,1,0,0:0:0:0:
475,192,232526,1,0,0:0:0:0:
36,192,232526,1,0,0:0:0:0:
182,192,232611,1,0,0:0:0:0:
329,192,232611,1,0,0:0:0:0:
402,192,232611,1,0,0:0:0:0:
109,192,232611,1,0,0:0:0:0:
256,192,232695,1,0,0:0:0:0:
36,192,232695,1,0,0:0:0:0:
475,192,232695,1,0,0:0:0:0:
109,192,232781,1,0,0:0:0:0:
329,192,232781,1,0,0:0:0:0:
182,192,232866,1,0,0:0:0:0:
36,192,232866,1,0,0:0:0:0:
475,192,232866,1,0,0:0:0:0:
256,192,233036,1,0,0:0:0:0:
475,192,233036,1,0,0:0:0:0:
36,192,233036,1,0,0:0:0:0:
402,192,233121,1,0,0:0:0:0:
182,192,233121,1,0,0:0:0:0:
475,192,233207,1,0,0:0:0:0:
329,192,233207,1,0,0:0:0:0:
36,192,233207,1,0,0:0:0:0:
256,192,233207,1,0,0:0:0:0:
109,192,233207,1,0,0:0:0:0:
109,192,233547,128,0,233590:0:0:0:0:
182,192,233547,128,0,233590:0:0:0:0:
256,192,233547,128,0,233590:0:0:0:0:
329,192,233547,128,0,233590:0:0:0:0:
402,192,233547,128,0,233632:0:0:0:0:
475,192,233547,128,0,233717:0:0:0:0:
36,192,233547,128,0,233590:0:0:0:0:
402,192,233717,128,0,233803:0:0:0:0:
36,192,233717,128,0,233760:0:0:0:0:
109,192,233717,128,0,233760:0:0:0:0:
329,192,233760,128,0,233845:0:0:0:0:
256,192,233803,128,0,233888:0:0:0:0:
182,192,233845,128,0,233931:0:0:0:0:
36,192,233888,128,0,233931:0:0:0:0:
109,192,233888,128,0,233931:0:0:0:0:
329,192,233888,1,0,0:0:0:0:
475,192,233888,1,0,0:0:0:0:
256,192,233972,128,0,234015:0:0:0:0:
182,192,233972,128,0,234015:0:0:0:0:
402,192,233972,1,0,0:0:0:0:
329,192,234058,128,0,234101:0:0:0:0:
402,192,234058,128,0,234101:0:0:0:0:
182,192,234058,1,0,0:0:0:0:
36,192,234058,1,0,0:0:0:0:
256,192,234143,128,0,234186:0:0:0:0:
475,192,234143,128,0,234186:0:0:0:0:
109,192,234143,1,0,0:0:0:0:
109,192,234229,128,0,234271:0:0:0:0:
182,192,234229,128,0,234271:0:0:0:0:
256,192,234229,128,0,234271:0:0:0:0:
329,192,234229,128,0,234271:0:0:0:0:
402,192,234229,128,0,234271:0:0:0:0:
475,192,234229,128,0,234271:0:0:0:0:
36,192,234229,128,0,234398:0:0:0:0:
109,192,234398,128,0,234484:0:0:0:0:
475,192,234398,128,0,234441:0:0:0:0:
402,192,234398,128,0,234441:0:0:0:0:
182,192,234441,128,0,234527:0:0:0:0:
256,192,234484,128,0,234569:0:0:0:0:
329,192,234527,128,0,234612:0:0:0:0:
402,192,234569,128,0,234612:0:0:0:0:
475,192,234569,128,0,234612:0:0:0:0:
109,192,234569,1,0,0:0:0:0:
182,192,234569,1,0,0:0:0:0:
36,192,234654,128,0,234696:0:0:0:0:
109,192,234654,128,0,234696:0:0:0:0:
475,192,234654,1,0,0:0:0:0:
329,192,234739,128,0,234782:0:0:0:0:
402,192,234739,128,0,234782:0:0:0:0:
182,192,234739,1,0,0:0:0:0:
256,192,234739,1,0,0:0:0:0:
182,192,234825,128,0,234867:0:0:0:0:
109,192,234825,128,0,234867:0:0:0:0:
475,192,234825,1,0,0:0:0:0:
182,192,234910,128,0,234973:0:0:0:0:
256,192,234910,128,0,234994:0:0:0:0:
329,192,234910,128,0,235037:0:0:0:0:
402,192,234910,128,0,235080:0:0:0:0:
475,192,234910,128,0,235122:0:0:0:0:
36,192,234910,128,0,234931:0:0:0:0:
109,192,234910,128,0,234952:0:0:0:0:
36,192,235080,128,0,235122:0:0:0:0:
182,192,235080,1,0,0:0:0:0:
109,192,235080,128,0,235122:0:0:0:0:
256,192,235102,1,0,0:0:0:0:
329,192,235122,1,0,0:0:0:0:
402,192,235143,1,0,0:0:0:0:
475,192,235165,1,0,0:0:0:0:
109,192,235251,128,0,235292:0:0:0:0:
256,192,235251,128,0,235292:0:0:0:0:
36,192,235251,128,0,235506:0:0:0:0:
182,192,235335,128,0,235378:0:0:0:0:
329,192,235335,128,0,235378:0:0:0:0:
109,192,235335,1,0,0:0:0:0:
256,192,235420,128,0,235463:0:0:0:0:
402,192,235420,128,0,235463:0:0:0:0:
182,192,235420,1,0,0:0:0:0:
329,192,235506,128,0,235548:0:0:0:0:
475,192,235506,128,0,235548:0:0:0:0:
256,192,235506,1,0,0:0:0:0:
182,192,235591,128,0,235633:0:0:0:0:
36,192,235591,128,0,235633:0:0:0:0:
402,192,235591,128,0,235633:0:0:0:0:
329,192,235591,1,0,0:0:0:0:
475,192,235591,128,0,235761:0:0:0:0:
109,192,235676,128,0,235718:0:0:0:0:
256,192,235676,128,0,235718:0:0:0:0:
182,192,235761,128,0,235804:0:0:0:0:
36,192,235761,128,0,235804:0:0:0:0:
329,192,235804,128,0,235846:0:0:0:0:
475,192,235846,128,0,235889:0:0:0:0:
256,192,235846,128,0,235889:0:0:0:0:
109,192,235846,128,0,235889:0:0:0:0:
402,192,235889,128,0,235932:0:0:0:0:
36,192,235932,128,0,235973:0:0:0:0:
182,192,235932,128,0,235973:0:0:0:0:
329,192,235932,128,0,235973:0:0:0:0:
329,192,236102,128,0,236144:0:0:0:0:
182,192,236102,128,0,236144:0:0:0:0:
109,192,236272,128,0,236400:0:0:0:0:
256,192,236272,128,0,236357:0:0:0:0:
182,192,236272,128,0,236379:0:0:0:0:
329,192,236272,128,0,236336:0:0:0:0:
402,192,236272,128,0,236314:0:0:0:0:
475,192,236272,128,0,236591:0:0:0:0:
36,192,236272,128,0,236400:0:0:0:0:
36,192,236442,128,0,236485:0:0:0:0:
182,192,236442,128,0,236591:0:0:0:0:
109,192,236442,128,0,236485:0:0:0:0:
256,192,236485,128,0,236591:0:0:0:0:
329,192,236528,128,0,236591:0:0:0:0:
402,192,236570,128,0,236591:0:0:0:0:
329,192,236613,128,0,236655:0:0:0:0:
475,192,236613,128,0,236655:0:0:0:0:
36,192,236613,1,0,0:0:0:0:
256,192,236697,128,0,236740:0:0:0:0:
402,192,236697,128,0,236740:0:0:0:0:
109,192,236697,1,0,0:0:0:0:
182,192,236783,128,0,236826:0:0:0:0:
329,192,236783,128,0,236826:0:0:0:0:
475,192,236783,1,0,0:0:0:0:
256,192,236868,128,0,236889:0:0:0:0:
109,192,236868,128,0,236889:0:0:0:0:
402,192,236868,1,0,0:0:0:0:
329,192,236953,128,0,237060:0:0:0:0:
256,192,236953,128,0,237038:0:0:0:0:
109,192,236953,128,0,236995:0:0:0:0:
475,192,236953,128,0,237081:0:0:0:0:
36,192,236953,128,0,237272:0:0:0:0:
182,192,236953,128,0,237017:0:0:0:0:
402,192,236953,128,0,237081:0:0:0:0:
329,192,237123,128,0,237272:0:0:0:0:
402,192,237123,128,0,237166:0:0:0:0:
475,192,237123,128,0,237166:0:0:0:0:
256,192,237166,128,0,237272:0:0:0:0:
182,192,237209,128,0,237272:0:0:0:0:
109,192,237252,128,0,237272:0:0:0:0:
329,192,237293,128,0,237336:0:0:0:0:
475,192,237293,128,0,237336:0:0:0:0:
36,192,237293,1,0,0:0:0:0:
256,192,237379,128,0,237421:0:0:0:0:
402,192,237379,128,0,237421:0:0:0:0:
109,192,237379,1,0,0:0:0:0:
182,192,237464,128,0,237507:0:0:0:0:
329,192,237464,128,0,237507:0:0:0:0:
475,192,237464,1,0,0:0:0:0:
109,192,237550,128,0,237570:0:0:0:0:
256,192,237550,128,0,237570:0:0:0:0:
402,192,237550,1,0,0:0:0:0:
36,192,237634,128,0,237719:0:0:0:0:
182,192,237634,128,0,237656:0:0:0:0:
329,192,237634,128,0,237656:0:0:0:0:
475,192,237634,128,0,237719:0:0:0:0:
36,192,237762,128,0,237847:0:0:0:0:
475,192,237762,128,0,237847:0:0:0:0:
109,192,237783,128,0,237847:0:0:0:0:
402,192,237783,128,0,237847:0:0:0:0:
182,192,237805,128,0,237847:0:0:0:0:
329,192,237805,128,0,237847:0:0:0:0:
256,192,237826,128,0,237847:0:0:0:0:
182,192,237975,1,0,0:0:0:0:
109,192,237975,128,0,238123:0:0:0:0:
36,192,237975,128,0,238103:0:0:0:0:
256,192,237975,1,0,0:0:0:0:
329,192,238060,1,0,0:0:0:0:
402,192,238060,128,0,238209:0:0:0:0:
475,192,238060,128,0,238188:0:0:0:0:
182,192,238145,1,0,0:0:0:0:
36,192,238145,128,0,238294:0:0:0:0:
109,192,238145,128,0,238273:0:0:0:0:
256,192,238145,1,0,0:0:0:0:
329,192,238231,1,0,0:0:0:0:
402,192,238231,128,0,238294:0:0:0:0:
475,192,238231,128,0,238315:0:0:0:0:
256,192,238315,1,0,0:0:0:0:
109,192,238315,1,0,0:0:0:0:
36,192,238315,1,0,0:0:0:0:
329,192,238401,1,0,0:0:0:0:
182,192,238401,1,0,0:0:0:0:
256,192,238486,1,0,0:0:0:0:
402,192,238486,1,0,0:0:0:0:
475,192,238486,1,0,0:0:0:0:
36,192,238529,1,0,0:0:0:0:
329,192,238571,1,0,0:0:0:0:
182,192,238571,1,0,0:0:0:0:
109,192,238613,1,0,0:0:0:0:
402,192,238656,1,0,0:0:0:0:
182,192,238656,1,0,0:0:0:0:
36,192,238656,1,0,0:0:0:0:
475,192,238656,1,0,0:0:0:0:
256,192,238656,1,0,0:0:0:0:
329,192,238996,128,0,239039:0:0:0:0:
402,192,238996,128,0,239039:0:0:0:0:
475,192,238996,128,0,239039:0:0:0:0:
256,192,238996,128,0,239253:0:0:0:0:
109,192,238996,1,0,0:0:0:0:
36,192,238996,1,0,0:0:0:0:
182,192,239082,128,0,239253:0:0:0:0:
329,192,239167,128,0,239380:0:0:0:0:
402,192,239167,128,0,239210:0:0:0:0:
475,192,239167,128,0,239210:0:0:0:0:
109,192,239167,128,0,239253:0:0:0:0:
36,192,239253,128,0,239593:0:0:0:0:
109,192,239337,128,0,239593:0:0:0:0:
402,192,239337,128,0,239465:0:0:0:0:
475,192,239337,128,0,239551:0:0:0:0:
256,192,239337,1,0,0:0:0:0:
182,192,239422,128,0,239593:0:0:0:0:
329,192,239422,1,0,0:0:0:0:
256,192,239508,128,0,239593:0:0:0:0:
402,192,239508,1,0,0:0:0:0:
475,192,239593,1,0,0:0:0:0:
182,192,239678,128,0,239720:0:0:0:0:
109,192,239678,128,0,239720:0:0:0:0:
36,192,239678,128,0,239720:0:0:0:0:
402,192,239678,1,0,0:0:0:0:
256,192,239678,128,0,239934:0:0:0:0:
329,192,239763,128,0,239848:0:0:0:0:
36,192,239848,128,0,239891:0:0:0:0:
109,192,239848,128,0,239891:0:0:0:0:
182,192,239848,128,0,240061:0:0:0:0:
402,192,239848,128,0,239934:0:0:0:0:
329,192,239934,1,0,0:0:0:0:
475,192,239934,128,0,240273:0:0:0:0:
36,192,240018,128,0,240232:0:0:0:0:
109,192,240018,128,0,240146:0:0:0:0:
256,192,240018,1,0,0:0:0:0:
402,192,240018,128,0,240273:0:0:0:0:
182,192,240104,1,0,0:0:0:0:
329,192,240104,128,0,240273:0:0:0:0:
109,192,240189,1,0,0:0:0:0:
256,192,240189,128,0,240273:0:0:0:0:
36,192,240273,1,0,0:0:0:0:
182,192,240273,128,0,240359:0:0:0:0:
329,192,240359,128,0,240402:0:0:0:0:
402,192,240359,128,0,240402:0:0:0:0:
475,192,240359,128,0,240402:0:0:0:0:
109,192,240359,1,0,0:0:0:0:
256,192,240444,128,0,240465:0:0:0:0:
182,192,240530,128,0,240572:0:0:0:0:
109,192,240530,128,0,240572:0:0:0:0:
36,192,240530,128,0,240572:0:0:0:0:
329,192,240530,1,0,0:0:0:0:
475,192,240530,1,0,0:0:0:0:
402,192,240614,1,0,0:0:0:0:
256,192,240614,1,0,0:0:0:0:
329,192,240700,1,0,0:0:0:0:
182,192,240700,1,0,0:0:0:0:
475,192,240700,128,0,241295:0:0:0:0:
256,192,240785,1,0,0:0:0:0:
109,192,240785,1,0,0:0:0:0:
402,192,240785,128,0,241211:0:0:0:0:
182,192,240870,1,0,0:0:0:0:
36,192,240870,1,0,0:0:0:0:
329,192,240870,128,0,241126:0:0:0:0:
256,192,240955,128,0,241040:0:0:0:0:
109,192,240955,1,0,0:0:0:0:
182,192,241040,128,0,241126:0:0:0:0:
36,192,241040,128,0,241126:0:0:0:0:
109,192,241126,128,0,241211:0:0:0:0:
256,192,241126,128,0,241211:0:0:0:0:
329,192,241211,128,0,241295:0:0:0:0:
182,192,241211,128,0,241295:0:0:0:0:
36,192,241254,128,0,241295:0:0:0:0:
256,192,241295,128,0,241381:0:0:0:0:
402,192,241295,128,0,241381:0:0:0:0:
109,192,241338,128,0,241552:0:0:0:0:
36,192,241381,128,0,241636:0:0:0:0:
329,192,241381,128,0,241466:0:0:0:0:
475,192,241381,128,0,241466:0:0:0:0:
182,192,241381,128,0,241466:0:0:0:0:
402,192,241466,128,0,241552:0:0:0:0:
256,192,241466,128,0,241552:0:0:0:0:
329,192,241552,128,0,241636:0:0:0:0:
182,192,241552,128,0,241636:0:0:0:0:
475,192,241552,1,0,0:0:0:0:
256,192,241636,128,0,241807:0:0:0:0:
109,192,241636,128,0,241807:0:0:0:0:
402,192,241636,1,0,0:0:0:0:
329,192,241721,1,0,0:0:0:0:
182,192,241721,128,0,241807:0:0:0:0:
36,192,241721,128,0,241807:0:0:0:0:
402,192,241721,128,0,241934:0:0:0:0:
475,192,241721,128,0,241934:0:0:0:0:
182,192,241892,128,0,241934:0:0:0:0:
109,192,241892,128,0,241934:0:0:0:0:
36,192,241892,128,0,241934:0:0:0:0:
256,192,241892,128,0,241934:0:0:0:0:
329,192,241892,128,0,241934:0:0:0:0:
36,192,242062,128,0,242147:0:0:0:0:
109,192,242062,1,0,0:0:0:0:
182,192,242062,1,0,0:0:0:0:
329,192,242062,128,0,242147:0:0:0:0:
402,192,242062,128,0,242233:0:0:0:0:
475,192,242062,128,0,242317:0:0:0:0:
109,192,242147,128,0,242233:0:0:0:0:
182,192,242147,1,0,0:0:0:0:
256,192,242147,1,0,0:0:0:0:
182,192,242233,128,0,242317:0:0:0:0:
256,192,242233,1,0,0:0:0:0:
329,192,242233,1,0,0:0:0:0:
256,192,242317,128,0,242403:0:0:0:0:
329,192,242317,1,0,0:0:0:0:
402,192,242317,1,0,0:0:0:0:
182,192,242403,1,0,0:0:0:0:
109,192,242403,128,0,242615:0:0:0:0:
36,192,242403,128,0,242615:0:0:0:0:
402,192,242403,1,0,0:0:0:0:
475,192,242403,1,0,0:0:0:0:
329,192,242488,1,0,0:0:0:0:
256,192,242488,1,0,0:0:0:0:
182,192,242573,128,0,242615:0:0:0:0:
256,192,242573,128,0,242615:0:0:0:0:
329,192,242573,128,0,242615:0:0:0:0:
475,192,242573,128,0,242658:0:0:0:0:
402,192,242573,128,0,242615:0:0:0:0:
109,192,242658,128,0,242701:0:0:0:0:
36,192,242658,128,0,242701:0:0:0:0:
402,192,242658,1,0,0:0:0:0:
329,192,242701,1,0,0:0:0:0:
109,192,242743,128,0,242786:0:0:0:0:
182,192,242743,128,0,242786:0:0:0:0:
256,192,242743,1,0,0:0:0:0:
402,192,242829,128,0,242871:0:0:0:0:
475,192,242829,128,0,242871:0:0:0:0:
182,192,242829,1,0,0:0:0:0:
36,192,242829,1,0,0:0:0:0:
402,192,242914,128,0,242956:0:0:0:0:
329,192,242914,128,0,242956:0:0:0:0:
109,192,242914,1,0,0:0:0:0:
36,192,242998,1,0,0:0:0:0:
182,192,242998,128,0,243041:0:0:0:0:
256,192,242998,128,0,243041:0:0:0:0:
109,192,243084,1,0,0:0:0:0:
256,192,243084,128,0,243127:0:0:0:0:
329,192,243084,128,0,243127:0:0:0:0:
475,192,243084,128,0,243127:0:0:0:0:
182,192,243169,128,0,243212:0:0:0:0:
402,192,243169,128,0,243212:0:0:0:0:
256,192,243255,128,0,243296:0:0:0:0:
109,192,243255,128,0,243296:0:0:0:0:
36,192,243255,128,0,243296:0:0:0:0:
402,192,243296,128,0,243339:0:0:0:0:
182,192,243339,128,0,243382:0:0:0:0:
329,192,243339,128,0,243382:0:0:0:0:
109,192,243382,128,0,243425:0:0:0:0:
256,192,243425,128,0,243467:0:0:0:0:
402,192,243425,128,0,243467:0:0:0:0:
475,192,243425,128,0,243467:0:0:0:0:
182,192,243467,128,0,243510:0:0:0:0:
109,192,243510,128,0,243553:0:0:0:0:
329,192,243510,128,0,243553:0:0:0:0:
402,192,243553,128,0,243595:0:0:0:0:
182,192,243595,128,0,243637:0:0:0:0:
256,192,243595,128,0,243637:0:0:0:0:
36,192,243595,128,0,243637:0:0:0:0:
329,192,243680,128,0,243722:0:0:0:0:
475,192,243680,128,0,243722:0:0:0:0:
109,192,243680,128,0,243722:0:0:0:0:
182,192,243765,128,0,243808:0:0:0:0:
109,192,243765,128,0,243829:0:0:0:0:
36,192,243765,128,0,243935:0:0:0:0:
256,192,243765,128,0,243786:0:0:0:0:
329,192,243765,128,0,243808:0:0:0:0:
402,192,243765,128,0,243829:0:0:0:0:
475,192,243765,128,0,243935:0:0:0:0:
475,192,243978,128,0,244148:0:0:0:0:
36,192,243978,128,0,244148:0:0:0:0:
402,192,244000,128,0,244169:0:0:0:0:
109,192,244000,128,0,244169:0:0:0:0:
329,192,244020,128,0,244191:0:0:0:0:
256,192,244020,128,0,244212:0:0:0:0:
182,192,244020,128,0,244191:0:0:0:0:
475,192,244234,128,0,244255:0:0:0:0:
402,192,244234,128,0,244276:0:0:0:0:
109,192,244234,128,0,244276:0:0:0:0:
36,192,244234,128,0,244255:0:0:0:0:
182,192,244234,128,0,244297:0:0:0:0:
329,192,244234,128,0,244297:0:0:0:0:
256,192,244255,128,0,244318:0:0:0:0:
36,192,244446,1,0,0:0:0:0:
109,192,244446,1,0,0:0:0:0:
182,192,244446,1,0,0:0:0:0:
256,192,244446,128,0,244702:0:0:0:0:
329,192,244446,1,0,0:0:0:0:
402,192,244446,1,0,0:0:0:0:
475,192,244446,1,0,0:0:0:0:
182,192,244787,1,0,0:0:0:0:
109,192,244787,1,0,0:0:0:0:
36,192,244787,1,0,0:0:0:0:
329,192,244787,1,0,0:0:0:0:
402,192,244787,1,0,0:0:0:0:
256,192,244787,1,0,0:0:0:0:
475,192,244787,1,0,0:0:0:0:
109,192,244957,128,0,245021:0:0:0:0:
402,192,244957,128,0,245021:0:0:0:0:
182,192,245128,128,0,245191:0:0:0:0:
329,192,245128,128,0,245191:0:0:0:0:
36,192,245213,128,0,245277:0:0:0:0:
475,192,245213,128,0,245277:0:0:0:0:
109,192,245297,128,0,245362:0:0:0:0:
402,192,245297,128,0,245362:0:0:0:0:
182,192,245383,128,0,245446:0:0:0:0:
329,192,245383,128,0,245446:0:0:0:0:
109,192,245446,128,0,245489:0:0:0:0:
402,192,245446,128,0,245489:0:0:0:0:
36,192,245511,128,0,245554:0:0:0:0:
475,192,245511,128,0,245554:0:0:0:0:
402,192,245575,128,0,245617:0:0:0:0:
109,192,245575,128,0,245617:0:0:0:0:
182,192,245638,128,0,245681:0:0:0:0:
329,192,245638,128,0,245681:0:0:0:0:
109,192,245723,128,0,245766:0:0:0:0:
402,192,245723,128,0,245766:0:0:0:0:
182,192,245809,128,0,245894:0:0:0:0:
36,192,245809,128,0,245894:0:0:0:0:
329,192,245809,128,0,245894:0:0:0:0:
475,192,245809,128,0,245894:0:0:0:0:
36,192,245979,128,0,246021:0:0:0:0:
182,192,245979,128,0,246021:0:0:0:0:
329,192,245979,128,0,246021:0:0:0:0:
475,192,245979,128,0,246021:0:0:0:0:
109,192,246064,128,0,246107:0:0:0:0:
256,192,246064,128,0,246107:0:0:0:0:
402,192,246064,128,0,246107:0:0:0:0:
329,192,246150,128,0,246192:0:0:0:0:
182,192,246150,128,0,246192:0:0:0:0:
475,192,246150,128,0,246192:0:0:0:0:
109,192,246235,128,0,246277:0:0:0:0:
256,192,246235,128,0,246277:0:0:0:0:
402,192,246235,128,0,246277:0:0:0:0:
36,192,246319,128,0,246362:0:0:0:0:
182,192,246319,128,0,246362:0:0:0:0:
329,192,246319,128,0,246362:0:0:0:0:
109,192,246405,128,0,246447:0:0:0:0:
402,192,246405,128,0,246447:0:0:0:0:
475,192,246490,128,0,246511:0:0:0:0:
256,192,246490,128,0,246511:0:0:0:0:
36,192,246490,128,0,246511:0:0:0:0:
402,192,246511,128,0,246533:0:0:0:0:
182,192,246511,128,0,246533:0:0:0:0:
329,192,246554,128,0,246576:0:0:0:0:
109,192,246554,128,0,246576:0:0:0:0:
256,192,246576,128,0,246596:0:0:0:0:
36,192,246576,128,0,246596:0:0:0:0:
475,192,246576,128,0,246596:0:0:0:0:
182,192,246596,128,0,246617:0:0:0:0:
402,192,246596,128,0,246617:0:0:0:0:
109,192,246639,128,0,246660:0:0:0:0:
329,192,246639,128,0,246660:0:0:0:0:
36,192,246660,128,0,246682:0:0:0:0:
475,192,246660,128,0,246682:0:0:0:0:
256,192,246660,128,0,246682:0:0:0:0:
402,192,246682,128,0,246703:0:0:0:0:
182,192,246682,128,0,246703:0:0:0:0:
329,192,246725,128,0,246745:0:0:0:0:
109,192,246725,128,0,246745:0:0:0:0:
256,192,246745,128,0,246766:0:0:0:0:
36,192,246745,128,0,246766:0:0:0:0:
475,192,246745,128,0,246766:0:0:0:0:
182,192,246766,128,0,246788:0:0:0:0:
402,192,246766,128,0,246788:0:0:0:0:
109,192,246809,128,0,246831:0:0:0:0:
329,192,246809,128,0,246831:0:0:0:0:
36,192,246831,128,0,247129:0:0:0:0:
256,192,246831,128,0,247129:0:0:0:0:
475,192,246831,128,0,247129:0:0:0:0:
36,192,247171,1,0,0:0:0:0:
109,192,247171,1,0,0:0:0:0:
182,192,247171,1,0,0:0:0:0:
329,192,247171,1,0,0:0:0:0:
402,192,247171,1,0,0:0:0:0:
256,192,247171,1,0,0:0:0:0:
475,192,247171,1,0,0:0:0:0:
402,192,247853,1,0,0:0:0:0:
475,192,247853,1,0,0:0:0:0:
256,192,247853,128,0,248448:0:0:0:0:
402,192,247937,128,0,248022:0:0:0:0:
475,192,247937,128,0,248022:0:0:0:0:
109,192,248022,1,0,0:0:0:0:
36,192,248022,1,0,0:0:0:0:
109,192,248108,128,0,248193:0:0:0:0:
36,192,248108,128,0,248193:0:0:0:0:
329,192,248193,1,0,0:0:0:0:
402,192,248193,1,0,0:0:0:0:
329,192,248278,128,0,248363:0:0:0:0:
402,192,248278,128,0,248363:0:0:0:0:
182,192,248363,1,0,0:0:0:0:
109,192,248363,1,0,0:0:0:0:
182,192,248448,128,0,248534:0:0:0:0:
109,192,248448,128,0,248534:0:0:0:0:
402,192,248534,128,0,248577:0:0:0:0:
475,192,248534,1,0,0:0:0:0:
256,192,248534,1,0,0:0:0:0:
329,192,248534,1,0,0:0:0:0:
182,192,248618,128,0,248661:0:0:0:0:
36,192,248618,1,0,0:0:0:0:
329,192,248704,128,0,249044:0:0:0:0:
256,192,248704,1,0,0:0:0:0:
475,192,248704,128,0,248746:0:0:0:0:
402,192,248704,1,0,0:0:0:0:
109,192,248704,1,0,0:0:0:0:
36,192,248789,1,0,0:0:0:0:
182,192,248789,128,0,248832:0:0:0:0:
475,192,248875,128,0,249130:0:0:0:0:
256,192,248875,1,0,0:0:0:0:
109,192,248875,1,0,0:0:0:0:
402,192,248875,128,0,248916:0:0:0:0:
182,192,248959,1,0,0:0:0:0:
36,192,248959,128,0,249002:0:0:0:0:
256,192,249044,128,0,249215:0:0:0:0:
402,192,249044,1,0,0:0:0:0:
109,192,249044,128,0,249087:0:0:0:0:
402,192,249130,128,0,249556:0:0:0:0:
182,192,249130,1,0,0:0:0:0:
36,192,249130,128,0,249172:0:0:0:0:
182,192,249215,128,0,249385:0:0:0:0:
475,192,249215,1,0,0:0:0:0:
109,192,249215,1,0,0:0:0:0:
329,192,249215,128,0,249257:0:0:0:0:
36,192,249300,128,0,249385:0:0:0:0:
256,192,249300,1,0,0:0:0:0:
109,192,249300,128,0,249342:0:0:0:0:
256,192,249385,128,0,249556:0:0:0:0:
475,192,249385,128,0,249428:0:0:0:0:
109,192,249470,128,0,249556:0:0:0:0:
182,192,249470,128,0,249513:0:0:0:0:
329,192,249470,1,0,0:0:0:0:
329,192,249556,128,0,249726:0:0:0:0:
475,192,249556,128,0,249597:0:0:0:0:
36,192,249556,1,0,0:0:0:0:
182,192,249640,128,0,249726:0:0:0:0:
256,192,249640,128,0,249683:0:0:0:0:
402,192,249640,1,0,0:0:0:0:
402,192,249726,128,0,249896:0:0:0:0:
36,192,249726,128,0,249768:0:0:0:0:
109,192,249726,1,0,0:0:0:0:
256,192,249811,128,0,249896:0:0:0:0:
329,192,249811,128,0,249854:0:0:0:0:
475,192,249811,1,0,0:0:0:0:
475,192,249896,128,0,250066:0:0:0:0:
36,192,249896,1,0,0:0:0:0:
182,192,249896,128,0,249938:0:0:0:0:
329,192,249981,128,0,250066:0:0:0:0:
402,192,249981,128,0,250023:0:0:0:0:
256,192,249981,1,0,0:0:0:0:
182,192,250066,128,0,250407:0:0:0:0:
36,192,250066,128,0,250109:0:0:0:0:
109,192,250066,1,0,0:0:0:0:
329,192,250152,128,0,250194:0:0:0:0:
475,192,250152,1,0,0:0:0:0:
36,192,250237,128,0,250492:0:0:0:0:
256,192,250237,1,0,0:0:0:0:
402,192,250237,1,0,0:0:0:0:
109,192,250237,128,0,250279:0:0:0:0:
329,192,250321,1,0,0:0:0:0:
475,192,250321,128,0,250364:0:0:0:0:
256,192,250407,128,0,250577:0:0:0:0:
109,192,250407,1,0,0:0:0:0:
402,192,250407,128,0,250450:0:0:0:0:
475,192,250492,128,0,250535:0:0:0:0:
109,192,250492,128,0,250917:0:0:0:0:
329,192,250492,1,0,0:0:0:0:
402,192,250577,1,0,0:0:0:0:
182,192,250577,128,0,250619:0:0:0:0:
329,192,250577,128,0,250747:0:0:0:0:
36,192,250577,1,0,0:0:0:0:
475,192,250662,128,0,250747:0:0:0:0:
256,192,250662,1,0,0:0:0:0:
402,192,250662,128,0,250705:0:0:0:0:
256,192,250747,128,0,250917:0:0:0:0:
36,192,250747,128,0,250790:0:0:0:0:
402,192,250833,128,0,250917:0:0:0:0:
329,192,250833,128,0,250876:0:0:0:0:
182,192,250833,1,0,0:0:0:0:
182,192,250917,128,0,251088:0:0:0:0:
36,192,250917,128,0,250960:0:0:0:0:
475,192,250917,1,0,0:0:0:0:
256,192,251003,128,0,251045:0:0:0:0:
329,192,251003,128,0,251088:0:0:0:0:
109,192,251003,1,0,0:0:0:0:
109,192,251088,128,0,251258:0:0:0:0:
475,192,251088,128,0,251131:0:0:0:0:
402,192,251088,1,0,0:0:0:0:
256,192,251173,128,0,251258:0:0:0:0:
182,192,251173,128,0,251216:0:0:0:0:
36,192,251173,1,0,0:0:0:0:
36,192,251258,128,0,251429:0:0:0:0:
475,192,251258,1,0,0:0:0:0:
329,192,251258,128,0,251301:0:0:0:0:
402,192,251343,1,0,0:0:0:0:
109,192,251343,128,0,251386:0:0:0:0:
475,192,251343,128,0,251855:0:0:0:0:
256,192,251343,128,0,251386:0:0:0:0:
329,192,251429,1,0,0:0:0:0:
402,192,251429,128,0,251769:0:0:0:0:
182,192,251429,128,0,251471:0:0:0:0:
256,192,251514,1,0,0:0:0:0:
329,192,251514,128,0,251684:0:0:0:0:
109,192,251514,128,0,251557:0:0:0:0:
36,192,251598,1,0,0:0:0:0:
182,192,251598,128,0,251641:0:0:0:0:
109,192,251684,1,0,0:0:0:0:
36,192,251684,128,0,252110:0:0:0:0:
256,192,251684,128,0,251727:0:0:0:0:
182,192,251769,1,0,0:0:0:0:
109,192,251769,128,0,252025:0:0:0:0:
329,192,251769,128,0,251812:0:0:0:0:
182,192,251855,128,0,251939:0:0:0:0:
402,192,251855,128,0,251897:0:0:0:0:
256,192,251855,1,0,0:0:0:0:
475,192,251939,128,0,252025:0:0:0:0:
402,192,251939,1,0,0:0:0:0:
329,192,251939,1,0,0:0:0:0:
256,192,251939,1,0,0:0:0:0:
329,192,252110,128,0,252195:0:0:0:0:
475,192,252110,128,0,252195:0:0:0:0:
182,192,252110,128,0,252195:0:0:0:0:
256,192,252153,1,0,0:0:0:0:
402,192,252153,1,0,0:0:0:0:
109,192,252153,1,0,0:0:0:0:
36,192,252153,1,0,0:0:0:0:
475,192,252322,128,0,252408:0:0:0:0:
256,192,252322,128,0,252408:0:0:0:0:
109,192,252322,128,0,252408:0:0:0:0:
36,192,252365,1,0,0:0:0:0:
182,192,252365,1,0,0:0:0:0:
329,192,252365,1,0,0:0:0:0:
402,192,252365,1,0,0:0:0:0:
256,192,252620,128,0,252791:0:0:0:0:
36,192,252620,1,0,0:0:0:0:
109,192,252620,128,0,252706:0:0:0:0:
182,192,252620,128,0,252663:0:0:0:0:
402,192,252620,1,0,0:0:0:0:
329,192,252620,1,0,0:0:0:0:
475,192,252620,1,0,0:0:0:0:
475,192,252706,1,0,0:0:0:0:
402,192,252706,128,0,252791:0:0:0:0:
329,192,252706,128,0,252748:0:0:0:0:
182,192,252791,1,0,0:0:0:0:
36,192,252791,1,0,0:0:0:0:
109,192,252791,128,0,252877:0:0:0:0:
256,192,252877,1,0,0:0:0:0:
402,192,252877,1,0,0:0:0:0:
475,192,252877,128,0,252918:0:0:0:0:
329,192,252877,128,0,252961:0:0:0:0:
36,192,252961,128,0,253004:0:0:0:0:
109,192,252961,1,0,0:0:0:0:
182,192,252961,128,0,253046:0:0:0:0:
475,192,253046,1,0,0:0:0:0:
329,192,253046,128,0,253132:0:0:0:0:
402,192,253046,128,0,253089:0:0:0:0:
36,192,253132,1,0,0:0:0:0:
256,192,253132,1,0,0:0:0:0:
109,192,253132,128,0,253217:0:0:0:0:
182,192,253132,128,0,253175:0:0:0:0:
475,192,253217,1,0,0:0:0:0:
402,192,253217,128,0,253302:0:0:0:0:
329,192,253217,128,0,253259:0:0:0:0:
256,192,253259,128,0,253344:0:0:0:0:
109,192,253302,1,0,0:0:0:0:
36,192,253302,1,0,0:0:0:0:
182,192,253302,1,0,0:0:0:0:
329,192,253302,1,0,0:0:0:0:
475,192,253302,1,0,0:0:0:0:
109,192,253430,128,0,253515:0:0:0:0:
402,192,253430,128,0,253515:0:0:0:0:
475,192,253472,1,0,0:0:0:0:
36,192,253472,1,0,0:0:0:0:
256,192,253472,1,0,0:0:0:0:
182,192,253515,1,0,0:0:0:0:
329,192,253558,1,0,0:0:0:0:
256,192,253600,128,0,253685:0:0:0:0:
109,192,253642,1,0,0:0:0:0:
329,192,253642,1,0,0:0:0:0:
402,192,253642,1,0,0:0:0:0:
475,192,253642,1,0,0:0:0:0:
36,192,253642,1,0,0:0:0:0:
182,192,253642,1,0,0:0:0:0:
109,192,253770,128,0,253856:0:0:0:0:
402,192,253770,128,0,253856:0:0:0:0:
36,192,253813,1,0,0:0:0:0:
329,192,253813,1,0,0:0:0:0:
475,192,253813,1,0,0:0:0:0:
182,192,253813,1,0,0:0:0:0:
36,192,253983,128,0,254196:0:0:0:0:
256,192,253983,128,0,254026:0:0:0:0:
329,192,253983,128,0,254068:0:0:0:0:
475,192,253983,128,0,254154:0:0:0:0:
182,192,253983,1,0,0:0:0:0:
109,192,254026,128,0,254154:0:0:0:0:
402,192,254026,128,0,254111:0:0:0:0:
182,192,254068,128,0,254111:0:0:0:0:
256,192,254111,128,0,254281:0:0:0:0:
329,192,254154,128,0,254323:0:0:0:0:
402,192,254196,128,0,254409:0:0:0:0:
182,192,254196,128,0,254238:0:0:0:0:
475,192,254238,128,0,254366:0:0:0:0:
109,192,254238,128,0,254409:0:0:0:0:
36,192,254281,128,0,254366:0:0:0:0:
182,192,254323,128,0,254537:0:0:0:0:
256,192,254366,128,0,254494:0:0:0:0:
329,192,254409,128,0,254452:0:0:0:0:
36,192,254452,128,0,254621:0:0:0:0:
475,192,254452,128,0,254579:0:0:0:0:
109,192,254494,128,0,254579:0:0:0:0:
402,192,254494,128,0,254750:0:0:0:0:
329,192,254537,128,0,254707:0:0:0:0:
256,192,254579,128,0,254664:0:0:0:0:
182,192,254621,128,0,254792:0:0:0:0:
475,192,254664,128,0,254792:0:0:0:0:
109,192,254664,128,0,254750:0:0:0:0:
36,192,254707,128,0,255005:0:0:0:0:
256,192,254750,128,0,254835:0:0:0:0:
329,192,254792,128,0,254878:0:0:0:0:
109,192,254835,128,0,254962:0:0:0:0:
402,192,254835,128,0,254962:0:0:0:0:
182,192,254878,128,0,254919:0:0:0:0:
475,192,254878,128,0,254919:0:0:0:0:
256,192,254919,128,0,255047:0:0:0:0:
329,192,254962,128,0,255005:0:0:0:0:
182,192,255005,128,0,255133:0:0:0:0:
475,192,255005,128,0,255303:0:0:0:0:
109,192,255047,128,0,255090:0:0:0:0:
402,192,255047,128,0,255260:0:0:0:0:
329,192,255090,128,0,255218:0:0:0:0:
36,192,255090,128,0,255260:0:0:0:0:
256,192,255133,128,0,255176:0:0:0:0:
109,192,255176,128,0,255303:0:0:0:0:
182,192,255218,128,0,255345:0:0:0:0:
256,192,255260,128,0,255388:0:0:0:0:
329,192,255303,128,0,255473:0:0:0:0:
36,192,255345,128,0,255473:0:0:0:0:
402,192,255345,128,0,255431:0:0:0:0:
475,192,255388,128,0,255559:0:0:0:0:
109,192,255388,128,0,255601:0:0:0:0:
182,192,255431,128,0,255559:0:0:0:0:
256,192,255473,128,0,255516:0:0:0:0:
402,192,255516,128,0,255601:0:0:0:0:
329,192,255559,128,0,255643:0:0:0:0:
36,192,255559,128,0,255643:0:0:0:0:
256,192,255601,128,0,255686:0:0:0:0:
182,192,255643,128,0,255814:0:0:0:0:
475,192,255643,128,0,255814:0:0:0:0:
109,192,255686,128,0,255771:0:0:0:0:
402,192,255686,128,0,255771:0:0:0:0:
36,192,255729,128,0,255941:0:0:0:0:
329,192,255729,128,0,255898:0:0:0:0:
256,192,255771,128,0,255857:0:0:0:0:
109,192,255857,128,0,255984:0:0:0:0:
402,192,255857,128,0,255984:0:0:0:0:
182,192,255898,128,0,256112:0:0:0:0:
475,192,255898,128,0,255941:0:0:0:0:
256,192,255941,128,0,256069:0:0:0:0:
329,192,255984,128,0,256027:0:0:0:0:
36,192,256027,128,0,256197:0:0:0:0:
475,192,256027,128,0,256239:0:0:0:0:
109,192,256069,128,0,256155:0:0:0:0:
402,192,256069,128,0,256197:0:0:0:0:
329,192,256112,128,0,256155:0:0:0:0:
256,192,256155,128,0,256325:0:0:0:0:
182,192,256197,128,0,256367:0:0:0:0:
109,192,256239,128,0,256410:0:0:0:0:
329,192,256239,128,0,256282:0:0:0:0:
36,192,256282,128,0,256453:0:0:0:0:
402,192,256282,128,0,256495:0:0:0:0:
475,192,256325,128,0,256453:0:0:0:0:
329,192,256367,128,0,256538:0:0:0:0:
256,192,256410,128,0,256453:0:0:0:0:
182,192,256453,128,0,256622:0:0:0:0:
109,192,256495,128,0,256580:0:0:0:0:
475,192,256538,128,0,256665:0:0:0:0:
256,192,256538,128,0,256665:0:0:0:0:
36,192,256538,128,0,256580:0:0:0:0:
402,192,256580,128,0,256665:0:0:0:0:
329,192,256622,128,0,256665:0:0:0:0:
109,192,256665,128,0,256751:0:0:0:0:
36,192,256665,128,0,256751:0:0:0:0:
182,192,256708,1,0,0:0:0:0:
256,192,256708,1,0,0:0:0:0:
329,192,256708,128,0,256793:0:0:0:0:
402,192,256708,1,0,0:0:0:0:
475,192,256708,1,0,0:0:0:0:
109,192,256836,128,0,256920:0:0:0:0:
182,192,256836,128,0,256920:0:0:0:0:
36,192,256879,1,0,0:0:0:0:
256,192,256879,1,0,0:0:0:0:
329,192,256879,1,0,0:0:0:0:
475,192,256879,1,0,0:0:0:0:
402,192,256879,128,0,256963:0:0:0:0:
182,192,257006,128,0,257091:0:0:0:0:
256,192,257006,128,0,257091:0:0:0:0:
36,192,257048,1,0,0:0:0:0:
109,192,257048,1,0,0:0:0:0:
402,192,257048,1,0,0:0:0:0:
329,192,257048,1,0,0:0:0:0:
475,192,257048,128,0,257134:0:0:0:0:
329,192,257177,128,0,257261:0:0:0:0:
256,192,257177,128,0,257261:0:0:0:0:
109,192,257219,1,0,0:0:0:0:
182,192,257219,1,0,0:0:0:0:
402,192,257219,1,0,0:0:0:0:
475,192,257219,1,0,0:0:0:0:
36,192,257219,128,0,257304:0:0:0:0:
329,192,257346,128,0,257432:0:0:0:0:
402,192,257346,128,0,257432:0:0:0:0:
36,192,257389,1,0,0:0:0:0:
182,192,257389,1,0,0:0:0:0:
256,192,257389,1,0,0:0:0:0:
475,192,257389,1,0,0:0:0:0:
109,192,257389,128,0,257475:0:0:0:0:
402,192,257517,128,0,257602:0:0:0:0:
475,192,257517,128,0,257602:0:0:0:0:
36,192,257559,1,0,0:0:0:0:
109,192,257559,1,0,0:0:0:0:
256,192,257559,1,0,0:0:0:0:
329,192,257559,1,0,0:0:0:0:
182,192,257559,128,0,257644:0:0:0:0:
329,192,257687,128,0,257772:0:0:0:0:
402,192,257687,128,0,257772:0:0:0:0:
256,192,257730,1,0,0:0:0:0:
182,192,257730,1,0,0:0:0:0:
36,192,257730,1,0,0:0:0:0:
475,192,257730,1,0,0:0:0:0:
109,192,257730,128,0,257815:0:0:0:0:
256,192,257858,128,0,257942:0:0:0:0:
329,192,257858,128,0,257942:0:0:0:0:
109,192,257900,1,0,0:0:0:0:
182,192,257900,1,0,0:0:0:0:
402,192,257900,1,0,0:0:0:0:
475,192,257900,1,0,0:0:0:0:
36,192,257900,128,0,257985:0:0:0:0:
36,192,258070,1,0,0:0:0:0:
182,192,258070,1,0,0:0:0:0:
329,192,258070,1,0,0:0:0:0:
475,192,258070,1,0,0:0:0:0:
109,192,258156,1,0,0:0:0:0:
256,192,258156,1,0,0:0:0:0:
402,192,258156,1,0,0:0:0:0:
329,192,258240,1,0,0:0:0:0:
475,192,258240,1,0,0:0:0:0:
36,192,258240,1,0,0:0:0:0:
182,192,258240,1,0,0:0:0:0:
256,192,258283,1,0,0:0:0:0:
402,192,258283,1,0,0:0:0:0:
182,192,258326,1,0,0:0:0:0:
329,192,258326,1,0,0:0:0:0:
256,192,258368,1,0,0:0:0:0:
109,192,258368,1,0,0:0:0:0:
329,192,258411,1,0,0:0:0:0:
475,192,258411,1,0,0:0:0:0:
182,192,258411,1,0,0:0:0:0:
36,192,258411,1,0,0:0:0:0:
109,192,258496,1,0,0:0:0:0:
256,192,258496,1,0,0:0:0:0:
402,192,258496,1,0,0:0:0:0:
36,192,258581,1,0,0:0:0:0:
182,192,258581,1,0,0:0:0:0:
329,192,258581,1,0,0:0:0:0:
475,192,258581,1,0,0:0:0:0:
109,192,258623,1,0,0:0:0:0:
256,192,258623,1,0,0:0:0:0:
182,192,258666,1,0,0:0:0:0:
329,192,258666,1,0,0:0:0:0:
256,192,258709,1,0,0:0:0:0:
402,192,258709,1,0,0:0:0:0:
329,192,258752,1,0,0:0:0:0:
475,192,258752,1,0,0:0:0:0:
36,192,258752,1,0,0:0:0:0:
182,192,258752,1,0,0:0:0:0:
109,192,258794,1,0,0:0:0:0:
256,192,258794,1,0,0:0:0:0:
402,192,258794,1,0,0:0:0:0:
182,192,258837,1,0,0:0:0:0:
329,192,258837,1,0,0:0:0:0:
256,192,258880,1,0,0:0:0:0:
402,192,258880,1,0,0:0:0:0:
109,192,258880,1,0,0:0:0:0:
329,192,258921,1,0,0:0:0:0:
475,192,258921,1,0,0:0:0:0:
36,192,258921,1,0,0:0:0:0:
182,192,258921,1,0,0:0:0:0:
109,192,258964,1,0,0:0:0:0:
256,192,258964,1,0,0:0:0:0:
402,192,258964,1,0,0:0:0:0:
36,192,259007,1,0,0:0:0:0:
182,192,259007,1,0,0:0:0:0:
329,192,259007,1,0,0:0:0:0:
475,192,259007,1,0,0:0:0:0:
109,192,259050,1,0,0:0:0:0:
256,192,259050,1,0,0:0:0:0:
402,192,259050,1,0,0:0:0:0:
182,192,259092,1,0,0:0:0:0:
36,192,259092,1,0,0:0:0:0:
329,192,259092,1,0,0:0:0:0:
475,192,259092,1,0,0:0:0:0:
109,192,259135,1,0,0:0:0:0:
402,192,259135,1,0,0:0:0:0:
182,192,259178,1,0,0:0:0:0:
329,192,259178,1,0,0:0:0:0:
256,192,259220,1,0,0:0:0:0:
36,192,259220,1,0,0:0:0:0:
475,192,259220,1,0,0:0:0:0:
182,192,259262,1,0,0:0:0:0:
329,192,259262,1,0,0:0:0:0:
109,192,259305,1,0,0:0:0:0:
402,192,259305,1,0,0:0:0:0:
36,192,259347,1,0,0:0:0:0:
475,192,259347,1,0,0:0:0:0:
402,192,259390,1,0,0:0:0:0:
109,192,259390,1,0,0:0:0:0:
256,192,259390,1,0,0:0:0:0:
475,192,259433,128,0,259476:0:0:0:0:
329,192,259433,1,0,0:0:0:0:
182,192,259433,128,0,259518:0:0:0:0:
109,192,259476,128,0,259560:0:0:0:0:
256,192,259476,1,0,0:0:0:0:
402,192,259518,128,0,259560:0:0:0:0:
36,192,259518,128,0,259603:0:0:0:0:
256,192,259560,128,0,259603:0:0:0:0:
329,192,259603,128,0,259986:0:0:0:0:
475,192,259603,128,0,259645:0:0:0:0:
182,192,259603,128,0,259645:0:0:0:0:
109,192,259645,128,0,259688:0:0:0:0:
402,192,259688,128,0,259731:0:0:0:0:
36,192,259688,128,0,259731:0:0:0:0:
256,192,259731,128,0,259752:0:0:0:0:
475,192,259773,128,0,260071:0:0:0:0:
182,192,259773,128,0,259794:0:0:0:0:
109,192,259816,128,0,259837:0:0:0:0:
402,192,259816,1,0,0:0:0:0:
36,192,259859,128,0,259880:0:0:0:0:
256,192,259859,1,0,0:0:0:0:
109,192,259901,128,0,259922:0:0:0:0:
256,192,259943,128,0,260157:0:0:0:0:
182,192,259943,128,0,259965:0:0:0:0:
402,192,259943,1,0,0:0:0:0:
109,192,259986,128,0,260008:0:0:0:0:
402,192,260029,128,0,260497:0:0:0:0:
36,192,260029,128,0,260051:0:0:0:0:
109,192,260071,128,0,260092:0:0:0:0:
475,192,260114,128,0,260241:0:0:0:0:
182,192,260114,128,0,260327:0:0:0:0:
329,192,260114,128,0,260200:0:0:0:0:
256,192,260200,1,0,0:0:0:0:
36,192,260200,128,0,260284:0:0:0:0:
109,192,260200,128,0,260241:0:0:0:0:
475,192,260284,128,0,260327:0:0:0:0:
256,192,260284,128,0,260497:0:0:0:0:
36,192,260327,1,0,0:0:0:0:
109,192,260369,128,0,260455:0:0:0:0:
329,192,260369,1,0,0:0:0:0:
182,192,260369,128,0,260412:0:0:0:0:
475,192,260455,128,0,260497:0:0:0:0:
329,192,260455,128,0,260667:0:0:0:0:
36,192,260455,128,0,260497:0:0:0:0:
402,192,260540,1,0,0:0:0:0:
256,192,260540,128,0,260582:0:0:0:0:
182,192,260540,128,0,260625:0:0:0:0:
109,192,260540,128,0,260561:0:0:0:0:
402,192,260625,128,0,260838:0:0:0:0:
36,192,260625,128,0,260667:0:0:0:0:
475,192,260625,128,0,260667:0:0:0:0:
182,192,260667,1,0,0:0:0:0:
329,192,260710,128,0,260753:0:0:0:0:
256,192,260710,128,0,260795:0:0:0:0:
109,192,260710,128,0,260731:0:0:0:0:
475,192,260795,128,0,261008:0:0:0:0:
36,192,260795,128,0,260838:0:0:0:0:
182,192,260795,128,0,260838:0:0:0:0:
329,192,260881,128,0,260965:0:0:0:0:
402,192,260881,1,0,0:0:0:0:
256,192,260881,128,0,260965:0:0:0:0:
109,192,260881,128,0,260902:0:0:0:0:
182,192,260965,128,0,261348:0:0:0:0:
36,192,260965,128,0,261008:0:0:0:0:
329,192,261008,128,0,261051:0:0:0:0:
402,192,261051,128,0,261093:0:0:0:0:
109,192,261051,1,0,0:0:0:0:
475,192,261093,128,0,261136:0:0:0:0:
256,192,261093,128,0,261114:0:0:0:0:
109,192,261136,128,0,261179:0:0:0:0:
36,192,261136,128,0,261434:0:0:0:0:
329,192,261136,128,0,261157:0:0:0:0:
402,192,261179,128,0,261200:0:0:0:0:
256,192,261220,1,0,0:0:0:0:
475,192,261220,128,0,261242:0:0:0:0:
402,192,261263,128,0,261285:0:0:0:0:
109,192,261306,1,0,0:0:0:0:
256,192,261306,128,0,261519:0:0:0:0:
329,192,261306,128,0,261328:0:0:0:0:
402,192,261348,128,0,261370:0:0:0:0:
109,192,261391,128,0,261860:0:0:0:0:
475,192,261391,128,0,261412:0:0:0:0:
402,192,261434,128,0,261455:0:0:0:0:
329,192,261477,128,0,261689:0:0:0:0:
182,192,261477,128,0,261561:0:0:0:0:
36,192,261477,128,0,261604:0:0:0:0:
475,192,261561,128,0,261646:0:0:0:0:
256,192,261561,1,0,0:0:0:0:
402,192,261561,128,0,261604:0:0:0:0:
256,192,261646,128,0,261860:0:0:0:0:
36,192,261646,128,0,261689:0:0:0:0:
402,192,261732,128,0,261817:0:0:0:0:
182,192,261732,1,0,0:0:0:0:
329,192,261732,128,0,261775:0:0:0:0:
182,192,261817,128,0,262030:0:0:0:0:
36,192,261817,128,0,261860:0:0:0:0:
475,192,261817,128,0,261860:0:0:0:0:
329,192,261902,128,0,261987:0:0:0:0:
109,192,261902,1,0,0:0:0:0:
256,192,261902,128,0,261944:0:0:0:0:
402,192,261902,128,0,261923:0:0:0:0:
109,192,261987,128,0,262201:0:0:0:0:
36,192,261987,128,0,262030:0:0:0:0:
475,192,261987,128,0,262030:0:0:0:0:
256,192,262072,128,0,262158:0:0:0:0:
182,192,262072,128,0,262115:0:0:0:0:
329,192,262072,128,0,262093:0:0:0:0:
402,192,262115,128,0,262158:0:0:0:0:
475,192,262158,128,0,262179:0:0:0:0:
36,192,262158,128,0,262370:0:0:0:0:
329,192,262201,128,0,262242:0:0:0:0:
109,192,262242,128,0,262285:0:0:0:0:
475,192,262242,128,0,262796:0:0:0:0:
402,192,262242,128,0,262264:0:0:0:0:
256,192,262285,128,0,262328:0:0:0:0:
329,192,262328,128,0,262350:0:0:0:0:
402,192,262328,128,0,262711:0:0:0:0:
182,192,262370,128,0,262413:0:0:0:0:
256,192,262413,128,0,262434:0:0:0:0:
329,192,262413,128,0,262626:0:0:0:0:
109,192,262456,128,0,262498:0:0:0:0:
36,192,262498,128,0,262519:0:0:0:0:
182,192,262541,128,0,262583:0:0:0:0:
36,192,262583,128,0,263009:0:0:0:0:
109,192,262583,128,0,262605:0:0:0:0:
256,192,262626,128,0,262668:0:0:0:0:
109,192,262668,128,0,262966:0:0:0:0:
182,192,262668,128,0,262690:0:0:0:0:
329,192,262711,128,0,262754:0:0:0:0:
182,192,262754,128,0,262923:0:0:0:0:
256,192,262754,128,0,262775:0:0:0:0:
402,192,262796,128,0,262839:0:0:0:0:
475,192,262839,128,0,262923:0:0:0:0:
256,192,262839,128,0,262860:0:0:0:0:
329,192,262839,128,0,262860:0:0:0:0:
329,192,263009,128,0,263137:0:0:0:0:
475,192,263009,128,0,263137:0:0:0:0:
182,192,263009,128,0,263137:0:0:0:0:
36,192,263052,128,0,263094:0:0:0:0:
109,192,263052,128,0,263094:0:0:0:0:
256,192,263052,128,0,263094:0:0:0:0:
402,192,263052,128,0,263094:0:0:0:0:
109,192,263221,128,0,263392:0:0:0:0:
256,192,263221,128,0,263392:0:0:0:0:
475,192,263221,128,0,263392:0:0:0:0:
329,192,263264,128,0,263329:0:0:0:0:
402,192,263264,128,0,263329:0:0:0:0:
182,192,263264,128,0,263329:0:0:0:0:
36,192,263264,128,0,263329:0:0:0:0:
36,192,263478,128,0,263562:0:0:0:0:
182,192,263478,128,0,263562:0:0:0:0:
475,192,263478,128,0,263562:0:0:0:0:
256,192,263520,128,0,263562:0:0:0:0:
109,192,263520,1,0,0:0:0:0:
329,192,263520,1,0,0:0:0:0:
402,192,263520,1,0,0:0:0:0:
402,192,263605,1,0,0:0:0:0:
475,192,263605,128,0,263776:0:0:0:0:
182,192,263605,128,0,263647:0:0:0:0:
329,192,263690,1,0,0:0:0:0:
402,192,263690,128,0,263861:0:0:0:0:
109,192,263690,128,0,263733:0:0:0:0:
329,192,263776,128,0,263861:0:0:0:0:
36,192,263776,1,0,0:0:0:0:
182,192,263776,128,0,263818:0:0:0:0:
109,192,263861,1,0,0:0:0:0:
36,192,263861,128,0,264031:0:0:0:0:
256,192,263861,128,0,263903:0:0:0:0:
182,192,263945,1,0,0:0:0:0:
109,192,263945,128,0,264116:0:0:0:0:
329,192,263945,128,0,263988:0:0:0:0:
475,192,263945,1,0,0:0:0:0:
182,192,264031,128,0,264116:0:0:0:0:
402,192,264031,128,0,264073:0:0:0:0:
475,192,264116,128,0,264286:0:0:0:0:
329,192,264116,128,0,264159:0:0:0:0:
36,192,264116,1,0,0:0:0:0:
402,192,264202,128,0,264371:0:0:0:0:
256,192,264202,128,0,264243:0:0:0:0:
109,192,264202,1,0,0:0:0:0:
182,192,264286,128,0,264329:0:0:0:0:
329,192,264286,128,0,264371:0:0:0:0:
109,192,264371,1,0,0:0:0:0:
36,192,264371,1,0,0:0:0:0:
475,192,264371,1,0,0:0:0:0:
182,192,264414,1,0,0:0:0:0:
256,192,264457,1,0,0:0:0:0:
329,192,264500,1,0,0:0:0:0:
475,192,264541,1,0,0:0:0:0:
182,192,264541,1,0,0:0:0:0:
109,192,264541,128,0,264584:0:0:0:0:
36,192,264541,128,0,264584:0:0:0:0:
402,192,264541,1,0,0:0:0:0:
329,192,264584,1,0,0:0:0:0:
256,192,264627,1,0,0:0:0:0:
182,192,264669,1,0,0:0:0:0:
109,192,264712,1,0,0:0:0:0:
36,192,264712,1,0,0:0:0:0:
329,192,264712,1,0,0:0:0:0:
402,192,264712,128,0,264755:0:0:0:0:
475,192,264712,128,0,264755:0:0:0:0:
182,192,264755,1,0,0:0:0:0:
256,192,264797,1,0,0:0:0:0:
329,192,264840,1,0,0:0:0:0:
36,192,264882,128,0,265138:0:0:0:0:
109,192,264882,128,0,264967:0:0:0:0:
402,192,264882,128,0,265053:0:0:0:0:
475,192,264882,128,0,264967:0:0:0:0:
182,192,264882,1,0,0:0:0:0:
256,192,264882,1,0,0:0:0:0:
256,192,264967,128,0,265138:0:0:0:0:
329,192,264967,128,0,265053:0:0:0:0:
109,192,265053,128,0,265308:0:0:0:0:
182,192,265053,128,0,265138:0:0:0:0:
475,192,265053,128,0,265222:0:0:0:0:
329,192,265138,128,0,265308:0:0:0:0:
402,192,265138,128,0,265222:0:0:0:0:
182,192,265222,128,0,265479:0:0:0:0:
256,192,265222,128,0,265308:0:0:0:0:
36,192,265222,128,0,265393:0:0:0:0:
402,192,265308,128,0,265479:0:0:0:0:
475,192,265308,128,0,265393:0:0:0:0:
329,192,265393,128,0,265479:0:0:0:0:
256,192,265393,128,0,265648:0:0:0:0:
109,192,265393,128,0,265563:0:0:0:0:
36,192,265479,128,0,265563:0:0:0:0:
475,192,265479,128,0,265648:0:0:0:0:
182,192,265563,128,0,265734:0:0:0:0:
402,192,265563,128,0,265648:0:0:0:0:
329,192,265563,128,0,265819:0:0:0:0:
36,192,265648,128,0,265819:0:0:0:0:
109,192,265648,128,0,265734:0:0:0:0:
256,192,265734,128,0,265904:0:0:0:0:
475,192,265734,128,0,265819:0:0:0:0:
402,192,265734,128,0,265989:0:0:0:0:
182,192,265819,128,0,265904:0:0:0:0:
109,192,265819,128,0,265989:0:0:0:0:
36,192,265904,128,0,265989:0:0:0:0:
329,192,265904,128,0,266075:0:0:0:0:
475,192,265904,128,0,266160:0:0:0:0:
256,192,265989,128,0,266075:0:0:0:0:
182,192,265989,128,0,266160:0:0:0:0:
109,192,266075,128,0,266160:0:0:0:0:
36,192,266075,128,0,266330:0:0:0:0:
402,192,266075,128,0,266244:0:0:0:0:
256,192,266160,128,0,266330:0:0:0:0:
329,192,266160,128,0,266244:0:0:0:0:
109,192,266244,128,0,266501:0:0:0:0:
182,192,266244,128,0,266330:0:0:0:0:
475,192,266244,128,0,266415:0:0:0:0:
329,192,266330,128,0,266501:0:0:0:0:
402,192,266330,128,0,266415:0:0:0:0:
256,192,266415,128,0,266501:0:0:0:0:
36,192,266415,128,0,266501:0:0:0:0:
182,192,266415,128,0,266501:0:0:0:0:
402,192,266501,128,0,266585:0:0:0:0:
475,192,266542,1,0,0:0:0:0:
36,192,266542,1,0,0:0:0:0:
36,192,266585,128,0,266883:0:0:0:0:
475,192,266585,128,0,266883:0:0:0:0:
109,192,266585,128,0,266628:0:0:0:0:
182,192,266607,128,0,266650:0:0:0:0:
256,192,266628,128,0,266670:0:0:0:0:
329,192,266650,128,0,266692:0:0:0:0:
402,192,266670,128,0,266713:0:0:0:0:
182,192,266756,1,0,0:0:0:0:
329,192,266756,1,0,0:0:0:0:
256,192,266841,1,0,0:0:0:0:
109,192,266883,1,0,0:0:0:0:
402,192,266883,1,0,0:0:0:0:
109,192,266926,128,0,267223:0:0:0:0:
402,192,266926,128,0,267223:0:0:0:0:
36,192,266926,128,0,266968:0:0:0:0:
182,192,266947,128,0,266990:0:0:0:0:
256,192,266968,128,0,267011:0:0:0:0:
329,192,266990,128,0,267033:0:0:0:0:
475,192,267011,128,0,267054:0:0:0:0:
475,192,267096,1,0,0:0:0:0:
36,192,267096,1,0,0:0:0:0:
256,192,267182,1,0,0:0:0:0:
182,192,267223,1,0,0:0:0:0:
329,192,267223,1,0,0:0:0:0:
182,192,267266,128,0,267564:0:0:0:0:
329,192,267266,128,0,267564:0:0:0:0:
36,192,267266,128,0,267309:0:0:0:0:
109,192,267288,128,0,267331:0:0:0:0:
256,192,267309,128,0,267352:0:0:0:0:
402,192,267331,128,0,267372:0:0:0:0:
475,192,267352,128,0,267394:0:0:0:0:
109,192,267437,1,0,0:0:0:0:
402,192,267437,1,0,0:0:0:0:
256,192,267437,1,0,0:0:0:0:
109,192,267564,128,0,267650:0:0:0:0:
256,192,267564,128,0,267650:0:0:0:0:
36,192,267607,1,0,0:0:0:0:
182,192,267607,1,0,0:0:0:0:
329,192,267607,1,0,0:0:0:0:
402,192,267607,1,0,0:0:0:0:
475,192,267607,1,0,0:0:0:0:
182,192,267735,128,0,267820:0:0:0:0:
329,192,267735,128,0,267820:0:0:0:0:
36,192,267778,1,0,0:0:0:0:
109,192,267778,1,0,0:0:0:0:
256,192,267778,1,0,0:0:0:0:
402,192,267778,1,0,0:0:0:0:
475,192,267778,1,0,0:0:0:0:
256,192,267905,128,0,267990:0:0:0:0:
402,192,267905,128,0,267990:0:0:0:0:
36,192,267947,1,0,0:0:0:0:
182,192,267947,1,0,0:0:0:0:
109,192,267947,1,0,0:0:0:0:
329,192,267947,1,0,0:0:0:0:
475,192,267947,1,0,0:0:0:0:
256,192,268033,128,0,268054:0:0:0:0:
402,192,268033,128,0,268054:0:0:0:0:
109,192,268076,128,0,268161:0:0:0:0:
182,192,268076,128,0,268161:0:0:0:0:
36,192,268118,1,0,0:0:0:0:
256,192,268118,1,0,0:0:0:0:
329,192,268118,1,0,0:0:0:0:
402,192,268118,1,0,0:0:0:0:
475,192,268118,1,0,0:0:0:0:
182,192,268203,128,0,268225:0:0:0:0:
109,192,268203,128,0,268225:0:0:0:0:
329,192,268245,128,0,268331:0:0:0:0:
402,192,268245,128,0,268331:0:0:0:0:
256,192,268288,1,0,0:0:0:0:
182,192,268288,1,0,0:0:0:0:
109,192,268288,1,0,0:0:0:0:
36,192,268288,1,0,0:0:0:0:
475,192,268288,1,0,0:0:0:0:
329,192,268373,128,0,268394:0:0:0:0:
402,192,268373,128,0,268394:0:0:0:0:
36,192,268416,128,0,268502:0:0:0:0:
182,192,268416,128,0,268502:0:0:0:0:
109,192,268459,1,0,0:0:0:0:
256,192,268459,1,0,0:0:0:0:
402,192,268459,1,0,0:0:0:0:
475,192,268459,1,0,0:0:0:0:
329,192,268459,1,0,0:0:0:0:
182,192,268543,128,0,268565:0:0:0:0:
36,192,268543,128,0,268565:0:0:0:0:
329,192,268586,128,0,268671:0:0:0:0:
475,192,268586,128,0,268671:0:0:0:0:
402,192,268629,1,0,0:0:0:0:
256,192,268629,1,0,0:0:0:0:
182,192,268629,1,0,0:0:0:0:
109,192,268629,1,0,0:0:0:0:
36,192,268629,1,0,0:0:0:0:
329,192,268714,128,0,268735:0:0:0:0:
475,192,268714,128,0,268735:0:0:0:0:
109,192,268757,128,0,268842:0:0:0:0:
256,192,268757,128,0,268842:0:0:0:0:
402,192,268757,128,0,268842:0:0:0:0:
329,192,268800,1,0,0:0:0:0:
182,192,268800,1,0,0:0:0:0:
36,192,268800,1,0,0:0:0:0:
475,192,268800,1,0,0:0:0:0:
109,192,268884,128,0,268906:0:0:0:0:
256,192,268884,128,0,268906:0:0:0:0:
402,192,268884,128,0,268906:0:0:0:0:
109,192,268969,1,0,0:0:0:0:
402,192,268969,1,0,0:0:0:0:
36,192,268969,1,0,0:0:0:0:
182,192,268969,1,0,0:0:0:0:
475,192,268969,1,0,0:0:0:0:
256,192,269055,1,0,0:0:0:0:
329,192,269055,1,0,0:0:0:0:
402,192,269140,1,0,0:0:0:0:
109,192,269140,1,0,0:0:0:0:
182,192,269140,1,0,0:0:0:0:
36,192,269140,1,0,0:0:0:0:
475,192,269140,1,0,0:0:0:0:
329,192,269183,1,0,0:0:0:0:
256,192,269225,1,0,0:0:0:0:
182,192,269267,1,0,0:0:0:0:
109,192,269310,1,0,0:0:0:0:
36,192,269310,1,0,0:0:0:0:
402,192,269310,1,0,0:0:0:0:
475,192,269310,1,0,0:0:0:0:
329,192,269310,1,0,0:0:0:0:
256,192,269395,1,0,0:0:0:0:
182,192,269395,1,0,0:0:0:0:
402,192,269481,1,0,0:0:0:0:
109,192,269481,1,0,0:0:0:0:
36,192,269481,1,0,0:0:0:0:
475,192,269481,1,0,0:0:0:0:
182,192,269523,1,0,0:0:0:0:
256,192,269565,1,0,0:0:0:0:
329,192,269608,1,0,0:0:0:0:
109,192,269651,1,0,0:0:0:0:
36,192,269651,1,0,0:0:0:0:
402,192,269651,1,0,0:0:0:0:
475,192,269651,1,0,0:0:0:0:
182,192,269651,1,0,0:0:0:0:
256,192,269736,1,0,0:0:0:0:
329,192,269736,1,0,0:0:0:0:
109,192,269821,1,0,0:0:0:0:
402,192,269821,1,0,0:0:0:0:
36,192,269821,1,0,0:0:0:0:
475,192,269821,1,0,0:0:0:0:
182,192,269821,1,0,0:0:0:0:
329,192,269863,1,0,0:0:0:0:
256,192,269906,1,0,0:0:0:0:
182,192,269948,1,0,0:0:0:0:
36,192,269991,1,0,0:0:0:0:
475,192,269991,1,0,0:0:0:0:
109,192,269991,128,0,270289:0:0:0:0:
402,192,269991,128,0,270289:0:0:0:0:
329,192,269991,1,0,0:0:0:0:
256,192,270162,1,0,0:0:0:0:
36,192,270332,1,0,0:0:0:0:
109,192,270332,1,0,0:0:0:0:
182,192,270332,1,0,0:0:0:0:
329,192,270332,1,0,0:0:0:0:
402,192,270332,1,0,0:0:0:0:
475,192,270332,1,0,0:0:0:0:
256,192,270332,128,0,270672:0:0:0:0:
109,192,270672,1,0,0:0:0:0:
402,192,270672,1,0,0:0:0:0:
182,192,270758,1,0,0:0:0:0:
36,192,270758,1,0,0:0:0:0:
329,192,270758,1,0,0:0:0:0:
475,192,270758,1,0,0:0:0:0:
109,192,270843,1,0,0:0:0:0:
402,192,270843,1,0,0:0:0:0:
256,192,270843,1,0,0:0:0:0:
36,192,270928,1,0,0:0:0:0:
182,192,270928,1,0,0:0:0:0:
329,192,270928,1,0,0:0:0:0:
475,192,270928,1,0,0:0:0:0:
256,192,271013,128,0,271354:0:0:0:0:
109,192,271013,1,0,0:0:0:0:
402,192,271013,1,0,0:0:0:0:
36,192,271184,1,0,0:0:0:0:
475,192,271184,1,0,0:0:0:0:
109,192,271226,1,0,0:0:0:0:
402,192,271226,1,0,0:0:0:0:
182,192,271268,1,0,0:0:0:0:
329,192,271268,1,0,0:0:0:0:
109,192,271311,1,0,0:0:0:0:
402,192,271311,1,0,0:0:0:0:
36,192,271354,1,0,0:0:0:0:
182,192,271354,1,0,0:0:0:0:
329,192,271354,1,0,0:0:0:0:
475,192,271354,1,0,0:0:0:0:
109,192,271439,1,0,0:0:0:0:
402,192,271439,1,0,0:0:0:0:
256,192,271439,1,0,0:0:0:0:
182,192,271523,1,0,0:0:0:0:
36,192,271523,1,0,0:0:0:0:
329,192,271523,1,0,0:0:0:0:
475,192,271523,1,0,0:0:0:0:
109,192,271609,1,0,0:0:0:0:
402,192,271609,1,0,0:0:0:0:
256,192,271609,1,0,0:0:0:0:
36,192,271694,1,0,0:0:0:0:
329,192,271694,1,0,0:0:0:0:
475,192,271694,1,0,0:0:0:0:
182,192,271694,1,0,0:0:0:0:
256,192,271694,128,0,271950:0:0:0:0:
36,192,271864,5,0,0:0:0:0:
182,192,271864,1,0,0:0:0:0:
329,192,271864,1,0,0:0:0:0:
475,192,271864,1,0,0:0:0:0:
109,192,271950,1,0,0:0:0:0:
402,192,271950,1,0,0:0:0:0:
256,192,272035,128,0,272290:0:0:0:0:
36,192,272035,1,0,0:0:0:0:
182,192,272035,1,0,0:0:0:0:
329,192,272035,1,0,0:0:0:0:
475,192,272035,1,0,0:0:0:0:
475,192,272205,1,0,0:0:0:0:
36,192,272205,1,0,0:0:0:0:
109,192,272234,1,0,0:0:0:0:
402,192,272234,1,0,0:0:0:0:
329,192,272262,1,0,0:0:0:0:
182,192,272262,1,0,0:0:0:0:
475,192,272290,1,0,0:0:0:0:
36,192,272290,1,0,0:0:0:0:
109,192,272318,1,0,0:0:0:0:
402,192,272318,1,0,0:0:0:0:
329,192,272347,1,0,0:0:0:0:
182,192,272347,1,0,0:0:0:0:
256,192,272376,128,0,272631:0:0:0:0:
475,192,272376,1,0,0:0:0:0:
402,192,272376,1,0,0:0:0:0:
109,192,272376,1,0,0:0:0:0:
36,192,272376,1,0,0:0:0:0:
109,192,272461,1,0,0:0:0:0:
329,192,272461,1,0,0:0:0:0:
402,192,272461,1,0,0:0:0:0:
182,192,272461,1,0,0:0:0:0:
402,192,272545,1,0,0:0:0:0:
109,192,272545,1,0,0:0:0:0:
475,192,272545,1,0,0:0:0:0:
36,192,272545,1,0,0:0:0:0:
36,192,272631,1,0,0:0:0:0:
182,192,272631,1,0,0:0:0:0:
329,192,272631,1,0,0:0:0:0:
475,192,272631,1,0,0:0:0:0:
109,192,272673,1,0,0:0:0:0:
402,192,272673,1,0,0:0:0:0:
256,192,272673,1,0,0:0:0:0:
475,192,272716,1,0,0:0:0:0:
329,192,272716,1,0,0:0:0:0:
182,192,272716,1,0,0:0:0:0:
36,192,272716,1,0,0:0:0:0:
109,192,272802,1,0,0:0:0:0:
256,192,272802,1,0,0:0:0:0:
402,192,272802,1,0,0:0:0:0:
109,192,272886,1,0,0:0:0:0:
402,192,272886,1,0,0:0:0:0:
256,192,272886,1,0,0:0:0:0:
182,192,272971,1,0,0:0:0:0:
329,192,272971,1,0,0:0:0:0:
36,192,273057,1,0,0:0:0:0:
475,192,273057,1,0,0:0:0:0:
402,192,273057,128,0,275782:0:0:0:0:
109,192,273057,128,0,275782:0:0:0:0:
256,192,273057,128,0,275782:0:0:0:0:
182,192,273057,1,0,0:0:0:0:
329,192,273057,1,0,0:0:0:0:
