osu file format v14

[General]
AudioFilename: audio.mp3
AudioLeadIn: 0
PreviewTime: 70640
Countdown: 0
SampleSet: Soft
StackLeniency: 0.4
Mode: 0
LetterboxInBreaks: 0
WidescreenStoryboard: 1

[Editor]
Bookmarks: 67683
DistanceSpacing: 0.7
BeatDivisor: 6
GridSize: 4
TimelineZoom: 2.1

[Metadata]
Title:ANiMA
TitleUnicode:ANiMA
Artist:xi
ArtistUnicode:xi
Creator:sdafsf
Version:Insane
Source:Deemo
Tags:yusuke ishiwata piano rayark inc. soul alice masked lady deemo's collection vol. 2 World Fragments
BeatmapID:1365161
BeatmapSetID:624995

[Difficulty]
HPDrainRate:5.5
CircleSize:4
OverallDifficulty:7
ApproachRate:9
SliderMultiplier:1.7
SliderTickRate:1

[Events]
//Background and Video events
0,0,"bg.jpg",0,0
//Break Periods
2,70840,80504
//Storyboard Layer 0 (Background)
//Storyboard Layer 1 (Fail)
//Storyboard Layer 2 (Pass)
//Storyboard Layer 3 (Foreground)
//Storyboard Sound Samples

[TimingPoints]
1322,326.975476839237,4,2,2,25,1,0
11785,-133.333333333333,4,2,1,50,0,0
19632,-100,4,2,1,60,0,0
23556,-100,4,2,1,80,0,1
27643,-83.3333333333333,4,2,1,80,0,1
34019,-100,4,2,1,65,0,0
54945,-83.3333333333333,4,2,1,75,0,0
65409,-83.3333333333333,4,2,1,50,0,0
65736,-83.3333333333333,4,2,1,55,0,0
66063,-83.3333333333333,4,2,1,60,0,0
66390,-83.3333333333333,4,2,1,65,0,0
66717,-83.3333333333333,4,2,1,70,0,0
67044,-83.3333333333333,4,2,1,75,0,0
67371,-83.3333333333333,4,2,1,80,0,0
68351,-83.3333333333333,4,2,1,85,0,0
69005,-83.3333333333333,4,2,1,90,0,0
70640,-133.333333333333,4,2,1,60,0,0
81104,-117.647058823529,4,2,1,80,0,0
86008,-200,4,2,1,80,0,0
86335,-100,4,2,1,80,0,0
91567,-100,4,2,1,85,0,1
96798,-133.333333333333,4,2,1,50,0,0
98024,-133.333333333333,4,2,1,50,0,0
98106,-133.333333333333,4,2,1,70,0,0
98351,-133.333333333333,4,2,1,75,0,0
98515,-133.333333333333,4,2,1,80,0,0
98678,-133.333333333333,4,2,1,85,0,0
98760,-133.333333333333,4,2,1,90,0,0
98842,-133.333333333333,4,2,1,80,0,0
98924,-133.333333333333,4,2,1,70,0,0
99005,-133.333333333333,4,2,1,60,0,0
99087,-133.333333333333,4,2,1,50,0,0
99169,-133.333333333333,4,2,1,40,0,0
99251,-133.333333333333,4,2,1,30,0,0
99414,-76.9230769230769,4,2,1,90,0,1
104646,-76.9230769230769,4,2,1,80,0,1
104973,-100,4,2,1,80,0,1
105954,-76.9230769230769,4,2,1,80,0,1
106608,-76.9230769230769,4,2,1,83,0,1
106935,-76.9230769230769,4,2,1,86,0,1
107262,-76.9230769230769,4,2,1,90,0,1
109877,-100,4,2,1,90,0,0
111185,-133.333333333333,4,2,2,90,0,0
111512,-133.333333333333,4,2,2,80,0,0
111839,-133.333333333333,4,2,2,70,0,0
112166,-133.333333333333,4,2,2,60,0,0
112493,-133.333333333333,4,2,2,50,0,0
112820,-133.333333333333,4,2,2,40,0,0
113147,-133.333333333333,4,2,2,30,0,0
113474,-133.333333333333,4,2,2,20,0,0
113801,-133.333333333333,4,2,2,5,0,0

[Colours]
Combo1 : 128,255,128
Combo2 : 255,255,128
Combo3 : 255,128,128

[HitObjects]
79,79,11785,5,10,0:0:0:0:
93,86,12766,2,0,L|90:159,1,63.7500024318696,0|0,0:0|0:0,0:0:0:0:
138,213,13093,5,2,0:0:0:0:
152,220,14074,2,0,L|149:293,1,63.7500024318696,0|0,0:0|0:0,0:0:0:0:
197,347,14401,5,10,0:0:0:0:
209,358,15054,1,2,0:0:0:0:
90,149,15708,5,10,0:0:0:0:
330,150,16362,1,10,0:0:0:0:
340,163,17016,6,0,L|337:248,1,63.7500024318696,6|0,0:0|0:0,0:0:0:0:
266,138,17343,2,0,L|181:135,1,63.7500024318696,0|0,0:0|0:0,0:0:0:0:
291,64,17670,2,0,L|294:-21,1,63.7500024318696,0|0,0:0|0:0,0:0:0:0:
365,89,17997,2,0,L|450:92,1,63.7500024318696,0|2,0:0|0:0,0:0:0:0:
441,103,18242,1,0,0:0:0:0:
453,114,18324,6,0,P|446:145|453:176,1,63.7500024318696,10|0,0:0|0:0,0:0:0:0:
455,269,18651,2,0,P|431:248|400:238,1,63.7500024318696,2|0,0:0|0:0,0:0:0:0:
319,193,18978,2,0,P|348:182|372:161,1,63.7500024318696,2|0,0:0|0:0,0:0:0:0:
251,150,19305,1,0,0:0:0:0:
241,171,19386,1,0,0:0:0:0:
238,195,19468,1,8,0:0:0:0:
242,218,19550,1,0,0:0:0:0:
252,239,19632,6,0,L|165:245,1,85,10|0,0:0|0:0,0:0:0:0:
103,292,19959,1,0,0:0:0:0:
103,292,20123,1,8,0:0:0:0:
260,319,20286,2,0,L|173:325,1,85,10|0,0:0|0:0,0:0:0:0:
111,372,20613,1,0,0:0:0:0:
111,372,20777,1,8,0:0:0:0:
331,358,20940,6,0,P|339:316|326:276,1,85,8|0,0:0|0:0,0:0:0:0:
247,157,21267,2,0,P|238:198|251:238,1,85,8|0,0:0|0:0,0:0:0:0:
330,281,21594,1,10,0:0:0:0:
330,281,21757,1,10,0:0:0:0:
323,198,21921,1,10,0:0:0:0:
323,198,22084,1,10,0:0:0:0:
257,376,22248,5,4,0:0:0:0:
257,344,22575,1,0,0:0:0:0:
413,171,22902,1,2,0:0:0:0:
83,171,23229,1,2,0:0:0:0:
422,182,23556,6,0,P|414:226|428:272,1,85,10|0,0:0|0:0,0:0:0:0:
482,319,23883,1,10,0:0:0:0:
336,231,24046,2,0,L|251:238,1,85,2|8,0:0|0:0,0:0:0:0:
101,296,24373,1,0,0:0:0:0:
101,296,24455,1,0,0:0:0:0:
101,296,24537,6,0,L|185:303,1,85,10|0,0:0|0:0,0:0:0:0:
257,270,24864,1,10,0:0:0:0:
65,216,25027,2,0,P|29:243|14:282,1,85,2|8,0:0|0:0,0:0:0:0:
44,354,25354,1,0,0:0:0:0:
144,216,25518,2,0,L|139:108,1,85,10|0,0:0|0:0,0:0:0:0:
183,285,25845,2,0,L|178:393,1,85,10|0,0:0|0:0,0:0:0:0:
305,215,26172,6,0,P|262:202|222:215,1,85,10|0,0:0|0:0,0:0:0:0:
183,285,26499,1,10,0:0:0:0:
346,285,26662,2,0,P|377:254|386:213,1,85,2|8,0:0|0:0,0:0:0:0:
346,144,26989,1,0,0:0:0:0:
264,285,27153,1,10,0:0:0:0:
266,306,27234,1,2,0:0:0:0:
273,325,27316,1,2,0:0:0:0:
286,342,27398,1,2,0:0:0:0:
303,355,27479,5,10,0:0:0:0:
305,215,27643,1,2,0:0:0:0:
197,354,27807,1,10,0:0:0:0:
179,349,28133,2,0,L|171:243,1,101.999996887207,10|0,0:0|0:0,0:0:0:0:
94,357,28460,2,0,L|86:251,1,101.999996887207,10|10,0:0|0:0,0:0:0:0:
69,88,28787,6,0,B|120:93|120:93|177:74,1,101.999996887207,14|0,0:0|0:0,0:0:0:0:
222,27,29114,1,10,0:0:0:0:
9,38,29278,2,0,L|17:151,1,101.999996887207,2|8,0:0|0:0,0:0:0:0:
78,281,29605,1,0,0:0:0:0:
78,281,29687,1,0,0:0:0:0:
78,281,29768,2,0,L|86:168,1,101.999996887207,10|0,0:0|0:0,0:0:0:0:
91,103,30095,5,10,0:0:0:0:
253,134,30259,2,0,P|199:159|147:151,1,101.999996887207,2|8,0:0|0:0,0:0:0:0:
99,96,30586,1,2,0:0:0:0:
302,77,30749,2,0,L|313:203,1,101.999996887207,10|0,0:0|0:0,0:0:0:0:
238,325,31076,2,0,L|246:223,1,101.999996887207,2|10,0:0|0:0,0:0:0:0:
412,231,31403,6,0,P|369:257|319:255,1,101.999996887207,4|8,0:0|0:0,0:0:0:0:
245,223,31730,1,2,0:0:0:0:
427,147,31894,2,0,P|471:170|494:214,1,101.999996887207,12|8,0:0|0:0,0:0:0:0:
503,295,32221,1,0,0:0:0:0:
347,177,32384,1,12,0:0:0:0:
342,152,32465,1,0,0:0:0:0:
344,126,32547,1,8,0:0:0:0:
355,103,32629,1,0,0:0:0:0:
371,84,32710,5,8,0:0:0:0:
265,94,32875,2,0,L|205:100,1,50.9999984436036,4|0,0:0|0:0,0:0:0:0:
426,154,33038,2,0,L|486:160,2,50.9999984436036,12|0|0,0:0|0:0|0:0,0:0:0:0:
504,291,33365,6,0,L|508:343,3,50.9999984436036,2|0|0|0,0:0|0:0|0:0|0:0,0:0:0:0:
430,235,33692,2,0,L|426:287,3,50.9999984436036,2|0|0|0,0:0|0:0|0:0|0:0,0:0:0:0:
341,313,34019,6,0,L|239:302,1,85,10|2,0:0|0:0,0:0:0:0:
246,314,34264,1,0,0:0:0:0:
236,323,34346,2,0,L|134:312,1,85,2|0,0:0|0:0,0:0:0:0:
141,324,34591,1,0,0:0:0:0:
131,333,34673,2,0,L|29:322,1,85,10|0,0:0|0:0,0:0:0:0:
83,243,35000,2,0,L|77:297,3,42.5
116,246,35327,6,0,P|106:207|70:175,1,85,10|0,0:0|0:0,0:0:0:0:
63,94,35654,2,0,L|103:96,2,28.3333333333333,8|0|0,0:0|0:0|0:0,0:0:0:0:
33,118,35817,2,0,L|125:120,1,85,2|8,0:0|0:0,0:0:0:0:
192,66,36144,1,0,0:0:0:0:
192,66,36308,2,0,L|189:122,3,42.5,0|0|0|0,0:0|0:0|0:0|0:0,0:0:0:0:
189,141,36635,6,0,P|225:157|282:150,1,85,10|0,0:0|0:0,0:0:0:0:
295,70,36962,2,0,L|292:126,3,42.5,0|0|0|0,0:0|0:0|0:0|0:0,0:0:0:0:
291,134,37289,2,0,L|381:127,1,85,10|0,0:0|0:0,0:0:0:0:
489,241,37616,2,0,L|399:234,1,85,10|0,0:0|0:0,0:0:0:0:
444,82,37943,6,0,P|457:121|450:163,1,85,10|0,0:0|0:0,0:0:0:0:
338,281,38270,2,0,P|324:241|331:199,1,85,10|0,0:0|0:0,0:0:0:0:
407,323,38597,1,10,0:0:0:0:
384,345,38678,1,0,0:0:0:0:
355,357,38760,1,10,0:0:0:0:
324,357,38842,1,0,0:0:0:0:
295,345,38924,2,0,L|280:387,1,42.5,10|10,0:0|0:0,0:0:0:0:
237,285,39087,2,0,L|221:326,1,42.5,10|10,0:0|0:0,0:0:0:0:
322,261,39251,6,0,L|434:240,1,85,14|0,0:0|0:0,0:0:0:0:
257,205,39578,2,0,L|182:118,1,85,12|0,0:0|0:0,0:0:0:0:
242,290,39905,2,0,L|204:397,1,85,12|0,0:0|0:0,0:0:0:0:
138,344,40232,2,0,L|120:395,3,42.5,10|2|10|2,0:0|0:0|0:0|0:0,0:0:0:0:
120,323,40559,6,0,P|78:330|38:317,1,85,14|0,0:0|0:0,0:0:0:0:
168,255,40886,2,0,P|195:287|204:328,1,85,12|8,0:0|0:0,0:0:0:0:
86,248,41213,2,0,P|100:208|131:179,1,85,12|10,0:0|0:0,0:0:0:0:
152,171,41458,1,10,0:0:0:0:
177,170,41539,1,10,0:0:0:0:
201,176,41621,1,10,0:0:0:0:
223,190,41703,1,10,0:0:0:0:
239,210,41784,1,10,0:0:0:0:
249,233,41866,6,0,P|285:221|331:229,1,85,10|0,0:0|0:0,0:0:0:0:
340,375,42193,1,10,0:0:0:0:
322,362,42274,1,10,0:0:0:0:
309,346,42356,1,10,0:0:0:0:
300,327,42438,1,10,0:0:0:0:
293,305,42520,2,0,L|382:313,1,85,10|0,0:0|0:0,0:0:0:0:
494,217,42847,2,0,L|405:225,1,85,10|8,0:0|0:0,0:0:0:0:
330,228,43174,5,10,0:0:0:0:
420,317,43338,2,8,L|419:343,2,21.25,10|8|8,0:0|0:0|0:0,0:0:0:0:
422,300,43501,2,0,L|489:305,1,42.5,10|0,0:0|0:0,0:0:0:0:
332,260,43665,2,0,L|265:265,1,42.5,8|0,0:0|0:0,0:0:0:0:
409,224,43828,2,0,P|420:183|406:141,1,85,10|8,0:0|0:0,0:0:0:0:
321,28,44155,2,0,P|309:68|321:108,1,85,10|8,0:0|0:0,0:0:0:0:
487,75,44482,5,12,0:0:0:0:
478,81,44809,2,0,L|482:148,2,56.6666666666667,8|8|8,3:0|3:0|3:0,0:0:0:0:
413,31,45136,2,0,L|469:-5,2,56.6666666666667,8|8|8,3:0|3:0|3:0,0:0:0:0:
402,112,45463,2,0,L|341:81,2,56.6666666666667,8|8|8,3:0|3:0|3:0,0:0:0:0:
273,42,45790,5,14,0:0:0:0:
244,135,45954,2,0,L|217:120,2,28.3333333333333,0|0|0,0:0|0:0|0:0,0:0:0:0:
261,148,46117,2,0,P|270:189|258:230,1,85,10|0,0:0|0:0,0:0:0:0:
106,186,46444,2,0,L|203:189,1,85,10|0,0:0|0:0,0:0:0:0:
304,286,46771,2,0,L|207:289,1,85,10|0,0:0|0:0,0:0:0:0:
141,289,47098,6,0,L|137:337,3,42.5,10|0|0|0,0:0|0:0|0:0|0:0,0:0:0:0:
224,356,47425,2,0,L|221:314,3,42.5,8|0|2|0,0:0|0:0|0:0|0:0,0:0:0:0:
304,286,47752,2,0,L|300:334,3,42.5,10|0|0|0,0:0|0:0|0:0|0:0,0:0:0:0:
386,353,48079,2,0,L|382:310,1,42.5,8|0,0:0|0:0,0:0:0:0:
369,215,48242,1,2,0:0:0:0:
369,215,48324,1,0,0:0:0:0:
369,215,48406,6,0,L|465:223,1,85,10|0,0:0|0:0,0:0:0:0:
326,140,48733,2,0,L|230:148,1,85,10|0,0:0|0:0,0:0:0:0:
235,161,48978,1,0,0:0:0:0:
228,174,49060,2,0,P|244:212|238:254,1,85,10|0,0:0|0:0,0:0:0:0:
181,310,49387,1,10,0:0:0:0:
181,310,49550,1,10,0:0:0:0:
165,111,49714,5,12,0:0:0:0:
174,85,50041,1,8,3:0:0:0:
174,87,50150,2,0,P|153:67|127:57,1,56.6666666666667,8|8,3:0|3:0,0:0:0:0:
114,138,50368,1,8,3:0:0:0:
114,138,50477,2,0,P|106:165|111:192,1,56.6666666666667,8|8,3:0|3:0,0:0:0:0:
189,165,50695,1,8,3:0:0:0:
189,165,50804,2,0,P|216:157|237:139,1,56.6666666666667,8|8,3:0|3:0,0:0:0:0:
245,60,51022,5,14,0:0:0:0:
349,76,51185,2,0,L|340:42,2,28.3333333333333,0|2|0,0:0|0:0|0:0,0:0:0:0:
355,95,51349,2,0,L|440:100,1,85,10|0,0:0|0:0,0:0:0:0:
311,159,51676,2,0,P|321:199|310:240,1,85,10|0,0:0|0:0,0:0:0:0:
244,282,52003,1,10,0:0:0:0:
244,282,52166,1,10,0:0:0:0:
191,120,52330,6,0,L|187:220,1,85,14|0,0:0|0:0,0:0:0:0:
159,274,52657,2,0,L|147:233,3,42.5,10|2|10|2,0:0|0:0|0:0|0:0,0:0:0:0:
112,81,52984,2,0,L|108:181,1,85,12|0,0:0|0:0,0:0:0:0:
78,274,53311,1,10,0:0:0:0:
79,296,53392,1,2,0:0:0:0:
86,316,53474,1,10,0:0:0:0:
98,333,53556,1,2,0:0:0:0:
114,345,53638,6,0,P|155:335|197:344,1,85,14|0,0:0|0:0,0:0:0:0:
398,253,53965,2,0,L|355:254,1,42.5,10|2,0:0|0:0,0:0:0:0:
220,357,54128,2,0,L|262:358,1,42.5,10|2,0:0|0:0,0:0:0:0:
348,336,54292,1,12,0:0:0:0:
253,255,54455,2,0,L|251:293,2,21.25,12|8|8,0:0|0:0|0:0,0:0:0:0:
257,176,54619,1,12,0:0:0:0:
327,321,54782,1,12,0:0:0:0:
306,117,54945,6,0,B|254:130|254:130|193:116,1,101.999996887207,4|0,0:0|0:0,0:0:0:0:
314,30,55272,1,8,3:0:0:0:
357,47,55380,1,8,3:0:0:0:
388,82,55489,1,8,3:0:0:0:
385,129,55599,2,0,P|373:173|396:236,1,101.999996887207,10|0,0:0|0:0,0:0:0:0:
454,273,55926,1,10,0:0:0:0:
297,207,56090,1,0,0:0:0:0:
297,207,56172,1,0,0:0:0:0:
297,207,56253,6,0,L|288:314,1,101.999996887207,12|0,0:0|0:0,0:0:0:0:
129,209,56580,2,0,L|226:163,1,101.999996887207,12|0,0:0|0:0,0:0:0:0:
215,354,56907,2,0,L|126:292,1,101.999996887207,12|0,0:0|0:0,0:0:0:0:
133,212,57234,1,12,0:0:0:0:
133,212,57398,1,12,0:0:0:0:
250,95,57561,6,0,B|259:146|259:146|312:197,1,101.999996887207,12|0,0:0|0:0,0:0:0:0:
321,40,57888,1,8,3:0:0:0:
282,12,57996,1,8,3:0:0:0:
234,7,58105,1,8,3:0:0:0:
195,32,58215,2,0,P|148:51|99:40,1,101.999996887207,10|0,0:0|0:0,0:0:0:0:
32,0,58542,1,10,0:0:0:0:
96,125,58706,1,0,0:0:0:0:
96,125,58787,1,0,0:0:0:0:
96,125,58869,6,0,L|91:231,1,101.999996887207,12|0,0:0|0:0,0:0:0:0:
182,366,59196,2,0,L|177:264,1,101.999996887207,14|0,0:0|0:0,0:0:0:0:
175,183,59523,1,12,0:0:0:0:
175,183,59687,1,12,0:0:0:0:
93,317,59850,1,12,0:0:0:0:
93,317,60014,1,12,0:0:0:0:
257,164,60177,6,0,P|228:117|172:99,1,101.999996887207,12|0,0:0|0:0,0:0:0:0:
200,229,60504,1,8,3:0:0:0:
243,247,60613,1,8,3:0:0:0:
290,244,60722,1,8,3:0:0:0:
326,213,60831,2,0,L|339:323,1,101.999996887207,10|0,0:0|0:0,0:0:0:0:
257,164,61158,1,10,0:0:0:0:
383,154,61321,1,0,0:0:0:0:
383,154,61403,1,0,0:0:0:0:
383,154,61485,6,0,P|430:169|479:158,1,101.999996887207,12|0,0:0|0:0,0:0:0:0:
370,299,61812,2,0,P|359:249|325:212,1,101.999996887207,12|0,0:0|0:0,0:0:0:0:
503,238,62139,2,0,P|465:271|450:319,1,101.999996887207,12|0,0:0|0:0,0:0:0:0:
393,378,62466,1,12,0:0:0:0:
465,330,62629,1,12,0:0:0:0:
325,212,62793,5,12,0:0:0:0:
325,212,62956,1,8,0:0:0:0:
393,378,63120,1,8,0:0:0:0:
393,378,63283,1,8,0:0:0:0:
258,279,63447,1,8,0:0:0:0:
258,279,63610,1,8,0:0:0:0:
440,296,63774,1,8,0:0:0:0:
330,337,63937,2,0,L|331:265,1,50.9999984436036,8|8,0:0|0:0,0:0:0:0:
327,161,64101,6,0,L|324:225,3,50.9999984436036,8|8|8|8,0:0|0:0|0:0|0:0,0:0:0:0:
321,82,64428,2,0,L|365:57,3,50.9999984436036,8|8|8|8,0:0|0:0|0:0|0:0,0:0:0:0:
256,126,64755,2,0,L|213:98,3,50.9999984436036,8|8|8|0,0:0|0:0|0:0|0:0,0:0:0:0:
396,148,65082,2,0,L|432:127,4,33.9999989624024,12|0|0|0|0,0:0|0:0|0:0|0:0|0:0,0:0:0:0:
405,172,65409,6,0,P|421:224|400:277,1,101.999996887207,10|0,0:0|0:0,0:0:0:0:
336,302,65736,1,10,0:0:0:0:
336,302,65899,1,0,0:0:0:0:
211,151,66063,2,0,P|263:135|316:156,1,101.999996887207,10|0,0:0|0:0,0:0:0:0:
341,220,66390,1,10,0:0:0:0:
341,220,66553,1,0,0:0:0:0:
190,345,66717,6,0,P|174:293|195:240,1,101.999996887207,10|0,0:0|0:0,0:0:0:0:
259,215,67044,1,10,0:0:0:0:
259,215,67207,1,0,0:0:0:0:
384,366,67371,2,0,P|332:382|279:361,1,101.999996887207,10|0,0:0|0:0,0:0:0:0:
254,297,67698,1,10,0:0:0:0:
254,297,67861,1,10,0:0:0:0:
344,118,68024,6,0,L|340:236,1,101.999996887207,14|0,0:0|0:0,0:0:0:0:
388,288,68351,1,10,0:0:0:0:
388,288,68515,1,10,0:0:0:0:
426,79,68678,2,0,L|422:197,1,101.999996887207,14|0,0:0|0:0,0:0:0:0:
470,249,69005,1,10,0:0:0:0:
470,249,69169,1,10,0:0:0:0:
500,37,69332,5,6,0:0:0:0:
338,130,69496,1,0,0:0:0:0:
338,130,69578,1,0,0:0:0:0:
338,130,69659,1,10,0:0:0:0:
422,180,69823,1,10,0:0:0:0:
267,65,69986,1,12,0:0:0:0:
252,85,70067,1,8,0:0:0:0:
243,109,70149,1,8,0:0:0:0:
243,135,70231,1,8,0:0:0:0:
250,159,70312,1,14,0:0:0:0:
318,215,70477,1,14,0:0:0:0:
372,9,70640,5,6,0:0:0:0:
19,122,81104,5,12,0:0:0:0:
33,133,81430,2,0,L|32:219,1,72.2500013780594,2|2,0:0|0:0,0:0:0:0:
75,268,81757,1,2,0:0:0:0:
84,278,82084,1,2,0:0:0:0:
117,169,82411,5,2,0:0:0:0:
117,169,82575,1,0,0:0:0:0:
169,249,82738,1,2,0:0:0:0:
169,249,82902,1,0,0:0:0:0:
213,164,83065,1,2,0:0:0:0:
213,164,83229,1,0,0:0:0:0:
100,173,83392,2,0,L|71:133,3,36.1250006890297,2|2|10|10,0:0|0:0|0:0|0:0,0:0:0:0:
172,274,83719,5,14,0:0:0:0:
190,294,84046,2,0,L|278:297,1,72.2500013780594,2|2,0:0|0:0,0:0:0:0:
331,338,84373,1,2,0:0:0:0:
355,339,84700,1,2,0:0:0:0:
279,207,85027,5,2,0:0:0:0:
279,207,85191,1,0,0:0:0:0:
364,253,85354,1,2,0:0:0:0:
364,253,85518,1,0,0:0:0:0:
362,157,85681,1,2,0:0:0:0:
249,211,85845,1,8,0:0:0:0:
249,211,85926,1,8,0:0:0:0:
249,211,86008,2,0,L|248:286,1,63.75,8|0,0:0|0:0,0:0:0:0:
228,299,86335,6,0,L|194:329,3,42.5,10|0|0|0,0:0|0:0|0:0|0:0,0:0:0:0:
260,303,86662,1,10,0:0:0:0:
170,239,86826,1,10,0:0:0:0:
170,239,86907,1,8,0:0:0:0:
170,239,86989,1,12,0:0:0:0:
83,291,87153,1,2,0:0:0:0:
99,193,87316,1,10,0:0:0:0:
89,287,87480,1,10,0:0:0:0:
90,196,87643,6,0,L|52:168,3,42.5,10|0|0|0,0:0|0:0|0:0|0:0,0:0:0:0:
80,87,87970,2,0,L|114:111,1,42.5,10|0,0:0|0:0,0:0:0:0:
182,162,88133,1,10,0:0:0:0:
182,162,88215,1,0,0:0:0:0:
182,162,88297,1,14,0:0:0:0:
255,238,88460,1,2,0:0:0:0:
353,175,88623,1,10,0:0:0:0:
255,228,88786,1,10,0:0:0:0:
355,189,88951,6,0,L|366:138,3,42.5,10|0|8|8,0:0|0:0|0:0|0:0,0:0:0:0:
418,243,89278,2,0,L|428:191,1,42.5,10|0,0:0|0:0,0:0:0:0:
420,88,89441,1,10,0:0:0:0:
420,88,89523,1,0,0:0:0:0:
420,88,89605,2,0,L|506:76,1,85,10|8,0:0|0:0,0:0:0:0:
273,108,89932,2,0,L|188:127,1,85,10|8,0:0|0:0,0:0:0:0:
421,176,90259,6,0,P|420:218|440:255,1,85,10|8,0:0|2:0,0:0:0:0:
300,193,90586,2,0,P|314:232|308:274,1,85,10|8,0:0|0:0,0:0:0:0:
512,276,90913,2,0,L|413:313,1,85,14|0,0:0|0:0,0:0:0:0:
250,317,91240,2,0,L|355:318,1,85,14|0,0:0|0:0,0:0:0:0:
399,380,91567,5,10,0:0:0:0:
369,237,91730,1,10,0:0:0:0:
334,318,91894,1,0,0:0:0:0:
313,317,91975,1,0,0:0:0:0:
292,317,92057,1,0,0:0:0:0:
271,317,92139,1,0,0:0:0:0:
250,317,92221,5,10,0:0:0:0:
169,157,92384,1,10,0:0:0:0:
203,238,92548,1,0,0:0:0:0:
224,237,92629,1,0,0:0:0:0:
245,237,92711,1,0,0:0:0:0:
266,237,92793,1,0,0:0:0:0:
288,237,92875,5,10,0:0:0:0:
369,77,93038,1,10,0:0:0:0:
335,158,93202,1,0,0:0:0:0:
314,157,93283,1,0,0:0:0:0:
293,157,93365,1,8,0:0:0:0:
272,157,93447,1,8,0:0:0:0:
250,157,93529,6,0,P|229:120|226:78,1,85,14|0,0:0|0:0,0:0:0:0:
335,158,93856,2,0,P|355:194|358:236,1,85,14|0,0:0|0:0,0:0:0:0:
280,300,94183,5,10,0:0:0:0:
250,157,94346,1,10,0:0:0:0:
215,238,94510,1,0,0:0:0:0:
194,237,94591,1,0,0:0:0:0:
173,237,94673,1,0,0:0:0:0:
152,237,94755,1,0,0:0:0:0:
131,237,94836,5,10,0:0:0:0:
50,77,95000,1,10,0:0:0:0:
84,158,95164,1,0,0:0:0:0:
105,157,95245,1,0,0:0:0:0:
126,157,95327,1,0,0:0:0:0:
147,157,95409,1,0,0:0:0:0:
169,157,95490,5,10,0:0:0:0:
141,10,95654,1,10,0:0:0:0:
1,145,95817,1,8,0:0:0:0:
0,176,95898,1,8,0:0:0:0:
11,206,95980,1,8,0:0:0:0:
34,228,96062,1,8,0:0:0:0:
63,240,96143,5,10,0:0:0:0:
169,157,96308,1,10,0:0:0:0:
25,343,96471,1,14,0:0:0:0:
25,41,96798,5,0,0:0:0:0:
223,1,97125,2,0,L|226:83,1,63.7500024318696
303,36,97452,2,0,L|305:70,7,31.8750012159348
306,92,98106,1,2,0:0:0:0:
383,8,98270,6,0,B|382:57|382:57,5,31.8750012159348,0|0|0|0|0|0,0:0|0:0|0:0|0:0|0:0|0:0,0:0:0:0:
383,122,98760,6,0,L|383:151,12,15.9375006079674,0|0|0|0|0|0|0|0|0|0|0|0|0,0:0|0:0|0:0|0:0|0:0|0:0|0:0|0:0|0:0|0:0|0:0|0:0|0:0,0:0:0:0:
463,29,99414,5,12,0:0:0:0:
496,189,99578,1,2,0:0:0:0:
383,122,99741,1,10,0:0:0:0:
358,138,99822,1,2,0:0:0:0:
340,161,99904,1,2,0:0:0:0:
332,190,99986,1,2,0:0:0:0:
334,219,100068,1,10,0:0:0:0:
425,337,100232,2,0,P|371:345|322:321,2,110.499994941712,2|10|2,0:0|0:0|0:0,0:0:0:0:
243,258,100722,5,12,0:0:0:0:
358,138,100886,1,2,0:0:0:0:
245,148,101049,1,10,0:0:0:0:
221,133,101130,1,2,0:0:0:0:
206,110,101212,1,2,0:0:0:0:
199,84,101294,1,2,0:0:0:0:
204,56,101376,2,0,P|234:58|268:51,3,55.2499974708558,10|0|0|0,0:0|0:0|0:0|0:0,0:0:0:0:
120,57,101703,1,10,0:0:0:0:
121,84,101784,1,2,0:0:0:0:
122,112,101866,1,2,0:0:0:0:
123,139,101948,1,2,0:0:0:0:
125,167,102029,5,14,0:0:0:0:
24,81,102193,1,2,0:0:0:0:
55,226,102357,1,8,3:0:0:0:
100,255,102465,1,8,3:0:0:0:
155,255,102574,1,8,3:0:0:0:
200,224,102684,2,0,L|208:318,1,73.6666632944744,10|0,0:0|0:0,0:0:0:0:
237,378,102902,2,0,L|245:284,1,73.6666632944744,2|0,0:0|0:0,0:0:0:0:
276,219,103120,2,0,L|285:324,1,73.6666632944744,2|0,0:0|0:0,0:0:0:0:
390,343,103338,6,0,L|333:353,3,55.2499974708558,12|0|2|2,0:0|0:0|0:0|0:0,0:0:0:0:
452,292,103665,2,0,L|509:302,3,55.2499974708558,10|2|2|2,0:0|0:0|0:0|0:0,0:0:0:0:
365,267,103992,1,10,0:0:0:0:
489,215,104155,1,2,0:0:0:0:
489,215,104237,1,0,0:0:0:0:
489,215,104319,1,10,0:0:0:0:
390,343,104482,1,2,0:0:0:0:
401,185,104646,6,0,L|415:69,1,110.499994941712,12|0,0:0|0:0,0:0:0:0:
329,81,104973,2,0,L|420:74,1,85,10|2,0:0|0:0,0:0:0:0:
316,191,105300,2,0,L|407:184,1,85,10|2,0:0|0:0,0:0:0:0:
432,60,105627,1,10,0:0:0:0:
278,24,105790,1,2,0:0:0:0:
278,24,105872,1,2,0:0:0:0:
278,24,105954,6,0,B|290:79|290:79|271:137,1,110.499994941712,14|0,0:0|0:0,0:0:0:0:
172,186,106281,1,10,0:0:0:0:
284,127,106444,1,0,0:0:0:0:
149,170,106608,1,10,0:0:0:0:
295,122,106771,1,0,0:0:0:0:
159,64,106935,1,10,0:0:0:0:
159,64,107098,1,10,0:0:0:0:
91,241,107262,6,0,L|108:360,1,110.499994941712,12|0,0:0|0:0,0:0:0:0:
285,313,107589,2,0,L|281:350,4,36.8333316472372,10|0|0|0|0,0:0|0:0|0:0|0:0|0:0,0:0:0:0:
269,237,107916,2,0,P|325:216|388:239,1,110.499994941712,14|0,0:0|0:0,0:0:0:0:
505,295,108242,2,0,P|449:316|386:293,1,110.499994941712,10|0,0:0|0:0,0:0:0:0:
378,173,108569,6,0,L|370:243,3,55.2499974708558,14|0|0|0,0:0|0:0|0:0|0:0,0:0:0:0:
459,134,108896,2,0,L|451:204,3,55.2499974708558,14|0|8|0,0:0|0:0|0:0|0:0,0:0:0:0:
384,93,109223,5,14,0:0:0:0:
363,75,109304,1,0,0:0:0:0:
337,65,109386,1,0,0:0:0:0:
310,63,109468,1,0,0:0:0:0:
283,72,109550,5,14,0:0:0:0:
247,91,109631,1,8,0:0:0:0:
206,95,109714,2,0,L|201:30,1,55.2499974708558,8|8,0:0|0:0,0:0:0:0:
217,226,109877,5,12,0:0:0:0:
173,250,110204,6,0,L|173:305,3,42.5,8|8|8|8,0:0|0:0|0:0|0:0,0:0:0:0:
218,183,110531,1,12,0:0:0:0:
328,52,110858,6,0,L|328:-3,3,42.5,2|2|2|2,0:0|0:0|0:0|0:0,0:0:0:0:
283,119,111185,1,6,0:0:0:0:
256,192,111267,12,0,113801,0:0:0:0:
