osu file format v14

[General]
AudioFilename: audio.mp3
AudioLeadIn: 0
PreviewTime: 70640
Countdown: 0
SampleSet: Soft
StackLeniency: 0.3
Mode: 0
LetterboxInBreaks: 0
WidescreenStoryboard: 1

[Editor]
Bookmarks: 67029,67437,67683
DistanceSpacing: 1.5
BeatDivisor: 4
GridSize: 4
TimelineZoom: 2.1

[Metadata]
Title:ANiMA
TitleUnicode:ANiMA
Artist:xi
ArtistUnicode:xi
Creator:sdafsf
Version:Hard
Source:Deemo
Tags:yusuke ishiwata piano rayark inc. soul alice masked lady deemo's collection vol. 2 World Fragments
BeatmapID:1319516
BeatmapSetID:624995

[Difficulty]
HPDrainRate:4
CircleSize:3.5
OverallDifficulty:5.8
ApproachRate:7.5
SliderMultiplier:1.2
SliderTickRate:1

[Events]
//Background and Video events
0,0,"bg.jpg",0,0
//Break Periods
2,70840,80279
//Storyboard Layer 0 (Background)
//Storyboard Layer 1 (Fail)
//Storyboard Layer 2 (Pass)
//Storyboard Layer 3 (Foreground)
//Storyboard Sound Samples

[TimingPoints]
1322,326.975476839237,4,2,2,25,1,0
11785,-133.333333333333,4,2,1,50,0,0
19632,-100,4,2,1,60,0,0
23556,-100,4,2,1,80,0,1
34019,-100,4,2,1,65,0,0
54945,-100,4,2,1,75,0,0
65409,-100,4,2,1,50,0,0
65736,-100,4,2,1,55,0,0
66063,-100,4,2,1,60,0,0
66390,-100,4,2,1,65,0,0
66717,-100,4,2,1,70,0,0
67044,-100,4,2,1,75,0,0
67371,-100,4,2,1,80,0,0
68351,-100,4,2,1,85,0,0
69005,-100,4,2,1,90,0,0
70640,-133.333333333333,4,2,1,60,0,0
81104,-117.647058823529,4,2,1,80,0,0
86335,-100,4,2,1,80,0,0
91567,-100,4,2,1,85,0,1
96798,-133.333333333333,4,2,1,50,0,0
98106,-133.333333333333,4,2,1,70,0,0
98760,-133.333333333333,4,2,1,90,0,0
98842,-133.333333333333,4,2,1,80,0,0
98924,-133.333333333333,4,2,1,70,0,0
99005,-133.333333333333,4,2,1,60,0,0
99087,-133.333333333333,4,2,1,50,0,0
99169,-133.333333333333,4,2,1,40,0,0
99251,-133.333333333333,4,2,1,30,0,0
99414,-90.9090909090909,4,2,1,90,0,1
104646,-90.9090909090909,4,2,1,80,0,1
105954,-90.9090909090909,4,2,1,80,0,1
106608,-90.9090909090909,4,2,1,83,0,1
106935,-90.9090909090909,4,2,1,86,0,1
107262,-90.9090909090909,4,2,1,90,0,1
109877,-100,4,2,1,90,0,0
111185,-133.333333333333,4,2,2,90,0,0
111512,-133.333333333333,4,2,2,80,0,0
111839,-133.333333333333,4,2,2,70,0,0
112166,-133.333333333333,4,2,2,60,0,0
112493,-133.333333333333,4,2,2,50,0,0
112820,-133.333333333333,4,2,2,40,0,0
113147,-133.333333333333,4,2,2,30,0,0
113474,-133.333333333333,4,2,2,20,0,0
113801,-133.333333333333,4,2,2,5,0,0

[Colours]
Combo1 : 128,255,128
Combo2 : 255,255,128
Combo3 : 255,128,128

[HitObjects]
94,191,11785,6,0,B|255:143|186:252|365:173,1,270.000010299683,10|0,0:0|0:0,0:0:0:0:
375,96,13093,6,0,B|382:309|382:309|367:277|338:263,1,270.000010299683,2|0,0:0|0:0,0:0:0:0:
212,232,14401,6,0,P|136:240|80:337,2,180.000006866455,10|2|10,0:0|0:0|0:0,0:0:0:0:
298,338,16362,1,10,0:0:0:0:
430,346,17016,6,0,L|426:284,1,45.0000017166138,6|0,0:0|0:0,0:0:0:0:
482,241,17343,2,0,L|486:179,1,45.0000017166138,0|0,0:0|0:0,0:0:0:0:
430,136,17670,2,0,L|426:74,1,45.0000017166138,0|0,0:0|0:0,0:0:0:0:
471,23,17997,1,0,0:0:0:0:
348,28,18161,5,2,0:0:0:0:
348,28,18242,1,0,0:0:0:0:
348,28,18324,2,0,P|351:53|348:88,1,45.0000017166138,10|0,0:0|0:0,0:0:0:0:
336,152,18651,2,0,P|312:142|284:122,1,45.0000017166138,2|0,0:0|0:0,0:0:0:0:
234,80,18978,2,0,P|254:64|285:50,1,45.0000017166138,2|0,0:0|0:0,0:0:0:0:
350,72,19305,2,0,L|384:73,2,22.5000008583069,0|0|8,0:0|0:0|0:0,0:0:0:0:
296,131,19632,6,0,B|299:208|299:208|321:255,1,120,10|0,0:0|0:0,0:0:0:0:
397,289,20123,1,8,0:0:0:0:
320,335,20286,2,0,P|271:319|193:341,1,120,10|0,0:0|0:0,0:0:0:0:
124,374,20777,1,8,0:0:0:0:
133,284,20940,6,0,L|135:212,1,60,8|0,0:0|0:0,0:0:0:0:
58,175,21267,2,0,L|59:234,1,60,8|0,0:0|0:0,0:0:0:0:
54,325,21594,1,10,0:0:0:0:
54,325,21757,1,10,0:0:0:0:
133,284,21921,1,10,0:0:0:0:
133,284,22084,1,10,0:0:0:0:
224,285,22248,5,4,0:0:0:0:
229,123,22575,1,0,0:0:0:0:
224,285,22902,2,0,P|241:310|281:328,1,60,2|0,0:0|0:0,0:0:0:0:
344,316,23229,2,0,L|407:301,1,60,2|0,0:0|0:0,0:0:0:0:
294,253,23556,6,0,L|283:178,1,60,10|0,0:0|0:0,0:0:0:0:
229,123,23883,1,10,0:0:0:0:
200,208,24046,2,0,P|163:218|126:212,1,60,2|8,0:0|0:0,0:0:0:0:
78,152,24373,1,0,0:0:0:0:
108,66,24537,2,0,P|145:56|182:62,1,60,10|0,0:0|0:0,0:0:0:0:
229,123,24864,5,10,0:0:0:0:
285,193,25027,2,0,L|294:253,1,60,2|8,0:0|0:0,0:0:0:0:
357,316,25354,1,0,0:0:0:0:
437,275,25518,2,0,P|426:236|428:194,1,60,10|0,0:0|0:0,0:0:0:0:
363,150,25845,2,0,P|374:111|372:69,1,60,10|0,0:0|0:0,0:0:0:0:
273,39,26172,6,0,L|283:114,1,60,10|0,0:0|0:0,0:0:0:0:
220,165,26499,1,10,0:0:0:0:
294,215,26662,2,0,L|304:290,1,60,2|8,0:0|0:0,0:0:0:0:
241,341,26989,1,0,0:0:0:0:
165,291,27153,6,0,P|118:295|91:312,2,60,10|2|10,0:0|0:0|0:0,0:0:0:0:
246,345,27643,1,2,0:0:0:0:
246,345,27807,1,10,0:0:0:0:
420,339,28133,2,0,L|422:258,1,60,10|0,0:0|0:0,0:0:0:0:
343,232,28460,2,0,L|344:291,1,60,10|10,0:0|0:0,0:0:0:0:
280,356,28787,6,0,P|234:352|202:361,1,60,14|0,0:0|0:0,0:0:0:0:
133,378,29114,1,10,0:0:0:0:
157,291,29278,2,0,P|161:245|152:213,1,60,2|8,0:0|0:0,0:0:0:0:
135,144,29605,1,0,0:0:0:0:
222,168,29768,2,0,P|268:172|300:163,1,60,10|0,0:0|0:0,0:0:0:0:
369,146,30095,5,10,0:0:0:0:
345,233,30259,2,0,P|341:279|350:311,1,60,2|8,0:0|0:0,0:0:0:0:
367,380,30586,1,2,0:0:0:0:
439,326,30749,2,0,L|445:254,1,60,10|0,0:0|0:0,0:0:0:0:
440,175,31076,2,0,L|434:103,1,60,2|10,0:0|0:0,0:0:0:0:
359,65,31403,6,0,P|328:76|291:71,1,60,4|8,0:0|0:0,0:0:0:0:
216,43,31730,1,2,0:0:0:0:
229,132,31894,2,0,P|233:172|192:252,1,120,12|0,0:0|0:0,0:0:0:0:
191,332,32384,2,0,L|120:347,2,60,12|8|8,0:0|0:0|0:0,0:0:0:0:
280,351,32875,1,4,0:0:0:0:
344,288,33038,1,12,0:0:0:0:
357,287,33365,2,0,L|358:328,3,30,2|0|0|0,0:0|0:0|0:0|0:0,0:0:0:0:
381,278,33692,2,0,L|382:237,3,30,2|0|0|0,0:0|0:0|0:0|0:0,0:0:0:0:
413,279,34019,6,0,P|443:244|441:178,1,90,10|0,0:0|0:0,0:0:0:0:
482,172,34346,2,0,L|477:70,1,90,2|0,0:0|0:0,0:0:0:0:
495,40,34673,1,10,0:0:0:0:
321,56,35000,2,0,L|319:9,2,30,0|0|0,0:0|0:0|0:0,0:0:0:0:
328,146,35327,6,0,P|294:165|252:163,1,60,10|0,0:0|0:0,0:0:0:0:
183,157,35654,1,8,0:0:0:0:
138,79,35817,2,0,L|148:214,1,120,2|0,0:0|0:0,0:0:0:0:
101,277,36308,2,0,L|57:275,2,30,0|0|0,0:0|0:0|0:0,0:0:0:0:
191,277,36635,6,0,P|242:269|304:308,1,120,10|0,0:0|0:0,0:0:0:0:
396,348,37126,1,0,0:0:0:0:
396,348,37207,1,0,0:0:0:0:
396,348,37289,2,0,L|393:270,1,60,10|0,0:0|0:0,0:0:0:0:
466,234,37616,2,0,L|469:156,1,60,10|0,0:0|0:0,0:0:0:0:
414,101,37943,6,0,P|375:105|329:94,1,60,10|0,0:0|0:0,0:0:0:0:
284,159,38270,2,0,P|245:155|199:166,1,60,10|0,0:0|0:0,0:0:0:0:
145,114,38597,2,0,L|135:156,3,30,10|0|10|0,0:0|0:0|0:0|0:0,0:0:0:0:
102,170,38924,2,0,L|92:212,3,30,10|10|10|10,0:0|0:0|0:0|0:0,0:0:0:0:
111,241,39251,6,0,P|119:284|105:340,1,90,14|0,0:0|0:0,0:0:0:0:
75,357,39578,2,0,L|190:354,1,90,12|0,0:0|0:0,0:0:0:0:
205,374,39905,1,12,0:0:0:0:
383,354,40232,1,10,0:0:0:0:
433,279,40395,1,10,0:0:0:0:
433,279,40477,1,2,0:0:0:0:
433,279,40559,6,0,P|429:243|447:190,1,90,14|0,0:0|0:0,0:0:0:0:
484,170,40886,2,0,L|381:165,1,90,12|0,0:0|0:0,0:0:0:0:
360,195,41213,1,12,0:0:0:0:
314,272,41376,1,10,0:0:0:0:
314,272,41458,1,10,0:0:0:0:
314,272,41539,2,0,L|319:322,2,30,10|10|10,0:0|0:0|0:0,0:0:0:0:
231,306,41866,6,0,L|225:233,1,60,10|0,0:0|0:0,0:0:0:0:
173,173,42193,2,0,L|122:184,2,30,10|10|10,0:0|0:0|0:0,0:0:0:0:
242,113,42520,2,0,L|248:40,1,60,10|0,0:0|0:0,0:0:0:0:
159,31,42847,2,0,L|163:90,1,60,10|8,0:0|0:0,0:0:0:0:
76,114,43174,5,10,0:0:0:0:
149,178,43338,1,10,0:0:0:0:
149,178,43420,1,10,0:0:0:0:
148,178,43501,2,0,P|120:188|99:210,1,60,10|8,0:0|0:0,0:0:0:0:
173,261,43828,2,0,L|253:254,1,60,10|8,0:0|0:0,0:0:0:0:
310,302,44155,2,0,L|230:295,1,60,10|8,0:0|0:0,0:0:0:0:
302,223,44482,5,12,0:0:0:0:
315,210,44809,2,0,P|338:202|365:203,2,40,8|8|8,3:0|3:0|3:0,0:0:0:0:
256,195,45136,2,0,P|237:179|224:155,2,40,8|8|8,3:0|3:0|3:0,0:0:0:0:
273,254,45463,2,0,P|268:277|254:300,2,40,8|8|8,3:0|3:0|3:0,0:0:0:0:
315,210,45790,6,0,L|321:127,1,60,14|0,0:0|0:0,0:0:0:0:
304,140,46035,1,0,0:0:0:0:
289,127,46117,2,0,L|283:44,1,60,10|0,0:0|0:0,0:0:0:0:
353,30,46444,2,0,L|419:26,1,60,10|0,0:0|0:0,0:0:0:0:
485,74,46771,2,0,L|425:70,1,60,10|0,0:0|0:0,0:0:0:0:
355,118,47098,6,0,P|356:169|409:236,1,120,10|8,0:0|0:0,0:0:0:0:
345,296,47589,1,2,0:0:0:0:
345,296,47752,2,0,P|300:271|215:283,1,120,10|8,0:0|0:0,0:0:0:0:
198,206,48243,1,2,0:0:0:0:
198,206,48406,6,0,P|241:179|273:100,1,120,10|10,0:0|0:0,0:0:0:0:
223,53,48897,1,0,0:0:0:0:
223,53,48978,1,0,0:0:0:0:
223,53,49060,2,0,P|176:58|145:53,1,60,10|0,0:0|0:0,0:0:0:0:
79,24,49387,1,10,0:0:0:0:
79,24,49550,1,10,0:0:0:0:
3,74,49714,6,0,L|8:152,1,60,12|0,0:0|0:0,0:0:0:0:
51,212,50041,2,0,L|45:264,2,40,8|8|8,3:0|3:0|3:0,0:0:0:0:
98,250,50368,2,0,L|92:302,2,40,8|8|8,3:0|3:0|3:0,0:0:0:0:
145,288,50695,2,0,L|139:340,2,40,8|8|8,3:0|3:0|3:0,0:0:0:0:
196,319,51022,6,0,P|227:327|269:319,1,60,14|0,0:0|0:0,0:0:0:0:
321,263,51349,2,0,P|350:260|379:268,1,60,10|0,0:0|0:0,0:0:0:0:
460,307,51676,2,0,L|467:226,1,60,10|0,0:0|0:0,0:0:0:0:
404,179,52003,1,10,0:0:0:0:
404,179,52166,1,10,0:0:0:0:
379,268,52330,6,0,P|330:259|270:205,1,120,14|10,0:0|0:0,0:0:0:0:
239,133,52820,1,10,0:0:0:0:
327,117,52984,2,0,P|376:126|436:180,1,120,12|10,0:0|0:0,0:0:0:0:
455,255,53474,1,10,0:0:0:0:
365,270,53638,6,0,L|370:343,1,60,14|0,0:0|0:0,0:0:0:0:
289,288,53965,2,0,L|294:361,1,60,10|10,0:0|0:0,0:0:0:0:
212,306,54292,1,12,0:0:0:0:
193,313,54619,2,0,L|188:253,1,60,12|12,0:0|0:0,0:0:0:0:
147,173,54945,6,0,P|181:165|221:171,1,60,4|0,0:0|0:0,0:0:0:0:
274,224,55272,2,0,L|277:285,2,40,8|8|8,3:0|3:0|3:0,0:0:0:0:
319,183,55599,2,0,P|348:184|377:176,1,60,10|0,0:0|0:0,0:0:0:0:
451,125,55926,2,0,P|485:117|525:123,1,60,10|0,0:0|0:0,0:0:0:0:
490,206,56253,6,0,L|499:279,1,60,12|0,0:0|0:0,0:0:0:0:
409,246,56580,2,0,L|418:319,1,60,12|0,0:0|0:0,0:0:0:0:
328,286,56907,2,0,L|337:359,1,60,12|0,0:0|0:0,0:0:0:0:
247,326,57234,1,12,0:0:0:0:
247,326,57398,1,12,0:0:0:0:
254,236,57561,6,0,P|245:198|254:157,1,60,12|0,0:0|0:0,0:0:0:0:
287,96,57888,2,0,L|321:68,2,40,8|8|8,3:0|3:0|3:0,0:0:0:0:
227,83,58215,2,0,P|197:81|168:90,1,60,10|0,0:0|0:0,0:0:0:0:
108,157,58542,2,0,P|79:165|49:164,1,60,10|0,0:0|0:0,0:0:0:0:
1,87,58869,6,0,L|12:158,1,60,12|0,0:0|0:0,0:0:0:0:
26,235,59196,2,0,L|37:306,1,60,14|0,0:0|0:0,0:0:0:0:
118,329,59523,1,12,0:0:0:0:
118,329,59687,1,12,0:0:0:0:
187,272,59850,1,12,0:0:0:0:
187,272,60014,1,12,0:0:0:0:
198,360,60177,6,0,P|233:365|276:353,1,60,12|0,0:0|0:0,0:0:0:0:
334,318,60504,2,0,L|332:277,2,40,8|8|8,3:0|3:0|3:0,0:0:0:0:
378,357,60831,2,0,P|413:362|456:350,1,60,10|0,0:0|0:0,0:0:0:0:
466,272,61158,2,0,L|468:196,1,60,10|0,0:0|0:0,0:0:0:0:
423,133,61485,6,0,P|380:141|350:136,1,60,12|0,0:0|0:0,0:0:0:0:
274,132,61812,2,0,P|288:90|307:67,1,60,12|0,0:0|0:0,0:0:0:0:
349,3,62139,2,0,P|377:36|388:64,1,60,12|0,0:0|0:0,0:0:0:0:
368,144,62466,1,12,0:0:0:0:
368,144,62629,1,12,0:0:0:0:
274,132,62793,6,0,L|191:138,1,60,12|8,0:0|0:0,0:0:0:0:
124,144,63120,2,0,L|41:150,1,60,8|8,0:0|0:0,0:0:0:0:
63,238,63447,2,0,L|146:244,1,60,8|8,0:0|0:0,0:0:0:0:
213,250,63774,2,0,L|296:256,1,60,8|8,0:0|0:0,0:0:0:0:
356,208,64101,6,0,L|359:242,3,30,8|8|8|8,0:0|0:0|0:0|0:0,0:0:0:0:
403,244,64428,2,0,L|406:278,3,30,8|8|8|8,0:0|0:0|0:0|0:0,0:0:0:0:
450,280,64755,2,0,L|453:314,3,30,8|8|8|0,0:0|0:0|0:0|0:0,0:0:0:0:
497,316,65082,6,0,L|500:345,3,20,12|0|0|0,0:0|0:0|0:0|0:0,0:0:0:0:
422,382,65409,6,0,L|346:376,1,60,10|0,0:0|0:0,0:0:0:0:
301,310,65736,2,0,L|225:304,1,60,10|0,0:0|0:0,0:0:0:0:
180,238,66063,2,0,L|104:232,1,60,10|0,0:0|0:0,0:0:0:0:
59,166,66390,2,0,L|-17:160,1,60,10|0,0:0|0:0,0:0:0:0:
35,70,66717,6,0,L|94:74,1,60,10|0,0:0|0:0,0:0:0:0:
156,142,67044,2,0,L|215:146,1,60,10|0,0:0|0:0,0:0:0:0:
277,214,67371,2,0,L|336:218,1,60,10|0,0:0|0:0,0:0:0:0:
397,286,67698,1,10,0:0:0:0:
397,286,67861,1,10,0:0:0:0:
428,201,68024,6,0,P|437:165|429:127,1,60,14|0,0:0|0:0,0:0:0:0:
387,65,68351,1,10,0:0:0:0:
387,65,68515,1,10,0:0:0:0:
311,112,68678,2,0,L|309:182,1,60,14|0,0:0|0:0,0:0:0:0:
315,262,69005,1,10,0:0:0:0:
315,262,69169,1,10,0:0:0:0:
229,222,69332,6,0,L|227:292,1,60,6|0,0:0|0:0,0:0:0:0:
149,327,69659,2,0,L|147:267,1,60,10|10,0:0|0:0,0:0:0:0:
146,176,69986,1,12,0:0:0:0:
146,176,70150,1,8,0:0:0:0:
225,134,70313,2,0,P|281:154|305:189,1,90,14|0,0:0|0:0,0:0:0:0:
312,207,70640,5,6,0:0:0:0:
433,60,81104,5,12,0:0:0:0:
406,81,81430,2,0,L|405:141,2,51.0000009727478,2|2|2,0:0|0:0|0:0,0:0:0:0:
474,218,82084,1,2,0:0:0:0:
487,243,82411,6,0,L|423:254,1,51.0000009727478,2|0,0:0|0:0,0:0:0:0:
361,265,82738,2,0,L|297:276,1,51.0000009727478,2|0,0:0|0:0,0:0:0:0:
235,287,83065,2,0,L|171:298,1,51.0000009727478,2|0,0:0|0:0,0:0:0:0:
105,309,83392,1,2,0:0:0:0:
130,237,83556,1,10,0:0:0:0:
130,237,83638,1,10,0:0:0:0:
130,237,83719,5,14,0:0:0:0:
136,207,84046,2,0,L|69:210,2,51.0000009727478,2|2|2,0:0|0:0|0:0,0:0:0:0:
25,95,84700,1,2,0:0:0:0:
31,66,85027,6,0,L|95:77,1,51.0000009727478,2|0,0:0|0:0,0:0:0:0:
157,88,85354,2,0,L|221:99,1,51.0000009727478,2|0,0:0|0:0,0:0:0:0:
294,113,85681,1,2,0:0:0:0:
241,183,85845,1,8,0:0:0:0:
241,183,85927,1,8,0:0:0:0:
241,183,86008,2,0,P|250:217|237:267,1,76.5000014591217,8|0,0:0|0:0,0:0:0:0:
216,265,86335,6,0,P|268:256|318:274,1,90,10|0,0:0|0:0,0:0:0:0:
322,280,86662,1,10,0:0:0:0:
422,324,86826,2,0,L|417:375,1,30,10|8,0:0|0:0,0:0:0:0:
385,384,86989,1,12,0:0:0:0:
487,174,87643,6,0,P|435:165|385:183,1,90,10|0,0:0|0:0,0:0:0:0:
378,190,87970,1,10,0:0:0:0:
302,264,88134,2,0,L|307:315,1,30,10|0,0:0|0:0,0:0:0:0:
338,324,88297,1,14,0:0:0:0:
215,84,88951,6,0,P|267:75|317:93,1,90,10|8,0:0|0:0,0:0:0:0:
323,103,89278,1,10,0:0:0:0:
400,174,89442,2,0,L|395:225,1,30,10|0,0:0|0:0,0:0:0:0:
389,248,89605,2,0,L|462:261,1,60,10|8,0:0|0:0,0:0:0:0:
390,328,89932,2,0,L|317:341,1,60,10|8,0:0|0:0,0:0:0:0:
298,254,90259,6,0,L|304:216,3,30,10|8|8|8,0:0|2:0|2:0|2:0,0:0:0:0:
287,181,90586,2,0,L|293:143,3,30,10|8|8|8,0:0|0:0|0:0|0:0,0:0:0:0:
279,107,90913,2,0,L|338:117,1,60,14|0,0:0|0:0,0:0:0:0:
293,28,91240,2,0,L|233:38,1,60,14|0,0:0|0:0,0:0:0:0:
184,114,91567,5,10,0:0:0:0:
184,114,91730,1,10,0:0:0:0:
231,190,91894,2,0,L|234:265,1,60,0|0,0:0|0:0,0:0:0:0:
288,321,92221,1,10,0:0:0:0:
288,321,92384,1,10,0:0:0:0:
335,245,92548,2,0,L|338:170,1,60,0|0,0:0|0:0,0:0:0:0:
281,114,92875,5,10,0:0:0:0:
281,114,93038,1,10,0:0:0:0:
370,100,93202,2,0,P|401:115|423:151,1,60,0|8,0:0|0:0,0:0:0:0:
452,217,93529,2,0,L|448:296,1,60,14|0,0:0|0:0,0:0:0:0:
367,316,93856,2,0,L|363:256,1,60,14|0,0:0|0:0,0:0:0:0:
370,166,94183,5,10,0:0:0:0:
370,166,94346,1,10,0:0:0:0:
293,213,94510,2,0,P|251:218|225:213,1,60,0|0,0:0|0:0,0:0:0:0:
166,155,94836,1,10,0:0:0:0:
166,155,94999,1,10,0:0:0:0:
83,121,95163,2,0,P|40:122|15:131,1,60,0|0,0:0|0:0,0:0:0:0:
68,206,95490,5,10,0:0:0:0:
68,206,95654,1,10,0:0:0:0:
153,231,95817,2,0,L|142:270,3,30,8|8|8|8,0:0|0:0|0:0|0:0,0:0:0:0:
130,302,96144,2,0,L|197:308,1,60,10|10,0:0|0:0,0:0:0:0:
135,379,96471,2,0,L|68:385,1,60,14|0,0:0|0:0,0:0:0:0:
37,290,96798,5,0,0:0:0:0:
23,209,98106,6,0,P|82:233|163:211,1,135.000005149841,2|0,0:0|0:0,0:0:0:0:
221,181,98760,2,0,L|224:149,6,22.5000008583069
196,81,99414,6,0,L|273:83,1,66.0000020141602,12|2,0:0|0:0,0:0:0:0:
361,89,99741,1,10,0:0:0:0:
308,172,99905,1,2,0:0:0:0:
308,172,99987,1,2,0:0:0:0:
308,172,100068,1,10,0:0:0:0:
407,170,100232,2,0,L|477:166,2,66.0000020141602,2|10|2,0:0|0:0|0:0,0:0:0:0:
351,251,100722,5,12,0:0:0:0:
323,160,100886,1,2,0:0:0:0:
242,203,101049,2,0,L|252:248,3,33.0000010070801,10|2|2|2,0:0|0:0|0:0|0:0,0:0:0:0:
260,258,101376,2,0,P|226:263|176:253,1,66.0000020141602,10|0,0:0|0:0,0:0:0:0:
116,203,101703,2,0,L|113:246,3,33.0000010070801,10|2|2|2,0:0|0:0|0:0|0:0,0:0:0:0:
112,285,102030,5,14,0:0:0:0:
183,353,102193,1,2,0:0:0:0:
276,319,102357,2,0,L|278:373,2,44.0000013427735,8|8|8,3:0|3:0|3:0,0:0:0:0:
318,267,102684,2,0,L|324:369,2,88.000002685547,10|2|2,0:0|0:0|0:0,0:0:0:0:
193,221,103338,6,0,P|182:182|196:132,1,66.0000020141602,12|2,0:0|0:0,0:0:0:0:
248,80,103665,2,0,L|215:76,3,33.0000010070801,10|2|2|2,0:0|0:0|0:0|0:0,0:0:0:0:
172,51,103992,2,0,L|93:54,1,66.0000020141602,10|2,0:0|0:0,0:0:0:0:
45,132,104319,2,0,L|124:135,1,66.0000020141602,10|2,0:0|0:0,0:0:0:0:
193,185,104646,6,0,P|193:225|222:265,1,66.0000020141602,12|0,0:0|0:0,0:0:0:0:
277,308,104973,2,0,L|277:391,1,66.0000020141602,10|2,0:0|0:0,0:0:0:0:
360,320,105300,2,0,L|360:254,1,66.0000020141602,10|2,0:0|0:0,0:0:0:0:
273,204,105627,2,0,P|303:171|337:161,1,66.0000020141602,10|2,0:0|0:0,0:0:0:0:
371,167,105872,1,2,0:0:0:0:
371,167,105954,6,0,L|371:101,1,66.0000020141602,14|0,0:0|0:0,0:0:0:0:
278,65,106281,2,0,L|200:67,1,66.0000020141602,10|0,0:0|0:0,0:0:0:0:
147,142,106608,2,0,L|225:144,1,66.0000020141602,10|0,0:0|0:0,0:0:0:0:
275,220,106935,2,0,L|197:222,1,66.0000020141602,10|10,0:0|0:0,0:0:0:0:
109,222,107262,6,0,P|104:256|114:300,1,66.0000020141602,12|0,0:0|0:0,0:0:0:0:
193,339,107589,2,0,L|189:393,2,44.0000013427735,10|0|0,0:0|0:0|0:0,0:0:0:0:
255,316,107916,2,0,L|336:318,1,66.0000020141602,14|0,0:0|0:0,0:0:0:0:
409,274,108242,2,0,L|490:276,1,66.0000020141602,10|0,0:0|0:0,0:0:0:0:
471,176,108569,6,0,L|390:178,1,66.0000020141602,14|0,0:0|0:0,0:0:0:0:
317,134,108896,2,0,L|236:136,1,66.0000020141602,14|8,0:0|0:0,0:0:0:0:
165,187,109223,2,0,L|166:238,2,44.0000013427735,14|0|0,0:0|0:0|0:0,0:0:0:0:
125,133,109550,2,0,L|125:248,1,99.0000030212403,14|8,0:0|0:0,0:0:0:0:
142,273,109877,5,12,0:0:0:0:
315,319,110204,6,0,L|269:320,3,30,8|8|8|8,0:0|0:0|0:0|0:0,0:0:0:0:
240,323,110531,1,12,0:0:0:0:
409,262,110858,6,0,L|455:263,3,30,2|2|2|2,0:0|0:0|0:0|0:0,0:0:0:0:
484,266,111185,1,6,0:0:0:0:
256,192,111267,12,0,113801,0:0:0:0:
