osu file format v14

[General]
AudioFilename: audio.mp3
AudioLeadIn: 0
PreviewTime: 70640
Countdown: 0
SampleSet: Soft
StackLeniency: 0.3
Mode: 0
LetterboxInBreaks: 0
WidescreenStoryboard: 1

[Editor]
Bookmarks: 67683
DistanceSpacing: 0.8
BeatDivisor: 8
GridSize: 8
TimelineZoom: 2.799999

[Metadata]
Title:ANiMA
TitleUnicode:ANiMA
Artist:xi
ArtistUnicode:xi
Creator:sdafsf
Version:Extra
Source:Deemo
Tags:yusuke ishiwata piano rayark inc. soul alice masked lady deemo's collection vol. 2 World Fragments
BeatmapID:1372586
BeatmapSetID:624995

[Difficulty]
HPDrainRate:6
CircleSize:4
OverallDifficulty:8.3
ApproachRate:9.2
SliderMultiplier:1.85
SliderTickRate:1

[Events]
//Background and Video events
0,0,"bg.jpg",0,0
//Break Periods
//Storyboard Layer 0 (Background)
//Storyboard Layer 1 (Fail)
//Storyboard Layer 2 (Pass)
//Storyboard Layer 3 (Foreground)
//Storyboard Sound Samples

[TimingPoints]
1322,326.975476839237,4,2,2,25,1,0
10477,-100,4,2,1,65,0,0
11703,-200,4,2,1,5,0,0
11785,-133.333333333333,4,2,1,50,0,0
19632,-100,4,2,1,60,0,0
23556,-100,4,2,1,80,0,1
27643,-83.3333333333333,4,2,1,80,0,1
34019,-100,4,2,1,65,0,0
54945,-83.3333333333333,4,2,1,75,0,0
65409,-133.333333333333,4,2,1,50,0,0
65736,-125,4,2,1,55,0,0
66063,-117.647058823529,4,2,1,60,0,0
66390,-111.111111111111,4,2,1,65,0,0
66717,-105.263157894737,4,2,1,70,0,0
67044,-100,4,2,1,75,0,0
67371,-90.9090909090909,4,2,1,80,0,0
68351,-83.3333333333333,4,2,1,85,0,0
69005,-83.3333333333333,4,2,1,90,0,0
70640,-133.333333333333,4,2,1,60,0,0
72929,-133.333333333333,4,2,1,70,0,0
73011,-133.333333333333,4,2,1,75,0,0
73093,-133.333333333333,4,2,1,80,0,0
73174,-133.333333333333,4,2,1,85,0,0
73256,-133.333333333333,4,2,1,90,0,0
73338,-133.333333333333,4,2,1,60,0,0
75872,-133.333333333333,4,2,1,70,0,0
76117,-133.333333333333,4,2,1,75,0,0
76281,-133.333333333333,4,2,1,80,0,0
76444,-133.333333333333,4,2,1,85,0,0
76526,-133.333333333333,4,2,1,90,0,0
76608,-133.333333333333,4,2,1,80,0,0
77180,-133.333333333333,4,2,1,70,0,0
77425,-133.333333333333,4,2,1,75,0,0
77589,-133.333333333333,4,2,1,80,0,0
77752,-133.333333333333,4,2,1,85,0,0
77834,-133.333333333333,4,2,1,90,0,0
77916,-133.333333333333,4,2,1,60,0,0
78488,-133.333333333333,4,2,1,70,0,0
78733,-133.333333333333,4,2,1,75,0,0
78897,-133.333333333333,4,2,1,80,0,0
79060,-133.333333333333,4,2,1,85,0,0
79142,-133.333333333333,4,2,1,90,0,0
79224,-133.333333333333,4,2,1,75,0,0
81022,-133.333333333333,4,2,1,75,0,0
81104,-117.647058823529,4,2,1,80,0,0
86008,-200,4,2,1,80,0,0
86335,-100,4,2,1,80,0,0
91567,-100,4,2,1,85,0,1
96798,-133.333333333333,4,2,1,50,0,0
98024,-133.333333333333,4,2,1,50,0,0
98106,-133.333333333333,4,2,1,70,0,0
98351,-133.333333333333,4,2,1,75,0,0
98515,-133.333333333333,4,2,1,80,0,0
98678,-133.333333333333,4,2,1,85,0,0
98760,-133.333333333333,4,2,1,90,0,0
98842,-133.333333333333,4,2,1,80,0,0
98924,-133.333333333333,4,2,1,70,0,0
99005,-133.333333333333,4,2,1,60,0,0
99087,-133.333333333333,4,2,1,50,0,0
99169,-133.333333333333,4,2,1,40,0,0
99251,-133.333333333333,4,2,1,30,0,0
99332,-133.333333333333,4,2,1,20,0,0
99414,-76.9230769230769,4,2,1,90,0,1
104646,-76.9230769230769,4,2,1,80,0,1
104973,-100,4,2,1,80,0,1
105954,-76.9230769230769,4,2,1,80,0,1
106608,-76.9230769230769,4,2,1,83,0,1
106935,-76.9230769230769,4,2,1,86,0,1
107262,-76.9230769230769,4,2,1,90,0,1
109877,-100,4,2,1,90,0,0
111185,-133.333333333333,4,2,2,90,0,0
111512,-133.333333333333,4,2,2,80,0,0
111839,-133.333333333333,4,2,2,70,0,0
112166,-133.333333333333,4,2,2,60,0,0
112493,-133.333333333333,4,2,2,50,0,0
112820,-133.333333333333,4,2,2,40,0,0
113147,-133.333333333333,4,2,2,30,0,0
113474,-133.333333333333,4,2,2,20,0,0
113801,-133.333333333333,4,2,2,5,0,0

[Colours]
Combo1 : 128,255,128
Combo2 : 255,255,128
Combo3 : 255,128,128

[HitObjects]
256,192,10477,12,0,11703,0:0:0:0:
62,187,11785,6,0,L|70:269,1,69.3750026464463,10|0,0:0|0:0,0:0:0:0:
148,231,12112,2,0,L|140:313,1,69.3750026464463,0|0,0:0|0:0,0:0:0:0:
218,281,12439,2,0,L|226:363,1,69.3750026464463,0|0,0:0|0:0,0:0:0:0:
224,197,12766,1,0,0:0:0:0:
224,197,12929,1,0,0:0:0:0:
302,317,13093,6,0,P|333:318|374:301,1,69.3750026464463,2|0,0:0|0:0,0:0:0:0:
392,241,13420,2,0,P|375:267|369:311,1,69.3750026464463,0|0,0:0|0:0,0:0:0:0:
411,356,13747,2,0,P|396:327|361:301,1,69.3750026464463,0|0,0:0|0:0,0:0:0:0:
294,239,14074,1,0,0:0:0:0:
302,317,14237,1,0,0:0:0:0:
462,257,14401,6,0,L|472:167,1,69.3750026464463,10|0,0:0|0:0,0:0:0:0:
458,107,14727,1,0,0:0:0:0:
458,107,14891,1,0,0:0:0:0:
388,225,15054,2,0,L|398:135,1,69.3750026464463,2|0,0:0|0:0,0:0:0:0:
317,127,15381,1,0,0:0:0:0:
293,138,15462,1,0,0:0:0:0:
267,142,15544,1,0,0:0:0:0:
242,138,15626,1,0,0:0:0:0:
218,127,15708,6,0,L|223:221,1,69.3750026464463,10|0,0:0|0:0,0:0:0:0:
130,221,16035,1,0,0:0:0:0:
104,227,16116,1,0,0:0:0:0:
77,225,16198,1,0,0:0:0:0:
54,215,16280,1,0,0:0:0:0:
28,200,16362,2,0,L|37:293,1,69.3750026464463,10|0,0:0|0:0,0:0:0:0:
126,318,16689,1,0,0:0:0:0:
149,306,16770,1,0,0:0:0:0:
174,302,16852,1,0,0:0:0:0:
200,306,16934,1,0,0:0:0:0:
224,316,17016,6,0,L|232:388,1,69.3750026464463,6|0,0:0|0:0,0:0:0:0:
311,277,17343,2,0,L|303:349,1,69.3750026464463,0|0,0:0|0:0,0:0:0:0:
384,232,17670,2,0,L|392:304,1,69.3750026464463,0|0,0:0|0:0,0:0:0:0:
452,358,17997,1,0,0:0:0:0:
459,192,18161,1,2,0:0:0:0:
459,192,18242,1,0,0:0:0:0:
459,192,18324,6,0,P|420:158|378:149,1,69.3750026464463,10|0,0:0|0:0,0:0:0:0:
322,259,18651,2,0,P|370:242|399:210,1,69.3750026464463,2|0,0:0|0:0,0:0:0:0:
332,106,18978,2,0,P|322:156|335:197,1,69.3750026464463,2|0,0:0|0:0,0:0:0:0:
405,64,19305,1,0,0:0:0:0:
380,40,19386,1,0,0:0:0:0:
348,26,19468,1,8,0:0:0:0:
313,25,19550,1,0,0:0:0:0:
281,37,19632,6,0,P|235:62|186:59,1,92.5,10|0,0:0|0:0,0:0:0:0:
126,22,19959,1,0,0:0:0:0:
126,22,20123,1,8,0:0:0:0:
130,198,20286,2,0,L|125:96,1,92.5,10|0,0:0|0:0,0:0:0:0:
195,61,20613,1,0,0:0:0:0:
195,61,20777,1,8,0:0:0:0:
191,258,20940,6,0,P|150:278|104:277,1,92.5,8|0,0:0|0:0,0:0:0:0:
210,181,21267,2,0,P|250:160|296:161,1,92.5,8|0,0:0|0:0,0:0:0:0:
356,221,21594,5,10,0:0:0:0:
210,181,21757,1,10,0:0:0:0:
405,149,21921,5,10,0:0:0:0:
361,310,22084,1,10,0:0:0:0:
210,101,22248,5,4,0:0:0:0:
193,85,22575,1,0,0:0:0:0:
363,303,22902,1,2,0:0:0:0:
89,341,23229,1,2,0:0:0:0:
384,298,23556,6,0,P|390:252|374:209,1,92.5,10|0,0:0|0:0,0:0:0:0:
300,170,23883,1,10,0:0:0:0:
259,342,24046,2,0,P|293:310|308:267,1,92.5,2|8,0:0|0:0,0:0:0:0:
276,189,24373,1,0,0:0:0:0:
134,295,24537,2,0,P|180:292|219:269,1,92.5,10|0,0:0|0:0,0:0:0:0:
246,189,24864,5,10,0:0:0:0:
240,358,25027,2,0,L|219:267,1,92.5,2|8,0:0|0:0,0:0:0:0:
246,176,25354,1,0,0:0:0:0:
163,54,25518,2,0,B|121:75|121:75|54:86,1,92.5,10|0,0:0|0:0,0:0:0:0:
238,90,25845,2,0,B|280:69|280:69|347:58,1,92.5,10|0,0:0|0:0,0:0:0:0:
156,211,26172,6,0,P|120:239|74:242,1,92.5,10|0,0:0|0:0,0:0:0:0:
4,204,26499,1,10,0:0:0:0:
168,128,26662,2,0,P|210:144|235:182,1,92.5,2|8,0:0|0:0,0:0:0:0:
237,263,26989,1,0,0:0:0:0:
91,160,27153,1,10,0:0:0:0:
83,126,27234,1,2,0:0:0:0:
91,92,27316,1,2,0:0:0:0:
111,65,27398,1,2,0:0:0:0:
141,48,27479,5,10,0:0:0:0:
156,211,27643,2,0,L|145:288,1,55.4999983062745,2|0,0:0|0:0,0:0:0:0:
221,70,27807,2,0,L|210:-7,1,55.4999983062745,10|0,0:0|0:0,0:0:0:0:
229,102,28133,2,0,P|276:74|330:79,1,110.999996612549,10|0,0:0|0:0,0:0:0:0:
401,139,28460,1,10,0:0:0:0:
401,139,28624,1,10,0:0:0:0:
475,299,28787,6,0,P|417:264|399:210,1,110.999996612549,14|0,0:0|0:0,0:0:0:0:
401,139,29114,1,10,0:0:0:0:
336,288,29278,2,0,P|314:224|335:172,1,110.999996612549,2|8,0:0|0:0,0:0:0:0:
382,119,29605,1,0,0:0:0:0:
236,190,29768,2,0,P|260:126|309:100,1,110.999996612549,10|0,0:0|0:0,0:0:0:0:
380,90,30095,5,10,0:0:0:0:
243,269,30259,2,0,B|222:207|155:202,1,110.999996612549,2|8,0:0|0:0,0:0:0:0:
78,231,30586,1,2,0:0:0:0:
304,330,30749,2,0,P|323:279|310:226,1,110.999996612549,10|0,0:0|0:0,0:0:0:0:
242,86,31076,2,0,P|222:136|235:189,1,110.999996612549,2|10,0:0|0:0,0:0:0:0:
409,127,31403,6,0,P|355:150|299:137,1,110.999996612549,4|8,0:0|0:0,0:0:0:0:
242,86,31730,1,2,0:0:0:0:
431,43,31894,2,0,P|477:77|494:132,1,110.999996612549,12|8,0:0|0:0,0:0:0:0:
454,196,32139,1,0,0:0:0:0:
447,222,32220,1,0,0:0:0:0:
448,250,32302,1,0,0:0:0:0:
458,276,32384,6,0,L|530:275,1,55.4999983062745,12|0,0:0|0:0,0:0:0:0:
349,280,32548,2,0,L|314:343,1,55.4999983062745,8|0,0:0|0:0,0:0:0:0:
400,183,32711,2,0,L|362:121,1,55.4999983062745,8|0,0:0|0:0,0:0:0:0:
408,336,32875,6,0,L|390:370,2,36.9999988708496,4|0|0,0:0|0:0|0:0,0:0:0:0:
496,182,33038,1,12,0:0:0:0:
395,217,33202,1,0,0:0:0:0:
442,66,33365,6,0,L|449:135,3,55.4999983062745,2|0|0|0,0:0|0:0|0:0|0:0,0:0:0:0:
370,35,33692,1,2,0:0:0:0:
344,25,33773,1,0,0:0:0:0:
316,23,33855,1,0,0:0:0:0:
289,29,33937,1,0,0:0:0:0:
265,43,34019,6,0,L|273:153,1,92.5,10|2,0:0|0:0,0:0:0:0:
190,103,34264,1,0,0:0:0:0:
190,103,34346,2,0,L|182:212,1,92.5,2|0,0:0|0:0,0:0:0:0:
103,154,34591,1,0,0:0:0:0:
103,154,34673,2,0,L|110:263,1,92.5,10|0,0:0|0:0,0:0:0:0:
53,350,35000,1,0,0:0:0:0:
81,332,35081,1,0,0:0:0:0:
115,323,35163,1,0,0:0:0:0:
149,325,35245,1,0,0:0:0:0:
181,339,35327,6,0,P|226:349|269:335,1,92.5,10|0,0:0|0:0,0:0:0:0:
311,243,35654,2,0,L|313:291,2,30.8333333333333,8|0|0,0:0|0:0|0:0,0:0:0:0:
313,217,35817,2,0,P|356:202|401:212,1,92.5,2|8,0:0|0:0,0:0:0:0:
455,275,36144,1,0,0:0:0:0:
484,192,36308,1,0,0:0:0:0:
494,172,36389,1,0,0:0:0:0:
498,149,36471,1,0,0:0:0:0:
496,126,36553,1,0,0:0:0:0:
486,103,36635,6,0,P|442:117|397:107,1,92.5,10|0,0:0|0:0,0:0:0:0:
331,61,36962,1,0,0:0:0:0:
320,81,37043,1,0,0:0:0:0:
316,104,37125,1,0,0:0:0:0:
318,127,37207,1,0,0:0:0:0:
329,149,37289,2,0,P|372:135|418:145,1,92.5,10|0,0:0|0:0,0:0:0:0:
277,208,37616,2,0,P|233:221|187:211,1,92.5,10|0,0:0|0:0,0:0:0:0:
221,47,37943,6,0,L|230:140,1,92.5,10|0,0:0|0:0,0:0:0:0:
127,251,38270,2,0,L|136:158,1,92.5,10|0,0:0|0:0,0:0:0:0:
141,74,38597,1,10,0:0:0:0:
141,74,38760,1,10,0:0:0:0:
41,119,38924,1,10,0:0:0:0:
58,148,39005,1,10,0:0:0:0:
63,182,39087,1,10,0:0:0:0:
56,216,39169,1,10,0:0:0:0:
36,244,39251,6,0,P|82:231|128:244,1,92.5,14|0,0:0|0:0,0:0:0:0:
132,384,39578,2,0,P|97:355|83:311,1,92.5,12|0,0:0|0:0,0:0:0:0:
207,234,39905,2,0,P|195:280|161:313,1,92.5,12|0,0:0|0:0,0:0:0:0:
159,171,40232,1,10,0:0:0:0:
189,155,40313,1,2,0:0:0:0:
224,154,40395,1,10,0:0:0:0:
255,167,40477,1,2,0:0:0:0:
278,193,40559,6,0,L|322:99,1,92.5,14|0,0:0|0:0,0:0:0:0:
409,100,40886,2,0,L|305:109,1,92.5,12|8,0:0|0:0,0:0:0:0:
263,33,41213,2,0,L|323:117,1,92.5,12|10,0:0|0:0,0:0:0:0:
337,137,41458,1,10,0:0:0:0:
358,166,41539,1,10,0:0:0:0:
366,202,41621,1,10,0:0:0:0:
358,238,41703,1,10,0:0:0:0:
335,267,41784,1,10,0:0:0:0:
303,284,41866,6,0,L|317:394,1,92.5,10|0,0:0|0:0,0:0:0:0:
226,250,42193,1,10,0:0:0:0:
194,235,42274,1,10,0:0:0:0:
160,233,42356,1,10,0:0:0:0:
127,243,42438,1,10,0:0:0:0:
100,265,42520,2,0,L|114:375,1,92.5,10|0,0:0|0:0,0:0:0:0:
8,241,42847,2,0,L|19:149,1,92.5,10|8,0:0|0:0,0:0:0:0:
1,320,43174,5,10,0:0:0:0:
111,356,43338,2,10,L|98:383,2,23.125,10|8|8,0:0|0:0|0:0,0:0:0:0:
122,332,43501,1,10,0:0:0:0:
168,332,43582,1,0,0:0:0:0:
214,332,43664,1,8,0:0:0:0:
260,332,43746,1,0,0:0:0:0:
306,332,43828,6,0,P|327:292|323:246,1,92.5,10|8,0:0|0:0,0:0:0:0:
262,114,44155,2,0,P|241:154|245:200,1,92.5,10|8,0:0|0:0,0:0:0:0:
407,126,44482,1,12,0:0:0:0:
424,138,44809,6,0,L|490:129,2,61.6666666666667,8|8|8,3:0|3:0|3:0,0:0:0:0:
356,203,45136,2,0,L|290:194,2,61.6666666666667,8|8|8,3:0|3:0|3:0,0:0:0:0:
424,268,45463,2,0,L|490:259,2,61.6666666666667,8|8|8,3:0|3:0|3:0,0:0:0:0:
340,283,45790,5,14,0:0:0:0:
327,374,45954,2,0,L|358:380,2,30.8333333333333,0|0|0,0:0|0:0|0:0,0:0:0:0:
302,372,46117,2,0,L|197:381,1,92.5,10|0,0:0|0:0,0:0:0:0:
146,248,46444,2,0,P|134:291|149:334,1,92.5,10|0,0:0|0:0,0:0:0:0:
233,224,46771,2,0,P|244:180|229:137,1,92.5,10|0,0:0|0:0,0:0:0:0:
138,115,47098,5,10,0:0:0:0:
152,83,47179,1,0,0:0:0:0:
177,60,47261,1,0,0:0:0:0:
209,47,47343,1,0,0:0:0:0:
244,47,47425,2,0,L|250:-4,1,46.25,8|0,0:0|0:0,0:0:0:0:
315,113,47589,2,0,L|320:158,1,46.25,2|0,0:0|0:0,0:0:0:0:
329,27,47752,2,0,P|372:12|416:22,1,92.5,10|0,0:0|0:0,0:0:0:0:
448,118,48079,1,8,0:0:0:0:
429,147,48160,1,0,0:0:0:0:
422,181,48242,1,2,0:0:0:0:
430,215,48324,1,0,0:0:0:0:
449,243,48406,6,0,P|469:284|462:330,1,92.5,10|0,0:0|0:0,0:0:0:0:
341,294,48733,1,10,0:0:0:0:
309,308,48814,1,0,0:0:0:0:
275,312,48896,1,0,0:0:0:0:
241,304,48978,1,0,0:0:0:0:
212,285,49060,2,0,L|209:183,1,92.5,10|0,0:0|0:0,0:0:0:0:
273,68,49387,2,0,L|277:114,1,46.25,10|0,0:0|0:0,0:0:0:0:
130,237,49550,2,0,L|134:190,1,46.25,10|0,0:0|0:0,0:0:0:0:
147,19,49714,5,12,0:0:0:0:
121,21,50041,5,8,3:0:0:0:
121,21,50150,2,0,L|118:98,1,61.6666666666667,8|8,3:0|3:0,3:0:0:0:
44,139,50368,1,8,3:0:0:0:
44,139,50477,2,0,L|47:216,1,61.6666666666667,8|8,3:0|3:0,3:0:0:0:
130,237,50695,1,8,3:0:0:0:
130,237,50804,2,0,L|127:314,1,61.6666666666667,8|8,3:0|3:0,3:0:0:0:
186,355,51022,5,14,0:0:0:0:
282,332,51185,2,0,L|276:298,2,30.8333333333333,0|2|0,0:0|0:0|0:0,0:0:0:0:
296,356,51349,2,0,P|340:365|384:350,1,92.5,10|0,0:0|0:0,0:0:0:0:
387,185,51676,2,0,L|398:288,1,92.5,10|0,0:0|0:0,0:0:0:0:
473,189,52003,2,0,L|482:97,1,92.5,10|10,0:0|0:0,0:0:0:0:
299,175,52330,6,0,P|341:192|386:184,1,92.5,14|0,0:0|0:0,0:0:0:0:
247,111,52657,1,10,0:0:0:0:
227,138,52738,1,2,0:0:0:0:
218,171,52820,1,10,0:0:0:0:
224,205,52902,1,2,0:0:0:0:
242,235,52984,6,0,P|199:252|154:244,1,92.5,12|0,0:0|0:0,0:0:0:0:
299,175,53311,1,10,0:0:0:0:
319,202,53392,1,2,0:0:0:0:
328,235,53474,1,10,0:0:0:0:
322,269,53556,1,2,0:0:0:0:
304,298,53638,6,0,P|346:315|391:307,1,92.5,14|0,0:0|0:0,0:0:0:0:
299,175,53965,1,10,0:0:0:0:
252,177,54046,1,2,0:0:0:0:
206,179,54128,1,10,0:0:0:0:
160,181,54210,1,2,0:0:0:0:
114,183,54292,6,0,L|105:135,1,46.25,12|0,0:0|0:0,0:0:0:0:
190,23,54455,2,0,L|194:0,2,23.125,12|8|8,0:0|0:0|0:0,0:0:0:0:
174,107,54619,1,12,0:0:0:0:
268,35,54782,1,12,0:0:0:0:
34,25,54945,6,0,L|31:153,1,110.999996612549,4|0,0:0|0:0,0:0:0:0:
29,312,55272,1,8,3:0:0:0:
96,281,55381,1,8,3:0:0:0:
164,305,55490,1,8,3:0:0:0:
194,370,55599,2,0,P|247:387|302:373,1,110.999996612549,10|0,0:0|0:0,0:0:0:0:
408,304,55926,2,0,P|355:287|300:301,1,110.999996612549,10|0,0:0|0:0,0:0:0:0:
480,370,56172,1,0,0:0:0:0:
480,370,56253,6,0,L|492:259,1,110.999996612549,12|0,0:0|0:0,0:0:0:0:
395,96,56499,1,0,0:0:0:0:
395,96,56580,2,0,L|407:206,1,110.999996612549,12|0,0:0|0:0,0:0:0:0:
310,370,56826,1,0,0:0:0:0:
310,370,56907,2,0,L|322:259,1,110.999996612549,12|0,0:0|0:0,0:0:0:0:
395,95,57234,2,0,L|332:108,1,55.4999983062745,12|0,0:0|0:0,0:0:0:0:
223,177,57398,2,0,L|286:190,1,55.4999983062745,12|0,0:0|0:0,0:0:0:0:
467,133,57561,6,0,P|474:76|445:30,1,110.999996612549,12|0,0:0|0:0,0:0:0:0:
255,57,57888,1,8,3:0:0:0:
193,100,57997,1,8,3:0:0:0:
119,92,58106,1,8,3:0:0:0:
81,25,58215,2,0,P|47:67|54:131,1,110.999996612549,10|0,0:0|0:0,0:0:0:0:
83,268,58542,2,0,P|116:225|114:170,1,110.999996612549,10|0,0:0|0:0,0:0:0:0:
23,317,58787,1,0,0:0:0:0:
23,317,58869,6,0,L|154:330,1,110.999996612549,12|0,0:0|0:0,0:0:0:0:
304,253,59114,1,0,0:0:0:0:
304,253,59196,2,0,L|173:266,1,110.999996612549,14|0,0:0|0:0,0:0:0:0:
335,384,59441,1,0,0:0:0:0:
335,384,59523,2,0,L|339:323,1,55.4999983062745,12|0,0:0|0:0,0:0:0:0:
246,131,59687,2,0,L|249:186,1,55.4999983062745,12|0,0:0|0:0,0:0:0:0:
348,373,59850,2,0,L|352:312,1,55.4999983062745,12|0,0:0|0:0,0:0:0:0:
259,120,60014,2,0,L|262:175,1,55.4999983062745,12|0,0:0|0:0,0:0:0:0:
255,347,60177,6,0,P|204:367|149:359,1,110.999996612549,12|0,0:0|0:0,0:0:0:0:
10,381,60504,1,8,3:0:0:0:
75,346,60613,1,8,3:0:0:0:
95,274,60722,1,8,3:0:0:0:
50,215,60831,2,0,P|30:154|55:104,1,110.999996612549,10|0,0:0|0:0,0:0:0:0:
133,101,61158,1,10,0:0:0:0:
133,101,61321,1,0,0:0:0:0:
25,8,61485,6,0,L|135:0,1,110.999996612549,12|0,0:0|0:0,0:0:0:0:
244,110,61812,2,0,L|133:101,1,110.999996612549,12|0,0:0|0:0,0:0:0:0:
302,55,62139,2,0,P|323:105|310:158,1,110.999996612549,12|0,0:0|0:0,0:0:0:0:
240,296,62466,2,0,P|218:245|231:192,1,110.999996612549,12|12,0:0|0:0,0:0:0:0:
321,321,62793,5,12,0:0:0:0:
304,351,62874,1,0,0:0:0:0:
278,373,62956,1,8,0:0:0:0:
245,382,63038,1,0,0:0:0:0:
210,378,63119,1,8,0:0:0:0:
181,361,63201,1,0,0:0:0:0:
160,333,63283,1,8,0:0:0:0:
152,300,63365,1,0,0:0:0:0:
157,266,63447,2,0,L|221:271,3,55.4999983062745,8|0|8|0,0:0|0:0|0:0|0:0,0:0:0:0:
87,219,63774,2,0,L|23:223,3,55.4999983062745,8|0|8|8,0:0|0:0|0:0|0:0,0:0:0:0:
167,182,64101,5,8,0:0:0:0:
198,155,64182,1,8,0:0:0:0:
238,144,64264,1,8,0:0:0:0:
279,150,64346,1,8,0:0:0:0:
314,172,64428,1,8,0:0:0:0:
346,197,64509,1,8,0:0:0:0:
387,204,64591,1,8,0:0:0:0:
426,193,64673,1,8,0:0:0:0:
456,165,64754,5,8,0:0:0:0:
448,121,64836,1,8,0:0:0:0:
439,77,64918,1,8,0:0:0:0:
429,33,65000,1,0,0:0:0:0:
397,0,65082,6,0,L|396:52,6,27.7499991531372,12|0|0|0|0|0|0,0:0|0:0|0:0|0:0|0:0|0:0|0:0,0:0:0:0:
334,74,65409,6,0,L|379:79,3,34.6875013232232,10|0|0|0,0:0|0:0|0:0|0:0,0:0:0:0:
258,113,65736,2,0,L|203:114,3,37,10|0|0|0,0:0|0:0|0:0|0:0,0:0:0:0:
321,169,66063,2,0,L|361:176,3,39.3125007498264,10|0|0|0,0:0|0:0|0:0|0:0,0:0:0:0:
250,202,66390,2,0,L|192:204,3,41.6249987297059,10|0|0|0,0:0|0:0|0:0|0:0,0:0:0:0:
310,255,66717,2,0,L|358:264,3,43.9374988267422,10|0|0|0,0:0|0:0|0:0|0:0,0:0:0:0:
239,296,67044,2,0,L|175:300,3,46.25,10|0|0|0,0:0|0:0|0:0|0:0,0:0:0:0:
308,343,67371,2,0,L|362:356,3,50.8750015525818,10|0|0|0,0:0|0:0|0:0|0:0,0:0:0:0:
208,203,67698,2,0,L|203:279,1,50.8750015525818,10|0,0:0|0:0,0:0:0:0:
126,370,67861,2,0,L|122:319,1,50.8750015525818,10|0,0:0|0:0,0:0:0:0:
144,168,68024,5,14,0:0:0:0:
172,142,68105,1,0,0:0:0:0:
208,130,68187,1,0,0:0:0:0:
246,134,68269,1,0,0:0:0:0:
279,152,68351,2,0,L|274:218,1,55.4999983062745,10|0,0:0|0:0,0:0:0:0:
373,371,68515,2,0,L|368:315,1,55.4999983062745,10|0,0:0|0:0,0:0:0:0:
363,124,68678,5,14,0:0:0:0:
415,108,68759,1,0,0:0:0:0:
465,129,68841,1,0,0:0:0:0:
493,175,68923,1,0,0:0:0:0:
486,229,69005,2,0,L|414:248,1,55.4999983062745,10|0,0:0|0:0,0:0:0:0:
225,139,69169,2,0,L|297:157,1,55.4999983062745,10|0,0:0|0:0,0:0:0:0:
285,314,69332,5,6,0:0:0:0:
230,322,69413,1,8,0:0:0:0:
180,299,69495,1,0,0:0:0:0:
150,254,69577,1,0,0:0:0:0:
149,199,69658,1,10,0:0:0:0:
148,144,69741,1,0,0:0:0:0:
118,98,69823,1,10,0:0:0:0:
68,76,69905,1,0,0:0:0:0:
13,84,69986,2,0,L|17:166,1,55.4999983062745,12|8,0:0|0:0,0:0:0:0:
84,345,70150,2,0,L|86:289,1,55.4999983062745,8|8,0:0|0:0,0:0:0:0:
202,76,70313,6,0,P|258:60|334:133,1,166.499994918823,14|0,0:0|0:0,0:0:0:0:
321,155,70640,6,0,L|329:216,3,34.6875013232232,6|0|0|0,0:0|0:0|0:0|0:0,0:0:0:0:
398,213,70967,2,0,L|390:274,3,34.6875013232232,2|0|0|0,0:0|0:0|0:0|0:0,0:0:0:0:
327,279,71294,2,0,L|335:340,3,34.6875013232232,2|0|0|0,0:0|0:0|0:0|0:0,0:0:0:0:
399,346,71621,2,0,L|391:407,3,34.6875013232232,2|0|0|0,0:0|0:0|0:0|0:0,0:0:0:0:
277,373,71948,6,0,L|234:364,3,34.6875013232232,2|0|0|0,0:0|0:0|0:0|0:0,0:0:0:0:
164,333,72275,2,0,L|193:300,3,34.6875013232232,2|0|0|0,0:0|0:0|0:0|0:0,0:0:0:0:
255,255,72602,2,0,L|268:296,3,34.6875013232232,2|0|0|0,0:0|0:0|0:0|0:0,0:0:0:0:
164,333,72929,1,2,0:0:0:0:
136,312,73010,1,2,0:0:0:0:
102,304,73092,1,2,0:0:0:0:
68,311,73174,1,2,0:0:0:0:
40,330,73256,6,0,L|44:382,3,34.6875013232232,2|0|0|0,0:0|0:0|0:0|0:0,0:0:0:0:
115,254,73583,2,0,L|111:305,3,34.6875013232232,2|0|0|0,0:0|0:0|0:0|0:0,0:0:0:0:
40,178,73910,2,0,L|43:229,3,34.6875013232232,2|0|0|0,0:0|0:0|0:0|0:0,0:0:0:0:
115,102,74237,2,0,L|111:153,3,34.6875013232232,2|0|0|0,0:0|0:0|0:0|0:0,0:0:0:0:
55,15,74564,6,0,L|101:21,3,34.6875013232232,2|0|0|0,0:0|0:0|0:0|0:0,0:0:0:0:
125,91,74891,2,0,L|171:85,3,34.6875013232232,2|0|0|0,0:0|0:0|0:0|0:0,0:0:0:0:
189,18,75218,2,0,L|235:24,3,34.6875013232232,2|0|0|0,0:0|0:0|0:0|0:0,0:0:0:0:
269,82,75545,2,0,L|315:76,3,34.6875013232232,2|0|0|0,0:0|0:0|0:0|0:0,0:0:0:0:
385,81,75872,5,0,0:0:0:0:
372,103,75953,1,0,0:0:0:0:
367,128,76035,1,0,0:0:0:0:
371,154,76117,1,0,0:0:0:0:
383,177,76198,1,2,0:0:0:0:
395,199,76281,1,2,0:0:0:0:
398,225,76363,1,2,0:0:0:0:
393,250,76445,1,2,0:0:0:0:
379,275,76526,2,0,P|365:293|351:299,7,34.6875013232232,2|0|0|0|0|0|0|0,0:0|0:0|0:0|0:0|0:0|0:0|0:0|0:0,0:0:0:0:
307,220,77180,5,0,0:0:0:0:
283,209,77261,1,0,0:0:0:0:
257,206,77343,1,0,0:0:0:0:
232,211,77425,1,0,0:0:0:0:
209,223,77506,1,2,0:0:0:0:
186,235,77589,1,2,0:0:0:0:
161,240,77671,1,2,0:0:0:0:
135,237,77753,1,2,0:0:0:0:
109,224,77834,2,0,L|110:176,7,34.6875013232232,2|0|0|0|0|0|0|0,0:0|0:0|0:0|0:0|0:0|0:0|0:0|0:0,0:0:0:0:
84,65,78488,5,0,0:0:0:0:
106,52,78569,1,0,0:0:0:0:
131,47,78651,1,0,0:0:0:0:
157,49,78733,1,0,0:0:0:0:
181,60,78814,1,2,0:0:0:0:
204,70,78896,1,2,0:0:0:0:
230,72,78978,1,2,0:0:0:0:
255,67,79060,1,2,0:0:0:0:
279,54,79142,6,0,L|273:150,1,69.3750026464463,2|0,0:0|0:0,0:0:0:0:
354,97,79469,2,0,L|360:193,1,69.3750026464463,2|0,0:0|0:0,0:0:0:0:
508,174,79796,6,0,P|471:184|439:178,1,69.3750026464463,2|0,0:0|0:0,0:0:0:0:
431,90,80123,2,0,P|467:79|499:85,1,69.3750026464463,2|0,0:0|0:0,0:0:0:0:
386,239,80450,2,0,L|381:308,1,69.3750026464463,2|0,0:0|0:0,0:0:0:0:
297,278,80777,2,0,L|301:347,1,69.3750026464463,2|0,0:0|0:0,0:0:0:0:
273,97,81104,5,12,0:0:0:0:
272,78,81430,1,2,0:0:0:0:
133,179,81594,1,2,0:0:0:0:
309,178,81757,1,2,0:0:0:0:
327,178,82084,1,2,0:0:0:0:
345,178,82411,6,0,L|348:131,1,39.3125007498264,2|0,0:0|0:0,0:0:0:0:
269,38,82575,2,0,L|271:77,1,39.3125007498264
349,171,82738,2,0,L|352:124,1,39.3125007498264,2|0,0:0|0:0,0:0:0:0:
273,31,82902,2,0,L|275:70,1,39.3125007498264
353,164,83065,2,0,L|356:117,1,39.3125007498264,2|0,0:0|0:0,0:0:0:0:
277,24,83229,2,0,L|279:63,1,39.3125007498264
311,232,83392,1,2,0:0:0:0:
347,246,83473,1,2,0:0:0:0:
386,239,83555,1,10,0:0:0:0:
416,215,83637,1,10,0:0:0:0:
430,179,83718,5,14,0:0:0:0:
431,162,84046,1,2,0:0:0:0:
503,320,84210,1,2,0:0:0:0:
347,246,84373,1,2,0:0:0:0:
331,235,84700,1,2,0:0:0:0:
313,222,85027,6,0,L|310:280,1,39.3125007498264,2|0,0:0|0:0,0:0:0:0:
248,362,85191,2,0,L|245:322,1,39.3125007498264
306,214,85354,2,0,L|303:272,1,39.3125007498264,2|0,0:0|0:0,0:0:0:0:
241,354,85518,2,0,L|238:314,1,39.3125007498264
299,206,85681,2,0,L|296:264,1,39.3125007498264,2|0,0:0|0:0,0:0:0:0:
344,353,85845,1,8,0:0:0:0:
344,353,85926,1,8,0:0:0:0:
344,353,86008,6,0,L|420:353,1,69.375,8|0,0:0|0:0,0:0:0:0:
436,336,86335,5,10,0:0:0:0:
450,308,86416,1,0,0:0:0:0:
452,278,86498,1,0,0:0:0:0:
441,249,86580,1,0,0:0:0:0:
430,220,86662,1,10,0:0:0:0:
432,189,86744,1,0,0:0:0:0:
446,162,86826,2,0,L|500:163,1,46.25,10|8,0:0|0:0,0:0:0:0:
362,153,86989,5,12,0:0:0:0:
278,144,87153,1,2,0:0:0:0:
194,135,87316,1,10,0:0:0:0:
110,126,87480,1,10,0:0:0:0:
47,78,87643,5,10,0:0:0:0:
31,104,87724,1,0,0:0:0:0:
28,134,87806,1,0,0:0:0:0:
38,163,87888,1,0,0:0:0:0:
48,191,87970,1,10,0:0:0:0:
45,222,88052,1,0,0:0:0:0:
29,248,88133,2,0,L|-30:237,1,46.25,10|0,0:0|0:0,0:0:0:0:
113,257,88296,5,14,0:0:0:0:
197,266,88460,1,2,0:0:0:0:
281,275,88623,1,10,0:0:0:0:
365,284,88787,1,10,0:0:0:0:
421,344,88951,5,10,0:0:0:0:
440,315,89032,1,0,0:0:0:0:
446,281,89114,1,8,0:0:0:0:
439,247,89196,1,8,0:0:0:0:
418,220,89277,1,10,0:0:0:0:
397,192,89360,1,0,0:0:0:0:
390,158,89442,1,10,0:0:0:0:
396,124,89524,1,0,0:0:0:0:
414,95,89605,6,0,P|458:110|506:95,1,92.5,10|8,0:0|0:0,0:0:0:0:
348,36,89932,2,0,P|304:21|260:34,1,92.5,10|8,0:0|0:0,0:0:0:0:
227,108,90259,5,10,0:0:0:0:
229,130,90340,1,8,2:0:0:0:
232,153,90422,1,8,2:0:0:0:
234,176,90504,1,8,2:0:0:0:
237,199,90585,1,10,0:0:0:0:
239,222,90667,1,8,0:0:0:0:
242,245,90749,1,8,0:0:0:0:
244,268,90831,1,8,0:0:0:0:
249,293,90913,6,0,L|341:307,1,92.5,14|0,0:0|0:0,0:0:0:0:
426,208,91240,2,0,L|334:222,1,92.5,14|0,0:0|0:0,0:0:0:0:
151,253,91567,5,10,0:0:0:0:
232,115,91730,1,10,0:0:0:0:
170,51,91894,1,0,0:0:0:0:
150,79,91975,1,0,0:0:0:0:
144,113,92057,1,0,0:0:0:0:
151,147,92139,1,0,0:0:0:0:
171,175,92220,5,10,0:0:0:0:
320,117,92384,1,10,0:0:0:0:
258,53,92548,1,0,0:0:0:0:
238,81,92629,1,0,0:0:0:0:
232,115,92711,1,0,0:0:0:0:
239,149,92793,1,0,0:0:0:0:
259,177,92874,5,10,0:0:0:0:
408,119,93038,1,10,0:0:0:0:
346,55,93202,1,0,0:0:0:0:
326,83,93283,1,0,0:0:0:0:
320,117,93365,1,8,0:0:0:0:
327,151,93447,1,8,0:0:0:0:
347,179,93529,6,0,P|372:226|366:278,1,92.5,14|0,0:0|0:0,0:0:0:0:
216,305,93856,2,0,P|192:265|192:219,1,92.5,14|0,0:0|0:0,0:0:0:0:
311,337,94183,5,10,0:0:0:0:
95,296,94346,1,10,0:0:0:0:
31,358,94510,1,0,0:0:0:0:
59,378,94591,1,0,0:0:0:0:
93,384,94673,1,0,0:0:0:0:
127,377,94755,1,0,0:0:0:0:
155,357,94836,5,10,0:0:0:0:
97,208,95000,1,10,0:0:0:0:
33,270,95164,1,0,0:0:0:0:
61,290,95245,1,0,0:0:0:0:
95,296,95327,1,0,0:0:0:0:
129,289,95409,1,0,0:0:0:0:
157,269,95490,5,10,0:0:0:0:
99,120,95654,1,10,0:0:0:0:
35,182,95818,1,8,0:0:0:0:
63,202,95899,1,8,0:0:0:0:
97,208,95981,1,8,0:0:0:0:
131,201,96063,1,8,0:0:0:0:
159,181,96144,5,10,0:0:0:0:
4,87,96308,1,10,0:0:0:0:
214,87,96471,1,14,0:0:0:0:
231,89,96798,5,0,0:0:0:0:
249,91,97125,6,0,L|250:177,1,69.3750026464463
325,45,97452,2,0,L|325:94,7,34.6875013232232
326,99,98106,1,2,0:0:0:0:
321,202,98269,5,0,0:0:0:0:
320,219,98351,1,0,0:0:0:0:
320,237,98432,1,0,0:0:0:0:
319,254,98514,1,0,0:0:0:0:
318,271,98596,1,0,0:0:0:0:
317,289,98678,1,0,0:0:0:0:
317,309,98760,6,0,L|315:342,14,17.3437506616116,0|0|0|0|0|0|0|0|0|0|0|0|0|0|0,0:0|0:0|0:0|0:0|0:0|0:0|0:0|0:0|0:0|0:0|0:0|0:0|0:0|0:0|0:0,0:0:0:0:
377,381,99414,5,12,0:0:0:0:
430,206,99578,1,2,0:0:0:0:
240,314,99741,5,10,0:0:0:0:
182,299,99822,1,2,0:0:0:0:
146,252,99904,1,2,0:0:0:0:
144,193,99986,1,2,0:0:0:0:
179,146,100067,1,10,0:0:0:0:
240,314,100232,6,0,L|234:379,1,60.1249972476961,2|0,0:0|0:0,0:0:0:0:
354,177,100395,2,0,L|413:149,1,60.1249972476961,10|0,0:0|0:0,0:0:0:0:
179,146,100559,2,0,L|125:108,1,60.1249972476961,2|0,0:0|0:0,0:0:0:0:
254,212,100722,5,12,0:0:0:0:
180,39,100886,1,2,0:0:0:0:
43,124,101049,5,10,0:0:0:0:
79,171,101130,1,2,0:0:0:0:
91,229,101212,1,2,0:0:0:0:
77,287,101294,1,2,0:0:0:0:
40,334,101376,6,0,L|-26:340,3,60.1249972476961,10|0|0|0,0:0|0:0|0:0|0:0,0:0:0:0:
152,308,101703,5,10,0:0:0:0:
211,313,101784,1,2,0:0:0:0:
271,319,101866,1,2,0:0:0:0:
331,325,101948,1,2,0:0:0:0:
391,330,102029,5,14,0:0:0:0:
354,177,102193,1,2,0:0:0:0:
391,330,102357,5,8,3:0:0:0:
462,355,102465,1,8,3:0:0:0:
512,298,102574,1,8,3:0:0:0:
479,230,102684,6,0,L|398:247,1,80.1666629969281,10|0,0:0|0:0,0:0:0:0:
275,161,102902,2,0,L|356:177,1,80.1666629969281,2|0,0:0|0:0,0:0:0:0:
479,91,103120,2,0,L|397:107,1,80.1666629969281,2|0,0:0|0:0,0:0:0:0:
237,83,103338,5,12,0:0:0:0:
204,113,103419,1,0,0:0:0:0:
190,155,103501,1,2,0:0:0:0:
198,199,103583,1,2,0:0:0:0:
227,233,103664,1,10,0:0:0:0:
255,267,103747,1,2,0:0:0:0:
263,311,103829,1,0,0:0:0:0:
249,353,103911,1,0,0:0:0:0:
217,383,103992,5,10,0:0:0:0:
275,161,104155,1,2,0:0:0:0:
345,328,104319,2,0,P|408:338|456:303,1,120.249994495392,10|2,0:0|0:0,0:0:0:0:
178,308,104646,6,0,B|120:323|120:323|60:313,1,120.249994495392,12|0,0:0|0:0,0:0:0:0:
15,205,104973,1,10,0:0:0:0:
15,205,105136,1,2,0:0:0:0:
0,384,105300,1,10,0:0:0:0:
0,384,105463,1,2,0:0:0:0:
111,241,105627,1,10,0:0:0:0:
208,367,105790,1,2,0:0:0:0:
208,367,105872,1,2,0:0:0:0:
208,367,105954,6,0,P|278:375|321:342,1,120.249994495392,14|0,0:0|0:0,0:0:0:0:
249,242,106281,2,0,L|252:312,3,60.1249972476961,10|0|0|0,0:0|0:0|0:0|0:0,0:0:0:0:
332,174,106608,2,0,L|329:244,3,60.1249972476961,10|0|0|0,0:0|0:0|0:0|0:0,0:0:0:0:
418,97,106935,5,10,0:0:0:0:
379,295,107098,1,10,0:0:0:0:
170,119,107262,6,0,P|244:137|288:112,1,120.249994495392,12|0,0:0|0:0,0:0:0:0:
106,62,107589,2,0,L|117:17,4,40.083331498464,10|0|0|0|0,0:0|0:0|0:0|0:0|0:0,0:0:0:0:
89,141,107916,5,14,0:0:0:0:
116,178,107997,1,0,0:0:0:0:
126,221,108079,1,0,0:0:0:0:
119,266,108161,1,0,0:0:0:0:
96,304,108242,2,0,P|75:323|40:331,3,60.1249972476961,10|0|0|0,0:0|0:0|0:0|0:0,0:0:0:0:
176,322,108569,5,14,0:0:0:0:
220,324,108650,1,0,0:0:0:0:
265,327,108732,1,0,0:0:0:0:
310,330,108814,1,0,0:0:0:0:
347,361,108896,5,14,0:0:0:0:
380,331,108977,1,0,0:0:0:0:
397,290,109059,1,8,0:0:0:0:
396,245,109141,1,0,0:0:0:0:
370,208,109223,6,0,P|354:171|368:116,2,80.1666629969281,14|0|0,0:0|0:0|0:0,0:0:0:0:
435,143,109550,5,14,0:0:0:0:
439,203,109631,1,8,0:0:0:0:
443,263,109713,1,8,0:0:0:0:
448,322,109795,1,8,0:0:0:0:
429,376,109876,5,12,0:0:0:0:
65,174,110204,5,8,0:0:0:0:
66,197,110285,1,8,0:0:0:0:
68,220,110367,1,8,0:0:0:0:
70,243,110449,1,8,0:0:0:0:
72,266,110530,1,12,0:0:0:0:
447,174,110858,5,2,0:0:0:0:
445,197,110939,1,2,0:0:0:0:
443,220,111021,1,2,0:0:0:0:
441,243,111103,1,2,0:0:0:0:
439,266,111184,1,6,0:0:0:0:
256,192,111267,12,0,113801,0:0:0:0:
