osu file format v14

[General]
AudioFilename: Anima.mp3
AudioLeadIn: 1000
PreviewTime: 69972
Countdown: 0
SampleSet: Soft
StackLeniency: 0.7
Mode: 0
LetterboxInBreaks: 0
WidescreenStoryboard: 0

[Editor]
Bookmarks: 1308,23555,34023,44492,54961,65430,70665,81134,91603,99454
DistanceSpacing: 1
BeatDivisor: 4
GridSize: 4
TimelineZoom: 1.5

[Metadata]
Title:ANiMA
TitleUnicode:ANiMA
Artist:xi
ArtistUnicode:xi
Creator:fattypikachu
Version:Easy
Source:Deemo
Tags:rayark inc. deemo ios android mobile collection 2 kuro fuyusaki yusuke ishiwata piano soul alice masked lady World Fragments ayanokorin
BeatmapID:768406
BeatmapSetID:348301

[Difficulty]
HPDrainRate:3
CircleSize:3
OverallDifficulty:2
ApproachRate:3
SliderMultiplier:0.8
SliderTickRate:1

[Events]
//Background and Video events
0,0,"deemo_waifu2x_.jpg",0,0
//Break Periods
//Storyboard Layer 0 (Background)
//Storyboard Layer 1 (Fail)
//Storyboard Layer 2 (Pass)
//Storyboard Layer 3 (Foreground)
//Storyboard Sound Samples

[TimingPoints]
0,326.975476839237,4,2,1,50,1,0
1307,-100,4,2,98,35,0,0
2615,-100,4,2,97,35,0,0
3923,-100,4,2,98,35,0,0
7847,-100,4,2,95,35,0,0
9155,-100,4,2,98,35,0,0
10463,-100,4,2,1,80,0,0
11771,-100,4,2,98,80,0,0
13079,-100,4,2,91,60,0,0
14387,-100,4,2,95,60,0,0
15040,-100,4,2,89,60,0,0
15694,-100,4,2,91,60,0,0
17983,-100,4,2,45,60,0,0
18310,-100,4,2,98,60,0,0
18637,-100,4,2,57,60,0,0
18964,-100,4,2,59,60,0,0
19618,-100,4,2,60,60,0,0
22234,-100,4,2,32,60,0,0
23542,-100,4,2,98,100,0,1
23869,-100,4,2,48,100,0,1
25831,-100,4,2,47,100,0,1
26158,-100,4,2,98,100,0,1
26648,-100,4,2,48,100,0,1
27792,-100,4,2,50,100,0,1
28119,-100,4,2,53,100,0,1
28446,-100,4,2,52,100,0,1
28773,-100,4,2,49,100,0,1
31062,-100,4,2,48,100,0,1
31389,-100,4,2,49,100,0,1
32861,-100,4,2,51,100,0,1
33351,-100,4,2,1,100,0,1
34005,-100,4,2,61,80,0,0
34332,-100,4,2,60,80,0,0
34659,-100,4,2,56,80,0,0
35313,-100,4,2,53,80,0,0
35640,-100,4,2,49,80,0,0
35967,-100,4,2,46,80,0,0
36621,-100,4,2,53,80,0,0
37275,-100,4,2,51,80,0,0
37602,-100,4,2,48,80,0,0
38910,-100,4,2,58,80,0,0
39237,-100,4,2,58,100,0,0
39564,-100,4,2,61,100,0,0
39891,-100,4,2,60,100,0,0
40871,-100,4,2,63,100,0,0
41198,-100,4,2,61,100,0,0
41852,-100,4,2,65,100,0,0
42506,-100,4,2,70,100,0,0
42833,-100,4,2,72,100,0,0
43160,-100,4,2,61,100,0,0
44141,-100,4,2,60,100,0,0
44795,-100,4,2,42,100,0,0
45122,-100,4,2,41,100,0,0
45449,-100,4,2,39,100,0,0
46103,-100,4,2,56,100,0,0
46430,-100,4,2,53,100,0,0
49046,-100,4,2,51,100,0,0
50027,-100,4,2,44,100,0,0
50354,-100,4,2,43,100,0,0
50681,-100,4,2,41,100,0,0
51335,-100,4,2,58,100,0,0
51662,-100,4,2,55,100,0,0
52316,-100,4,2,57,100,0,0
53623,-100,4,2,60,100,0,0
54277,-100,4,2,59,100,0,0
54931,-100,4,2,59,100,0,1
55912,-100,4,2,1,80,0,1
56239,-100,4,2,60,80,0,1
56566,-100,4,2,59,80,0,1
56893,-100,4,2,57,80,0,1
57220,-100,4,2,55,80,0,1
57547,-100,4,2,57,80,0,1
58855,-100,4,2,59,80,0,1
59182,-100,4,2,57,80,0,1
59509,-100,4,2,55,80,0,1
59836,-100,4,2,53,80,0,1
60163,-100,4,2,61,80,0,1
61471,-100,4,2,62,80,0,1
61798,-100,4,2,61,80,0,1
62125,-100,4,2,64,80,0,1
62452,-100,4,2,62,80,0,1
62779,-100,4,2,55,80,0,1
63106,-100,4,2,53,80,0,1
63433,-100,4,2,54,80,0,1
63760,-100,4,2,58,80,0,1
64087,-100,4,2,59,80,0,1
64414,-100,4,2,58,80,0,1
64741,-100,4,2,61,80,0,1
65395,-100,4,2,35,60,0,1
65722,-100,4,2,38,60,0,1
66049,-100,4,2,37,60,0,1
66376,-100,4,2,40,60,0,1
66702,-100,4,2,38,60,0,1
67029,-100,4,2,42,60,0,1
67356,-100,4,2,40,60,0,1
67683,-100,4,2,43,60,0,1
68010,-100,4,2,42,60,0,1
68337,-100,4,2,47,60,0,1
68664,-100,4,2,46,60,0,1
68991,-100,4,2,49,60,0,1
69318,-100,4,2,54,80,0,1
69645,-100,4,2,59,80,0,1
69972,-100,4,2,59,100,0,1
70299,-100,4,2,58,100,0,1
70626,-100,4,2,59,100,0,0
70790,-100,4,2,1,60,0,0
73242,-100,4,2,57,60,0,0
73569,-100,4,2,1,60,0,0
76512,-100,4,2,52,60,0,0
77166,-100,4,2,1,60,0,0
77820,-100,4,2,51,60,0,0
79128,-100,4,2,49,60,0,0
79455,-100,4,2,52,60,0,0
79782,-100,4,2,1,60,0,0
80433,-100,4,2,52,60,0,0
80762,-100,4,2,51,60,0,0
81089,-100,4,2,54,80,0,0
81416,-100,4,2,1,80,0,0
83705,-100,4,2,52,80,0,0
84032,-100,4,2,1,80,0,0
86975,-100,4,2,59,80,0,0
87629,-100,4,2,1,80,0,0
88283,-100,4,2,58,80,0,0
89591,-100,4,2,56,80,0,0
89918,-100,4,2,59,80,0,0
91226,-100,4,2,58,80,0,0
91553,-100,4,2,56,100,0,1
93514,-100,4,2,59,100,0,1
93841,-100,4,2,58,100,0,1
94168,-100,4,2,56,100,0,1
96130,-100,4,2,64,100,0,1
96457,-100,4,2,62,100,0,1
96784,-100,4,2,39,80,0,0
99400,-100,4,2,1,80,0,1
99727,-100,4,2,59,80,0,1
100054,-100,4,2,58,80,0,1
100381,-100,4,2,1,80,0,1
101035,-100,4,2,58,80,0,1
101362,-100,4,2,56,80,0,1
102343,-100,4,2,49,80,0,1
102670,-100,4,2,56,80,0,1
103324,-100,4,2,52,80,0,1
103651,-100,4,2,1,80,0,1
103978,-100,4,2,51,80,0,1
104632,-100,4,2,48,80,0,1
106267,-100,4,2,52,80,0,1
106594,-100,4,2,57,80,0,1
106920,-100,4,2,59,80,0,1
107247,-100,4,2,60,90,0,1
108882,-100,4,2,62,90,0,1
109209,-100,4,2,69,90,0,1
109536,-100,4,2,68,90,0,1
109863,-100,4,2,69,100,0,1
110517,-100,4,2,72,100,0,0
111171,-100,4,2,33,50,0,0
111825,-100,4,2,1,43,0,0
112479,-100,4,2,1,35,0,0
113133,-100,4,2,1,27,0,0
113787,-100,4,2,1,20,0,0

[Colours]
Combo1 : 105,6,215
Combo2 : 63,72,248
Combo3 : 253,77,156
Combo4 : 254,159,44
Combo5 : 134,135,118

[HitObjects]
256,64,1307,5,2,0:0:0:0:
96,340,2615,1,2,0:0:0:0:
416,340,3923,1,2,0:0:0:0:
176,20,5558,2,0,P|136:28|88:16,2,80
256,36,6539,5,2,0:0:0:0:
360,340,7847,6,0,P|360:268|320:192,1,160,2|0,0:0|0:0,0:0:0:0:
161,215,9155,2,0,P|122:145|120:66,1,160,2|0,0:0|0:0,0:0:0:0:
272,104,10463,6,0,P|335:210|252:264,1,240,2|0,0:0|0:0,0:0:0:0:
260,184,11771,6,0,P|196:136|208:52,1,160,14|0,0:0|0:0,0:0:0:0:
360,55,13079,2,0,P|424:103|412:187,1,160,2|0,0:0|0:0,0:0:0:0:
324,304,14386,5,14,0:0:0:0:
484,284,15040,1,2,0:0:0:0:
468,124,15694,1,14,0:0:0:0:
328,44,16348,1,6,0:0:0:0:
180,100,17002,6,0,P|116:148|120:252,1,160,14|0,0:0|0:0,0:0:0:0:
164,280,17983,1,2,0:0:0:0:
236,314,18310,2,0,P|280:318|316:290,1,80,14|2,0:0|0:0,0:0:0:0:
358,236,18964,1,2,0:0:0:0:
342,158,19291,1,2,0:0:0:0:
276,112,19618,5,6,0:0:0:0:
256,192,19945,12,6,22234,0:0:0:0:
442,150,23542,6,0,L|378:262,1,120,14|2,0:0|0:0,0:0:0:0:
293,334,24523,2,0,P|224:324|184:292,1,120,10|2,0:0|0:0,0:0:0:0:
276,216,25504,1,10,0:0:0:0:
248,140,25831,1,2,0:0:0:0:
180,96,26158,6,4,P|112:92|60:116,2,120,6|2|10,0:0|0:0|0:0,0:0:0:0:
332,144,27792,5,2,0:0:0:0:
408,164,28119,2,0,P|392:200|348:224,1,80,8|6,0:0|0:0,0:0:0:0:
280,244,28773,6,0,P|240:276|228:356,1,120,14|2,0:0|0:0,0:0:0:0:
108,308,29754,2,0,P|96:250|52:211,1,120,10|2,0:0|0:0,0:0:0:0:
4,104,30735,1,10,0:0:0:0:
52,40,31062,1,2,0:0:0:0:
128,60,31389,6,4,L|256:88,1,120,14|2,0:0|0:0,0:0:0:0:
356,36,32370,2,4,L|480:64,1,120,10|2,0:0|0:0,0:0:0:0:
512,176,33351,2,0,P|517:243|503:269,1,80,10|8,0:0|0:0,0:0:0:0:
468,320,34005,5,12,0:0:0:0:
392,300,34332,1,2,0:0:0:0:
328,248,34659,2,0,P|288:236|248:260,1,80,10|0,0:0|0:0,0:0:0:0:
200,312,35313,1,10,0:0:0:0:
124,340,35640,2,8,P|76:340|48:308,1,80,10|10,0:0|0:0,0:0:0:0:
28,244,36294,5,0,0:0:0:0:
44,164,36621,2,0,P|68:128|116:128,1,80,14|0,0:0|0:0,0:0:0:0:
184,128,37275,1,10,0:0:0:0:
264,124,37602,1,10,0:0:0:0:
332,164,37929,2,0,P|349:273|229:293,1,240,14|2,0:0|0:0,0:0:0:0:
280,228,39237,6,0,L|212:172,2,80,6|6|6,0:0|0:0|0:0,0:0:0:0:
380,104,40544,2,0,L|312:48,2,80,6|6|6,0:0|0:0|0:0,0:0:0:0:
476,232,41852,6,0,P|472:276|432:304,1,80,14|0,0:0|0:0,0:0:0:0:
368,308,42506,1,10,0:0:0:0:
288,292,42833,1,2,0:0:0:0:
212,272,43160,2,0,P|176:252|160:204,1,80,10|0,0:0|0:0,0:0:0:0:
156,136,43814,2,0,P|184:92|216:76,1,80,10|10,0:0|0:0,0:0:0:0:
288,64,44468,5,12,0:0:0:0:
368,76,44795,2,0,L|464:96,2,80,10|10|10,0:0|0:0|0:0,0:0:0:0:
288,64,45776,2,0,P|248:56|208:64,1,80,10|2,0:0|0:0,0:0:0:0:
148,116,46430,1,10,0:0:0:0:
140,196,46757,1,0,0:0:0:0:
184,264,47084,6,0,P|224:292|264:292,1,80,14|0,0:0|0:0,0:0:0:0:
332,280,47738,2,0,P|376:256|388:224,1,80,10|0,0:0|0:0,0:0:0:0:
388,148,48392,2,0,P|376:96|344:72,1,80,10|0,0:0|0:0,0:0:0:0:
296,28,49046,1,10,0:0:0:0:
216,40,49373,1,10,0:0:0:0:
168,104,49700,5,14,0:0:0:0:
228,160,50027,2,0,P|272:160|304:136,2,80,10|10|10,0:0|0:0|0:0,0:0:0:0:
152,184,51008,2,0,P|108:192|82:221,1,80,10|10,0:0|0:0,0:0:0:0:
72,296,51662,1,2,0:0:0:0:
128,352,51989,1,2,0:0:0:0:
208,352,52316,6,0,P|248:336|272:296,1,80,14|0,0:0|0:0,0:0:0:0:
284,228,52970,2,0,P|284:188|260:152,1,80,10|0,0:0|0:0,0:0:0:0:
204,100,53623,2,0,P|168:88|112:116,1,80,14|0,0:0|0:0,0:0:0:0:
80,164,54277,2,0,L|28:156,2,40,14|8|14,0:0|0:0|0:0,0:0:0:0:
132,224,54931,6,0,P|184:314|324:314,1,240,14|0,0:0|0:0,0:0:0:0:
384,292,56239,1,14,0:0:0:0:
444,240,56566,1,6,0:0:0:0:
412,168,56893,1,14,0:0:0:0:
464,104,57220,1,6,0:0:0:0:
436,28,57547,6,0,B|301:-25|226:93,1,240,14|0,0:0|0:0,0:0:0:0:
188,160,58855,1,14,0:0:0:0:
184,240,59182,1,6,0:0:0:0:
260,260,59509,1,14,0:0:0:0:
300,328,59836,1,6,0:0:0:0:
380,316,60163,6,2,P|468:244|424:128,1,240,2|0,0:0|0:0,0:0:0:0:
372,88,61471,1,14,0:0:0:0:
300,120,61798,1,6,0:0:0:0:
224,92,62125,1,14,0:0:0:0:
152,128,62452,1,14,0:0:0:0:
72,116,62779,6,0,P|76:160|108:196,1,80,14|2,0:0|0:0,0:0:0:0:
172,228,63433,1,10,0:0:0:0:
224,288,63760,1,10,0:0:0:0:
304,288,64087,2,0,P|352:268|372:236,1,80,10|2,0:0|0:0,0:0:0:0:
388,168,64741,2,0,P|376:128|388:88,1,80,10|2,2:0|2:0,2:0:0:0:
420,20,65395,5,14,0:0:0:0:
340,28,65722,2,0,P|298:48|277:88,2,80,2|2|2,0:0|0:0|0:0,0:0:0:0:
388,92,66702,1,2,0:0:0:0:
412,168,67030,2,0,P|433:201|472:220,2,80,2|2|2,0:0|0:0|0:0,0:0:0:0:
332,152,68010,6,0,P|288:168|265:205,2,80,14|2|6,0:0|0:0|0:0,0:0:0:0:
412,168,68991,1,2,0:0:0:0:
464,232,69318,2,0,B|476:276|476:276|460:324,1,80,14|2,0:0|0:0,0:0:0:0:
384,316,69972,2,0,B|372:272|372:272|388:224,1,80,14|2,0:0|0:0,0:0:0:0:
412,168,70626,5,14,0:0:0:0:
364,104,70953,2,0,P|316:88|272:96,2,80
412,168,71934,2,0,P|419:213|412:250,1,80,2|0,0:0|0:0,0:0:0:0:
356,304,72588,2,0,P|311:311|274:304,1,80,2|0,0:0|0:0,0:0:0:0:
216,256,73242,1,6,0:0:0:0:
168,192,73569,6,0,P|91:176|23:216,1,160,2|0,0:0|0:0,0:0:0:0:
40,296,74550,2,0,P|84:312|128:304,1,80
192,280,75204,2,0,P|231:277|268:292,1,80
340,328,75858,6,0,P|424:328|452:256,1,160,2|6,0:0|0:0,0:0:0:0:
368,132,77166,2,0,P|291:135|255:203,1,160,2|6,0:0|0:0,0:0:0:0:
160,332,78474,6,0,P|84:332|27:272,1,160,0|6,0:0|0:0,0:0:0:0:
28,196,79455,1,2,0:0:0:0:
92,148,79782,2,0,P|167:147|224:207,1,160,0|6,0:0|0:0,0:0:0:0:
232,284,80762,1,2,0:0:0:0:
284,344,81089,5,14,0:0:0:0:
336,280,81416,2,0,P|365:253|404:251,1,80,2|0,0:0|0:0,0:0:0:0:
480,280,82070,1,0,0:0:0:0:
472,196,82397,2,0,P|384:168|304:192,2,160,2|0|6,0:0|0:0|0:0,0:0:0:0:
480,280,84032,6,0,P|435:275|403:247,1,80
364,188,84686,1,0,0:0:0:0:
372,108,85013,2,0,P|337:38|248:26,1,160
188,52,85994,1,8,0:0:0:0:
144,120,86321,6,0,P|120:196|143:277,1,160,8|6,0:0|0:0,0:0:0:0:
284,344,87629,2,0,P|308:264|283:189,1,160,8|6,0:0|0:0,0:0:0:0:
136,136,88937,6,0,P|76:156|128:216,1,160,8|6,0:0|0:0,0:0:0:0:
196,212,89918,1,6,0:0:0:0:
272,192,90245,2,0,P|320:184|356:204,1,80,8|0,0:0|0:0,0:0:0:0:
404,256,90899,1,10,0:0:0:0:
424,332,91226,1,10,0:0:0:0:
348,312,91553,6,0,P|312:298|260:313,1,80,6|0,0:0|0:0,0:0:0:0:
204,348,92207,2,0,P|164:352|128:336,1,80,6|0,0:0|0:0,0:0:0:0:
76,276,92861,2,0,P|67:238|85:188,1,80,6|0,0:0|0:0,0:0:0:0:
116,128,93514,1,10,0:0:0:0:
192,108,93841,1,2,0:0:0:0:
240,172,94168,6,0,P|276:188|327:179,1,80,14|0,0:0|0:0,0:0:0:0:
380,136,94822,2,0,P|417:127|467:143,1,80,14|0,0:0|0:0,0:0:0:0:
504,204,95476,2,0,P|513:241|497:291,1,80,14|0,0:0|0:0,0:0:0:0:
444,336,96130,1,14,0:0:0:0:
368,312,96457,1,10,0:0:0:0:
300,352,96784,6,0,B|268:376|228:372|212:344|204:320|211:288|224:264|252:256|280:232|256:184,1,240
244,124,98092,2,0,B|241:100|218:78|218:78|260:80|300:56|360:64|404:92,1,240
436,160,99400,5,12,0:0:0:0:
436,240,99727,2,0,P|420:285|378:306,2,80,2|10|2,0:0|0:0|0:0,0:0:0:0:
436,160,100708,1,8,0:0:0:0:
408,84,101035,2,0,P|404:39|437:0,2,80,2|10|0,0:0|0:0|0:0,0:0:0:0:
436,160,102016,6,0,P|420:200|372:220,1,80,8|2,0:0|0:0,0:0:0:0:
316,188,102670,2,0,B|240:164|240:164|152:192,1,160,10|14,0:0|0:0,0:0:0:0:
88,220,103651,1,2,0:0:0:0:
60,296,103978,2,0,P|72:356|160:364,1,160,14|6,0:0|0:0,0:0:0:0:
216,308,104959,5,0,0:0:0:0:
276,256,105286,2,0,P|340:248|380:272,1,80,10|0,0:0|0:0,0:0:0:0:
432,236,105940,2,0,P|444:183|417:140,1,80,10|2,0:0|0:0,0:0:0:0:
376,104,106594,2,0,P|312:104|280:136,1,80,10|2,0:0|0:0,0:0:0:0:
244,168,107247,5,14,0:0:0:0:
104,92,107901,1,14,0:0:0:0:
264,88,108555,2,0,P|312:76|340:44,2,80,10|2|2,0:0|0:0|0:0,0:0:0:0:
188,60,109536,1,2,0:0:0:0:
108,44,109863,6,0,P|60:80|100:164,1,160,2|0,0:0|0:0,0:0:0:0:
252,144,111171,1,6,0:0:0:0:
256,192,111335,12,0,113787,0:0:0:0:
