osu file format v14

[General]
AudioFilename: audio.mp3
AudioLeadIn: 0
PreviewTime: 177237
Countdown: 1
SampleSet: Soft
StackLeniency: 0.7
Mode: 0
LetterboxInBreaks: 0
WidescreenStoryboard: 0

[Editor]
DistanceSpacing: 1.7
BeatDivisor: 4
GridSize: 4
TimelineZoom: 3.5

[Metadata]
Title:ANiMA
TitleUnicode:ANiMA
Artist:xi
ArtistUnicode:xi
Creator:_kotachi_
Version:Words of the Ruler
Source:Deemo
Tags:
BeatmapID:1578256
BeatmapSetID:749276

[Difficulty]
HPDrainRate:4
CircleSize:3.8
OverallDifficulty:8.2
ApproachRate:9.5
SliderMultiplier:1.7
SliderTickRate:1

[Events]
//Background and Video events
0,0,"Animate.png",0,0
//Break Periods
//Storyboard Layer 0 (Background)
//Storyboard Layer 1 (Fail)
//Storyboard Layer 2 (Pass)
//Storyboard Layer 3 (Foreground)
//Storyboard Sound Samples

[TimingPoints]
671,326.975476839237,4,2,11,30,1,0
671,-400,4,2,11,30,0,0
3940,-400,4,2,99,30,0,0
20289,-400,4,2,0,10,0,0
21270,-400,4,2,20,30,0,0
21352,-400,4,2,21,30,0,0
21433,-400,4,2,23,30,0,0
21515,-400,4,2,24,30,0,0
21597,-133.333333333333,4,2,11,50,0,0
22578,-133.333333333333,4,2,1,5,0,0
22905,-133.333333333333,4,2,12,50,0,0
23886,-133.333333333333,4,2,1,5,0,0
24213,-133.333333333333,4,2,13,50,0,0
24867,-133.333333333333,4,2,25,50,0,0
25194,-133.333333333333,4,2,13,50,0,0
25521,-133.333333333333,4,2,13,5,0,0
25848,-100,4,2,14,50,0,0
25929,-100,4,2,1,50,0,0
26175,-100,4,2,15,50,0,0
26256,-100,4,2,1,50,0,0
26502,-100,4,2,16,50,0,0
26583,-100,4,2,1,50,0,0
26829,-100,4,2,11,50,0,0
26910,-100,4,2,1,50,0,0
28136,-100,4,2,18,50,0,0
28218,-100,4,2,1,50,0,0
28790,-100,4,2,19,50,0,0
28872,-100,4,2,1,50,0,0
29444,-100,4,2,13,50,0,0
29526,-100,4,2,1,50,0,0
30098,-100,4,2,25,50,0,0
30180,-100,4,2,1,50,0,0
31079,-100,4,2,14,50,0,0
31161,-100,4,2,1,50,0,0
31406,-100,4,2,15,50,0,0
31488,-100,4,2,1,50,0,0
31733,-100,4,2,16,50,0,0
31815,-100,4,2,1,50,0,0
40071,-100,4,2,1,40,0,0
40562,-100,4,2,1,50,0,0
40888,-100,4,2,1,60,0,0
41869,-83.3333333333333,4,2,1,60,0,0
43831,-90.9090909090909,4,2,1,60,0,0
59526,-66.6666666666667,4,2,1,60,0,0
62142,-83.3333333333333,4,2,1,60,0,0
64758,-83.3333333333333,4,2,1,70,0,1
72605,-66.6666666666667,4,2,1,70,0,1
75221,-83.3333333333333,4,2,1,70,0,1
83068,-66.6666666666667,4,2,1,70,0,1
85357,-66.6666666666667,4,2,99,70,0,0
85684,-66.6666666666667,4,2,1,70,0,1
89608,-55.5555555555556,4,2,1,70,0,0
90916,-100,4,2,1,70,0,0
91161,-100,4,2,99,50,0,0
96556,-100,4,2,99,20,0,0
96638,-100,4,2,99,30,0,0
96720,-100,4,2,99,40,0,0
96801,-100,4,2,99,50,0,0
96883,-100,4,2,99,30,0,0
96965,-100,4,2,99,40,0,0
97047,-100,4,2,99,50,0,0
97210,-100,4,2,99,40,0,0
97292,-100,4,2,99,30,0,0
97373,-100,4,2,99,20,0,0
97455,-100,4,2,99,50,0,0
97864,-100,4,2,99,20,0,0
97946,-100,4,2,99,30,0,0
98027,-100,4,2,99,40,0,0
98109,-100,4,2,99,50,0,0
98191,-100,4,2,99,30,0,0
98273,-100,4,2,99,40,0,0
98354,-100,4,2,99,50,0,0
98518,-100,4,2,99,40,0,0
98600,-100,4,2,99,30,0,0
98681,-100,4,2,99,20,0,0
98763,-100,4,2,99,50,0,0
100071,-100,4,2,99,60,0,0
100725,-100,4,2,99,70,0,0
101379,-100,4,2,1,70,0,0
101624,-100,4,2,99,50,0,0
106611,-100,4,2,1,60,0,0
111188,-66.6666666666667,4,2,1,60,0,0
111842,-66.6666666666667,4,2,1,70,0,0
116093,-66.6666666666667,4,2,1,30,0,0
116175,-66.6666666666667,4,2,1,40,0,0
116256,-66.6666666666667,4,2,1,50,0,0
116338,-66.6666666666667,4,2,1,60,0,0
116420,-66.6666666666667,4,2,1,70,0,0
117074,-133.333333333333,4,2,1,70,0,0
117401,-133.333333333333,4,2,99,70,0,0
118382,-133.333333333333,4,2,99,60,0,0
119690,-133.333333333333,4,2,99,50,0,0
120997,-133.333333333333,4,2,99,40,0,0
121324,-142.857142857143,4,2,99,35,0,0
121651,-153.846153846154,4,2,99,30,0,0
121978,-166.666666666667,4,2,99,25,0,0
122305,-166.666666666667,4,2,1,50,0,0
124758,-166.666666666667,4,2,1,5,0,0
124921,-133.333333333333,4,2,99,40,0,0
125902,-133.333333333333,4,2,99,5,0,0
126229,-133.333333333333,4,2,99,40,0,0
127210,-133.333333333333,4,2,99,5,0,0
127537,-133.333333333333,4,2,99,40,0,0
128845,-133.333333333333,4,2,99,5,0,0
129172,-133.333333333333,4,2,99,40,0,0
131134,-133.333333333333,4,2,99,5,0,0
131461,-133.333333333333,4,2,99,40,0,0
131951,-133.333333333333,4,2,99,5,0,0
132115,-133.333333333333,4,2,99,40,0,0
132605,-133.333333333333,4,2,99,5,0,0
132769,-133.333333333333,4,2,99,40,0,0
134076,-133.333333333333,4,2,99,5,0,0
134403,-133.333333333333,4,2,99,40,0,0
138491,-133.333333333333,4,2,99,5,0,0
138654,-133.333333333333,4,2,99,40,0,0
139145,-133.333333333333,4,2,99,5,0,0
139308,-133.333333333333,4,2,99,40,0,0
139799,-133.333333333333,4,2,99,5,0,0
139962,-133.333333333333,4,2,99,40,0,0
140453,-133.333333333333,4,2,99,5,0,0
140616,-133.333333333333,4,2,99,40,0,0
141597,-133.333333333333,4,2,99,5,0,0
141924,-133.333333333333,4,2,99,40,0,0
142578,-133.333333333333,4,2,99,5,0,0
142741,-133.333333333333,4,2,99,40,0,0
144540,-133.333333333333,4,2,0,10,0,0
145521,-133.333333333333,4,2,0,20,0,0
145848,-100,4,2,99,60,0,0
146829,-100,4,2,99,5,0,0
147156,-100,4,2,99,60,0,0
148136,-100,4,2,99,5,0,0
148463,-100,4,2,99,60,0,0
149771,-100,4,2,99,5,0,0
150098,-100,4,2,99,60,0,0
156311,-100,4,2,1,60,0,0
164322,-100,4,2,1,40,0,0
164812,-100,4,2,1,50,0,0
165139,-100,4,2,1,60,0,0
166120,-83.3333333333333,4,2,1,60,0,0
166774,-90.9090909090909,4,2,1,60,0,0
172006,-66.6666666666667,4,2,1,60,0,0
174621,-83.3333333333333,4,2,1,60,0,0
177237,-83.3333333333333,4,2,1,70,0,1
185085,-66.6666666666667,4,2,1,70,0,1
187700,-83.3333333333333,4,2,1,70,0,1
195548,-66.6666666666667,4,2,1,70,0,1
197837,-83.3333333333333,4,2,99,70,0,0
198164,-66.6666666666667,4,2,1,70,0,1
202087,-55.5555555555556,4,2,1,70,0,1
203395,-100,4,2,1,70,0,0
203641,-100,4,2,99,50,0,0
209036,-100,4,2,99,20,0,0
209117,-100,4,2,99,30,0,0
209199,-100,4,2,99,40,0,0
209281,-100,4,2,99,50,0,0
209363,-100,4,2,99,30,0,0
209444,-100,4,2,99,40,0,0
209526,-100,4,2,99,50,0,0
209690,-100,4,2,99,40,0,0
209771,-100,4,2,99,30,0,0
209853,-100,4,2,99,20,0,0
209935,-100,4,2,99,50,0,0
210344,-100,4,2,99,20,0,0
210425,-100,4,2,99,30,0,0
210507,-100,4,2,99,40,0,0
210589,-100,4,2,99,50,0,0
210670,-100,4,2,99,30,0,0
210752,-100,4,2,99,40,0,0
210834,-100,4,2,99,50,0,0
210997,-100,4,2,99,40,0,0
211079,-100,4,2,99,30,0,0
211161,-100,4,2,99,20,0,0
211243,-100,4,2,99,50,0,0
212551,-100,4,2,99,60,0,0
213205,-100,4,2,99,70,0,0
213859,-100,4,2,1,70,0,0
214185,-100,4,2,99,50,0,0
219090,-100,4,2,1,60,0,0
223995,-66.6666666666667,4,2,1,60,0,0
224322,-66.6666666666667,4,2,1,70,0,0
228572,-66.6666666666667,4,2,1,30,0,0
228654,-66.6666666666667,4,2,1,40,0,0
228736,-66.6666666666667,4,2,1,50,0,0
228818,-66.6666666666667,4,2,1,60,0,0
228899,-66.6666666666667,4,2,1,70,0,0
234131,-55.5555555555556,4,2,1,70,0,0
234294,-55.5555555555556,4,2,1,5,0,0
234376,-52.6315789473684,4,2,1,70,0,0
234540,-52.6315789473684,4,2,1,5,0,0
234621,-50,4,2,1,70,0,0
234703,-50,4,2,1,5,0,0
234785,-200,4,2,1,50,0,0
235112,-200,4,2,1,70,0,0
235194,-200,4,2,99,50,0,0
236093,-100,4,2,99,50,0,0
236747,-55.5555555555556,4,2,99,50,0,0
237401,-133.333333333333,4,2,99,50,0,0
238709,-66.6666666666667,4,2,1,75,0,1
245902,-55.5555555555556,4,2,1,75,0,1
246556,-66.6666666666667,4,2,1,75,0,1
256365,-55.5555555555556,4,2,1,75,0,1
257019,-66.6666666666667,4,2,1,75,0,1
259308,-200,4,2,1,75,0,1
259635,-66.6666666666667,4,2,1,75,0,1
261924,-50,4,2,1,75,0,1
262251,-100,4,2,1,75,0,0
264867,-100,4,2,1,5,0,0

[Colours]
Combo1 : 128,64,0
Combo2 : 255,128,0
Combo3 : 198,0,99
Combo4 : 242,24,57
Combo5 : 255,192,0

[HitObjects]
145,99,671,5,0,0:0:0:0:
145,99,3940,2,0,L|236:93,2,85,2|2|2,0:0|0:0|0:0,0:0:0:0:
331,88,5902,5,4,0:0:0:0:
246,254,6556,1,0,0:0:0:0:
145,99,7210,2,0,P|160:136|161:185,1,85,2|0,0:0|0:0,0:0:0:0:
315,73,8518,6,0,B|412:98|391:32|487:61,1,170,4|2,0:0|0:0,0:0:0:0:
394,226,10480,1,0,0:0:0:0:
303,200,10807,1,0,0:0:0:0:
212,175,11134,6,0,L|127:187,1,85,4|0,0:0|0:0,0:0:0:0:
261,91,12360,1,0,0:0:0:0:
261,91,12442,2,0,L|346:103,1,85,2|0,0:0|0:0,0:0:0:0:
409,209,13532,6,0,L|388:216,1,14.1666666666667
366,225,13750,2,0,P|324:237|282:235,1,85,4|0,0:0|0:0,0:0:0:0:
105,178,15057,2,0,P|147:166|189:168,1,85,2|0,0:0|0:0,0:0:0:0:
164,353,16365,6,0,L|160:268,1,85,4|0,0:0|0:0,0:0:0:0:
231,95,17673,2,0,P|278:84|324:89,1,85,4|0,0:0|0:0,0:0:0:0:
377,145,18545,1,0,0:0:0:0:
398,227,18763,1,0,0:0:0:0:
390,311,18981,6,0,L|318:304,1,63.75,4|0,0:0|0:0,0:0:0:0:
198,206,19635,2,0,L|270:199,1,63.75,2|0,0:0|0:0,0:0:0:0:
408,86,20289,5,0,1:0:0:0:
390,88,20370,1,0,1:0:0:0:
373,90,20452,1,0,1:0:0:0:
356,92,20534,1,0,1:0:0:0:
339,94,20615,1,0,1:0:0:0:
322,96,20697,1,0,1:0:0:0:
305,98,20779,1,0,1:0:0:0:
288,100,20861,1,0,1:0:0:0:
270,102,20942,5,0,1:0:0:0:
252,100,21025,1,0,1:0:0:0:
235,98,21107,1,0,1:0:0:0:
218,96,21189,1,0,1:0:0:0:
202,94,21270,5,0,0:0:0:0:
218,135,21351,1,0,0:0:0:0:
219,180,21433,1,0,0:0:0:0:
207,223,21515,1,0,0:0:0:0:
182,260,21597,6,0,B|159:223|118:201|76:212|40:235|40:235|76:213|107:173|92:121|54:104|54:104|32:134|46:164,1,382.500014591218,4|0,0:0|0:0,0:0:0:0:
99,316,22905,6,0,B|132:340|132:340|216:340|216:340|245:323|245:323|274:340|274:340|312:340|312:340|340:312|340:312|340:272|340:272|312:244|312:244|268:244,1,382.500014591218
165,69,24213,6,0,B|137:121|170:176|232:207|286:164|306:116|280:70|280:70|326:42|388:37|437:90|437:90|419:120|368:103,1,510.000019454957
409,228,25848,6,0,L|418:277,3,42.5,0|0|2|2,0:0|0:0|0:0|0:0,0:0:0:0:
321,240,26175,6,0,L|330:289,3,42.5,0|0|2|2,0:0|0:0|0:0|0:0,0:0:0:0:
232,254,26502,6,0,L|241:303,3,42.5,0|0|2|2,0:0|0:0|0:0|0:0,0:0:0:0:
152,189,26829,5,0,0:0:0:0:
110,183,26910,1,0,0:0:0:0:
71,198,26992,1,2,0:0:0:0:
43,230,27074,1,2,0:0:0:0:
35,271,27155,1,0,0:0:0:0:
47,312,27237,1,0,0:0:0:0:
77,341,27319,1,2,0:0:0:0:
117,353,27401,1,2,0:0:0:0:
158,344,27482,6,0,L|149:300,3,42.5,0|0|2|2,0:0|0:0|0:0|0:0,0:0:0:0:
239,295,27809,2,0,L|230:251,3,42.5,0|0|2|2,0:0|0:0|0:0|0:0,0:0:0:0:
325,266,28136,5,0,0:0:0:0:
316,224,28217,1,0,0:0:0:0:
308,182,28299,1,2,0:0:0:0:
299,141,28381,1,2,0:0:0:0:
291,99,28463,2,0,L|281:49,3,42.5,0|0|2|2,0:0|0:0|0:0|0:0,0:0:0:0:
200,163,28790,5,0,0:0:0:0:
158,165,28871,1,0,0:0:0:0:
119,150,28953,1,2,0:0:0:0:
89,121,29035,1,2,0:0:0:0:
74,81,29117,2,0,P|72:55|75:30,3,42.5,0|0|2|2,0:0|0:0|0:0|0:0,0:0:0:0:
179,58,29444,5,0,0:0:0:0:
219,61,29526,1,0,0:0:0:0:
257,81,29608,1,2,0:0:0:0:
283,114,29690,1,2,0:0:0:0:
295,154,29771,1,0,0:0:0:0:
289,194,29853,1,0,0:0:0:0:
271,233,29935,1,2,0:0:0:0:
264,274,30017,1,2,0:0:0:0:
276,314,30098,5,0,0:0:0:0:
303,346,30180,1,0,0:0:0:0:
340,367,30262,1,2,0:0:0:0:
382,371,30344,1,2,0:0:0:0:
423,359,30425,1,0,0:0:0:0:
455,333,30507,1,0,0:0:0:0:
476,295,30589,1,2,0:0:0:0:
480,253,30670,1,2,0:0:0:0:
467,212,30752,6,0,L|468:167,1,42.5,0|0,1:0|0:0,0:0:0:0:
383,77,30916,2,0,L|384:122,1,42.5,2|2,0:0|0:0,0:0:0:0:
355,279,31079,5,0,0:0:0:0:
355,279,31161,1,0,0:0:0:0:
355,279,31243,2,0,L|356:234,1,42.5,2|2,0:0|0:0,0:0:0:0:
297,90,31406,5,0,0:0:0:0:
297,90,31488,1,0,0:0:0:0:
297,90,31570,2,0,L|298:135,1,42.5,2|2,0:0|0:0,0:0:0:0:
256,296,31733,5,0,0:0:0:0:
256,296,31815,1,0,0:0:0:0:
256,296,31897,2,0,L|256:253,1,42.5,2|2,0:0|0:0,0:0:0:0:
184,108,32060,6,0,P|120:104|66:137,1,127.5,4|0,1:0|0:0,0:0:0:0:
32,220,32387,2,0,L|44:268,1,42.5
128,332,32551,2,0,L|138:290,1,42.5,2|2,0:0|0:0,0:0:0:0:
208,208,32714,6,0,L|220:256,1,42.5
304,320,32878,2,0,L|314:278,1,42.5,2|2,0:0|0:0,0:0:0:0:
424,240,33041,1,0,0:0:0:0:
400,204,33122,1,0,0:0:0:0:
366,179,33204,1,2,0:0:0:0:
326,166,33286,1,2,0:0:0:0:
284,168,33368,6,0,L|280:120,1,42.5
364,40,33532,1,2,0:0:0:0:
364,40,33613,1,2,0:0:0:0:
364,40,33695,2,0,L|360:82,1,42.5
200,172,33859,2,0,L|196:129,1,42.5,2|2,0:0|0:0,0:0:0:0:
314,278,34022,5,0,0:0:0:0:
275,294,34103,1,0,0:0:0:0:
233,295,34185,1,2,0:0:0:0:
193,279,34267,1,2,0:0:0:0:
163,249,34349,1,0,0:0:0:0:
133,220,34430,1,0,0:0:0:0:
94,204,34512,1,2,0:0:0:0:
52,204,34594,1,2,0:0:0:0:
13,221,34676,6,0,L|17:136,1,85,4|2,1:0|0:0,0:0:0:0:
121,12,35003,2,0,L|164:9,1,42.5
200,172,35166,2,0,L|242:175,1,42.5,2|2,0:0|0:0,0:0:0:0:
423,86,35330,6,0,L|418:170,1,85,0|2,0:0|0:0,0:0:0:0:
395,204,35575,1,2,0:0:0:0:
355,218,35656,1,0,0:0:0:0:
313,216,35738,1,0,0:0:0:0:
274,198,35820,1,2,0:0:0:0:
246,167,35901,1,2,0:0:0:0:
232,128,35984,6,0,L|236:40,1,85,4|2,1:0|0:0,0:0:0:0:
216,252,36311,1,0,0:0:0:0:
175,244,36392,1,0,0:0:0:0:
133,237,36474,1,2,0:0:0:0:
91,230,36556,1,2,0:0:0:0:
49,223,36638,6,0,L|45:135,1,85,4|2,1:2|0:0,0:0:0:0:
81,117,36883,1,2,0:0:0:0:
123,115,36965,1,0,0:0:0:0:
162,132,37047,1,0,0:0:0:0:
200,149,37129,1,2,0:0:0:0:
242,147,37211,1,2,0:0:0:0:
279,126,37292,6,0,L|275:38,1,85,4|2,1:0|0:0,0:0:0:0:
440,104,37619,1,0,0:0:0:0:
436,124,37700,1,0,0:0:0:0:
435,146,37782,1,2,0:0:0:0:
438,167,37864,1,2,0:0:0:0:
444,188,37946,5,0,0:0:0:0:
455,228,38027,1,0,0:0:0:0:
449,270,38109,1,2,0:0:0:0:
426,305,38191,1,2,0:0:0:0:
391,328,38272,5,0,0:0:0:0:
349,334,38354,1,0,0:0:0:0:
309,322,38436,1,0,1:0:0:0:
277,294,38518,1,2,0:0:0:0:
245,267,38600,5,4,1:2:0:0:
205,255,38682,1,0,0:0:0:0:
163,261,38763,1,2,0:0:0:0:
127,283,38845,1,0,0:0:0:0:
105,319,38927,2,0,L|96:268,1,42.5
160,136,39090,2,0,L|152:177,1,42.5,2|2,0:0|0:0,0:0:0:0:
56,40,39254,6,0,P|80:36|100:36,1,42.5
248,120,39417,2,0,P|269:119|290:115,1,42.5,2|2,0:0|0:0,0:0:0:0:
412,16,39581,1,0,0:0:0:0:
472,32,39662,1,0,0:0:0:0:
510,82,39744,1,0,1:0:0:0:
511,145,39826,1,2,0:0:0:0:
475,195,39908,6,0,L|432:215,1,42.5,4|0,1:0|0:0,0:0:0:0:
328,44,40071,1,2,0:0:0:0:
282,13,40152,1,2,0:0:0:0:
228,3,40234,1,0,0:0:0:0:
174,16,40316,1,0,0:0:0:0:
130,48,40397,1,0,1:0:0:0:
103,96,40479,1,0,0:0:0:0:
96,150,40561,5,4,1:2:0:0:
112,203,40643,1,0,0:0:0:0:
147,245,40724,1,0,0:0:0:0:
196,269,40806,1,0,0:0:0:0:
251,273,40888,5,2,0:2:0:0:
303,257,40970,1,2,0:0:0:0:
346,221,41051,1,0,1:0:0:0:
369,173,41133,1,0,0:0:0:0:
374,117,41215,5,4,1:0:0:0:
374,117,41297,1,0,0:0:0:0:
374,117,41379,2,0,L|368:68,1,42.5
236,32,41542,5,0,1:0:0:0:
236,32,41624,1,0,0:0:0:0:
236,32,41706,2,0,L|242:81,1,42.5
264,260,41869,6,0,L|256:208,1,50.9999984436036,4|0,1:2|0:0,0:0:0:0:
132,32,42033,6,0,L|140:84,1,50.9999984436036,0|0,1:0|0:0,0:0:0:0:
173,321,42196,6,0,L|165:269,1,50.9999984436036,0|0,1:0|0:0,0:0:0:0:
32,40,42360,6,0,L|40:92,1,50.9999984436036,0|0,1:0|0:0,0:0:0:0:
76,364,42523,5,4,1:2:0:0:
80,368,42850,1,4,0:0:0:0:
352,122,43177,5,4,0:0:0:0:
333,124,43258,1,0,0:0:0:0:
314,126,43340,1,2,0:0:0:0:
295,128,43422,1,2,0:0:0:0:
276,130,43503,1,8,0:0:0:0:
257,133,43585,1,0,0:0:0:0:
238,135,43667,1,2,0:0:0:0:
219,137,43749,1,2,0:0:0:0:
202,140,43831,5,4,1:0:0:0:
220,182,43912,1,0,0:0:0:0:
221,228,43994,1,2,0:0:0:0:
205,272,44076,1,2,0:0:0:0:
173,306,44158,2,0,P|147:315|123:318,1,46.7500014266968,0|0,1:0|0:0,0:0:0:0:
98,115,44322,5,2,0:0:0:0:
126,77,44403,1,2,0:0:0:0:
166,53,44485,1,0,1:0:0:0:
211,46,44567,1,0,0:0:0:0:
257,56,44649,2,0,P|277:74|292:93,1,46.7500014266968,2|2,0:0|0:0,0:0:0:0:
135,236,44812,6,0,L|140:173,1,46.7500014266968,0|0,1:0|0:0,0:0:0:0:
291,301,44976,2,0,L|294:347,1,46.7500014266968,2|2,0:0|0:0,0:0:0:0:
233,138,45139,6,0,P|259:131|288:129,1,46.7500014266968,0|0,1:0|0:0,0:0:0:0:
394,269,45303,2,0,P|374:249|358:225,1,46.7500014266968,2|2,0:0|0:0,0:0:0:0:
369,58,45466,2,0,P|363:80|361:103,1,46.7500014266968,0|0,1:0|0:0,0:0:0:0:
291,301,45630,1,2,0:0:0:0:
244,296,45711,1,2,0:0:0:0:
197,291,45793,6,0,L|176:240,1,46.7500014266968,0|0,1:0|0:0,0:0:0:0:
91,20,45957,1,2,0:0:0:0:
137,24,46038,1,2,0:0:0:0:
184,29,46120,2,0,L|205:80,1,46.7500014266968,0|0,1:0|0:0,0:0:0:0:
83,222,46284,1,2,0:0:0:0:
83,222,46365,1,2,0:0:0:0:
83,222,46447,5,0,1:0:0:0:
106,181,46528,1,0,0:0:0:0:
145,156,46610,1,2,0:0:0:0:
191,151,46692,1,2,0:0:0:0:
237,164,46774,2,0,P|267:161|294:147,1,46.7500014266968,0|0,1:0|0:0,0:0:0:0:
384,33,46938,5,2,0:0:0:0:
374,78,47019,1,2,0:0:0:0:
368,125,47101,1,0,1:0:0:0:
364,171,47183,1,0,0:0:0:0:
363,218,47265,2,0,P|366:240|371:276,1,46.7500014266968,2|2,0:0|0:0,0:0:0:0:
480,342,47428,5,0,1:0:0:0:
430,311,47509,1,0,0:0:0:0:
373,303,47591,1,2,0:0:0:0:
317,319,47673,1,2,0:0:0:0:
273,357,47755,6,0,L|225:349,1,46.7500014266968,0|0,1:0|0:0,0:0:0:0:
460,223,47918,2,0,L|508:215,1,46.7500014266968,2|2,0:0|0:0,0:0:0:0:
234,249,48082,2,0,L|186:241,1,46.7500014266968,0|0,1:0|0:0,0:0:0:0:
324,30,48245,1,2,0:0:0:0:
329,76,48326,1,2,0:0:0:0:
335,122,48409,6,0,L|342:177,1,46.7500014266968,0|0,1:0|0:0,0:0:0:0:
141,306,48572,1,2,0:0:0:0:
147,259,48653,1,2,0:0:0:0:
152,212,48736,2,0,L|158:151,1,46.7500014266968,4|0,1:2|0:0,0:0:0:0:
78,17,48899,1,0,1:0:0:0:
71,33,48981,1,0,0:0:0:0:
63,48,49063,5,4,1:0:0:0:
104,68,49144,1,0,0:0:0:0:
151,74,49226,1,2,0:0:0:0:
196,65,49308,1,2,0:0:0:0:
237,43,49390,2,0,L|233:113,1,46.7500014266968,0|0,1:0|0:0,0:0:0:0:
376,232,49553,5,2,0:0:0:0:
335,212,49634,1,2,0:0:0:0:
288,206,49716,1,0,1:0:0:0:
243,215,49798,1,0,0:0:0:0:
202,237,49880,2,0,L|206:167,1,46.7500014266968,2|2,0:0|0:0,0:0:0:0:
324,56,50044,2,0,L|321:102,1,46.7500014266968,0|0,1:0|0:0,0:0:0:0:
296,296,50207,2,0,L|293:342,1,46.7500014266968,2|2,0:0|0:0,0:0:0:0:
124,240,50371,6,0,L|125:193,1,46.7500014266968,0|0,1:0|0:0,0:0:0:0:
237,43,50534,2,0,P|261:39|293:31,1,46.7500014266968,2|2,0:0|0:0,0:0:0:0:
72,88,50698,2,0,P|56:69|33:45,1,46.7500014266968,0|0,1:0|0:0,0:0:0:0:
220,224,50861,2,0,P|211:246|202:278,1,46.7500014266968,2|2,0:0|0:0,0:0:0:0:
332,120,51025,5,0,1:0:0:0:
378,123,51106,1,0,0:0:0:0:
425,126,51188,2,0,L|432:176,1,46.7500014266968,2|2,0:0|0:0,0:0:0:0:
452,336,51352,1,0,1:0:0:0:
393,331,51433,1,0,0:0:0:0:
335,326,51515,1,0,1:0:0:0:
277,321,51597,1,0,0:0:0:0:
219,316,51679,6,0,L|168:312,1,46.7500014266968,4|0,1:0|0:0,0:0:0:0:
172,80,51842,1,2,0:0:0:0:
172,80,51924,1,2,0:0:0:0:
172,80,52006,2,0,B|176:104|176:104|168:128,1,46.7500014266968,0|0,1:0|0:0,0:0:0:0:
33,105,52169,6,0,L|84:101,1,46.7500014266968,4|0,1:2|0:0,0:0:0:0:
251,231,52333,1,2,0:0:0:0:
251,231,52415,1,2,0:0:0:0:
251,231,52497,2,0,B|247:207|247:207|255:183,1,46.7500014266968,0|0,1:0|0:0,0:0:0:0:
424,32,52660,5,4,1:0:0:0:
426,89,52741,1,0,0:0:0:0:
390,133,52823,1,2,0:0:0:0:
333,141,52905,1,2,0:0:0:0:
285,110,52986,1,0,1:0:0:0:
430,236,53150,2,0,L|458:236,3,23.3750007133484,0|0|0|0,1:0|1:0|1:0|1:0,0:0:0:0:
406,236,53314,2,0,L|414:368,1,116.875003566742,4|0,1:2|0:0,0:0:0:0:
209,176,53641,5,4,1:0:0:0:
222,189,53722,1,0,0:0:0:0:
245,202,53804,1,0,0:0:0:0:
278,207,53886,1,0,0:0:0:0:
317,195,53968,1,4,0:0:0:0:
352,162,54049,1,0,0:0:0:0:
400,144,54131,1,0,0:0:0:0:
453,160,54213,1,0,0:0:0:0:
487,209,54295,6,0,L|496:65,1,140.25000428009,4|0,1:3|0:0,0:0:0:0:
385,9,54621,2,0,L|389:64,1,46.7500014266968
406,236,54785,1,2,0:0:0:0:
406,236,54867,1,2,0:0:0:0:
406,236,54948,6,0,L|401:285,1,46.7500014266968,0|0,1:0|0:0,0:0:0:0:
275,120,55112,2,0,L|270:73,1,46.7500014266968,2|2,0:0|0:0,0:0:0:0:
242,270,55275,2,0,P|212:274|180:272,1,46.7500014266968
105,129,55439,2,0,P|75:125|43:127,1,46.7500014266968,2|2,0:0|0:0,0:0:0:0:
93,324,55602,6,0,L|104:268,1,46.7500014266968,0|0,1:0|0:0,0:0:0:0:
191,117,55766,2,0,L|189:78,2,31.1666676177979,2|2|2,0:0|0:0|0:0,0:0:0:0:
192,138,55929,2,0,L|261:130,1,46.7500014266968,0|0,1:0|0:0,0:0:0:0:
46,202,56093,2,0,L|-23:194,1,46.7500014266968,2|2,0:0|0:0,0:0:0:0:
254,227,56256,5,0,1:0:0:0:
299,220,56337,1,0,0:0:0:0:
344,233,56419,1,2,0:0:0:0:
379,264,56501,1,2,0:0:0:0:
398,306,56583,5,0,0:0:0:0:
399,248,56664,1,0,0:0:0:0:
401,190,56746,1,2,0:0:0:0:
403,131,56828,1,2,0:0:0:0:
405,73,56910,6,0,B|369:57|336:75|336:75|307:92|261:78,1,140.25000428009,0|0,1:0|0:0,0:0:0:0:
145,30,57237,2,0,P|176:26|196:27,1,46.7500014266968
108,215,57401,1,2,0:0:0:0:
104,191,57482,1,2,0:0:0:0:
105,169,57564,6,0,P|124:144|138:130,1,46.7500014266968,0|0,1:0|0:0,0:0:0:0:
234,321,57728,1,2,0:0:0:0:
215,307,57809,1,2,0:0:0:0:
199,290,57891,2,0,P|194:258|195:238,1,46.7500014266968,0|0,1:0|0:0,0:0:0:0:
230,88,58055,1,2,0:0:0:0:
249,102,58136,1,2,0:0:0:0:
265,116,58218,5,0,1:0:0:0:
284,73,58299,1,0,0:0:0:0:
320,44,58381,1,2,0:0:0:0:
365,34,58463,1,2,0:0:0:0:
410,44,58545,5,0,1:0:0:0:
438,57,58627,1,0,0:0:0:0:
460,78,58709,1,2,0:0:0:0:
476,105,58791,1,2,0:0:0:0:
483,135,58872,5,0,1:0:0:0:
462,176,58953,1,0,0:0:0:0:
453,222,59035,1,0,1:0:0:0:
459,269,59117,1,2,0:0:0:0:
478,311,59199,5,0,1:0:0:0:
419,308,59280,1,0,1:0:0:0:
361,304,59362,1,0,1:0:0:0:
303,301,59444,1,0,1:0:0:0:
244,297,59526,6,0,B|194:294|194:294|166:301|166:301|99:298,1,127.500004863739,4|2,1:0|0:0,0:0:0:0:
160,161,59771,1,2,0:0:0:0:
160,161,59853,2,0,P|222:164|262:210,1,127.500004863739,4|2,1:2|0:0,0:0:0:0:
76,200,60098,1,2,0:0:0:0:
76,200,60180,6,0,B|46:129|96:145|67:60,1,127.500004863739,4|0,1:0|1:0,0:0:0:0:
42,41,60425,1,0,1:0:0:0:
83,66,60507,1,0,1:0:0:0:
129,75,60588,1,0,0:0:0:0:
177,71,60670,1,0,1:0:0:0:
221,53,60752,1,0,0:0:0:0:
257,22,60834,6,0,P|323:3|385:25,1,127.500004863739,4|2,1:0|0:0,0:0:0:0:
328,211,61079,1,2,0:0:0:0:
328,211,61161,2,0,B|318:161|318:161|325:131|325:131|315:68,1,127.500004863739,4|0,1:2|1:0,0:0:0:0:
386,277,61406,1,2,0:0:0:0:
386,277,61488,6,0,B|331:305|331:305|263:276,1,127.500004863739,4|0,1:0|1:0,0:0:0:0:
185,232,61733,1,0,1:2:0:0:
185,232,61815,2,0,L|191:301,1,63.7500024318696,8|8,1:0|1:0,0:0:0:0:
99,248,61978,2,0,L|105:317,1,63.7500024318696,8|8,1:0|1:0,0:0:0:0:
156,118,62142,6,0,B|233:98|233:147|311:120,1,152.999995330811,4|0,1:0|0:0,0:0:0:0:
340,90,62469,1,8,1:0:0:0:
323,137,62550,1,8,1:0:0:0:
317,188,62632,1,8,1:0:0:0:
324,238,62714,1,8,1:0:0:0:
342,286,62796,6,0,P|391:273|442:291,1,101.999996887207,4|2,1:2|0:0,0:0:0:0:
392,358,63041,1,2,0:0:0:0:
392,358,63123,2,0,L|325:366,1,50.9999984436036,8|8,1:0|1:0,0:0:0:0:
235,320,63286,2,0,L|168:328,1,50.9999984436036,8|8,1:0|1:0,0:0:0:0:
48,329,63450,6,0,L|48:272,1,50.9999984436036,4|0,1:0|0:0,0:0:0:0:
111,111,63613,2,0,L|111:65,3,25.4999992218018,0|0|0|0,1:0|1:0|1:0|1:0,0:0:0:0:
111,134,63777,2,0,L|169:137,1,50.9999984436036,4|0,1:2|0:0,0:0:0:0:
340,90,63940,2,0,L|282:93,1,50.9999984436036,8|8,1:0|1:0,0:0:0:0:
210,226,64104,1,12,1:0:0:0:
210,276,64185,1,8,1:0:0:0:
235,320,64267,1,8,1:0:0:0:
277,347,64349,1,8,1:0:0:0:
335,353,64430,5,4,1:2:0:0:
386,328,64512,1,0,1:0:0:0:
419,281,64594,2,0,L|417:236,3,25.4999992218018,0|0|0|0,1:0|1:0|1:0|1:0,0:0:0:0:
415,234,64758,6,0,B|398:176|398:176|413:140|413:140|398:86,1,152.999995330811,4|0,1:3|0:0,0:0:0:0:
372,21,65085,1,8,0:0:0:0:
310,84,65194,1,2,0:0:0:0:
221,76,65303,1,2,0:0:0:0:
167,154,65412,5,0,1:0:0:0:
129,73,65521,1,2,0:0:0:0:
44,51,65630,1,2,0:0:0:0:
73,144,65739,5,8,0:0:0:0:
26,217,65848,1,2,0:0:0:0:
54,303,65957,1,2,0:0:0:0:
140,349,66066,6,0,L|248:337,1,101.999996887207,0|2,1:0|0:0,0:0:0:0:
267,335,66284,2,0,L|304:331,2,33.9999989624024,2|2|8,0:0|0:0|0:0,0:0:0:0:
116,228,66556,1,2,0:0:0:0:
116,228,66638,1,2,0:0:0:0:
116,228,66720,2,0,L|62:223,1,50.9999984436036,0|0,1:0|0:0,0:0:0:0:
200,116,66883,1,2,0:0:0:0:
200,116,66965,1,2,0:0:0:0:
200,116,67047,2,0,B|258:111|258:111|288:126|288:126|351:119,1,152.999995330811,8|2,0:0|0:0,0:0:0:0:
378,109,67373,5,0,1:0:0:0:
350,135,67454,1,0,0:0:0:0:
333,169,67536,1,2,0:0:0:0:
328,207,67618,1,2,0:0:0:0:
336,244,67699,1,8,0:0:0:0:
355,278,67781,1,0,0:0:0:0:
383,303,67863,1,2,0:0:0:0:
418,317,67945,1,2,0:0:0:0:
456,319,68027,5,0,1:0:0:0:
416,295,68108,1,0,0:0:0:0:
370,287,68190,1,2,0:0:0:0:
325,293,68272,1,2,0:0:0:0:
284,312,68355,1,8,0:0:0:0:
243,334,68436,1,0,0:0:0:0:
197,340,68518,1,2,0:0:0:0:
152,330,68600,1,2,0:0:0:0:
113,305,68681,5,0,1:0:0:0:
86,268,68763,1,0,0:0:0:0:
73,224,68845,1,2,0:0:0:0:
76,178,68927,1,2,0:0:0:0:
95,136,69008,1,8,0:0:0:0:
128,103,69090,1,0,0:0:0:0:
170,83,69172,1,2,0:0:0:0:
216,80,69254,1,2,0:0:0:0:
258,100,69335,6,0,P|281:113|305:133,1,50.9999984436036,0|0,1:0|0:0,0:0:0:0:
197,340,69499,1,2,0:0:0:0:
197,340,69581,1,2,0:0:0:0:
197,340,69662,2,0,L|197:286,1,50.9999984436036,8|0,0:0|0:0,0:0:0:0:
380,109,69826,2,0,L|387:160,1,50.9999984436036,0|0,1:0|0:0,0:0:0:0:
407,327,69989,6,0,B|354:354|287:331|287:331|328:301,1,152.999995330811,4|0,1:0|0:0,0:0:0:0:
356,252,70316,5,8,0:0:0:0:
312,175,70425,1,2,0:0:0:0:
333,89,70534,1,2,0:0:0:0:
279,18,70643,5,0,1:0:0:0:
250,101,70752,1,2,0:0:0:0:
163,118,70861,1,2,0:0:0:0:
104,51,70970,5,8,0:0:0:0:
79,133,71079,1,2,0:0:0:0:
127,207,71188,1,2,0:0:0:0:
215,211,71297,6,0,P|205:260|212:310,1,101.999996887207,0|2,1:0|0:0,0:0:0:0:
234,330,71515,2,0,L|265:348,2,33.9999989624024,2|2|8,0:0|0:0|0:0,0:0:0:0:
422,171,71788,1,2,0:0:0:0:
422,171,71869,1,2,0:0:0:0:
422,171,71951,6,0,L|432:110,1,50.9999984436036,0|0,1:0|0:0,0:0:0:0:
316,284,72115,1,2,0:0:0:0:
316,284,72196,1,2,0:0:0:0:
316,284,72278,2,0,B|309:334,1,50.9999984436036,8|0,1:2|0:0,0:0:0:0:
217,143,72442,2,0,B|226:86,1,50.9999984436036,0|0,1:0|0:0,0:0:0:0:
177,238,72605,5,4,1:0:0:0:
137,206,72686,1,0,0:0:0:0:
116,160,72768,1,2,0:0:0:0:
120,110,72850,1,2,0:0:0:0:
146,67,72932,2,0,P|180:59|216:58,1,63.7500024318696,8|0,1:2|0:0,0:0:0:0:
367,131,73096,2,0,P|398:129|429:121,1,63.7500024318696,0|0,1:0|0:0,0:0:0:0:
340,37,73259,5,4,1:0:0:0:
300,69,73340,1,0,0:0:0:0:
279,115,73422,1,2,0:0:0:0:
283,165,73504,1,2,0:0:0:0:
309,208,73586,2,0,L|304:271,1,63.7500024318696,8|0,1:2|0:0,0:0:0:0:
185,126,73750,2,0,L|180:63,1,63.7500024318696,0|0,1:0|0:0,0:0:0:0:
135,223,73913,5,4,1:2:0:0:
125,269,73994,1,0,0:0:0:0:
94,305,74076,1,2,0:0:0:0:
50,323,74158,1,2,0:0:0:0:
7,311,74240,5,4,1:0:0:0:
52,276,74321,1,2,0:0:0:0:
110,273,74403,1,2,0:0:0:0:
162,292,74485,1,2,0:0:0:0:
202,339,74567,6,0,P|233:344|267:341,1,63.7500024318696,4|0,1:2|0:0,0:0:0:0:
361,243,74730,2,0,P|376:240|392:239,3,31.8750012159348,0|0|0|0,1:0|1:0|1:0|1:0,0:0:0:0:
424,238,74894,2,0,P|429:206|425:175,1,63.7500024318696,12|0,1:0|0:0,0:0:0:0:
258,68,75057,2,0,P|253:99|258:131,1,63.7500024318696,8|0,1:0|0:0,0:0:0:0:
178,257,75221,6,0,B|122:248|122:248|85:265|85:265|20:256,1,152.999995330811,4|0,1:0|0:0,0:0:0:0:
24,180,75548,1,8,0:0:0:0:
66,118,75657,1,2,0:0:0:0:
138,99,75766,1,2,0:0:0:0:
210,116,75875,5,0,1:0:0:0:
258,131,75956,1,0,0:0:0:0:
309,129,76038,1,2,0:0:0:0:
356,111,76120,1,2,0:0:0:0:
394,77,76202,2,0,P|405:47|410:12,1,50.9999984436036,8|0,0:0|0:0,0:0:0:0:
133,23,76365,5,2,0:0:0:0:
138,99,76446,1,2,0:0:0:0:
144,175,76528,1,4,1:0:0:0:
362,266,76692,5,2,2:0:0:0:
358,205,76773,1,2,2:0:0:0:
353,144,76855,1,4,1:2:0:0:
99,52,77019,5,2,2:0:0:0:
103,101,77100,1,2,2:0:0:0:
107,150,77182,1,4,1:0:0:0:
391,241,77346,5,2,2:0:0:0:
388,202,77427,1,2,2:0:0:0:
384,163,77510,2,0,L|380:110,1,50.9999984436036,4|0,1:2|0:0,0:0:0:0:
256,301,77673,2,0,L|261:351,1,50.9999984436036,0|0,1:0|0:0,0:0:0:0:
251,139,77837,6,0,B|224:148|192:139|192:139|166:158|166:158|136:145|96:151,1,152.999995330811,4|0,1:0|0:0,0:0:0:0:
68,216,78164,1,8,0:0:0:0:
85,288,78273,1,2,0:0:0:0:
142,335,78382,1,2,0:0:0:0:
216,332,78491,6,0,L|209:266,1,50.9999984436036,0|0,1:0|0:0,0:0:0:0:
289,149,78654,2,0,L|294:199,1,50.9999984436036,2|2,0:0|0:0,0:0:0:0:
402,308,78818,2,0,L|395:242,1,50.9999984436036,8|0,0:0|0:0,0:0:0:0:
383,51,78981,5,2,0:0:0:0:
306,55,79062,1,2,0:0:0:0:
230,59,79144,1,4,1:0:0:0:
78,241,79308,5,2,0:0:0:0:
139,237,79389,1,2,0:0:0:0:
200,234,79471,1,4,1:2:0:0:
354,24,79635,5,2,0:0:0:0:
305,27,79716,1,2,0:0:0:0:
256,29,79799,2,0,L|194:32,1,50.9999984436036,4|0,1:0|0:0,0:0:0:0:
394,203,79962,2,0,L|456:200,1,50.9999984436036,0|0,1:0|0:0,0:0:0:0:
270,204,80126,2,0,L|208:207,1,50.9999984436036,4|0,1:2|0:0,0:0:0:0:
404,22,80289,2,0,L|466:19,1,50.9999984436036,0|0,1:0|0:0,0:0:0:0:
249,286,80453,6,0,B|281:298|320:277|320:277|365:276|397:304,1,152.999995330811,4|0,1:0|0:0,0:0:0:0:
458,342,80779,1,8,0:0:0:0:
463,267,80888,1,2,0:0:0:0:
469,192,80997,1,2,0:0:0:0:
477,117,81106,5,4,1:2:0:0:
439,82,81187,1,0,0:0:0:0:
390,69,81269,1,2,0:0:0:0:
341,79,81351,1,2,0:0:0:0:
301,110,81433,2,0,P|291:134|283:162,1,50.9999984436036,8|0,0:0|0:0,0:0:0:0:
149,349,81597,5,2,0:0:0:0:
105,287,81678,1,2,0:0:0:0:
107,212,81760,1,4,1:0:0:0:
388,167,81924,5,2,0:0:0:0:
369,224,82006,1,2,0:0:0:0:
320,260,82087,1,4,1:2:0:0:
105,335,82251,5,2,0:0:0:0:
76,295,82332,1,2,0:0:0:0:
78,247,82414,1,4,1:0:0:0:
414,207,82578,5,2,0:0:0:0:
402,244,82659,1,2,0:0:0:0:
370,267,82741,2,0,P|339:273|305:271,1,50.9999984436036,4|0,1:2|0:0,0:0:0:0:
146,84,82905,2,0,P|171:84|196:89,1,50.9999984436036,0|0,1:2|0:0,0:0:0:0:
189,323,83068,6,0,P|185:292|182:256,1,63.7500024318696,4|0,1:0|0:0,0:0:0:0:
323,61,83232,2,0,P|327:92|330:128,1,63.7500024318696,0|0,1:0|0:0,0:0:0:0:
100,199,83395,6,0,P|126:179|158:158,1,63.7500024318696,4|0,1:2|0:0,0:0:0:0:
411,184,83559,2,0,P|385:204|353:225,1,63.7500024318696,0|0,1:0|0:0,0:0:0:0:
165,52,83722,6,0,P|198:65|235:83,1,63.7500024318696,4|0,1:2|0:0,0:0:0:0:
346,331,83886,2,0,P|313:318|276:300,1,63.7500024318696,0|0,1:0|0:0,0:0:0:0:
338,31,84049,6,0,P|342:68|346:112,1,63.7500024318696,4|0,1:2|0:0,0:0:0:0:
174,352,84213,2,0,P|169:314|165:270,1,63.7500024318696,0|0,1:0|1:0,0:0:0:0:
57,133,84376,5,4,1:0:0:0:
103,90,84457,1,0,1:0:0:0:
165,81,84539,1,2,1:2:0:0:
222,108,84621,1,0,1:0:0:0:
254,162,84703,1,4,1:2:0:0:
286,216,84784,1,0,1:0:0:0:
343,243,84866,1,2,1:2:0:0:
405,234,84948,1,0,1:0:0:0:
452,192,85030,6,0,L|450:152,6,31.8750012159348,4|0|0|0|0|0|0,1:0|1:0|1:0|1:0|1:0|1:0|1:0,0:0:0:0:
357,137,85357,1,2,1:2:0:0:
355,113,85438,1,2,0:0:0:0:
353,89,85520,1,2,0:0:0:0:
351,65,85602,1,0,0:0:0:0:
350,42,85684,5,4,1:0:0:0:
326,83,85765,1,0,0:0:0:0:
290,115,85847,1,2,0:0:0:0:
247,133,85929,1,0,0:0:0:0:
199,137,86010,1,8,1:0:0:0:
153,126,86092,1,0,0:0:0:0:
113,101,86174,1,2,0:0:0:0:
83,64,86256,1,0,0:0:0:0:
66,19,86338,5,0,1:0:0:0:
100,47,86419,1,0,0:0:0:0:
119,87,86501,1,2,0:0:0:0:
118,131,86583,1,0,0:0:0:0:
99,171,86664,1,8,1:0:0:0:
64,198,86746,1,0,0:0:0:0:
29,226,86829,1,2,0:0:0:0:
11,266,86910,1,0,0:0:0:0:
11,309,86992,5,0,1:0:0:0:
50,282,87073,1,0,0:0:0:0:
96,271,87155,1,2,0:0:0:0:
143,277,87237,1,0,0:0:0:0:
184,301,87319,1,8,1:0:0:0:
227,325,87400,1,0,0:0:0:0:
275,331,87482,1,2,0:0:0:0:
323,319,87564,1,0,0:0:0:0:
362,290,87645,5,0,1:0:0:0:
388,248,87727,1,0,0:0:0:0:
395,200,87809,1,2,0:0:0:0:
384,152,87891,1,0,0:0:0:0:
356,112,87972,1,8,1:0:0:0:
315,85,88054,1,0,0:0:0:0:
267,76,88136,1,2,0:2:0:0:
219,85,88218,1,0,0:0:0:0:
181,116,88300,5,4,1:0:0:0:
222,165,88381,1,0,0:0:0:0:
279,192,88463,1,2,0:0:0:0:
342,192,88545,1,2,0:0:0:0:
399,164,88626,1,8,1:0:0:0:
438,114,88708,1,0,0:0:0:0:
452,52,88790,2,0,P|446:15|438:-14,1,63.7500024318696,2|2,0:0|0:0,0:0:0:0:
439,270,88954,5,4,1:2:0:0:
399,220,89035,1,0,0:0:0:0:
342,192,89117,1,2,0:0:0:0:
279,192,89199,1,2,0:0:0:0:
223,217,89281,1,8,1:0:0:0:
165,243,89362,1,0,0:0:0:0:
102,242,89444,2,0,P|77:232|46:207,1,63.7500024318696,2|2,1:2|0:0,0:0:0:0:
333,20,89608,6,0,P|338:57|339:96,1,76.4999976654053,4|0,1:0|0:0,0:0:0:0:
76,69,89771,2,0,L|27:59,2,50.9999984436036,0|0|0,1:0|1:0|1:0,0:0:0:0:
106,78,89935,2,0,L|209:97,1,76.4999976654053,4|0,1:2|0:0,0:0:0:0:
157,349,90098,2,0,L|73:338,1,76.4999976654053,0|0,1:0|0:0,0:0:0:0:
307,171,90262,5,4,1:0:0:0:
382,164,90343,1,0,1:0:0:0:
449,197,90425,1,0,1:0:0:0:
489,261,90507,1,0,1:0:0:0:
488,337,90589,2,0,L|483:371,12,19.1249994163513,4|0|0|0|0|0|0|0|0|0|0|0|0,0:2|3:0|3:0|3:0|3:0|3:0|3:0|3:0|3:0|3:0|3:0|3:0|3:0,0:0:0:0:
363,296,90916,6,0,P|300:288|239:305,1,127.5,4|0,1:0|0:0,0:0:0:0:
156,358,91243,5,2,0:0:0:0:
153,336,91324,1,0,0:0:0:0:
151,315,91406,1,0,0:0:0:0:
149,294,91488,1,0,0:0:0:0:
158,248,91570,5,2,0:0:0:0:
156,227,91651,1,0,0:0:0:0:
154,206,91733,1,0,0:0:0:0:
152,185,91815,1,0,0:0:0:0:
159,137,91898,5,2,0:0:0:0:
156,115,91979,1,0,0:0:0:0:
154,94,92061,1,0,0:0:0:0:
152,73,92143,1,0,0:0:0:0:
150,53,92224,6,0,L|194:47,1,42.5,2|0,0:0|0:0,0:0:0:0:
354,87,92387,1,0,0:0:0:0:
354,87,92469,1,0,0:0:0:0:
354,87,92551,2,0,L|312:93,1,42.5,2|0,0:0|0:0,0:0:0:0:
116,142,92714,2,0,L|160:136,1,42.5
332,174,92878,6,0,P|337:201|338:220,1,42.5,2|0,0:0|0:0,0:0:0:0:
138,317,93041,2,0,P|139:295|143:275,1,42.5
237,102,93205,1,2,0:0:0:0:
282,74,93286,1,0,0:0:0:0:
334,66,93368,1,0,0:0:0:0:
385,79,93450,1,0,0:0:0:0:
428,109,93532,6,0,L|442:238,1,127.5,4|0,0:1|0:0,0:0:0:0:
409,323,93859,5,2,0:0:0:0:
389,328,93940,1,0,0:0:0:0:
368,329,94022,1,0,0:0:0:0:
347,328,94104,1,0,0:0:0:0:
303,312,94185,5,2,0:0:0:0:
282,311,94267,1,0,0:0:0:0:
261,312,94349,1,0,0:0:0:0:
241,318,94430,1,0,0:0:0:0:
201,343,94512,5,2,0:0:0:0:
180,348,94593,1,0,0:0:0:0:
159,349,94675,1,0,0:0:0:0:
138,348,94757,1,0,0:0:0:0:
117,343,94839,6,0,L|112:294,1,42.5,2|0,0:0|0:0,0:0:0:0:
151,149,95003,1,0,0:0:0:0:
151,149,95085,1,0,0:0:0:0:
151,149,95166,2,0,L|146:100,1,42.5,2|0,0:0|0:0,0:0:0:0:
241,318,95330,2,0,L|236:269,1,42.5
72,205,95493,6,0,L|21:201,1,42.5,2|0,0:0|0:0,0:0:0:0:
261,175,95657,2,0,L|302:162,1,42.5
69,118,95820,2,0,L|18:114,1,42.5,2|0,0:0|0:0,0:0:0:0:
281,261,95984,2,0,L|322:248,1,42.5
362,80,96147,5,2,0:0:0:0:
318,62,96229,1,0,0:0:0:0:
283,63,96311,1,0,0:0:0:0:
258,70,96393,1,0,0:0:0:0:
219,96,96474,5,2,0:0:0:0:
175,114,96556,1,0,3:0:0:0:
140,113,96638,1,0,3:0:0:0:
115,106,96720,1,0,3:0:0:0:
80,75,96801,6,0,L|83:21,3,42.5,4|0|0|0,0:1|3:0|3:0|3:0,0:0:0:0:
100,189,97128,2,0,L|97:243,3,42.5,0|0|0|0,3:0|3:0|3:0|3:0,0:0:0:0:
200,105,97455,5,2,0:0:0:0:
244,87,97537,1,0,0:0:0:0:
279,88,97619,1,0,0:0:0:0:
304,95,97701,1,0,0:0:0:0:
338,128,97782,5,2,0:0:0:0:
357,171,97864,1,0,3:0:0:0:
356,206,97946,1,0,3:0:0:0:
349,231,98028,1,0,3:0:0:0:
330,278,98109,6,0,L|375:283,3,42.5,4|0|0|0,0:1|3:0|3:0|3:0,0:0:0:0:
219,299,98436,2,0,L|174:294,3,42.5,0|0|0|0,3:0|3:0|3:0|3:0,0:0:0:0:
269,176,98763,5,2,0:0:0:0:
313,158,98845,1,0,0:0:0:0:
348,159,98927,1,0,0:0:0:0:
373,166,99009,1,0,0:0:0:0:
411,193,99090,5,2,0:0:0:0:
392,150,99172,1,0,3:0:0:0:
393,115,99254,1,0,3:0:0:0:
400,90,99336,1,0,3:0:0:0:
422,49,99417,6,0,L|467:54,3,42.5,2|0|0|0,0:2|3:0|3:0|3:0,0:0:0:0:
302,73,99744,2,0,L|257:68,3,42.5,2|0|0|0,0:0|3:0|3:0|3:0,0:0:0:0:
426,138,100071,6,0,L|471:143,3,42.5,2|0|0|0,0:2|3:0|3:0|3:0,0:0:0:0:
251,158,100398,2,0,L|206:153,3,42.5,2|0|0|0,0:0|3:0|3:0|3:0,0:0:0:0:
428,232,100725,6,0,L|473:237,3,42.5,2|0|0|0,0:2|3:0|3:0|3:0,0:0:0:0:
209,251,101052,2,0,L|164:246,3,42.5,2|0|0|0,0:0|3:0|3:0|3:0,0:0:0:0:
440,318,101379,6,0,L|312:327,1,127.5,4|0,1:0|0:0,0:0:0:0:
211,375,101706,2,0,P|203:347|199:323,1,42.5,2|0,0:0|0:0,0:0:0:0:
306,198,101869,2,0,P|301:218|295:239,1,42.5,2|0,0:0|0:0,0:0:0:0:
139,260,102033,2,0,L|97:266,1,42.5,2|0,0:0|0:0,0:0:0:0:
76,107,102196,1,0,0:0:0:0:
76,107,102278,1,0,0:0:0:0:
76,107,102360,2,0,L|31:100,1,42.5,2|0,0:0|0:0,0:0:0:0:
243,57,102523,1,0,0:0:0:0:
243,57,102605,1,0,0:0:0:0:
243,57,102687,6,0,L|237:119,1,42.5,2|0,0:0|0:0,0:0:0:0:
165,245,102850,2,0,L|161:203,1,42.5,2|0,0:0|0:0,0:0:0:0:
332,64,103014,6,0,L|326:126,1,42.5,2|0,0:0|0:0,0:0:0:0:
254,252,103177,2,0,L|249:209,1,42.5,2|0,0:0|0:0,0:0:0:0:
423,70,103341,6,0,L|417:132,1,42.5,2|0,0:0|0:0,0:0:0:0:
345,258,103504,2,0,L|340:215,1,42.5,2|0,0:0|0:0,0:0:0:0:
508,84,103668,5,2,0:0:0:0:
504,126,103749,1,0,0:0:0:0:
501,168,103831,1,0,1:0:0:0:
498,211,103913,1,0,1:0:0:0:
495,253,103995,6,0,P|473:311|410:336,1,127.5,4|0,0:1|0:0,0:0:0:0:
345,258,104322,2,0,L|340:215,1,42.5,2|0,0:0|0:0,0:0:0:0:
255,306,104485,2,0,L|250:349,1,42.5
336,180,104649,2,0,L|331:137,1,42.5,2|0,0:0|0:0,0:0:0:0:
171,313,104812,1,0,0:0:0:0:
171,313,104894,1,0,0:0:0:0:
171,313,104976,2,0,L|176:270,1,42.5,2|0,0:0|0:0,0:0:0:0:
349,300,105139,2,0,L|344:257,1,42.5
132,155,105303,6,0,P|155:181|166:189,1,42.5,2|0,0:0|0:0,0:0:0:0:
340,214,105466,2,0,P|307:227|294:229,1,42.5,2|0,0:0|0:0,0:0:0:0:
182,62,105630,6,0,P|191:95|198:107,1,42.5,2|0,0:0|0:0,0:0:0:0:
345,203,105793,2,0,P|310:201|297:197,1,42.5,2|0,0:0|0:0,0:0:0:0:
263,0,105957,6,0,P|257:34|258:47,1,42.5,2|0,0:0|0:0,0:0:0:0:
351,196,106120,2,0,P|320:179|309:171,1,42.5,0|0,1:0|1:0,0:0:0:0:
342,38,106284,5,4,1:0:0:0:
393,31,106365,1,0,0:0:0:0:
440,54,106447,1,0,0:0:0:0:
466,100,106529,1,0,0:0:0:0:
462,152,106611,5,4,1:0:0:0:
465,184,106692,1,0,0:0:0:0:
468,215,106774,1,2,0:0:0:0:
471,247,106856,1,2,0:0:0:0:
474,279,106938,1,0,1:0:0:0:
437,259,107019,1,0,0:0:0:0:
395,252,107101,1,0,1:0:0:0:
354,260,107183,1,0,1:0:0:0:
319,283,107265,5,4,1:2:0:0:
278,306,107346,1,0,0:0:0:0:
232,316,107428,1,2,0:0:0:0:
187,309,107510,1,2,0:0:0:0:
147,285,107591,1,0,1:0:0:0:
119,247,107673,1,0,0:0:0:0:
107,202,107755,1,0,1:0:0:0:
114,156,107837,1,0,0:0:0:0:
137,115,107918,5,4,1:0:0:0:
175,134,107999,1,0,0:0:0:0:
217,142,108082,1,2,0:0:0:0:
259,137,108163,1,2,0:0:0:0:
298,121,108244,1,0,1:0:0:0:
337,105,108327,1,0,0:0:0:0:
379,100,108409,1,2,0:0:0:0:
421,108,108491,1,2,0:0:0:0:
461,132,108572,5,4,1:2:0:0:
442,174,108653,1,0,0:0:0:0:
432,220,108735,1,2,0:0:0:0:
432,267,108817,1,2,0:0:0:0:
441,312,108898,1,0,1:0:0:0:
402,285,108981,1,0,1:0:0:0:
359,268,109063,1,0,1:0:0:0:
313,259,109145,1,0,0:0:0:0:
266,260,109226,6,0,L|218:263,1,42.5,4|0,1:0|0:0,0:0:0:0:
399,171,109390,1,0,1:0:0:0:
399,171,109472,1,0,1:0:0:0:
399,171,109553,2,0,L|447:174,1,42.5,0|0,1:0|0:0,0:0:0:0:
320,351,109717,2,0,L|272:354,1,42.5,0|0,1:0|0:0,0:0:0:0:
297,117,109880,6,0,L|311:172,1,42.5,4|0,1:2|0:0,0:0:0:0:
145,261,110044,2,0,L|156:220,1,42.5,0|0,1:2|0:0,0:0:0:0:
399,171,110207,2,0,L|383:225,1,42.5,4|0,1:0|0:0,0:0:0:0:
72,176,110371,2,0,L|96:140,1,42.5,0|0,1:2|0:0,0:0:0:0:
189,35,110534,5,4,1:2:0:0:
226,17,110615,1,0,1:0:0:0:
269,17,110697,1,0,1:0:0:0:
306,36,110779,1,0,1:0:0:0:
332,70,110861,1,4,1:0:0:0:
358,104,110942,1,0,1:0:0:0:
395,123,111024,1,0,1:0:0:0:
438,123,111106,1,0,1:0:0:0:
476,105,111188,6,0,P|454:170|448:230,1,127.500004863739,4|0,1:2|1:0,0:0:0:0:
359,316,111433,1,0,1:0:0:0:
359,316,111515,2,0,B|406:307|406:307|439:320|439:320|499:311,1,127.500004863739,4|0,1:3|0:0,0:0:0:0:
415,38,111842,5,4,1:0:0:0:
280,273,112006,1,4,1:2:0:0:
138,69,112169,1,0,0:0:0:0:
161,59,112250,1,0,0:0:0:0:
186,54,112332,1,0,0:0:0:0:
211,54,112414,1,0,0:0:0:0:
236,60,112496,5,4,1:0:0:0:
171,323,112660,1,4,1:2:0:0:
349,159,112823,1,0,0:0:0:0:
325,149,112904,1,0,0:0:0:0:
300,144,112986,1,0,0:0:0:0:
275,144,113068,1,0,0:0:0:0:
251,150,113150,5,4,1:0:0:0:
394,359,113314,1,4,1:2:0:0:
120,249,113477,1,0,0:0:0:0:
144,239,113558,1,0,0:0:0:0:
169,234,113640,1,0,1:0:0:0:
194,234,113722,1,0,1:0:0:0:
214,239,113804,6,0,L|201:105,1,127.500004863739,4|0,1:0|1:0,0:0:0:0:
317,22,114049,1,0,1:0:0:0:
317,22,114131,2,0,L|305:149,1,127.500004863739,4|0,1:2|1:0,0:0:0:0:
360,241,114376,1,0,1:0:0:0:
360,241,114458,5,4,1:0:0:0:
98,160,114621,1,4,1:2:0:0:
295,20,114785,1,0,0:0:0:0:
291,51,114866,1,0,0:0:0:0:
288,83,114948,1,0,0:0:0:0:
285,115,115030,1,0,0:0:0:0:
282,146,115112,5,4,1:0:0:0:
58,295,115275,1,4,1:2:0:0:
313,331,115439,1,0,0:0:0:0:
344,326,115520,1,0,0:0:0:0:
376,322,115602,1,0,0:0:0:0:
407,318,115684,1,0,0:0:0:0:
439,313,115766,5,4,1:0:0:0:
188,205,115929,1,4,1:2:0:0:
405,34,116093,1,0,1:0:0:0:
409,65,116174,1,0,1:0:0:0:
412,97,116256,1,0,1:0:0:0:
415,129,116338,1,0,1:0:0:0:
418,158,116420,6,0,L|424:225,1,63.7500024318696,4|0,1:0|0:0,0:0:0:0:
288,68,116583,2,0,L|292:16,3,31.8750012159348,0|0|0|0,1:0|1:0|1:0|1:0,0:0:0:0:
286,96,116747,2,0,B|181:107|210:33|104:53,1,191.250007295609,4|0,1:2|0:0,0:0:0:0:
41,152,117074,6,0,L|145:146,1,95.6250036478044,4|0,1:0|0:0,0:0:0:0:
218,171,117401,5,2,0:0:0:0:
199,210,117482,1,0,0:0:0:0:
198,255,117564,1,0,0:0:0:0:
215,295,117646,1,0,0:0:0:0:
238,321,117728,5,2,0:0:0:0:
265,333,117809,1,0,0:0:0:0:
295,336,117891,1,0,0:0:0:0:
327,332,117973,1,0,0:0:0:0:
350,322,118055,5,2,0:0:0:0:
364,308,118136,1,0,0:0:0:0:
373,289,118217,1,0,0:0:0:0:
378,268,118299,1,0,0:0:0:0:
375,245,118382,6,0,L|369:202,1,31.8750012159348,2|0,0:0|0:0,0:0:0:0:
290,106,118545,1,0,0:0:0:0:
290,106,118627,1,0,0:0:0:0:
290,106,118709,6,0,L|283:62,1,31.8750012159348,2|0,0:0|0:0,0:0:0:0:
223,226,118872,2,0,L|216:182,1,31.8750012159348,0|0,0:0|0:0,0:0:0:0:
183,100,119036,6,0,L|176:56,1,31.8750012159348,2|0,0:0|0:0,0:0:0:0:
134,193,119199,2,0,L|127:149,1,31.8750012159348
90,74,119363,6,0,L|83:30,1,31.8750012159348,2|0,0:0|0:0,0:0:0:0:
46,162,119526,2,0,L|39:118,1,31.8750012159348
89,264,119690,5,2,0:0:0:0:
101,270,119771,1,0,0:0:0:0:
114,274,119853,1,0,0:0:0:0:
127,276,119935,1,0,0:0:0:0:
141,276,120016,1,2,0:0:0:0:
154,273,120098,1,0,0:0:0:0:
167,269,120180,1,0,0:0:0:0:
179,262,120262,1,0,0:0:0:0:
191,255,120344,5,2,0:0:0:0:
204,251,120426,1,0,0:0:0:0:
217,248,120508,1,0,0:0:0:0:
231,248,120589,1,0,0:0:0:0:
244,250,120671,1,2,0:0:0:0:
257,254,120753,1,0,0:0:0:0:
270,261,120834,1,0,0:0:0:0:
281,271,120916,1,0,0:0:0:0:
289,283,120997,6,0,L|328:282,3,31.8750012159348,2|0|0|0,0:0|0:0|0:0|0:0,0:0:0:0:
406,204,121324,6,0,L|376:205,3,29.7499990921021,2|0|0|0,0:0|0:0|0:0|0:0,0:0:0:0:
288,135,121651,6,0,L|315:136,3,27.6249987354279,2|0|0|0,0:0|0:0|0:0|0:0,0:0:0:0:
380,62,121978,6,0,L|355:65,3,25.4999992218018,2|0|0|0,0:0|0:0|0:0|0:0,0:0:0:0:
300,2,122305,5,4,1:3:0:0:
256,192,123613,12,0,124758,0:0:0:0:
126,56,124921,6,0,B|163:58|197:82|211:127|197:165|197:165|273:191|273:191|281:170|285:141|283:114|275:93|275:93|299:110|329:110,1,382.500014591218,4|0,0:3|0:0,0:0:0:0:
115,138,126229,6,0,B|64:123|12:168|19:226|19:226|61:245|93:215|93:215|100:253|128:288|173:296|212:282,1,382.500014591218,2|0,0:0|0:0,0:0:0:0:
301,91,127537,6,0,B|290:41|233:47|233:47|205:108|252:154|252:154|233:198|259:232|259:232|291:278|268:324|268:324|310:265|389:291,1,510.000019454957,2|0,0:0|0:0,0:0:0:0:
168,172,129172,6,0,B|133:162|101:177|101:177|69:191|23:170,2,127.500004863739
396,86,130153,6,0,B|408:36|367:-2|309:-10|258:41|270:109|330:133|330:133|314:184|314:184|341:240,1,382.500014591218,4|0,0:0|0:0,0:0:0:0:
109,322,131461,6,0,B|182:313|182:313|224:328|224:328|296:316,1,191.250007295609,2|0,0:0|0:0,0:0:0:0:
267,158,132115,2,0,P|189:181|241:243,1,191.250007295609
341,122,132769,6,0,B|322:77|272:72|272:72|279:13|337:-11|419:15|442:63|448:122|448:122|426:167|426:167|424:219|459:270,1,510.000019454957,2|0,0:0|0:0,0:0:0:0:
254,282,134403,6,0,B|262:237|262:237|254:209|254:209|266:157,2,127.500004863739
104,156,135384,6,0,B|164:120|164:120|144:284|144:284|64:228,1,318.750012159348,4|0,0:0|0:0,0:0:0:0:
12,176,136365,1,0,0:0:0:0:
36,88,136529,1,2,0:0:0:0:
116,48,136692,1,0,0:0:0:0:
116,48,136774,2,0,B|136:28|176:16|216:36|232:64|232:64|280:40|280:40|348:60|348:60|304:88,1,286.875010943413,2|0,0:0|0:0,0:0:0:0:
260,140,137673,1,0,0:0:0:0:
240,228,137837,1,2,0:0:0:0:
272,312,138000,6,0,B|196:316|196:316|164:336|164:336|84:340,1,191.250007295609,4|0,0:0|0:0,0:0:0:0:
43,231,138654,2,0,B|155:224|155:224|141:265|141:265|96:268,1,191.250007295609
76,153,139308,6,0,B|160:147|160:147|211:153|242:197|229:240,1,191.250007295609,2|0,0:0|0:0,0:0:0:0:
306,22,139962,2,0,B|250:88|318:155|318:155|333:129|313:96,1,191.250007295609,2|0,0:0|0:0,0:0:0:0:
495,198,140616,6,0,B|463:187|434:200|408:235|415:272|415:272|380:249|372:207|372:207|299:261|289:186|207:243,1,382.500014591218,4|0,0:0|0:0,0:0:0:0:
16,294,141924,2,0,B|42:312|74:315|105:301|124:278|124:278|138:313|171:334|203:342|242:330,1,255.000009727478,2|0,0:0|0:0,0:0:0:0:
299,269,142741,1,0,0:0:0:0:
332,186,142905,1,0,0:0:0:0:
320,97,143068,1,2,0:0:0:0:
283,15,143232,6,0,B|224:49|232:113|232:113|189:85|189:85|165:108|122:121|122:121|169:159|169:159|128:176|116:211,1,382.500014591218,4|0,0:0|0:0,0:0:0:0:
272,344,144540,5,0,1:0:0:0:
268,324,144621,1,0,1:0:0:0:
265,307,144703,1,0,1:0:0:0:
263,291,144785,1,0,1:0:0:0:
260,274,144866,1,0,1:0:0:0:
257,257,144948,1,0,1:0:0:0:
255,240,145030,1,0,1:0:0:0:
252,224,145112,1,0,1:0:0:0:
249,206,145193,5,0,1:0:0:0:
251,187,145276,1,0,1:0:0:0:
253,170,145358,1,0,1:0:0:0:
254,153,145440,1,0,1:0:0:0:
256,137,145521,5,2,0:0:0:0:
215,154,145602,1,2,0:0:0:0:
169,157,145684,1,2,0:0:0:0:
127,146,145766,1,2,0:0:0:0:
90,121,145848,6,0,B|61:90|46:63|46:63|110:64|110:64|154:36|154:36|204:66|255:42|255:42|305:17|375:45|381:108|366:159|326:172,1,510,4|0,0:3|0:0,0:0:0:0:
250,339,147156,6,0,B|210:334|169:300|140:248|148:184|203:114|281:115|342:162|342:162|398:210|465:184,1,510,2|0,0:0|0:0,0:0:0:0:
270,239,148463,6,0,B|216:215|169:220|131:255|124:307|124:307|44:295|44:295|46:245|84:204|84:204|30:179|14:109|43:68|91:40|136:39|191:74|189:136,1,680,2|0,0:0|0:0,0:0:0:0:
356,185,150098,6,0,L|359:133,2,42.5,2|0|0,0:0|0:0|0:0,0:0:0:0:
287,42,150425,6,0,L|284:94,2,42.5,2|0|0,0:0|0:0|0:0,0:0:0:0:
203,179,150752,6,0,L|206:127,3,42.5,2|0|0|0,0:0|0:0|0:0|0:0,0:0:0:0:
156,42,151079,5,2,0:0:0:0:
138,53,151160,1,0,0:0:0:0:
123,68,151242,1,0,0:0:0:0:
111,86,151324,1,0,0:0:0:0:
103,105,151405,1,0,0:0:0:0:
98,126,151487,1,0,0:0:0:0:
99,147,151569,1,0,0:0:0:0:
103,168,151651,1,0,0:0:0:0:
111,188,151732,5,0,0:0:0:0:
123,205,151814,1,0,0:0:0:0:
138,218,151897,2,0,L|135:276,1,42.5
231,123,152060,2,0,L|228:80,3,42.5,2|0|0|0,0:0|0:0|0:0|0:0,0:0:0:0:
208,276,152387,5,2,0:0:0:0:
226,288,152468,1,0,0:0:0:0:
245,296,152550,1,0,0:0:0:0:
266,301,152632,1,0,0:0:0:0:
287,301,152713,1,0,0:0:0:0:
308,298,152795,1,0,0:0:0:0:
328,290,152877,1,0,0:0:0:0:
346,279,152959,1,0,0:0:0:0:
361,264,153040,5,2,0:0:0:0:
374,249,153123,1,0,0:0:0:0:
392,238,153205,1,0,0:0:0:0:
412,230,153287,1,0,0:0:0:0:
433,227,153369,1,0,0:0:0:0:
454,227,153450,1,0,0:0:0:0:
475,232,153532,1,0,0:0:0:0:
494,240,153614,1,0,0:0:0:0:
511,254,153695,6,0,L|505:204,3,42.5,2|0|0|0,0:0|0:0|0:0|0:0,0:0:0:0:
433,80,154022,2,0,L|427:122,3,42.5
386,209,154349,5,0,0:0:0:0:
356,198,154430,1,0,0:0:0:0:
324,196,154512,1,2,0:0:0:0:
293,202,154594,1,2,0:0:0:0:
264,216,154675,1,2,0:0:0:0:
235,230,154758,1,2,0:0:0:0:
204,236,154840,1,2,0:0:0:0:
172,234,154922,1,2,0:0:0:0:
155,222,155003,5,0,1:0:0:0:
155,222,155085,1,0,0:0:0:0:
155,222,155166,1,0,0:0:0:0:
155,222,155248,1,0,0:0:0:0:
155,222,155330,2,0,L|158:274,3,42.5,2|0|0|0,0:0|0:0|0:0|0:0,0:0:0:0:
213,121,155657,2,0,L|215:78,3,42.5,2|0|0|0,0:0|0:0|0:0|0:0,0:0:0:0:
266,250,155984,2,0,L|268:292,3,42.5,2|0|0|0,0:0|0:0|0:0|0:0,0:0:0:0:
308,113,156311,6,0,B|375:99|361:136|434:122,1,127.5,4|0,1:0|0:0,0:0:0:0:
411,3,156638,2,0,P|407:26|404:50,1,42.5
336,190,156801,2,0,P|340:213|343:237,1,42.5,2|2,0:0|0:0,0:0:0:0:
488,307,156965,6,0,P|462:298|426:296,1,42.5
291,329,157128,2,0,P|311:325|331:317,1,42.5,2|2,0:0|0:0,0:0:0:0:
219,210,157292,1,0,0:0:0:0:
177,218,157373,1,0,0:0:0:0:
142,241,157455,1,2,0:0:0:0:
119,277,157537,1,2,0:0:0:0:
111,318,157619,6,0,L|70:311,1,42.5
55,145,157782,1,2,0:0:0:0:
55,145,157864,1,2,0:0:0:0:
55,145,157946,2,0,P|61:169|63:186,1,42.5
200,339,158109,2,0,P|202:317|208:297,1,42.5,2|2,0:0|0:0,0:0:0:0:
289,168,158273,5,0,0:0:0:0:
259,198,158354,1,0,0:0:0:0:
219,210,158436,1,2,0:0:0:0:
178,202,158518,1,2,0:0:0:0:
146,174,158599,1,0,0:0:0:0:
131,135,158681,1,0,0:0:0:0:
137,93,158763,1,2,0:0:0:0:
163,60,158845,1,2,0:0:0:0:
201,43,158927,6,0,L|295:43,1,85,4|0,1:0|0:0,0:0:0:0:
371,230,159254,2,0,L|372:178,1,42.5
441,48,159417,2,0,L|441:90,1,42.5,2|2,0:0|0:0,0:0:0:0:
455,251,159581,6,0,L|460:345,1,85,0|2,0:0|0:0,0:0:0:0:
420,349,159826,1,2,0:0:0:0:
378,342,159908,1,0,0:0:0:0:
344,317,159990,1,0,0:0:0:0:
325,280,160071,1,2,0:0:0:0:
326,238,160153,1,2,0:0:0:0:
346,201,160235,6,0,L|254:202,1,85,4|0,1:0|0:0,0:0:0:0:
162,25,160562,1,0,0:0:0:0:
119,25,160643,1,0,0:0:0:0:
82,45,160725,1,2,0:0:0:0:
58,79,160807,1,2,0:0:0:0:
52,121,160888,6,0,L|57:211,1,85,4|2,1:2|0:0,0:0:0:0:
59,238,161134,1,2,0:0:0:0:
101,239,161216,1,0,0:0:0:0:
138,259,161298,1,0,0:0:0:0:
174,278,161380,1,2,0:0:0:0:
216,279,161461,1,2,0:0:0:0:
255,261,161542,6,0,P|295:251|338:253,1,85,4|2,1:0|0:0,0:0:0:0:
497,345,161869,1,0,0:0:0:0:
493,325,161950,1,0,0:0:0:0:
492,303,162032,1,2,0:0:0:0:
495,282,162114,1,2,0:0:0:0:
501,261,162196,5,0,0:0:0:0:
512,221,162277,1,0,0:0:0:0:
506,179,162359,1,2,0:0:0:0:
483,144,162441,1,2,0:0:0:0:
445,129,162522,5,0,0:0:0:0:
403,135,162604,1,0,0:0:0:0:
363,123,162686,1,0,1:0:0:0:
331,95,162768,1,2,0:0:0:0:
299,65,162850,5,4,1:2:0:0:
259,53,162932,1,0,0:0:0:0:
217,59,163013,1,2,0:0:0:0:
181,81,163095,1,0,0:0:0:0:
159,117,163177,2,0,L|142:164,1,42.5
263,303,163341,2,0,L|255:262,1,42.5,2|2,0:0|0:0,0:0:0:0:
54,249,163504,6,0,L|97:262,1,42.5
253,155,163668,2,0,L|296:164,1,42.5,2|2,0:0|0:0,0:0:0:0:
369,333,163831,1,0,0:0:0:0:
430,336,163912,1,0,0:0:0:0:
484,302,163994,1,0,1:0:0:0:
505,244,164076,1,2,0:0:0:0:
488,183,164158,6,0,L|469:139,1,42.5,4|0,1:0|0:0,0:0:0:0:
326,20,164322,1,2,0:0:0:0:
307,70,164404,1,2,0:0:0:0:
317,125,164486,1,2,0:0:0:0:
352,166,164567,1,0,0:0:0:0:
386,207,164648,1,0,1:0:0:0:
397,260,164730,1,0,0:0:0:0:
378,312,164812,5,4,1:2:0:0:
338,348,164893,1,0,0:0:0:0:
283,358,164975,1,2,0:0:0:0:
232,339,165057,1,2,0:0:0:0:
196,299,165139,5,0,0:0:0:0:
159,258,165221,1,0,0:0:0:0:
108,240,165303,1,0,1:0:0:0:
54,249,165385,1,0,0:0:0:0:
14,286,165466,5,4,1:0:0:0:
14,286,165548,1,0,0:0:0:0:
14,286,165630,2,0,L|58:298,1,42.5
244,175,165793,5,0,1:0:0:0:
244,175,165875,1,0,0:0:0:0:
244,175,165957,2,0,L|200:187,1,42.5
371,340,166120,5,8,1:0:0:0:
375,276,166201,1,8,1:0:0:0:
379,212,166283,1,8,1:0:0:0:
383,149,166365,1,8,1:0:0:0:
387,84,166447,2,0,L|327:77,1,50.9999984436036,12|8,1:0|1:0,0:0:0:0:
176,274,166611,2,0,L|236:267,1,50.9999984436036,8|8,1:0|1:0,0:0:0:0:
231,49,166774,6,0,P|162:45|94:63,1,140.25000428009,4|0,1:3|0:0,0:0:0:0:
45,187,167101,2,0,L|104:172,1,46.7500014266968
289,186,167265,1,2,0:0:0:0:
289,186,167346,1,2,0:0:0:0:
289,186,167428,2,0,L|230:171,1,46.7500014266968,0|0,1:0|0:0,0:0:0:0:
72,266,167591,2,0,L|141:246,1,46.7500014266968,2|2,0:0|0:0,0:0:0:0:
267,318,167755,2,0,L|267:272,1,46.7500014266968
161,73,167918,2,0,L|157:118,1,46.7500014266968,2|2,0:0|0:0,0:0:0:0:
345,116,168082,6,0,L|356:60,1,46.7500014266968,0|0,1:0|0:0,0:0:0:0:
464,244,168245,2,0,L|432:241,2,31.1666676177979,2|2|2,0:0|0:0|0:0,0:0:0:0:
487,246,168409,2,0,L|499:197,1,46.7500014266968,0|0,1:0|0:0,0:0:0:0:
299,280,168572,2,0,L|291:326,1,46.7500014266968,2|2,0:0|0:0,0:0:0:0:
345,116,168736,5,0,1:0:0:0:
304,93,168817,1,0,0:0:0:0:
258,85,168899,1,2,0:0:0:0:
212,93,168981,1,2,0:0:0:0:
171,115,169063,5,0,0:0:0:0:
192,169,169144,1,0,0:0:0:0:
192,227,169226,1,2,0:0:0:0:
170,281,169308,1,2,0:0:0:0:
131,323,169390,6,0,P|91:268|87:193,1,140.25000428009,0|0,1:0|0:0,0:0:0:0:
238,225,169717,2,0,L|192:227,1,46.7500014266968
258,85,169880,1,2,0:0:0:0:
275,100,169961,1,2,0:0:0:0:
293,117,170044,6,0,L|329:149,1,46.7500014266968,0|0,1:0|0:0,0:0:0:0:
436,60,170207,1,2,0:0:0:0:
437,82,170288,1,2,0:0:0:0:
438,107,170371,2,0,L|440:155,1,46.7500014266968,0|0,1:0|0:0,0:0:0:0:
433,343,170534,1,2,0:0:0:0:
433,319,170615,1,2,0:0:0:0:
432,294,170698,5,0,1:0:0:0:
390,276,170779,1,0,0:0:0:0:
344,274,170861,1,2,0:0:0:0:
300,289,170943,1,2,0:0:0:0:
264,318,171025,5,0,1:0:0:0:
242,339,171106,1,0,0:0:0:0:
216,354,171188,1,2,0:0:0:0:
187,363,171270,1,2,0:0:0:0:
138,354,171352,5,0,1:0:0:0:
99,329,171433,1,0,0:0:0:0:
75,290,171515,1,0,1:0:0:0:
69,244,171597,1,2,0:0:0:0:
83,199,171679,5,0,1:0:0:0:
100,146,171761,1,0,1:0:0:0:
93,91,171843,1,0,1:0:0:0:
63,44,171925,1,0,1:0:0:0:
17,14,172006,6,0,B|109:16|109:16|157:34,1,127.500004863739,4|2,1:0|0:0,0:0:0:0:
210,123,172251,1,2,0:0:0:0:
210,123,172333,2,0,B|231:80|231:80|233:37|212:-9,1,127.500004863739,4|2,1:2|0:0,0:0:0:0:
152,186,172578,1,2,0:0:0:0:
152,186,172660,6,0,B|206:212|206:212|273:181,1,127.500004863739,4|0,1:0|1:0,0:0:0:0:
301,156,172905,1,0,1:0:0:0:
344,146,172987,1,0,1:0:0:0:
389,151,173068,1,0,0:0:0:0:
434,170,173150,1,0,1:0:0:0:
471,202,173232,1,0,0:0:0:0:
489,238,173314,6,0,P|466:300|414:293,1,127.500004863739,4|2,1:0|0:0,0:0:0:0:
344,229,173559,1,2,0:0:0:0:
344,229,173641,2,0,B|334:179|334:179|341:149|341:149|331:86,1,127.500004863739,4|0,1:2|1:0,0:0:0:0:
485,33,173886,1,2,0:0:0:0:
485,33,173968,6,0,B|446:12|446:12|398:13|362:34,1,127.500004863739,4|0,1:0|1:0,0:0:0:0:
278,34,174213,1,0,1:2:0:0:
278,34,174295,2,0,L|215:27,1,63.7500024318696,8|8,1:0|1:0,0:0:0:0:
430,136,174458,2,0,L|497:120,1,63.7500024318696,8|8,1:0|1:0,0:0:0:0:
241,126,174621,6,0,B|195:141|150:110|150:110|134:139|103:143,1,152.999995330811,4|0,1:0|0:0,0:0:0:0:
61,137,174948,1,8,1:0:0:0:
66,184,175029,1,8,1:0:0:0:
72,231,175111,1,8,1:0:0:0:
78,279,175193,1,8,1:0:0:0:
85,329,175275,6,0,P|135:336|183:322,1,101.999996887207,4|0,1:2|1:0,0:0:0:0:
268,262,175521,1,0,1:0:0:0:
268,262,175602,2,0,P|295:253|327:249,1,50.9999984436036,8|8,1:0|1:0,0:0:0:0:
446,300,175766,2,0,P|471:295|495:287,1,50.9999984436036,8|8,1:0|1:0,0:0:0:0:
438,85,175929,5,4,1:0:0:0:
434,104,176011,1,0,0:0:0:0:
428,123,176093,2,0,L|415:167,3,25.4999992218018,0|0|0|0,1:0|1:0|1:0|1:0,0:0:0:0:
413,167,176256,2,0,L|349:161,1,50.9999984436036,4|0,1:2|0:0,0:0:0:0:
208,78,176420,2,0,L|272:72,1,50.9999984436036,8|8,1:0|1:0,0:0:0:0:
354,249,176583,5,12,1:0:0:0:
310,221,176664,1,8,1:0:0:0:
260,216,176746,1,8,1:0:0:0:
212,233,176828,1,8,1:0:0:0:
171,273,176910,5,4,1:2:0:0:
118,291,176991,1,0,1:0:0:0:
63,281,177074,2,0,P|51:270|38:251,3,25.4999992218018,0|0|0|0,1:0|1:0|1:0|1:0,0:0:0:0:
33,240,177237,6,0,P|66:173|43:92,1,152.999995330811,4|0,1:3|0:0,0:0:0:0:
15,30,177564,1,8,0:0:0:0:
103,31,177673,1,2,0:0:0:0:
191,35,177782,1,2,0:0:0:0:
265,83,177891,5,0,1:0:0:0:
353,81,178000,1,2,0:0:0:0:
397,3,178109,1,2,0:0:0:0:
308,0,178218,5,8,0:0:0:0:
265,83,178327,1,2,0:0:0:0:
310,158,178436,1,2,0:0:0:0:
398,162,178545,6,0,L|389:269,1,101.999996887207,0|2,1:0|0:0,0:0:0:0:
386,287,178763,2,0,L|382:324,2,33.9999989624024,2|2|8,0:0|0:0|0:0,0:0:0:0:
265,83,179036,1,2,0:0:0:0:
265,83,179117,1,2,0:0:0:0:
265,83,179199,2,0,P|212:63|157:78,1,101.999996887207,0|2,1:0|0:0,0:0:0:0:
101,128,179444,1,2,0:0:0:0:
101,128,179526,2,0,B|120:186|120:186|111:240|111:240|161:215,1,152.999995330811,8|2,0:0|0:0,0:0:0:0:
217,192,179853,5,0,1:0:0:0:
255,185,179934,1,0,0:0:0:0:
292,193,180016,1,2,0:0:0:0:
324,213,180098,1,2,0:0:0:0:
347,244,180180,1,8,0:0:0:0:
356,281,180262,1,0,0:0:0:0:
352,318,180343,1,2,0:0:0:0:
331,351,180425,1,2,0:0:0:0:
291,364,180507,5,0,1:0:0:0:
269,320,180589,1,0,0:0:0:0:
265,272,180671,1,2,0:0:0:0:
280,227,180753,1,2,0:0:0:0:
316,194,180834,1,8,0:0:0:0:
360,180,180917,1,0,0:0:0:0:
404,166,180997,1,2,0:0:0:0:
437,132,181079,1,2,0:0:0:0:
452,87,181161,5,0,1:0:0:0:
401,83,181242,1,0,0:0:0:0:
350,80,181324,1,2,0:0:0:0:
299,77,181406,1,2,0:0:0:0:
250,76,181488,1,8,0:0:0:0:
201,89,181569,1,0,0:0:0:0:
166,125,181651,1,2,0:0:0:0:
155,175,181733,1,2,0:0:0:0:
171,222,181815,6,0,P|186:253|201:272,1,50.9999984436036,0|0,1:0|0:0,0:0:0:0:
350,80,181978,1,2,0:0:0:0:
350,80,182060,1,2,0:0:0:0:
350,80,182142,2,0,P|351:51|350:26,1,50.9999984436036,8|0,0:0|0:0,0:0:0:0:
157,87,182305,2,0,L|107:88,1,50.9999984436036,0|0,1:0|0:0,0:0:0:0:
316,194,182469,6,0,B|431:186|431:186|405:221,1,152.999995330811,4|0,1:0|0:0,0:0:0:0:
363,278,182796,1,8,0:0:0:0:
274,279,182905,1,2,0:0:0:0:
227,204,183014,1,2,0:0:0:0:
259,121,183123,5,0,1:0:0:0:
203,51,183232,1,2,0:0:0:0:
114,55,183341,1,2,0:0:0:0:
26,65,183450,5,8,0:0:0:0:
79,135,183559,1,2,0:0:0:0:
42,215,183668,1,2,0:0:0:0:
106,275,183777,6,0,P|155:268|219:265,1,101.999996887207,0|2,1:0|0:0,0:0:0:0:
230,264,183995,2,0,L|265:261,2,33.9999989624024,2|2|8,0:0|0:0|0:0,0:0:0:0:
290,36,184267,1,2,0:0:0:0:
290,36,184349,1,2,0:0:0:0:
290,36,184431,2,0,L|296:96,1,50.9999984436036,0|0,1:0|0:0,0:0:0:0:
357,240,184594,1,2,0:0:0:0:
357,240,184676,1,2,0:0:0:0:
357,240,184758,2,0,L|363:180,1,50.9999984436036,8|0,1:2|0:0,0:0:0:0:
383,20,184921,2,0,L|389:80,1,50.9999984436036,0|0,1:0|0:0,0:0:0:0:
274,219,185085,5,4,1:0:0:0:
234,250,185166,1,0,0:0:0:0:
185,262,185248,1,2,0:0:0:0:
136,250,185330,1,2,0:0:0:0:
96,218,185411,1,8,0:0:0:0:
75,172,185493,1,0,0:0:0:0:
77,123,185575,2,0,P|85:90|103:65,1,63.7500024318696,0|0,1:0|0:0,0:0:0:0:
192,142,185739,5,4,1:2:0:0:
235,168,185820,1,0,0:0:0:0:
286,169,185902,1,2,0:0:0:0:
331,147,185984,1,2,0:0:0:0:
376,124,186066,1,8,0:0:0:0:
426,125,186148,1,0,0:0:0:0:
470,151,186229,2,0,P|483:182|492:218,1,63.7500024318696,0|0,1:0|0:0,0:0:0:0:
305,301,186393,5,4,1:2:0:0:
259,290,186474,1,0,0:0:0:0:
222,259,186556,1,2,0:0:0:0:
203,215,186638,1,2,0:0:0:0:
207,168,186720,5,4,1:0:0:0:
225,134,186801,1,0,0:0:0:0:
271,101,186883,1,2,0:0:0:0:
327,97,186965,1,2,0:0:0:0:
376,124,187047,6,0,P|394:155|404:192,1,63.7500024318696,4|0,1:2|0:0,0:0:0:0:
323,331,187210,2,0,L|313:296,3,31.8750012159348,0|0|0|0,1:0|1:0|1:0|1:0,0:0:0:0:
350,339,187374,2,0,L|328:270,1,63.7500024318696,12|0,1:0|0:0,0:0:0:0:
157,193,187537,2,0,L|173:257,1,63.7500024318696,8|0,1:0|0:0,0:0:0:0:
271,101,187700,6,0,B|224:76|224:76|171:68|127:94,1,152.999995330811,4|0,1:2|0:0,0:0:0:0:
79,154,188027,5,8,0:0:0:0:
69,228,188136,1,2,0:0:0:0:
92,299,188245,1,2,0:0:0:0:
145,351,188354,5,0,1:0:0:0:
195,349,188435,1,0,0:0:0:0:
246,347,188517,1,2,0:0:0:0:
297,345,188599,1,2,0:0:0:0:
348,343,188681,2,0,L|406:341,1,50.9999984436036,8|0,0:0|0:0,0:0:0:0:
283,114,188845,5,2,0:0:0:0:
205,115,188926,1,2,0:0:0:0:
129,115,189008,1,4,1:0:0:0:
394,166,189172,5,2,2:0:0:0:
392,104,189253,1,2,2:0:0:0:
392,43,189335,1,4,1:2:0:0:
349,261,189499,5,2,2:0:0:0:
398,261,189580,1,2,2:0:0:0:
447,260,189662,1,4,1:0:0:0:
247,218,189826,5,2,2:0:0:0:
246,257,189907,1,2,2:0:0:0:
246,296,189990,2,0,L|246:349,1,50.9999984436036,4|0,1:2|0:0,0:0:0:0:
391,154,190153,2,0,L|391:103,1,50.9999984436036,0|0,1:0|0:0,0:0:0:0:
222,0,190316,6,0,B|232:58|232:58|218:87|218:87|237:154,1,152.999995330811,4|0,1:0|0:0,0:0:0:0:
198,213,190643,1,8,0:0:0:0:
125,209,190752,1,2,0:0:0:0:
68,161,190861,1,2,0:0:0:0:
68,86,190970,6,0,L|61:20,1,50.9999984436036,0|0,1:0|0:0,0:0:0:0:
272,111,191133,2,0,L|227:153,1,50.9999984436036,2|2,0:0|0:0,0:0:0:0:
89,286,191297,2,0,L|142:296,1,50.9999984436036,8|0,0:0|0:0,0:0:0:0:
387,137,191461,5,2,0:0:0:0:
310,141,191542,1,2,0:0:0:0:
234,145,191624,1,4,1:0:0:0:
484,188,191788,5,2,0:0:0:0:
480,126,191869,1,2,0:0:0:0:
477,65,191951,1,4,1:2:0:0:
316,223,192115,5,2,0:0:0:0:
319,272,192196,1,2,0:0:0:0:
321,320,192279,2,0,L|324:382,1,50.9999984436036,4|0,1:0|0:0,0:0:0:0:
384,86,192442,2,0,L|386:136,1,50.9999984436036,0|0,1:0|0:0,0:0:0:0:
204,203,192606,2,0,L|201:152,1,50.9999984436036,4|0,1:2|0:0,0:0:0:0:
419,305,192769,2,0,L|417:255,1,50.9999984436036,0|0,1:0|0:0,0:0:0:0:
219,43,192932,6,0,B|184:41|154:73|154:73|114:53|72:71,1,152.999995330811,4|0,1:0|0:0,0:0:0:0:
2,53,193258,1,8,0:0:0:0:
20,126,193367,1,2,0:0:0:0:
38,198,193476,1,2,0:0:0:0:
108,163,193585,5,4,1:2:0:0:
159,160,193668,1,0,0:0:0:0:
206,180,193750,1,2,0:0:0:0:
238,219,193830,1,2,0:0:0:0:
249,268,193913,2,0,P|241:292|230:319,1,50.9999984436036,8|0,0:0|0:0,0:0:0:0:
175,82,194076,5,2,0:0:0:0:
248,102,194157,1,2,0:0:0:0:
293,162,194239,1,4,1:0:0:0:
152,317,194403,5,2,0:0:0:0:
147,258,194485,1,2,0:0:0:0:
179,206,194567,1,4,1:2:0:0:
372,278,194730,5,2,0:0:0:0:
324,291,194811,1,2,0:0:0:0:
280,273,194893,1,4,1:0:0:0:
354,75,195057,5,2,0:0:0:0:
387,95,195138,1,2,0:0:0:0:
402,131,195221,2,0,P|400:162|391:195,1,50.9999984436036,4|0,1:2|0:0,0:0:0:0:
175,82,195384,2,0,P|180:57|191:34,1,50.9999984436036,0|0,1:2|0:0,0:0:0:0:
339,138,195548,6,0,P|368:131|408:131,1,63.7500024318696,4|0,1:0|0:0,0:0:0:0:
173,246,195711,2,0,P|143:252|104:253,1,63.7500024318696,0|0,1:0|0:0,0:0:0:0:
376,243,195875,6,0,P|377:283|375:316,1,63.7500024318696,4|0,1:2|0:0,0:0:0:0:
136,141,196039,2,0,P|135:101|137:68,1,63.7500024318696,0|0,1:0|0:0,0:0:0:0:
360,325,196202,6,0,P|408:329|457:328,1,63.7500024318696,4|0,1:2|0:0,0:0:0:0:
151,325,196365,2,0,P|103:329|54:328,1,63.7500024318696,0|0,1:0|0:0,0:0:0:0:
395,69,196529,6,0,P|427:62|461:57,1,63.7500024318696,4|0,1:2|0:0,0:0:0:0:
117,69,196693,2,0,P|85:62|51:57,1,63.7500024318696,0|0,1:0|1:0,0:0:0:0:
151,325,196856,5,4,1:0:0:0:
211,343,196937,1,0,1:0:0:0:
273,329,197019,1,2,1:2:0:0:
320,288,197101,1,0,1:0:0:0:
342,229,197182,1,4,1:2:0:0:
333,166,197264,1,0,1:0:0:0:
295,116,197346,1,2,1:2:0:0:
237,90,197428,1,0,1:0:0:0:
175,95,197510,6,0,L|135:106,6,31.8750012159348,4|0|0|0|0|0|0,1:0|1:0|1:0|1:0|1:0|1:0|1:0,0:0:0:0:
50,161,197837,1,2,1:2:0:0:
54,185,197918,1,2,0:0:0:0:
58,209,198000,1,2,0:0:0:0:
62,232,198082,1,0,0:0:0:0:
67,257,198164,5,4,1:3:0:0:
106,284,198245,1,0,0:0:0:0:
152,293,198327,1,2,0:0:0:0:
198,281,198409,1,0,0:0:0:0:
236,252,198490,1,8,1:0:0:0:
272,222,198572,1,0,0:0:0:0:
318,211,198654,1,2,0:0:0:0:
364,219,198736,1,0,0:0:0:0:
403,247,198818,5,0,1:0:0:0:
366,277,198900,1,0,0:0:0:0:
320,288,198982,1,2,0:0:0:0:
274,280,199064,1,0,0:0:0:0:
235,252,199145,1,8,1:0:0:0:
205,215,199227,1,0,0:0:0:0:
194,169,199309,1,2,0:0:0:0:
202,123,199391,1,0,0:0:0:0:
230,84,199472,5,0,1:0:0:0:
267,54,199554,1,0,0:0:0:0:
313,43,199636,1,2,0:0:0:0:
359,51,199718,1,0,0:0:0:0:
398,79,199799,1,8,1:0:0:0:
428,116,199881,1,0,0:0:0:0:
439,162,199963,1,2,0:0:0:0:
431,208,200045,1,0,0:0:0:0:
403,247,200126,5,0,1:0:0:0:
364,219,200207,1,0,0:0:0:0:
318,211,200289,1,2,0:0:0:0:
272,222,200371,1,0,0:0:0:0:
235,252,200453,1,8,1:0:0:0:
198,282,200535,1,0,0:0:0:0:
152,293,200617,1,2,0:0:0:0:
106,285,200699,1,0,0:0:0:0:
67,250,200780,5,4,1:0:0:0:
115,210,200861,1,0,0:0:0:0:
175,195,200943,1,2,0:0:0:0:
236,206,201025,1,2,0:0:0:0:
288,243,201106,1,8,1:0:0:0:
340,280,201187,1,0,0:0:0:0:
401,291,201270,2,0,P|434:280|465:260,1,63.7500024318696,2|0,0:0|0:0,0:0:0:0:
334,51,201433,5,4,1:2:0:0:
270,47,201514,1,0,0:0:0:0:
211,69,201596,1,0,0:0:0:0:
166,113,201678,1,0,0:0:0:0:
144,172,201759,1,8,1:0:0:0:
147,236,201841,1,8,0:1:0:0:
176,292,201924,2,8,P|199:314|230:333,1,63.7500024318696,8|8,0:1|0:1,0:1:0:0:
242,104,202087,6,0,L|166:113,1,76.4999976654053,4|0,1:0|0:0,0:0:0:0:
418,208,202251,2,0,L|485:199,2,50.9999984436036,0|0|0,1:0|1:2|1:0,0:0:0:0:
434,154,202414,1,4,1:2:0:0:
424,108,202495,1,0,0:2:0:0:
400,67,202577,1,0,1:0:0:0:
364,36,202659,1,0,0:0:0:0:
288,15,202740,5,4,1:0:0:0:
213,38,202822,1,0,1:0:0:0:
165,100,202904,1,0,1:0:0:0:
158,178,202985,1,0,1:0:0:0:
185,253,203068,2,0,L|203:280,12,19.1249994163513,4|0|0|0|0|0|0|0|0|0|0|0|0,0:2|3:0|3:0|3:0|3:0|3:0|3:0|3:0|3:0|3:0|3:0|3:0|3:0,0:0:0:0:
293,160,203395,6,0,L|328:288,1,127.5,4|0,1:0|0:0,0:0:0:0:
264,344,203722,5,2,0:0:0:0:
222,351,203803,1,0,0:0:0:0:
172,344,203886,5,2,0:0:0:0:
130,351,203967,1,0,0:0:0:0:
80,344,204049,5,2,0:0:0:0:
69,345,204130,1,0,0:0:0:0:
59,347,204212,1,0,0:0:0:0:
48,349,204294,1,0,0:0:0:0:
16,312,204376,5,2,0:0:0:0:
26,310,204457,1,0,0:0:0:0:
36,308,204539,1,0,0:0:0:0:
47,306,204621,1,0,0:0:0:0:
97,299,204703,6,0,L|88:245,1,42.5,2|0,0:0|0:0,0:0:0:0:
144,113,204867,1,0,0:0:0:0:
144,113,204948,1,0,0:0:0:0:
144,113,205030,2,0,L|153:167,1,42.5,2|0,0:0|0:0,0:0:0:0:
235,280,205194,2,0,L|226:226,1,42.5
54,162,205357,6,0,P|33:159|7:161,1,42.5,2|0,0:0|0:0,0:0:0:0:
239,128,205521,2,0,P|257:117|282:110,1,42.5
422,178,205684,1,2,0:0:0:0:
434,218,205765,1,0,0:0:0:0:
427,259,205847,1,0,0:0:0:0:
404,294,205929,1,0,0:0:0:0:
367,315,206011,6,0,P|314:315|256:272,1,127.5,4|0,0:1|0:0,0:0:0:0:
200,189,206338,5,2,0:0:0:0:
241,196,206419,1,0,0:0:0:0:
292,189,206502,5,2,0:0:0:0:
334,196,206583,1,0,0:0:0:0:
384,189,206665,5,2,0:0:0:0:
394,190,206746,1,0,0:0:0:0:
404,192,206828,1,0,0:0:0:0:
415,194,206910,1,0,0:0:0:0:
464,182,206992,5,2,0:0:0:0:
474,184,207073,1,0,0:0:0:0:
484,186,207155,1,0,0:0:0:0:
495,188,207237,1,0,0:0:0:0:
505,189,207319,6,0,L|501:144,1,42.5,2|0,0:0|0:0,0:0:0:0:
390,36,207482,1,0,0:0:0:0:
390,36,207564,1,0,0:0:0:0:
390,36,207646,2,0,L|386:78,1,42.5,2|0,0:0|0:0,0:0:0:0:
337,238,207809,2,0,L|333:195,1,42.5
259,78,207973,2,0,P|224:70|195:73,1,42.5,2|0,0:0|0:0,0:0:0:0:
171,233,208136,2,0,L|174:190,1,42.5
96,21,208300,2,0,L|92:63,1,42.5,2|0,0:0|0:0,0:0:0:0:
0,168,208463,2,0,P|20:175|42:177,1,42.5
248,172,208627,5,2,0:0:0:0:
292,154,208709,1,0,0:0:0:0:
327,155,208791,1,0,0:0:0:0:
352,162,208872,1,0,0:0:0:0:
373,171,208954,5,2,0:0:0:0:
399,174,209036,1,0,3:0:0:0:
434,169,209118,1,0,3:0:0:0:
475,145,209200,1,0,3:0:0:0:
498,104,209281,6,0,L|494:62,3,42.5,4|0|0|0,0:1|3:0|3:0|3:0,0:0:0:0:
341,66,209608,2,0,L|336:23,3,42.5,0|0|0|0,3:0|3:0|3:0|3:0,0:0:0:0:
248,172,209935,5,2,0:0:0:0:
222,175,210017,1,0,0:0:0:0:
187,170,210099,1,0,0:0:0:0:
146,146,210180,1,0,0:0:0:0:
120,108,210262,5,2,0:0:0:0:
128,156,210344,1,0,3:0:0:0:
121,190,210426,1,0,3:0:0:0:
108,213,210508,1,0,3:0:0:0:
96,228,210589,6,0,L|100:270,3,42.5,4|0|0|0,0:1|3:0|3:0|3:0,0:0:0:0:
248,172,210916,2,0,L|243:129,3,42.5,0|0|0|0,3:0|3:0|3:0|3:0,0:0:0:0:
196,277,211243,5,2,0:0:0:0:
242,275,211325,1,0,0:0:0:0:
275,273,211407,1,0,0:0:0:0:
300,271,211488,1,0,0:0:0:0:
354,338,211570,5,2,0:0:0:0:
379,336,211651,1,0,3:0:0:0:
412,334,211733,1,0,3:0:0:0:
458,332,211815,1,0,3:0:0:0:
509,328,211897,6,0,L|503:278,3,42.5,2|0|0|0,0:0|3:0|3:0|3:0,0:0:0:0:
400,171,212224,2,0,L|406:221,3,42.5,2|0|0|0,0:0|3:0|3:0|3:0,0:0:0:0:
354,338,212551,6,0,L|348:288,3,42.5,2|0|0|0,0:0|3:0|3:0|3:0,0:0:0:0:
227,156,212878,2,0,L|233:206,3,42.5,2|0|0|0,0:0|3:0|3:0|3:0,0:0:0:0:
225,344,213205,6,0,L|219:294,3,42.5,2|0|0|0,0:0|3:0|3:0|3:0,0:0:0:0:
64,145,213532,2,0,L|70:195,3,42.5,2|0|0|0,0:0|3:0|3:0|3:0,0:0:0:0:
55,51,213859,6,0,L|199:53,1,127.5,4|0,1:0|0:0,0:0:0:0:
275,17,214185,2,0,P|279:38|286:58,1,42.5,2|0,0:0|0:0,0:0:0:0:
390,167,214348,2,0,P|385:147|379:126,1,42.5,2|0,0:0|0:0,0:0:0:0:
236,169,214512,2,0,L|278:163,1,42.5,2|0,0:0|0:0,0:0:0:0:
416,30,214675,1,0,0:0:0:0:
416,30,214757,1,0,0:0:0:0:
416,30,214839,2,0,L|370:30,1,42.5,2|0,0:0|0:0,0:0:0:0:
162,199,215002,1,0,0:0:0:0:
162,199,215084,1,0,0:0:0:0:
162,199,215166,6,0,L|224:195,1,42.5,2|0,0:0|0:0,0:0:0:0:
359,246,215329,2,0,L|318:256,1,42.5,2|0,0:0|0:0,0:0:0:0:
154,110,215493,6,0,L|216:106,1,42.5,2|0,0:0|0:0,0:0:0:0:
352,157,215656,2,0,L|310:168,1,42.5,2|0,0:0|0:0,0:0:0:0:
146,19,215820,6,0,L|208:15,1,42.5,2|0,0:0|0:0,0:0:0:0:
344,66,215983,2,0,L|302:77,1,42.5,2|0,0:0|0:0,0:0:0:0:
44,71,216147,5,2,0:0:0:0:
48,113,216228,1,0,0:0:0:0:
51,155,216310,1,0,1:0:0:0:
54,198,216392,1,0,1:0:0:0:
57,240,216474,6,0,B|121:216|118:263|188:236,1,127.5,4|0,0:1|0:0,0:0:0:0:
219,154,216801,2,0,L|214:111,1,42.5,2|0,0:0|0:0,0:0:0:0:
269,241,216964,2,0,L|264:284,1,42.5
272,52,217128,2,0,P|252:39|216:25,1,42.5,2|0,0:0|0:0,0:0:0:0:
394,166,217291,1,0,0:0:0:0:
394,166,217373,1,0,0:0:0:0:
394,166,217455,2,0,L|399:209,1,42.5,2|0,0:0|0:0,0:0:0:0:
264,282,217618,2,0,L|269:325,1,42.5
291,138,217782,6,0,P|256:144|244:149,1,42.5,2|0,0:0|0:0,0:0:0:0:
133,285,217945,2,0,P|138:250|143:237,1,42.5,2|0,0:0|0:0,0:0:0:0:
294,118,218109,6,0,P|261:108|247:108,1,42.5,2|0,0:0|0:0,0:0:0:0:
89,186,218272,2,0,P|108:157|118:147,1,42.5,2|0,0:0|0:0,0:0:0:0:
302,101,218436,6,0,P|275:78|264:72,1,42.5,2|0,0:0|0:0,0:0:0:0:
89,76,218599,2,0,P|119:58|132:52,1,42.5,0|0,1:0|1:0,0:0:0:0:
263,183,218763,5,4,1:0:0:0:
314,190,218844,1,0,0:0:0:0:
361,167,218926,1,0,0:0:0:0:
387,121,219008,1,0,0:0:0:0:
382,69,219090,5,4,1:0:0:0:
364,106,219171,1,0,0:0:0:0:
360,149,219253,1,2,0:0:0:0:
371,189,219335,1,2,0:0:0:0:
397,223,219417,1,0,1:0:0:0:
422,256,219499,1,0,0:0:0:0:
433,297,219581,1,0,1:0:0:0:
429,339,219663,1,0,1:0:0:0:
411,377,219744,5,4,1:2:0:0:
364,371,219825,1,0,0:0:0:0:
318,365,219907,1,2,0:0:0:0:
271,359,219989,1,2,0:0:0:0:
231,336,220071,5,0,1:0:0:0:
184,330,220152,1,0,0:0:0:0:
138,324,220234,1,0,1:0:0:0:
91,318,220316,1,0,0:0:0:0:
45,312,220398,5,4,1:0:0:0:
27,273,220479,1,0,0:0:0:0:
24,231,220561,1,2,0:0:0:0:
36,191,220643,1,2,0:0:0:0:
62,157,220724,1,0,1:0:0:0:
98,135,220806,1,0,0:0:0:0:
140,127,220888,1,2,0:0:0:0:
181,135,220970,1,2,0:0:0:0:
218,157,221052,5,4,1:2:0:0:
258,180,221133,1,0,0:0:0:0:
304,185,221215,1,2,0:0:0:0:
348,171,221297,1,2,0:0:0:0:
378,124,221380,5,0,1:0:0:0:
330,125,221461,1,0,1:0:0:0:
288,145,221543,1,0,1:0:0:0:
258,180,221625,1,0,0:0:0:0:
244,224,221706,6,0,L|246:280,1,42.5,4|0,1:0|0:0,0:0:0:0:
167,136,221870,1,0,1:0:0:0:
167,136,221952,1,0,1:0:0:0:
167,136,222033,2,0,L|164:85,1,42.5,0|0,1:0|0:0,0:0:0:0:
273,338,222197,2,0,P|249:342|225:341,1,42.5,0|0,1:0|0:0,0:0:0:0:
289,114,222360,6,0,P|309:113|339:120,1,42.5,4|0,1:2|0:0,0:0:0:0:
130,222,222524,2,0,P|106:223|74:235,1,42.5,0|0,1:2|0:0,0:0:0:0:
311,192,222687,2,0,P|332:202|349:221,1,42.5,4|0,1:0|0:0,0:0:0:0:
123,302,222851,2,0,P|105:314|83:344,1,42.5,0|0,1:2|0:0,0:0:0:0:
286,263,223014,5,4,1:2:0:0:
280,304,223095,1,0,1:0:0:0:
297,343,223177,1,0,1:0:0:0:
331,367,223259,1,0,1:0:0:0:
373,371,223340,1,4,1:0:0:0:
411,352,223422,1,0,1:0:0:0:
434,317,223504,1,0,1:0:0:0:
436,275,223586,1,0,1:0:0:0:
417,236,223667,5,4,1:0:0:0:
393,192,223750,1,0,0:0:0:0:
396,144,223832,1,0,1:0:0:0:
422,103,223914,1,0,1:0:0:0:
467,81,223995,2,0,P|406:95|332:74,1,127.5,4|0,1:3|0:0,0:0:0:0:
209,254,224322,5,4,1:0:0:0:
471,173,224485,1,4,1:2:0:0:
260,33,224649,1,0,0:0:0:0:
264,64,224730,1,0,0:0:0:0:
267,96,224812,1,0,0:0:0:0:
270,128,224894,1,0,0:0:0:0:
273,159,224976,5,4,1:0:0:0:
504,286,225139,1,4,1:2:0:0:
191,231,225303,1,0,0:0:0:0:
188,199,225385,1,0,0:0:0:0:
184,168,225466,1,0,0:0:0:0:
180,136,225549,1,0,0:0:0:0:
178,105,225630,5,4,1:0:0:0:
429,84,225793,1,4,1:2:0:0:
83,56,225957,1,0,0:0:0:0:
87,86,226038,1,0,0:0:0:0:
93,118,226120,1,0,0:0:0:0:
99,150,226202,1,0,0:0:0:0:
104,177,226284,6,0,P|113:239|158:284,1,127.500004863739,4|0,1:0|1:0,0:0:0:0:
271,219,226529,1,0,1:0:0:0:
271,219,226611,2,0,P|261:157|216:112,1,127.500004863739,4|0,1:2|1:0,0:0:0:0:
188,199,226856,1,0,1:0:0:0:
188,199,226938,5,4,1:0:0:0:
432,168,227101,1,4,1:2:0:0:
162,49,227264,1,0,0:0:0:0:
185,39,227345,1,0,0:0:0:0:
210,34,227427,1,0,0:0:0:0:
235,34,227509,1,0,0:0:0:0:
260,40,227591,5,4,1:0:0:0:
395,277,227755,1,4,1:2:0:0:
154,188,227918,1,0,0:0:0:0:
163,163,227999,1,0,0:0:0:0:
178,142,228081,1,0,0:0:0:0:
195,125,228163,1,0,0:0:0:0:
216,112,228245,5,4,1:0:0:0:
465,77,228409,1,4,1:2:0:0:
249,293,228572,1,0,1:0:0:0:
239,269,228653,1,0,1:0:0:0:
234,244,228735,1,0,1:0:0:0:
234,219,228817,1,0,1:0:0:0:
239,199,228899,6,0,L|306:190,1,63.7500024318696,4|0,1:0|0:0,0:0:0:0:
438,85,229063,2,0,L|387:98,3,31.8750012159348,0|0|0|0,1:0|1:0|1:0|1:0,0:0:0:0:
465,77,229227,2,0,B|502:125|502:125|483:263,1,191.250007295609,4|0,1:2|0:0,0:0:0:0:
470,336,229553,6,0,L|401:316,1,63.7500024318696,4|0,1:0|0:0,0:0:0:0:
240,172,229717,2,0,L|309:192,1,63.7500024318696,4|0,1:2|0:0,0:0:0:0:
309,333,229880,1,0,1:0:0:0:
261,335,229961,1,0,0:0:0:0:
213,337,230043,1,2,0:0:0:0:
165,340,230125,1,2,0:0:0:0:
118,342,230208,6,0,L|104:271,1,63.7500024318696,4|0,1:0|0:0,0:0:0:0:
301,189,230372,2,0,L|314:275,1,63.7500024318696,4|0,1:2|0:0,0:0:0:0:
107,88,230535,1,0,1:0:0:0:
154,84,230616,1,0,0:0:0:0:
201,79,230698,1,0,1:2:0:0:
250,76,230780,1,2,0:0:0:0:
295,72,230861,6,0,L|372:64,1,63.7500024318696,4|0,1:0|0:0,0:0:0:0:
167,196,231025,2,0,L|90:188,1,63.7500024318696,4|0,1:2|1:0,0:0:0:0:
294,325,231188,1,0,1:0:0:0:
341,321,231269,1,0,1:0:0:0:
388,316,231351,1,0,1:2:0:0:
436,312,231433,1,0,1:0:0:0:
482,309,231514,6,0,L|470:231,1,63.7500024318696,4|0,1:0|0:0,0:0:0:0:
361,101,231679,1,0,1:0:0:0:
361,101,231760,1,0,1:0:0:0:
361,101,231842,2,0,L|379:238,1,127.500004863739,4|0,1:2|1:0,0:0:0:0:
273,250,232087,1,0,1:0:0:0:
273,250,232169,6,0,L|203:248,1,63.7500024318696,4|0,1:0|0:0,0:0:0:0:
2,143,232333,2,0,L|72:145,1,63.7500024318696,4|0,1:2|0:0,0:0:0:0:
129,363,232496,1,0,1:0:0:0:
132,299,232577,1,0,1:0:0:0:
136,235,232659,1,0,1:0:0:0:
139,172,232741,1,0,1:0:0:0:
143,108,232823,6,0,L|146:39,1,63.7500024318696,4|0,1:0|0:0,0:0:0:0:
249,281,232987,2,0,L|247:333,3,31.8750012159348,4|0|0|0,1:2|1:2|1:2|1:0,0:0:0:0:
250,250,233150,1,0,1:0:0:0:
313,253,233231,1,0,1:0:0:0:
377,257,233313,1,0,1:0:0:0:
440,260,233395,1,0,1:0:0:0:
504,264,233477,6,0,L|501:183,1,63.7500024318696,4|0,1:0|0:0,0:0:0:0:
391,47,233641,2,0,L|389:-5,3,31.8750012159348,4|0|0|0,1:2|1:2|1:2|1:0,0:0:0:0:
391,68,233804,1,0,1:0:0:0:
327,70,233885,1,0,1:0:0:0:
263,72,233968,2,0,L|211:73,3,31.8750012159348,0|0|0|0,1:0|1:0|1:0|1:0,0:0:0:0:
210,74,234131,6,0,B|171:106|171:106|151:160|171:223,1,152.999995330811,4|0,1:0|0:0,0:0:0:0:
356,262,234376,6,0,P|329:197|246:153,1,161.499995687485,4|0,1:2|0:0,0:0:0:0:
149,287,234621,6,0,P|194:285|239:250,1,85,4|0,1:2|0:0,0:0:0:0:
72,55,234785,6,0,L|76:118,1,63.75,0|0,1:0|0:0,0:0:0:0:
45,215,235112,5,4,1:0:0:0:
65,219,235193,1,2,0:0:0:0:
86,219,235275,1,2,0:0:0:0:
107,215,235357,1,2,0:0:0:0:
126,206,235438,5,0,0:0:0:0:
143,193,235520,1,2,0:0:0:0:
160,180,235603,1,2,0:0:0:0:
179,171,235684,1,2,0:0:0:0:
202,166,235766,2,0,L|227:164,5,14.1666666666667,0|2|2|0|0|0,0:0|0:0|0:0|0:0|0:0|0:0,0:0:0:0:
206,252,236093,6,0,L|201:296,1,42.5,2|0,0:0|0:0,0:0:0:0:
305,309,236256,1,2,0:0:0:0:
346,321,236337,1,2,0:0:0:0:
388,319,236419,1,2,0:0:0:0:
428,303,236501,1,2,0:0:0:0:
460,275,236582,1,0,0:0:0:0:
481,238,236664,1,0,0:0:0:0:
489,197,236747,6,0,L|450:189,1,38.2499988327027,2|2,0:0|0:0,0:0:0:0:
484,155,236829,2,0,L|432:162,1,38.2499988327027,2|2,0:0|0:0,0:0:0:0:
465,117,236910,2,0,L|430:134,1,38.2499988327027,2|0,0:0|0:0,0:0:0:0:
435,87,236992,2,0,L|407:116,1,38.2499988327027
397,69,237074,5,0,0:0:0:0:
355,64,237156,1,0,0:0:0:0:
313,73,237237,1,0,0:0:0:0:
277,95,237319,1,0,0:0:0:0:
252,128,237401,6,0,P|184:115|112:140,1,127.500004863739,4|0,1:2|0:0,0:0:0:0:
115,176,237809,5,0,0:0:0:0:
113,190,237890,1,0,0:0:0:0:
112,206,237972,1,0,0:0:0:0:
110,222,238054,5,2,0:0:0:0:
125,213,238136,1,2,0:0:0:0:
151,204,238218,1,2,0:0:0:0:
184,206,238300,1,2,0:0:0:0:
219,226,238382,1,2,0:0:0:0:
247,266,238463,1,2,0:0:0:0:
290,294,238545,1,2,0:0:0:0:
346,289,238627,1,2,0:0:0:0:
389,248,238709,6,0,L|401:105,1,127.500004863739,4|2,1:3|0:0,0:0:0:0:
443,32,238954,1,2,0:0:0:0:
443,32,239036,2,0,P|405:23|376:25,1,63.7500024318696,8|0,0:0|0:0,0:0:0:0:
283,169,239199,2,0,P|252:177|220:176,1,63.7500024318696,2|2,0:0|0:0,0:0:0:0:
15,51,239363,5,0,1:0:0:0:
76,37,239444,1,0,0:0:0:0:
129,69,239526,1,2,0:0:0:0:
146,129,239608,1,2,0:0:0:0:
116,184,239689,1,8,0:0:0:0:
62,216,239771,1,0,0:0:0:0:
46,276,239853,1,2,0:0:0:0:
76,330,239934,1,2,0:0:0:0:
132,360,240017,6,0,P|190:341|223:274,1,127.500004863739,0|2,1:0|0:0,0:0:0:0:
220,176,240262,1,2,0:0:0:0:
236,178,240344,1,8,0:0:0:0:
251,180,240425,1,0,0:0:0:0:
267,183,240507,1,2,0:0:0:0:
283,185,240589,1,2,0:0:0:0:
298,187,240670,5,0,1:0:0:0:
282,126,240751,1,0,0:0:0:0:
304,67,240833,1,2,0:0:0:0:
356,32,240915,1,2,0:0:0:0:
418,33,240996,1,8,0:0:0:0:
469,70,241078,1,0,0:0:0:0:
489,130,241160,1,2,0:0:0:0:
470,190,241242,1,2,0:0:0:0:
419,226,241324,6,0,L|427:294,1,63.7500024318696,0|0,1:0|0:0,0:0:0:0:
282,126,241488,2,0,L|289:62,1,63.7500024318696,2|2,0:0|0:0,0:0:0:0:
331,284,241651,1,8,0:0:0:0:
331,284,241760,2,0,P|289:292|246:287,1,85.0000032424928,2|2,0:0|0:0,0:0:0:0:
9,220,241978,6,0,P|51:212|94:217,1,85.0000032424928,0|2,1:0|0:0,0:0:0:0:
199,138,242196,2,0,P|157:145|114:141,1,85.0000032424928,2|8,0:0|0:0,0:0:0:0:
26,48,242414,2,0,P|18:90|23:146,1,85.0000032424928,2|2,0:0|0:0,0:0:0:0:
68,344,242632,5,4,1:2:0:0:
114,300,242713,1,0,0:0:0:0:
174,281,242795,1,2,0:0:0:0:
237,288,242877,1,2,0:0:0:0:
290,322,242960,5,8,0:0:0:0:
343,356,243041,1,0,0:0:0:0:
406,363,243123,1,2,0:0:0:0:
466,344,243205,1,2,0:0:0:0:
512,300,243286,6,0,L|503:229,1,63.7500024318696,4|0,1:0|0:0,0:0:0:0:
318,172,243450,2,0,L|259:176,2,42.5000016212464,2|2|2,0:0|0:0|0:0,0:0:0:0:
349,169,243613,2,0,L|340:98,1,63.7500024318696,12|0,0:0|0:0,0:0:0:0:
488,13,243777,2,0,L|497:84,1,63.7500024318696,2|2,0:0|0:0,0:0:0:0:
397,252,243940,6,0,L|266:259,1,127.500004863739,4|2,1:0|0:0,0:0:0:0:
237,363,244185,1,0,0:0:0:0:
190,326,244267,1,8,0:0:0:0:
167,267,244348,1,0,0:0:0:0:
182,206,244430,1,2,0:0:0:0:
229,165,244512,1,2,0:0:0:0:
292,158,244594,6,0,L|279:79,1,63.7500024318696,0|0,1:0|0:0,0:0:0:0:
102,40,244758,2,0,L|115:119,1,63.7500024318696,2|2,0:0|0:0,0:0:0:0:
375,166,244921,6,0,L|361:86,1,63.7500024318696,8|0,0:0|0:0,0:0:0:0:
18,38,245085,1,2,0:0:0:0:
28,100,245166,1,2,0:0:0:0:
43,163,245248,2,0,L|27:292,1,127.500004863739,0|2,1:0|0:0,0:0:0:0:
109,342,245493,1,2,0:0:0:0:
109,342,245575,1,8,0:0:0:0:
289,146,245739,2,0,L|280:93,2,42.5000016212464,2|2|2,0:0|0:0|0:0,0:0:0:0:
297,180,245902,6,0,P|365:149|439:163,1,152.999995330811,0|2,1:0|0:0,0:0:0:0:
459,314,246147,1,2,0:0:0:0:
459,314,246229,2,0,P|390:345|316:331,1,152.999995330811,8|0,0:0|1:0,0:0:0:0:
378,247,246474,1,2,0:0:0:0:
378,247,246556,6,0,L|309:256,1,63.7500024318696,4|0,1:0|0:0,0:0:0:0:
155,339,246720,2,0,L|163:268,1,63.7500024318696,0|0,1:0|0:0,0:0:0:0:
360,172,246883,6,0,L|291:181,1,63.7500024318696,8|0,0:0|0:0,0:0:0:0:
75,327,247047,2,0,L|83:256,1,63.7500024318696,0|0,1:0|0:0,0:0:0:0:
37,58,247210,5,4,1:2:0:0:
90,25,247291,1,0,0:0:0:0:
153,28,247373,1,0,1:0:0:0:
204,65,247455,1,0,0:0:0:0:
226,124,247537,1,8,0:0:0:0:
248,183,247618,1,0,0:0:0:0:
299,220,247700,1,0,1:0:0:0:
362,223,247782,1,0,0:0:0:0:
417,194,247863,5,4,1:0:0:0:
376,139,247945,1,0,1:0:0:0:
317,105,248027,1,0,1:0:0:0:
250,100,248109,1,0,1:0:0:0:
186,121,248191,1,12,1:2:0:0:
136,166,248272,1,0,1:0:0:0:
109,229,248354,1,0,1:0:0:0:
110,296,248436,1,0,1:0:0:0:
142,358,248518,6,0,L|191:350,5,42.5000016212464,4|0|0|0|0|0,1:2|1:0|1:0|1:0|1:0|0:0,0:0:0:0:
221,350,248845,2,0,L|286:337,1,63.7500024318696,8|0,1:2|0:2,0:0:0:0:
453,313,249008,2,0,L|494:306,2,42.5000016212464,0|0|0,1:0|1:0|1:0,0:0:0:0:
428,320,249172,6,0,L|416:187,1,127.500004863739,4|2,1:3|0:0,0:0:0:0:
313,158,249417,1,2,0:0:0:0:
313,158,249499,2,0,P|308:196|314:225,1,63.7500024318696,8|0,0:0|0:0,0:0:0:0:
400,87,249662,2,0,P|397:55|386:26,1,63.7500024318696,2|2,0:0|0:0,0:0:0:0:
121,22,249826,5,0,1:0:0:0:
126,85,249907,1,0,0:0:0:0:
131,149,249989,1,2,0:0:0:0:
136,212,250071,1,2,0:0:0:0:
141,276,250153,1,8,0:0:0:0:
188,234,250234,1,0,0:0:0:0:
249,215,250316,1,2,0:0:0:0:
312,220,250398,1,2,0:0:0:0:
368,247,250480,6,0,P|429:243|482:190,1,127.500004863739,0|0,1:0|0:0,0:0:0:0:
500,101,250725,1,2,0:0:0:0:
484,103,250807,1,8,0:0:0:0:
469,105,250888,1,0,0:0:0:0:
453,108,250970,1,2,0:0:0:0:
437,110,251052,1,2,0:0:0:0:
423,113,251134,5,0,1:0:0:0:
368,81,251215,1,0,0:0:0:0:
305,85,251297,1,2,0:0:0:0:
255,124,251379,1,2,0:0:0:0:
235,183,251460,1,8,0:0:0:0:
215,242,251543,1,0,0:0:0:0:
165,281,251625,1,2,0:0:0:0:
102,285,251707,1,2,0:0:0:0:
48,254,251788,6,0,L|40:190,1,63.7500024318696,0|0,1:0|0:0,0:0:0:0:
182,35,251952,2,0,L|175:99,1,63.7500024318696,2|2,0:0|0:0,0:0:0:0:
299,295,252115,1,8,0:0:0:0:
299,295,252224,2,0,P|314:255|316:211,1,85.0000032424928,2|2,0:0|0:0,0:0:0:0:
40,190,252442,6,0,P|82:198|125:193,1,85.0000032424928,0|2,1:0|0:0,0:0:0:0:
282,127,252660,2,0,P|254:159|236:199,1,85.0000032424928,2|8,0:0|0:0,0:0:0:0:
218,361,252878,2,0,P|203:320|178:285,1,85.0000032424928,2|2,0:0|0:0,0:0:0:0:
129,49,253096,5,4,1:2:0:0:
71,74,253177,1,0,0:0:0:0:
38,127,253259,1,2,0:0:0:0:
40,190,253341,1,2,0:0:0:0:
76,240,253423,5,8,0:0:0:0:
135,262,253504,1,0,0:0:0:0:
196,246,253586,1,2,0:0:0:0:
238,199,253668,1,2,0:0:0:0:
253,138,253750,6,0,L|244:67,1,63.7500024318696,4|0,1:0|0:0,0:0:0:0:
431,236,253914,2,0,L|484:231,2,42.5000016212464,2|2|2,0:0|0:0|0:0,0:0:0:0:
409,238,254077,2,0,L|401:167,1,63.7500024318696,12|0,0:0|0:0,0:0:0:0:
258,365,254241,2,0,L|250:302,1,63.7500024318696,2|2,0:0|0:0,0:0:0:0:
464,97,254403,6,0,P|407:80|333:104,1,127.500004863739,4|2,1:0|0:0,0:0:0:0:
299,144,254648,1,0,0:0:0:0:
248,175,254730,1,8,0:0:0:0:
184,176,254811,1,0,0:0:0:0:
132,141,254893,1,2,0:0:0:0:
110,83,254975,1,2,0:0:0:0:
125,22,255057,6,0,L|201:41,1,63.7500024318696,0|0,1:0|0:0,0:0:0:0:
286,274,255221,2,0,L|220:257,1,63.7500024318696,2|2,0:0|0:0,0:0:0:0:
408,50,255384,6,0,L|390:111,1,63.7500024318696,8|0,0:0|0:0,0:0:0:0:
110,292,255548,1,2,0:0:0:0:
92,230,255629,1,2,0:0:0:0:
72,169,255711,2,0,P|133:149|198:168,1,127.500004863739,0|2,1:0|0:0,0:0:0:0:
224,258,255957,1,2,0:0:0:0:
224,258,256038,1,8,0:0:0:0:
310,58,256202,2,0,L|297:12,2,42.5000016212464,2|2|2,0:0|0:0|0:0,0:0:0:0:
318,86,256365,6,0,B|369:62|369:62|430:66|455:99,1,152.999995330811,0|2,1:0|0:0,0:0:0:0:
380,250,256611,1,2,0:0:0:0:
380,250,256692,2,0,B|329:274|329:274|268:270|242:236,1,152.999995330811,8|0,0:0|1:0,0:0:0:0:
210,130,256938,1,2,0:0:0:0:
210,130,257019,6,0,L|272:157,1,63.7500024318696,4|0,1:0|0:0,0:0:0:0:
380,313,257183,2,0,L|380:242,1,63.7500024318696,0|0,1:0|0:0,0:0:0:0:
212,35,257346,6,0,L|274:62,1,63.7500024318696,8|0,1:2|0:0,0:0:0:0:
466,331,257510,2,0,L|466:260,1,63.7500024318696,0|0,1:0|0:0,0:0:0:0:
388,62,257673,5,4,1:2:0:0:
388,62,257782,2,0,L|292:65,1,85.0000032424928,0|0,1:0|1:0,0:0:0:0:
145,82,258000,5,8,1:2:0:0:
145,82,258082,1,0,0:0:0:0:
145,82,258164,2,0,L|150:152,1,63.7500024318696,0|0,1:0|0:0,0:0:0:0:
255,362,258327,5,4,1:0:0:0:
292,362,258408,1,0,1:0:0:0:
335,351,258490,1,0,1:0:0:0:
379,326,258572,1,0,1:0:0:0:
418,283,258654,5,12,1:0:0:0:
442,224,258735,1,0,1:0:0:0:
442,153,258817,1,0,1:0:0:0:
409,83,258899,1,0,1:0:0:0:
344,31,258981,5,4,1:0:0:0:
256,16,259062,1,0,1:0:0:0:
167,51,259144,1,0,1:0:0:0:
109,135,259226,1,0,1:0:0:0:
104,243,259308,2,0,P|107:280|114:315,1,63.75,12|0,1:2|0:0,0:0:0:0:
201,262,259635,6,0,P|261:243|323:259,1,127.500004863739,4|0,1:0|0:0,0:0:0:0:
496,342,259962,1,0,1:0:0:0:
490,278,260043,1,0,1:0:0:0:
484,214,260125,1,0,1:0:0:0:
479,151,260207,1,0,1:0:0:0:
473,87,260289,6,0,L|469:21,1,63.7500024318696,4|0,1:2|0:0,0:0:0:0:
322,184,260453,2,0,L|326:243,2,42.5000016212464,2|2|2,0:0|0:0|0:0,0:0:0:0:
348,108,260616,2,0,P|314:106|285:111,1,63.7500024318696,0|0,1:0|1:0,0:0:0:0:
433,330,260779,2,0,L|499:342,1,63.7500024318696,0|0,1:0|1:0,0:0:0:0:
322,335,260943,6,0,P|260:322|199:340,1,127.500004863739,4|0,1:0|1:0,0:0:0:0:
38,245,261188,1,0,1:0:0:0:
38,245,261270,6,0,P|99:232|160:250,1,127.500004863739,4|0,1:2|1:0,0:0:0:0:
251,110,261515,1,0,1:0:0:0:
251,110,261597,6,0,L|207:114,6,31.8750012159348,4|0|0|0|0|0|0,1:0|1:0|1:0|1:0|1:0|1:0|1:0,0:0:0:0:
338,21,261924,5,4,1:2:0:0:
349,105,262005,1,0,1:0:0:0:
361,189,262087,1,0,1:0:0:0:
373,273,262169,1,0,1:0:0:0:
385,357,262250,1,4,1:3:0:0:
256,192,262333,12,0,264867,0:0:0:0:
