osu file format v14

[General]
AudioFilename: Xi - ANiMA.mp3
AudioLeadIn: 0
PreviewTime: 70639
Countdown: 0
SampleSet: Soft
StackLeniency: 0.8
Mode: 0
LetterboxInBreaks: 0
WidescreenStoryboard: 0

[Editor]
Bookmarks: 17015,23555,34018,44481,49713,70639,81103,91566,99413,109876
DistanceSpacing: 1
BeatDivisor: 4
GridSize: 4
TimelineZoom: 2.5

[Metadata]
Title:ANiMA
TitleUnicode:ANiMA
Artist:xi
ArtistUnicode:xi
Creator:Yukiyo
Version:Normal
Source:Deemo
Tags:DeRandom Otaku NazuSan CircleChu
BeatmapID:958727
BeatmapSetID:446338

[Difficulty]
HPDrainRate:4
CircleSize:3
OverallDifficulty:4
ApproachRate:5
SliderMultiplier:0.7
SliderTickRate:1

[Events]
//Background and Video events
0,0,"Bg.jpg",0,0
//Break Periods
//Storyboard Layer 0 (Background)
//Storyboard Layer 1 (Fail)
//Storyboard Layer 2 (Pass)
//Storyboard Layer 3 (Foreground)
//Storyboard Sound Samples

[TimingPoints]
1321,326.975476839237,4,2,1,15,1,0
11784,-83.3333333333333,4,2,1,49,0,0
17097,-83.3333333333333,4,2,1,100,0,0
23555,-66.6666666666667,4,2,1,100,0,0
91566,-66.6666666666667,4,2,1,100,0,1
96470,-66.6666666666667,4,2,1,100,0,0
99413,-62.5,4,2,1,100,0,0

[Colours]
Combo1 : 0,128,255
Combo2 : 255,255,132
Combo3 : 255,182,147
Combo4 : 255,117,117
Combo5 : 255,0,0

[HitObjects]
44,68,1321,6,0,B|4:76|-8:48|4:8|32:0|92:0|160:92|160:92|200:68,1,280
292,172,3936,2,0,B|324:220|324:220|308:284|240:192|196:284|196:284|196:328|224:336|258:346|308:344,1,350
356,307,5898,1,0,0:0:0:0:
405,257,6225,1,0,0:0:0:0:
451,204,6552,6,0,B|459:160|427:108|371:136|371:136|367:76|331:56|299:79,1,245
279,99,7860,2,0,P|247:143|196:141,1,105
171,122,8514,2,0,P|135:94|45:134,2,140
134,257,10476,5,0,0:0:0:0:
134,257,10803,2,0,L|201:304,1,70
235,242,11457,2,0,L|314:233,1,70,0|4,0:0|0:0,0:0:0:0:
461,36,12765,37,0,0:0:0:0:
461,36,13092,2,0,B|432:9|432:9|380:101,1,125.999996154785
326,195,14073,5,0,0:0:0:0:
326,195,14400,2,0,B|352:162|352:162|455:244,2,167.999994873047,4|4|4,0:0|0:0|0:0,0:0:0:0:
195,301,16361,1,4,0:0:0:0:
164,136,17015,6,0,P|176:88|152:45,2,83.9999974365235,8|0|8,0:0|0:0|0:0,0:0:0:0:
235,177,17996,1,0,0:0:0:0:
308,221,18323,2,0,P|295:260|308:299,2,83.9999974365235,8|0|8,0:0|0:0|0:0,0:0:0:0:
235,177,19304,1,0,0:0:0:0:
256,192,19631,12,0,22247,0:0:0:0:
96,220,23555,6,0,P|80:176|117:58,2,157.500006008148,8|0|8,0:0|0:0|0:0,0:0:0:0:
241,158,25026,1,0,0:0:0:0:
105,71,25517,2,0,P|151:31|199:16,1,105.000004005432,8|0,0:0|0:0,0:0:0:0:
297,13,26171,6,0,P|249:111|240:168,2,157.500006008148,8|0|8,0:0|0:0|0:0,0:0:0:0:
396,135,27642,1,0,0:0:0:0:
240,157,28132,2,2,P|188:205|181:257,1,105.000004005432,10|2,0:0|0:0,0:0:0:0:
284,251,28786,54,0,P|324:307|418:338,2,157.500006008148,8|0|8,0:0|0:0|0:0,0:0:0:0:
239,99,30258,1,0,0:0:0:0:
284,251,30748,2,8,P|208:283|168:288,1,105.000004005432,8|0,0:0|0:0,0:0:0:0:
180,180,31402,6,0,P|256:144|313:76,2,157.500006008148,8|0|8,0:0|0:0|0:0,0:0:0:0:
128,328,32874,1,0,0:0:0:0:
284,324,33364,2,2,P|305:265|361:235,1,105.000004005432,10|2,0:0|0:0,0:0:0:0:
428,187,34018,6,0,P|452:135|414:61,1,105.000004005432,8|0,0:0|0:0,0:0:0:0:
360,23,34672,2,0,P|329:81|342:127,1,105.000004005432,8|0,0:0|0:0,0:0:0:0:
314,219,35326,2,0,P|253:277|171:281,2,157.500006008148,8|0|8,0:0|0:0|0:0,0:0:0:0:
336,116,36634,1,0,0:0:0:0:
241,75,36961,1,0,0:0:0:0:
160,142,37288,6,0,P|218:176|259:179,1,105.000004005432,8|0,0:0|0:0,0:0:0:0:
241,75,37942,2,0,P|181:42|128:44,1,105.000004005432,8|0,0:0|0:0,0:0:0:0:
160,142,38596,2,0,P|156:222|123:263,1,105.000004005432,8|0,0:0|0:0,0:0:0:0:
63,309,39250,5,4,0:0:0:0:
160,348,39577,1,4,0:0:0:0:
258,310,39904,2,0,P|250:266|272:205,1,105.000004005432,12|0,0:0|0:0,0:0:0:0:
328,123,40558,37,4,0:0:0:0:
413,62,40885,1,4,0:0:0:0:
421,166,41212,2,0,P|418:231|392:268,1,105.000004005432,12|0,0:0|0:0,0:0:0:0:
314,327,41865,6,0,P|246:327|186:296,2,105.000004005432,8|0|8,0:0|0:0|0:0,0:0:0:0:
273,229,42846,1,8,0:0:0:0:
353,162,43173,2,0,P|293:131|244:129,2,105.000004005432,8|8|8,0:0|0:0|0:0,0:0:0:0:
396,257,44154,1,8,0:0:0:0:
300,292,44481,21,4,0:0:0:0:
300,292,44808,2,0,L|185:315,3,105.000004005432
105,259,46116,22,0,P|63:228|81:145,2,105.000004005432
205,228,47097,2,0,L|256:92,1,105.000004005432,8|0,0:0|0:0,0:0:0:0:
306,212,47751,2,0,L|359:314,1,105.000004005432,8|0,0:0|0:0,0:0:0:0:
405,212,48405,2,0,L|456:85,1,105.000004005432,8|0,0:0|0:0,0:0:0:0:
375,34,49059,2,0,P|321:27|255:45,1,105.000004005432,8|0,0:0|0:0,0:0:0:0:
180,89,49713,53,4,0:0:0:0:
180,89,50040,2,0,P|108:133|72:130,3,105.000004005432
64,235,51348,22,0,P|114:282|159:290,2,105.000004005432
156,184,52329,2,0,P|200:132|364:60,2,210.000008010865,8|8|8,0:0|0:0|0:0,0:0:0:0:
344,280,54291,1,8,0:0:0:0:
156,184,54944,6,0,P|234:120|336:148,1,210.000008010865,8|8,0:0|0:0,0:0:0:0:
182,295,56252,2,0,P|230:274|260:232,3,105.000004005432,4|4|4|4,0:0|0:0|0:0|0:0,0:0:0:0:
316,140,57560,38,0,P|438:120|495:183,1,210.000008010865,8|8,0:0|0:0,0:0:0:0:
296,248,58868,2,0,P|347:252|388:221,3,105.000004005432,4|4|4|4,0:0|0:0|0:0|0:0,0:0:0:0:
448,136,60176,6,0,B|378:120|378:120|347:61|347:61|229:41,1,210.000008010865,8|8,0:0|0:0,0:0:0:0:
216,252,61484,2,0,L|273:164,3,105.000004005432,4|4|4|4,0:0|0:0|0:0|0:0,0:0:0:0:
380,172,62792,38,0,P|352:244|312:260,1,105.000004005432,8|0,0:0|0:0,0:0:0:0:
280,348,63446,2,0,P|242:312|228:260,1,105.000004005432,8|0,0:0|0:0,0:0:0:0:
331,255,64100,2,0,P|319:204|282:168,1,105.000004005432,8|8,0:0|0:0,0:0:0:0:
180,184,64754,2,0,P|184:132|220:88,1,105.000004005432,8|8,0:0|0:0,0:0:0:0:
256,192,65408,12,0,69331,0:0:0:0:
68,104,70639,6,0,P|144:104|193:67,2,105.000004005432
120,195,71620,2,0,P|195:178|237:132,2,105.000004005432
168,288,72601,1,0,0:0:0:0:
267,320,72928,1,0,0:0:0:0:
267,320,73255,6,0,P|323:280|386:275,2,105.000004005432
251,215,74236,2,0,P|310:181|375:191,2,105.000004005432
195,125,75217,1,0,0:0:0:0:
90,122,75544,1,0,0:0:0:0:
90,122,75871,6,0,P|114:214|39:332,1,210.000008010865
275,303,77179,2,0,P|227:212|250:111,1,210.000008010865
452,52,78487,2,0,P|412:176|321:195,1,210.000008010865
354,92,79468,1,0,0:0:0:0:
354,92,79795,2,0,P|286:56|227:66,3,105.000004005432
274,160,81103,21,0,0:0:0:0:
240,259,81429,2,0,L|181:292,2,52.5000020027161
344,242,82083,1,0,0:0:0:0:
344,242,82410,2,0,P|374:197|377:146,3,105.000004005432
355,44,83718,5,0,0:0:0:0:
454,76,84045,2,0,L|499:43,2,52.5000020027161
377,147,84699,1,0,0:0:0:0:
377,147,85026,2,0,P|328:169|278:147,3,105.000004005432
200,85,86334,6,0,P|148:141|78:147,2,105.000004005432,0|0|4,0:0|0:0|0:0,0:0:0:0:
279,279,87642,2,0,P|331:223|401:217,2,105.000004005432,0|0|4,0:0|0:0|0:0,0:0:0:0:
70,251,88950,2,0,P|117:272|147:315,2,105.000004005432,0|0|4,0:0|0:0|0:0,0:0:0:0:
163,201,89931,1,0,0:0:0:0:
251,144,90258,2,0,P|203:122|173:79,2,105.000004005432,0|0|4,0:0|0:0|0:0,0:0:0:0:
344,193,91239,1,0,0:0:0:0:
340,297,91566,22,8,L|265:297,1,52.5000020027161
133,262,92220,2,8,L|218:262,1,52.5000020027161
336,218,92874,2,8,L|255:218,1,52.5000020027161
130,180,93528,2,8,P|191:179|257:128,1,105.000004005432
296,77,94182,6,8,L|355:120,1,52.5000020027161
383,258,94835,2,8,L|333:220,1,52.5000020027161
187,189,95489,2,8,L|237:227,1,52.5000020027161
344,328,96143,2,8,P|408:360|485:343,1,105.000004005432
256,192,96797,12,0,98759,0:0:0:0:
324,64,99413,6,0,P|388:100|424:181,3,112,8|0|8|0,0:0|0:0|0:0|0:0,0:0:0:0:
306,174,100721,2,0,P|254:242|253:309,3,112,8|0|8|0,0:0|0:0|0:0|0:0,0:0:0:0:
361,271,102029,2,0,P|437:279|500:238,1,112,8|0,0:0|0:0,0:0:0:0:
410,170,102683,2,0,P|369:132|361:107,2,74.6666666666667,8|0|0,0:0|0:0|0:0,0:0:0:0:
436,100,103337,1,12,0:0:0:0:
215,78,103991,6,0,P|163:122|144:185,1,112,12|0,0:0|0:0,0:0:0:0:
256,183,104645,1,8,0:0:0:0:
349,120,104972,1,0,0:0:0:0:
441,56,105299,1,8,0:0:0:0:
424,166,105626,1,0,0:0:0:0:
408,277,105953,1,8,0:0:0:0:
328,355,106280,6,0,P|264:355|206:318,2,112,8|0|8,0:0|0:0|0:0,0:0:0:0:
293,248,107261,1,8,0:0:0:0:
182,52,107915,1,8,0:0:0:0:
293,52,108241,1,0,0:0:0:0:
405,47,108568,6,8,P|429:95|406:167,1,112
305,144,109222,2,8,P|282:210|301:259,1,112
396,292,109876,1,12,0:0:0:0:
256,192,109958,12,0,111184,0:0:0:0:
