osu file format v14

[General]
AudioFilename: audio.mp3
AudioLeadIn: 0
PreviewTime: -1
Countdown: 0
SampleSet: Normal
StackLeniency: 0.7
Mode: 3
LetterboxInBreaks: 0
SpecialStyle: 0
WidescreenStoryboard: 1

[Editor]
DistanceSpacing: 1
BeatDivisor: 4
GridSize: 8
TimelineZoom: 2.299999

[Metadata]
Title:ANiMA (Piano Version)
TitleUnicode:ANiMA (Piano Version)
Artist:xi
ArtistUnicode:xi
Creator:DarckoSeth
Version:Pianista
Source:
Tags:instrumental keysound night classroom
BeatmapID:1864800
BeatmapSetID:892036

[Difficulty]
HPDrainRate:8
CircleSize:7
OverallDifficulty:8
ApproachRate:5
SliderMultiplier:1.4
SliderTickRate:1

[Events]
//Background and Video events
0,0,"929295.png",0,0
//Break Periods
//Storyboard Layer 0 (Background)
//Storyboard Layer 1 (Fail)
//Storyboard Layer 2 (Pass)
//Storyboard Layer 3 (Foreground)
//Storyboard Sound Samples
Sample,10535,0,"0_A#0_176_1440.wav",40
Sample,35499,0,"0_B0_183_480.wav",48
Sample,40761,0,"0_D#1_183_480.wav",66
Sample,47318,0,"0_E1_183_480.wav",45
Sample,51921,0,"0_D1_183_480.wav",58
Sample,92673,0,"0_B0_183_480.wav",60
Sample,95641,0,"0_A#3_183_480.wav",74
Sample,108108,0,"0_C2_183_480.wav",58
Sample,109760,0,"0_F1_183_480.wav",75

[TimingPoints]
0,327.869,4,1,1,100,1,0
2049,329.686,4,1,1,100,1,0
2131,331.5,4,1,1,100,1,0
2214,333.334,4,1,1,100,1,0
2297,335.3,4,1,1,100,1,0
2381,337.176,4,1,1,100,1,0
2465,339.074,4,1,1,100,1,0
2550,339.974,4,1,1,100,1,0
2720,327.891,4,1,1,100,1,0
7310,329.686,4,1,1,100,1,0
7392,331.5,4,1,1,100,1,0
7475,333.334,4,1,1,100,1,0
7558,335.3,4,1,1,100,1,0
7642,337.176,4,1,1,100,1,0
7726,339.074,4,1,1,100,1,0
7811,339.974,4,1,1,100,1,0
7981,327.891,4,1,1,100,1,0
9948,329.686,4,1,1,100,1,0
10030,331.5,4,1,1,100,1,0
10113,333.334,4,1,1,100,1,0
10196,335.3,4,1,1,100,1,0
10280,337.176,4,1,1,100,1,0
10364,339.074,4,1,1,100,1,0
10449,339.974,4,1,1,100,1,0
10619,327.891,4,1,1,100,1,0
13898,329.686,4,1,1,100,1,0
13980,331.5,4,1,1,100,1,0
14063,333.334,4,1,1,100,1,0
14146,335.3,4,1,1,100,1,0
14230,337.176,4,1,1,100,1,0
14314,339.074,4,1,1,100,1,0
14399,339.974,4,1,1,100,1,0
14569,327.891,4,1,1,100,1,0
23094,328.838,4,1,1,100,1,0
23176,329.686,4,1,1,100,1,0
23258,330.644,4,1,1,100,1,0
23341,331.5,4,1,1,100,1,0
23424,332.469,4,1,1,100,1,0
23507,333.334,4,1,1,100,1,0
23674,327.891,4,1,1,100,1,0
24412,328.838,4,1,1,100,1,0
24494,329.686,4,1,1,100,1,0
24576,330.644,4,1,1,100,1,0
24659,331.5,4,1,1,100,1,0
24742,332.469,4,1,1,100,1,0
24825,333.334,4,1,1,100,1,0
24992,327.891,4,1,1,100,1,0
25730,328.838,4,1,1,100,1,0
25812,329.686,4,1,1,100,1,0
25894,330.644,4,1,1,100,1,0
25977,331.5,4,1,1,100,1,0
26060,332.469,4,1,1,100,1,0
26143,333.334,4,1,1,100,1,0
26310,327.891,4,1,1,100,1,0
27048,328.838,4,1,1,100,1,0
27130,329.686,4,1,1,100,1,0
27212,330.644,4,1,1,100,1,0
27295,331.5,4,1,1,100,1,0
27378,332.469,4,1,1,100,1,0
27461,333.334,4,1,1,100,1,0
27628,327.891,4,1,1,100,1,0
37547,329.686,4,1,1,100,1,0
37629,331.5,4,1,1,100,1,0
37712,333.334,4,1,1,100,1,0
37795,335.3,4,1,1,100,1,0
37879,337.176,4,1,1,100,1,0
37963,339.074,4,1,1,100,1,0
38048,339.974,4,1,1,100,1,0
38218,327.891,4,1,1,100,1,0
50678,328.838,4,1,1,100,1,0
50760,329.686,4,1,1,100,1,0
50842,330.644,4,1,1,100,1,0
50925,331.5,4,1,1,100,1,0
51008,332.469,4,1,1,100,1,0
51091,333.334,4,1,1,100,1,0
51258,327.891,4,1,1,100,1,0
51996,329.686,4,1,1,100,1,0
52078,331.5,4,1,1,100,1,0
52161,333.334,4,1,1,100,1,0
52244,335.3,4,1,1,100,1,0
52328,337.176,4,1,1,100,1,0
52412,339.074,4,1,1,100,1,0
52497,339.974,4,1,1,100,1,0
52667,327.891,4,1,1,100,1,0
54634,328.838,4,1,1,100,1,0
54716,329.686,4,1,1,100,1,0
54798,330.644,4,1,1,100,1,0
54881,331.5,4,1,1,100,1,0
54964,332.469,4,1,1,100,1,0
55047,333.334,4,1,1,100,1,0
55214,327.891,4,1,1,100,1,0
55952,328.838,4,1,1,100,1,0
56034,329.686,4,1,1,100,1,0
56116,330.644,4,1,1,100,1,0
56199,331.5,4,1,1,100,1,0
56282,332.469,4,1,1,100,1,0
56365,333.334,4,1,1,100,1,0
56532,327.891,4,1,1,100,1,0
57270,329.686,4,1,1,100,1,0
57352,331.5,4,1,1,100,1,0
57435,333.334,4,1,1,100,1,0
57518,335.3,4,1,1,100,1,0
57602,337.176,4,1,1,100,1,0
57686,339.074,4,1,1,100,1,0
57771,339.974,4,1,1,100,1,0
57941,327.891,4,1,1,100,1,0
67778,328.838,4,1,1,100,1,0
67860,329.686,4,1,1,100,1,0
67942,330.644,4,1,1,100,1,0
68025,331.5,4,1,1,100,1,0
68108,332.469,4,1,1,100,1,0
68191,333.334,4,1,1,100,1,0
68358,327.891,4,1,1,100,1,0
69096,329.686,4,1,1,100,1,0
69178,331.5,4,1,1,100,1,0
69261,333.334,4,1,1,100,1,0
69344,335.3,4,1,1,100,1,0
69428,337.176,4,1,1,100,1,0
69512,339.074,4,1,1,100,1,0
69597,339.974,4,1,1,100,1,0
69767,327.891,4,1,1,100,1,0
82227,328.838,4,1,1,100,1,0
82309,329.686,4,1,1,100,1,0
82391,330.644,4,1,1,100,1,0
82474,331.5,4,1,1,100,1,0
82557,332.469,4,1,1,100,1,0
82640,333.334,4,1,1,100,1,0
82807,327.891,4,1,1,100,1,0
83545,329.686,4,1,1,100,1,0
83627,331.5,4,1,1,100,1,0
83710,333.334,4,1,1,100,1,0
83793,335.3,4,1,1,100,1,0
83877,337.176,4,1,1,100,1,0
83961,339.074,4,1,1,100,1,0
84046,339.974,4,1,1,100,1,0
84216,327.891,4,1,1,100,1,0
91430,328.838,4,1,1,100,1,0
91512,329.686,4,1,1,100,1,0
91594,330.644,4,1,1,100,1,0
91677,331.5,4,1,1,100,1,0
91760,332.469,4,1,1,100,1,0
91843,333.334,4,1,1,100,1,0
92010,327.891,4,1,1,100,1,0
92748,328.838,4,1,1,100,1,0
92830,329.686,4,1,1,100,1,0
92912,330.644,4,1,1,100,1,0
92995,331.5,4,1,1,100,1,0
93078,332.469,4,1,1,100,1,0
93161,333.334,4,1,1,100,1,0
93328,327.891,4,1,1,100,1,0
94066,329.686,4,1,1,100,1,0
94148,331.5,4,1,1,100,1,0
94231,333.334,4,1,1,100,1,0
94314,335.3,4,1,1,100,1,0
94398,337.176,4,1,1,100,1,0
94482,339.074,4,1,1,100,1,0
94567,339.974,4,1,1,100,1,0
94737,327.891,4,1,1,100,1,0
108508,329.686,4,1,1,100,1,0
108590,331.5,4,1,1,100,1,0
108673,333.334,4,1,1,100,1,0
108756,335.3,4,1,1,100,1,0
108840,337.176,4,1,1,100,1,0
108924,339.074,4,1,1,100,1,0
109009,339.974,4,1,1,100,1,0
109179,327.891,4,1,1,100,1,0

[HitObjects]
10,192,0,5,0,0:0:0:28:0_C#2_183_1920.wav
448,192,0,1,0,0:0:0:37:0_F3_183_1920.wav
302,192,0,1,0,0:0:0:37:0_C3_183_1920.wav
83,192,0,1,0,0:0:0:38:0_G#3_183_1440.wav
83,192,1311,1,0,0:0:0:28:0_C2_183_1440.wav
156,192,1311,1,0,0:0:0:37:0_A#2_183_1440.wav
229,192,1311,1,0,0:0:0:37:0_D#3_183_1440.wav
375,192,1311,1,0,0:0:0:38:0_G3_183_1440.wav
10,192,2634,1,0,0:0:0:28:0_F2_176_1440.wav
83,192,2634,1,0,0:0:0:37:0_C3_176_1440.wav
302,192,2634,1,0,0:0:0:37:0_F3_176_1440.wav
448,192,2634,1,0,0:0:0:38:0_G#3_176_1440.wav
375,192,4277,1,0,0:0:0:39:0_G#3_183_480.wav
329,192,4605,1,0,0:0:0:40:0_G3_183_480.wav
229,192,4933,1,0,0:0:0:44:0_D#3_183_480.wav
10,192,5261,1,0,0:0:0:38:0_C#2_183_1440.wav
83,192,5261,1,0,0:0:0:39:0_C3_183_1440.wav
302,192,5261,1,0,0:0:0:39:0_F3_183_1440.wav
448,192,5261,1,0,0:0:0:43:0_G#3_183_1440.wav
10,192,6572,1,0,0:0:0:42:0_C2_183_960.wav
156,192,6572,1,0,0:0:0:40:0_A#2_183_960.wav
229,192,6572,1,0,0:0:0:40:0_D3_183_960.wav
375,192,6572,1,0,0:0:0:40:0_F3_183_960.wav
448,192,6572,1,0,0:0:0:47:0_G3_183_960.wav
83,192,7228,1,0,0:0:0:39:0_C1_183_480.wav
302,192,7228,1,0,0:0:0:40:0_E3_183_480.wav
10,192,7895,1,0,0:0:0:38:0_F1_176_1440.wav
156,192,7895,1,0,0:0:0:43:0_C3_176_960.wav
375,192,7895,1,0,0:0:0:43:0_F3_176_960.wav
448,192,7895,1,0,0:0:0:47:0_G#3_176_960.wav
229,192,8554,1,0,0:0:0:40:0_G#2_183_480.wav
83,192,9210,1,0,0:0:0:33:0_F0_183_480.wav
302,192,9210,1,0,0:0:0:33:0_F1_183_480.wav
156,192,9456,1,0,0:0:0:33:0_F0_183_480.wav
475,192,9538,1,0,0:0:0:53:0_G#3_183_480.wav
256,192,9538,1,0,0:0:0:35:0_F1_183_480.wav
402,192,9620,1,0,0:0:0:37:0_F0_183_480.wav
36,192,9702,1,0,0:0:0:39:0_F1_183_480.wav
109,192,9784,1,0,0:0:0:41:0_F0_183_480.wav
256,192,9866,1,0,0:0:0:60:0_G3_183_480.wav
329,192,9866,1,0,0:0:0:44:0_F1_183_480.wav
182,192,9948,1,0,0:0:0:46:0_F0_182_480.wav
402,192,10030,1,0,0:0:0:48:0_F1_181_480.wav
475,192,10113,1,0,0:0:0:51:0_F0_180_480.wav
256,192,10196,1,0,0:0:0:57:0_D#3_180_480.wav
36,192,10196,1,0,0:0:0:53:0_F1_179_480.wav
182,192,10279,1,0,0:0:0:55:0_F0_178_480.wav
109,192,10364,1,0,0:0:0:58:0_F1_177_480.wav
375,192,10533,1,0,0:0:0:54:0_C#3_176_960.wav
229,192,10533,1,0,0:0:0:62:0_G#3_176_960.wav
448,192,10533,1,0,0:0:0:54:0_F3_176_960.wav
10,192,10533,1,0,0:0:0:45:0_A#1_176_1440.wav
182,192,11356,1,0,0:0:0:48:0_G#2_183_480.wav
256,192,11520,1,0,0:0:0:49:0_C3_183_480.wav
329,192,11684,1,0,0:0:0:48:0_F3_183_480.wav
402,192,11766,1,0,0:0:0:46:0_F3_183_960.wav
10,192,11848,1,0,0:0:0:46:0_G#3_183_960.wav
109,192,11848,1,0,0:0:0:29:0_A#0_183_1440.wav
448,192,11848,1,0,0:0:0:57:0_C4_183_960.wav
83,192,12668,1,0,0:0:0:48:0_G#2_183_480.wav
182,192,12832,1,0,0:0:0:49:0_C3_183_480.wav
256,192,12996,1,0,0:0:0:42:0_G#3_183_480.wav
329,192,12996,1,0,0:0:0:53:0_C4_183_480.wav
10,192,13160,1,0,0:0:0:44:0_C1_183_960.wav
83,192,13160,1,0,0:0:0:57:0_C2_183_960.wav
182,192,13160,1,0,0:0:0:46:0_E3_183_480.wav
475,192,13160,1,0,0:0:0:46:0_G3_183_480.wav
402,192,13160,1,0,0:0:0:57:0_A#3_183_480.wav
329,192,13815,1,0,0:0:0:41:0_C4_183_960.wav
182,192,13815,1,0,0:0:0:41:0_G3_183_960.wav
402,192,13856,1,0,0:0:0:54:0_D#4_183_480.wav
83,192,13856,1,0,0:0:0:37:0_C1_183_480.wav
10,192,14483,1,0,0:0:0:46:0_F1_176_960.wav
156,192,14483,1,0,0:0:0:57:0_F2_176_960.wav
229,192,14483,1,0,0:0:0:51:0_F3_176_960.wav
375,192,14483,1,0,0:0:0:51:0_G#3_176_960.wav
448,192,14483,1,0,0:0:0:62:0_C4_176_960.wav
10,192,15142,1,0,0:0:0:44:0_F1_183_480.wav
83,192,15142,1,0,0:0:0:48:0_D#3_183_480.wav
256,192,15142,1,0,0:0:0:48:0_G3_183_480.wav
302,192,15142,1,0,0:0:0:39:0_G#3_183_480.wav
448,192,15142,1,0,0:0:0:51:0_C4_183_480.wav
475,192,15798,1,0,0:0:0:42:0_D1_183_1440.wav
109,192,15798,1,0,0:0:0:54:0_D2_183_1440.wav
36,192,15798,1,0,0:0:0:63:0_F3_183_480.wav
302,192,15798,1,0,0:0:0:55:0_G#3_183_480.wav
375,192,15798,1,0,0:0:0:59:0_C4_183_480.wav
182,192,16290,1,0,0:0:0:51:0_C3_183_480.wav
256,192,16454,1,0,0:0:0:51:0_F3_183_480.wav
182,192,16618,1,0,0:0:0:52:0_C3_183_480.wav
256,192,16782,1,0,0:0:0:53:0_F3_183_480.wav
36,192,16864,1,0,0:0:0:54:0_C3_183_480.wav
109,192,16946,1,0,0:0:0:54:0_F3_183_480.wav
156,192,17028,1,0,0:0:0:55:0_G3_183_480.wav
329,192,17110,1,0,0:0:0:48:0_C3_183_480.wav
256,192,17110,1,0,0:0:0:42:0_D1_183_1440.wav
375,192,17110,1,0,0:0:0:48:0_F3_183_480.wav
448,192,17110,1,0,0:0:0:59:0_G#3_183_480.wav
109,192,17438,1,0,0:0:0:56:0_F4_183_480.wav
156,192,17765,1,0,0:0:0:52:0_G3_183_480.wav
229,192,17765,1,0,0:0:0:63:0_G4_183_480.wav
36,192,18093,1,0,0:0:0:70:0_G4_183_480.wav
109,192,18175,1,0,0:0:0:70:0_D#4_183_480.wav
182,192,18257,1,0,0:0:0:71:0_F4_183_480.wav
256,192,18339,1,0,0:0:0:71:0_G4_183_480.wav
109,192,18421,1,0,0:0:0:53:0_D#2_183_480.wav
475,192,18421,1,0,0:0:0:70:0_A#3_183_480.wav
10,192,18421,1,0,0:0:0:67:0_D#1_183_480.wav
302,192,18421,1,0,0:0:0:70:0_C#4_183_480.wav
375,192,18421,1,0,0:0:0:81:0_G#4_183_480.wav
448,192,18667,1,0,0:0:0:61:0_A#4_183_480.wav
329,192,18749,1,0,0:0:0:64:0_G#4_183_480.wav
475,192,18831,1,0,0:0:0:65:0_A#4_183_480.wav
329,192,18913,1,0,0:0:0:63:0_D#1_183_480.wav
109,192,18913,1,0,0:0:0:66:0_G#4_183_480.wav
475,192,18995,1,0,0:0:0:67:0_A#4_183_480.wav
329,192,19077,1,0,0:0:0:56:0_D#2_183_480.wav
182,192,19077,1,0,0:0:0:68:0_G#4_183_480.wav
36,192,19077,1,0,0:0:0:70:0_D#1_183_480.wav
475,192,19159,1,0,0:0:0:70:0_A#4_183_480.wav
329,192,19241,1,0,0:0:0:70:0_G#4_183_480.wav
475,192,19323,1,0,0:0:0:72:0_A#4_183_480.wav
329,192,19405,1,0,0:0:0:73:0_G#4_183_480.wav
475,192,19487,1,0,0:0:0:74:0_A#4_183_480.wav
182,192,19569,1,0,0:0:0:66:0_D#1_183_480.wav
329,192,19569,1,0,0:0:0:75:0_G#4_183_480.wav
475,192,19651,1,0,0:0:0:76:0_A#4_183_480.wav
402,192,19651,1,0,0:0:0:77:0_G#4_183_480.wav
83,192,19733,1,0,0:0:0:60:0_E1_183_480.wav
156,192,19733,1,0,0:0:0:72:0_E2_183_480.wav
229,192,19733,1,0,0:0:0:66:0_A#3_183_960.wav
329,192,19733,1,0,0:0:0:66:0_E4_183_960.wav
36,192,19733,1,0,0:0:0:77:0_G4_183_960.wav
36,192,20061,1,0,0:0:0:38:0_E1_183_480.wav
10,192,20389,1,0,0:0:0:40:0_E1_183_480.wav
475,192,20553,1,0,0:0:0:39:0_E1_183_480.wav
402,192,20634,1,0,0:0:0:52:0_G3_183_480.wav
36,192,20716,1,0,0:0:0:54:0_E3_183_480.wav
182,192,20716,1,0,0:0:0:35:0_E1_183_480.wav
329,192,20716,1,0,0:0:0:44:0_E2_183_480.wav
256,192,20798,1,0,0:0:0:55:0_C3_183_480.wav
402,192,20880,1,0,0:0:0:57:0_A#2_183_480.wav
109,192,20880,1,0,0:0:0:47:0_E2_183_480.wav
475,192,20880,1,0,0:0:0:38:0_E1_183_480.wav
182,192,20962,1,0,0:0:0:59:0_G2_183_480.wav
256,192,21044,1,0,0:0:0:51:0_E1_183_480.wav
83,192,21372,1,0,0:0:0:48:0_E2_183_960.wav
256,192,21700,1,0,0:0:0:58:0_C3_183_480.wav
10,192,21782,1,0,0:0:0:55:0_G2_183_480.wav
329,192,21864,1,0,0:0:0:55:0_C3_183_480.wav
109,192,21946,1,0,0:0:0:55:0_E3_183_480.wav
402,192,22028,1,0,0:0:0:56:0_G3_183_480.wav
182,192,22110,1,0,0:0:0:55:0_E3_183_480.wav
475,192,22192,1,0,0:0:0:55:0_G3_183_480.wav
256,192,22274,1,0,0:0:0:55:0_C4_183_480.wav
329,192,22356,1,0,0:0:0:58:0_C3_183_480.wav
375,192,22356,1,0,0:0:0:58:0_F3_183_480.wav
448,192,22356,1,0,0:0:0:69:0_G#3_183_480.wav
109,192,22356,1,0,0:0:0:59:0_F2_183_480.wav
10,192,22356,1,0,0:0:0:48:0_F1_183_480.wav
182,192,22520,1,0,0:0:0:48:0_G#2_183_480.wav
256,192,22602,1,0,0:0:0:48:0_C3_183_480.wav
329,192,22684,1,0,0:0:0:47:0_F1_183_480.wav
402,192,22766,1,0,0:0:0:54:0_G#3_183_480.wav
256,192,22848,1,0,0:0:0:58:0_G#3_183_480.wav
10,192,22848,1,0,0:0:0:44:0_C#1_183_480.wav
109,192,22848,1,0,0:0:0:52:0_C#2_183_480.wav
475,192,22848,1,0,0:0:0:47:0_C#3_183_480.wav
302,192,22848,1,0,0:0:0:47:0_F3_183_480.wav
182,192,23012,1,0,0:0:0:51:0_G#2_183_480.wav
256,192,23094,1,0,0:0:0:48:0_C3_182_480.wav
36,192,23176,1,0,0:0:0:45:0_C#1_182_480.wav
329,192,23176,1,0,0:0:0:53:0_G#3_182_480.wav
83,192,23341,1,0,0:0:0:44:0_A#0_181_480.wav
156,192,23341,1,0,0:0:0:56:0_A#1_181_480.wav
229,192,23341,1,0,0:0:0:48:0_C#3_181_480.wav
402,192,23341,1,0,0:0:0:48:0_F3_181_480.wav
448,192,23341,1,0,0:0:0:59:0_G#3_181_480.wav
36,192,23507,1,0,0:0:0:48:0_A#2_180_480.wav
109,192,23590,1,0,0:0:0:48:0_C#3_180_480.wav
182,192,23674,1,0,0:0:0:48:0_F3_180_480.wav
256,192,23755,1,0,0:0:0:57:0_G#3_183_480.wav
475,192,23755,1,0,0:0:0:48:0_A#0_183_480.wav
109,192,23837,1,0,0:0:0:44:0_D#1_183_480.wav
182,192,23837,1,0,0:0:0:55:0_D#2_183_480.wav
329,192,23837,1,0,0:0:0:47:0_A#2_183_480.wav
36,192,23837,1,0,0:0:0:47:0_D#3_183_480.wav
402,192,23837,1,0,0:0:0:58:0_G#3_183_480.wav
256,192,24001,1,0,0:0:0:49:0_A#2_183_480.wav
329,192,24083,1,0,0:0:0:48:0_D#3_183_480.wav
109,192,24165,1,0,0:0:0:45:0_D#1_183_480.wav
402,192,24165,1,0,0:0:0:53:0_G#3_183_480.wav
182,192,24329,1,0,0:0:0:49:0_E3_183_480.wav
329,192,24329,1,0,0:0:0:55:0_E2_183_480.wav
10,192,24329,1,0,0:0:0:46:0_E1_183_480.wav
229,192,24329,1,0,0:0:0:49:0_C3_183_480.wav
448,192,24329,1,0,0:0:0:60:0_G#3_183_480.wav
109,192,24412,1,0,0:0:0:48:0_C3_182_480.wav
182,192,24494,1,0,0:0:0:48:0_F3_182_480.wav
256,192,24576,1,0,0:0:0:48:0_G#3_181_480.wav
182,192,24659,1,0,0:0:0:48:0_C3_181_480.wav
10,192,24659,1,0,0:0:0:44:0_E1_181_480.wav
83,192,24659,1,0,0:0:0:56:0_E2_181_480.wav
302,192,24659,1,0,0:0:0:48:0_E3_181_480.wav
375,192,24659,1,0,0:0:0:59:0_G3_181_480.wav
10,192,24992,1,0,0:0:0:44:0_F1_183_480.wav
83,192,24992,1,0,0:0:0:55:0_F2_183_480.wav
156,192,24992,1,0,0:0:0:46:0_C3_183_480.wav
375,192,24992,1,0,0:0:0:46:0_F3_183_480.wav
448,192,24992,1,0,0:0:0:57:0_G#3_183_480.wav
229,192,25155,1,0,0:0:0:49:0_C3_183_480.wav
302,192,25237,1,0,0:0:0:50:0_F3_183_480.wav
375,192,25319,1,0,0:0:0:55:0_G#3_183_480.wav
10,192,25319,1,0,0:0:0:48:0_F1_183_480.wav
83,192,25483,1,0,0:0:0:46:0_C#1_183_480.wav
156,192,25483,1,0,0:0:0:55:0_C#2_183_480.wav
229,192,25483,1,0,0:0:0:49:0_C#3_183_480.wav
302,192,25483,1,0,0:0:0:49:0_F3_183_480.wav
448,192,25483,1,0,0:0:0:60:0_G#3_183_480.wav
10,192,25647,1,0,0:0:0:53:0_C#3_183_480.wav
109,192,25729,1,0,0:0:0:54:0_F3_182_480.wav
182,192,25812,1,0,0:0:0:51:0_C#1_182_480.wav
256,192,25812,1,0,0:0:0:59:0_G#3_182_480.wav
109,192,25976,1,0,0:0:0:62:0_A#1_181_480.wav
329,192,25977,1,0,0:0:0:53:0_C#3_181_480.wav
10,192,25977,1,0,0:0:0:49:0_A#0_181_480.wav
375,192,25977,1,0,0:0:0:53:0_F3_181_480.wav
448,192,25977,1,0,0:0:0:64:0_G#3_181_480.wav
182,192,26143,1,0,0:0:0:57:0_A#2_180_480.wav
256,192,26226,1,0,0:0:0:57:0_C#3_180_480.wav
329,192,26309,1,0,0:0:0:58:0_F3_180_480.wav
448,192,26391,1,0,0:0:0:62:0_G#3_183_480.wav
10,192,26391,1,0,0:0:0:55:0_A#0_183_480.wav
83,192,26473,1,0,0:0:0:54:0_D#1_183_480.wav
156,192,26473,1,0,0:0:0:62:0_D#2_183_480.wav
229,192,26473,1,0,0:0:0:57:0_D#3_183_480.wav
302,192,26473,1,0,0:0:0:57:0_G3_183_480.wav
375,192,26473,1,0,0:0:0:65:0_A#3_183_480.wav
10,192,26637,1,0,0:0:0:51:0_D#1_183_480.wav
83,192,26637,1,0,0:0:0:63:0_D#2_183_480.wav
256,192,26637,1,0,0:0:0:55:0_D#3_183_480.wav
375,192,26637,1,0,0:0:0:55:0_G3_183_480.wav
448,192,26637,1,0,0:0:0:66:0_A#3_183_480.wav
10,192,26965,1,0,0:0:0:54:0_E1_183_480.wav
109,192,26965,1,0,0:0:0:66:0_E2_183_480.wav
402,192,26965,1,0,0:0:0:57:0_G3_183_480.wav
302,192,26965,1,0,0:0:0:57:0_A#3_183_480.wav
448,192,26965,1,0,0:0:0:68:0_C#4_183_480.wav
182,192,27048,1,0,0:0:0:66:0_E3_182_480.wav
256,192,27130,1,0,0:0:0:66:0_G#3_182_480.wav
329,192,27212,1,0,0:0:0:66:0_C#4_181_480.wav
36,192,27294,1,0,0:0:0:59:0_G3_181_480.wav
83,192,27295,1,0,0:0:0:56:0_E1_181_480.wav
156,192,27295,1,0,0:0:0:68:0_E2_181_480.wav
402,192,27295,1,0,0:0:0:59:0_E3_181_480.wav
448,192,27295,1,0,0:0:0:70:0_C4_181_480.wav
256,192,27627,1,0,0:0:0:68:0_F#2_183_480.wav
109,192,27628,1,0,0:0:0:57:0_F#1_183_480.wav
182,192,27628,1,0,0:0:0:66:0_C#3_183_480.wav
375,192,27628,1,0,0:0:0:66:0_F#3_183_480.wav
448,192,27628,1,0,0:0:0:77:0_A3_183_480.wav
36,192,27791,1,0,0:0:0:59:0_F#1_183_480.wav
329,192,27791,1,0,0:0:0:69:0_C#3_183_480.wav
109,192,27873,1,0,0:0:0:69:0_F#3_183_480.wav
182,192,27955,1,0,0:0:0:70:0_A3_183_480.wav
256,192,27955,1,0,0:0:0:60:0_F#2_183_480.wav
36,192,28119,1,0,0:0:0:52:0_D1_183_480.wav
109,192,28119,1,0,0:0:0:62:0_D3_183_480.wav
302,192,28119,1,0,0:0:0:62:0_F#3_183_480.wav
448,192,28119,1,0,0:0:0:74:0_A3_183_480.wav
402,192,28119,1,0,0:0:0:64:0_D2_183_480.wav
182,192,28283,1,0,0:0:0:61:0_D1_183_480.wav
475,192,28283,1,0,0:0:0:71:0_D3_183_480.wav
256,192,28365,1,0,0:0:0:69:0_F#3_183_480.wav
329,192,28447,1,0,0:0:0:59:0_D2_183_480.wav
402,192,28447,1,0,0:0:0:69:0_A3_183_480.wav
475,192,28611,1,0,0:0:0:63:0_D3_183_480.wav
83,192,28611,1,0,0:0:0:52:0_B0_183_480.wav
36,192,28611,1,0,0:0:0:65:0_B1_183_480.wav
256,192,28611,1,0,0:0:0:63:0_F#3_183_480.wav
375,192,28611,1,0,0:0:0:74:0_A3_183_480.wav
329,192,28775,1,0,0:0:0:69:0_B2_183_480.wav
182,192,28775,1,0,0:0:0:58:0_B0_183_480.wav
402,192,28857,1,0,0:0:0:69:0_D3_183_480.wav
256,192,28857,1,0,0:0:0:69:0_F#3_183_480.wav
329,192,28939,1,0,0:0:0:63:0_B1_183_480.wav
475,192,28939,1,0,0:0:0:73:0_A3_183_480.wav
10,192,29103,1,0,0:0:0:52:0_E1_183_480.wav
83,192,29103,1,0,0:0:0:64:0_E2_183_480.wav
256,192,29103,1,0,0:0:0:62:0_B2_183_480.wav
302,192,29103,1,0,0:0:0:62:0_E3_183_480.wav
448,192,29103,1,0,0:0:0:74:0_A3_183_480.wav
182,192,29267,1,0,0:0:0:70:0_B2_183_480.wav
256,192,29349,1,0,0:0:0:69:0_E3_183_480.wav
329,192,29431,1,0,0:0:0:69:0_A3_183_480.wav
10,192,29431,1,0,0:0:0:59:0_E1_183_480.wav
36,192,29595,1,0,0:0:0:55:0_F1_183_480.wav
156,192,29595,1,0,0:0:0:63:0_F2_183_480.wav
229,192,29595,1,0,0:0:0:65:0_C#3_183_480.wav
375,192,29595,1,0,0:0:0:65:0_F3_183_480.wav
448,192,29595,1,0,0:0:0:76:0_A3_183_480.wav
109,192,29759,1,0,0:0:0:69:0_C#3_183_480.wav
182,192,29841,1,0,0:0:0:69:0_F#3_183_480.wav
329,192,29841,1,0,0:0:0:69:0_A3_183_480.wav
375,192,29923,1,0,0:0:0:74:0_G#3_183_480.wav
83,192,29923,1,0,0:0:0:63:0_C#3_183_480.wav
36,192,29923,1,0,0:0:0:63:0_F3_183_480.wav
475,192,29923,1,0,0:0:0:54:0_F1_183_480.wav
256,192,29923,1,0,0:0:0:65:0_F2_183_480.wav
10,192,30251,1,0,0:0:0:57:0_F#1_183_480.wav
256,192,30251,1,0,0:0:0:68:0_F#2_183_480.wav
156,192,30251,1,0,0:0:0:66:0_C#3_183_480.wav
302,192,30251,1,0,0:0:0:66:0_F#3_183_480.wav
448,192,30251,1,0,0:0:0:77:0_A3_183_480.wav
109,192,30415,1,0,0:0:0:59:0_F#1_183_480.wav
375,192,30415,1,0,0:0:0:69:0_C#3_183_480.wav
182,192,30497,1,0,0:0:0:69:0_F#3_183_480.wav
256,192,30579,1,0,0:0:0:70:0_A3_183_480.wav
475,192,30579,1,0,0:0:0:60:0_F#2_183_480.wav
329,192,30742,1,0,0:0:0:62:0_D3_183_480.wav
402,192,30742,1,0,0:0:0:64:0_D2_183_480.wav
182,192,30742,1,0,0:0:0:62:0_F#3_183_480.wav
448,192,30742,1,0,0:0:0:74:0_A3_183_480.wav
10,192,30742,1,0,0:0:0:52:0_D1_183_480.wav
402,192,30906,1,0,0:0:0:71:0_D3_183_480.wav
109,192,30906,1,0,0:0:0:61:0_D1_183_480.wav
182,192,30988,1,0,0:0:0:69:0_F#3_183_480.wav
329,192,31070,1,0,0:0:0:59:0_D2_183_480.wav
256,192,31070,1,0,0:0:0:69:0_A3_183_480.wav
402,192,31234,1,0,0:0:0:63:0_F#3_183_480.wav
10,192,31234,1,0,0:0:0:52:0_B0_183_480.wav
109,192,31234,1,0,0:0:0:65:0_B1_183_480.wav
182,192,31234,1,0,0:0:0:63:0_D3_183_480.wav
448,192,31234,1,0,0:0:0:74:0_A3_183_480.wav
475,192,31398,1,0,0:0:0:69:0_B2_183_480.wav
36,192,31398,1,0,0:0:0:58:0_B0_183_480.wav
402,192,31480,1,0,0:0:0:69:0_D3_183_480.wav
109,192,31480,1,0,0:0:0:69:0_F#3_183_480.wav
182,192,31562,1,0,0:0:0:63:0_B1_183_480.wav
329,192,31562,1,0,0:0:0:73:0_A3_183_480.wav
10,192,31726,1,0,0:0:0:52:0_E1_183_480.wav
83,192,31726,1,0,0:0:0:61:0_E2_183_480.wav
256,192,31726,1,0,0:0:0:62:0_E3_183_480.wav
375,192,31726,1,0,0:0:0:71:0_A3_183_480.wav
448,192,31726,1,0,0:0:0:67:0_B3_183_480.wav
10,192,31890,1,0,0:0:0:53:0_E1_183_480.wav
109,192,31890,1,0,0:0:0:65:0_E2_183_480.wav
229,192,31890,1,0,0:0:0:63:0_E3_183_480.wav
402,192,31890,1,0,0:0:0:72:0_G#3_183_480.wav
448,192,31890,1,0,0:0:0:68:0_B3_183_480.wav
83,192,32218,1,0,0:0:0:55:0_F1_183_480.wav
302,192,32218,1,0,0:0:0:66:0_F2_183_480.wav
375,192,32218,1,0,0:0:0:71:0_C#3_183_480.wav
182,192,32300,1,0,0:0:0:69:0_F3_183_480.wav
256,192,32382,1,0,0:0:0:69:0_G#3_183_480.wav
329,192,32464,1,0,0:0:0:69:0_B3_183_480.wav
475,192,32546,1,0,0:0:0:65:0_F1_183_480.wav
36,192,32546,1,0,0:0:0:51:0_F0_183_480.wav
402,192,32546,1,0,0:0:0:70:0_C#4_183_480.wav
109,192,32628,1,0,0:0:0:69:0_F4_183_480.wav
182,192,32710,1,0,0:0:0:69:0_G#4_183_480.wav
256,192,32792,1,0,0:0:0:69:0_B4_183_480.wav
36,192,32874,1,0,0:0:0:56:0_F#0_183_480.wav
475,192,32874,1,0,0:0:0:70:0_F#1_183_480.wav
182,192,32874,1,0,0:0:0:66:0_C#4_183_480.wav
302,192,32874,1,0,0:0:0:66:0_E4_183_480.wav
375,192,32874,1,0,0:0:0:77:0_A4_183_480.wav
402,192,33038,1,0,0:0:0:69:0_C#4_183_480.wav
329,192,33120,1,0,0:0:0:69:0_A4_183_480.wav
109,192,33202,1,0,0:0:0:63:0_C#4_183_480.wav
36,192,33202,1,0,0:0:0:62:0_F#1_183_480.wav
256,192,33202,1,0,0:0:0:63:0_E4_183_480.wav
182,192,33202,1,0,0:0:0:74:0_G#4_183_480.wav
475,192,33366,1,0,0:0:0:69:0_C#4_183_480.wav
402,192,33448,1,0,0:0:0:69:0_G#4_183_480.wav
256,192,33530,1,0,0:0:0:65:0_B3_183_480.wav
36,192,33530,1,0,0:0:0:65:0_G#3_183_480.wav
83,192,33530,1,0,0:0:0:55:0_E0_183_480.wav
156,192,33530,1,0,0:0:0:68:0_E1_183_480.wav
329,192,33530,1,0,0:0:0:76:0_E4_183_480.wav
402,192,33693,1,0,0:0:0:69:0_F#3_183_480.wav
329,192,33775,1,0,0:0:0:69:0_G#3_183_480.wav
256,192,33857,1,0,0:0:0:59:0_E0_183_480.wav
182,192,33857,1,0,0:0:0:87:0_B3_183_480.wav
36,192,33939,1,0,0:0:0:86:0_E4_183_480.wav
83,192,34021,1,0,0:0:0:69:0_F#3_183_480.wav
182,192,34103,1,0,0:0:0:69:0_G#3_183_480.wav
256,192,34185,1,0,0:0:0:66:0_D#1_183_480.wav
475,192,34185,1,0,0:0:0:62:0_F#3_183_480.wav
10,192,34185,1,0,0:0:0:51:0_D#0_183_480.wav
302,192,34185,1,0,0:0:0:62:0_A3_183_480.wav
375,192,34185,1,0,0:0:0:74:0_C#4_183_480.wav
83,192,34349,1,0,0:0:0:67:0_F#3_183_480.wav
182,192,34431,1,0,0:0:0:66:0_A3_183_480.wav
256,192,34513,1,0,0:0:0:55:0_D#0_183_480.wav
402,192,34513,1,0,0:0:0:66:0_A#3_183_480.wav
329,192,34595,1,0,0:0:0:65:0_B3_183_480.wav
256,192,34677,1,0,0:0:0:65:0_C4_183_480.wav
475,192,34759,1,0,0:0:0:58:0_A3_183_480.wav
329,192,34759,1,0,0:0:0:69:0_C#4_183_480.wav
109,192,34841,1,0,0:0:0:55:0_D#1_183_480.wav
36,192,34841,1,0,0:0:0:56:0_D#3_183_480.wav
402,192,34841,1,0,0:0:0:67:0_F#3_183_480.wav
10,192,35169,1,0,0:0:0:48:0_D#0_183_480.wav
375,192,35169,1,0,0:0:0:59:0_F#3_183_480.wav
83,192,35251,1,0,0:0:0:59:0_G#3_183_480.wav
182,192,35333,1,0,0:0:0:59:0_A3_183_480.wav
256,192,35415,1,0,0:0:0:59:0_B3_183_480.wav
475,192,35497,1,0,0:0:0:56:0_F#3_183_480.wav
10,192,35497,1,0,0:0:0:60:0_B1_183_480.wav
83,192,35497,1,0,0:0:0:56:0_D3_183_480.wav
302,192,35497,1,0,0:0:0:56:0_A3_183_480.wav
375,192,35497,1,0,0:0:0:67:0_C#4_183_480.wav
182,192,35661,1,0,0:0:0:59:0_B2_183_480.wav
256,192,35743,1,0,0:0:0:59:0_F#3_183_480.wav
329,192,35825,1,0,0:0:0:59:0_D3_183_480.wav
109,192,35825,1,0,0:0:0:51:0_B0_183_480.wav
182,192,35907,1,0,0:0:0:59:0_A3_183_480.wav
256,192,35989,1,0,0:0:0:59:0_D4_183_480.wav
329,192,36071,1,0,0:0:0:59:0_C#4_183_480.wav
182,192,36153,1,0,0:0:0:59:0_C#2_183_480.wav
36,192,36153,1,0,0:0:0:47:0_C#1_183_480.wav
109,192,36153,1,0,0:0:0:55:0_D#3_183_480.wav
375,192,36153,1,0,0:0:0:55:0_G#3_183_480.wav
448,192,36153,1,0,0:0:0:66:0_B3_183_480.wav
10,192,36481,1,0,0:0:0:46:0_F1_183_480.wav
156,192,36481,1,0,0:0:0:57:0_F2_183_480.wav
302,192,36481,1,0,0:0:0:53:0_C#3_183_480.wav
375,192,36481,1,0,0:0:0:53:0_F3_183_480.wav
448,192,36481,1,0,0:0:0:64:0_G#3_183_480.wav
10,192,36808,1,0,0:0:0:50:0_F#1_183_480.wav
83,192,36808,1,0,0:0:0:61:0_F#2_183_480.wav
156,192,36808,1,0,0:0:0:65:0_A2_183_480.wav
475,192,36808,1,0,0:0:0:56:0_C#3_183_480.wav
256,192,36808,1,0,0:0:0:65:0_E3_183_480.wav
375,192,36808,1,0,0:0:0:61:0_G#3_183_480.wav
448,192,36972,1,0,0:0:0:59:0_C#3_183_480.wav
402,192,36972,1,0,0:0:0:52:0_F#1_183_480.wav
182,192,37054,1,0,0:0:0:59:0_F#3_183_480.wav
229,192,37136,1,0,0:0:0:58:0_E2_183_480.wav
475,192,37136,1,0,0:0:0:59:0_A3_183_480.wav
36,192,37136,1,0,0:0:0:46:0_E1_183_480.wav
329,192,37218,1,0,0:0:0:59:0_C#3_183_480.wav
109,192,37300,1,0,0:0:0:51:0_E1_183_480.wav
402,192,37300,1,0,0:0:0:59:0_F#3_183_480.wav
182,192,37382,1,0,0:0:0:59:0_A3_183_480.wav
36,192,37464,1,0,0:0:0:61:0_C#4_183_480.wav
256,192,37464,1,0,0:0:0:48:0_D1_183_480.wav
475,192,37464,1,0,0:0:0:59:0_D2_183_480.wav
109,192,37546,1,0,0:0:0:59:0_F#3_182_480.wav
182,192,37629,1,0,0:0:0:51:0_D1_181_480.wav
402,192,37629,1,0,0:0:0:59:0_A3_181_480.wav
302,192,37712,1,0,0:0:0:59:0_C#4_180_480.wav
36,192,37795,1,0,0:0:0:58:0_C#2_179_480.wav
256,192,37795,1,0,0:0:0:46:0_C#1_179_480.wav
475,192,37795,1,0,0:0:0:59:0_F#4_179_480.wav
402,192,37878,1,0,0:0:0:59:0_A3_178_480.wav
109,192,37963,1,0,0:0:0:51:0_C#1_177_480.wav
329,192,37963,1,0,0:0:0:59:0_C#4_177_480.wav
182,192,38048,1,0,0:0:0:59:0_F#4_177_480.wav
36,192,38132,1,0,0:0:0:67:0_F#4_176_480.wav
83,192,38132,1,0,0:0:0:42:0_B0_176_480.wav
329,192,38132,1,0,0:0:0:55:0_B1_176_480.wav
229,192,38132,1,0,0:0:0:56:0_A3_176_480.wav
375,192,38132,1,0,0:0:0:56:0_D4_176_480.wav
475,192,38299,1,0,0:0:0:59:0_A3_183_480.wav
402,192,38381,1,0,0:0:0:59:0_F#4_183_480.wav
329,192,38436,1,0,0:0:0:59:0_D4_183_480.wav
256,192,38463,1,0,0:0:0:36:0_B0_183_480.wav
109,192,38463,1,0,0:0:0:64:0_A4_183_480.wav
182,192,38463,1,0,0:0:0:53:0_D4_183_480.wav
10,192,38791,1,0,0:0:0:54:0_E1_183_480.wav
83,192,38791,1,0,0:0:0:66:0_E2_183_480.wav
229,192,38791,1,0,0:0:0:55:0_B3_183_480.wav
302,192,38791,1,0,0:0:0:55:0_E4_183_480.wav
448,192,38791,1,0,0:0:0:66:0_G#4_183_480.wav
156,192,38955,1,0,0:0:0:48:0_E2_183_480.wav
402,192,39119,1,0,0:0:0:64:0_D1_183_480.wav
36,192,39119,1,0,0:0:0:65:0_G#4_183_480.wav
109,192,39201,1,0,0:0:0:66:0_F#4_183_480.wav
402,192,39283,1,0,0:0:0:66:0_F4_183_480.wav
182,192,39283,1,0,0:0:0:51:0_D2_183_480.wav
329,192,39365,1,0,0:0:0:67:0_F#4_183_480.wav
182,192,39447,1,0,0:0:0:60:0_C#2_183_480.wav
256,192,39447,1,0,0:0:0:66:0_F4_183_480.wav
36,192,39447,1,0,0:0:0:77:0_G#4_183_480.wav
475,192,39447,1,0,0:0:0:60:0_C#1_183_480.wav
109,192,39447,1,0,0:0:0:66:0_C#4_183_480.wav
182,192,39693,1,0,0:0:0:63:0_C#4_183_480.wav
229,192,39748,1,0,0:0:0:63:0_F4_183_480.wav
10,192,39775,1,0,0:0:0:63:0_G#4_183_480.wav
302,192,39775,1,0,0:0:0:57:0_F2_183_480.wav
375,192,39775,1,0,0:0:0:74:0_B4_183_480.wav
475,192,39775,1,0,0:0:0:58:0_F1_183_480.wav
10,192,40103,1,0,0:0:0:59:0_F#1_183_480.wav
156,192,40103,1,0,0:0:0:59:0_F#2_183_480.wav
229,192,40103,1,0,0:0:0:65:0_C#4_183_480.wav
375,192,40103,1,0,0:0:0:65:0_F#4_183_480.wav
448,192,40103,1,0,0:0:0:76:0_A4_183_480.wav
109,192,40267,1,0,0:0:0:51:0_F#2_183_480.wav
302,192,40267,1,0,0:0:0:69:0_F#4_183_480.wav
182,192,40349,1,0,0:0:0:69:0_G#4_183_480.wav
256,192,40431,1,0,0:0:0:63:0_E1_183_480.wav
475,192,40431,1,0,0:0:0:70:0_A4_183_480.wav
402,192,40513,1,0,0:0:0:69:0_G#4_183_480.wav
36,192,40595,1,0,0:0:0:51:0_E2_183_480.wav
302,192,40595,1,0,0:0:0:69:0_A4_183_480.wav
83,192,40677,1,0,0:0:0:69:0_B4_183_480.wav
10,192,40759,1,0,0:0:0:61:0_D#2_183_480.wav
156,192,40759,1,0,0:0:0:66:0_D#4_183_480.wav
229,192,40759,1,0,0:0:0:66:0_F#4_183_480.wav
375,192,40759,1,0,0:0:0:66:0_A4_183_480.wav
448,192,40759,1,0,0:0:0:77:0_C#5_183_480.wav
83,192,40923,1,0,0:0:0:49:0_D#2_183_480.wav
302,192,40923,1,0,0:0:0:70:0_F#4_183_480.wav
402,192,41005,1,0,0:0:0:70:0_G#4_183_480.wav
475,192,41087,1,0,0:0:0:71:0_A4_183_480.wav
182,192,41087,1,0,0:0:0:51:0_F#2_183_480.wav
109,192,41169,1,0,0:0:0:72:0_G#4_183_480.wav
36,192,41250,1,0,0:0:0:53:0_A2_183_480.wav
229,192,41250,1,0,0:0:0:74:0_A4_183_480.wav
302,192,41332,1,0,0:0:0:74:0_C#5_183_480.wav
402,192,41414,1,0,0:0:0:75:0_F#5_183_480.wav
182,192,41414,1,0,0:0:0:45:0_C#3_183_480.wav
475,192,41578,1,0,0:0:0:47:0_A2_183_480.wav
156,192,41742,1,0,0:0:0:80:0_G#4_183_480.wav
229,192,41742,1,0,0:0:0:50:0_F#2_183_480.wav
83,192,41770,1,0,0:0:0:80:0_G#5_183_480.wav
302,192,41906,1,0,0:0:0:49:0_D#2_183_480.wav
10,192,42070,1,0,0:0:0:67:0_B0_183_480.wav
156,192,42070,1,0,0:0:0:70:0_B1_183_480.wav
229,192,42070,1,0,0:0:0:69:0_D4_183_480.wav
375,192,42070,1,0,0:0:0:69:0_F#4_183_480.wav
448,192,42070,1,0,0:0:0:80:0_A4_183_480.wav
83,192,42234,1,0,0:0:0:76:0_F#4_183_480.wav
182,192,42316,1,0,0:0:0:74:0_G#4_183_480.wav
256,192,42398,1,0,0:0:0:69:0_B0_183_480.wav
475,192,42398,1,0,0:0:0:70:0_A4_183_480.wav
329,192,42480,1,0,0:0:0:68:0_G#4_183_480.wav
475,192,42562,1,0,0:0:0:66:0_A4_183_480.wav
329,192,42644,1,0,0:0:0:62:0_B4_183_480.wav
10,192,42726,1,0,0:0:0:53:0_E1_183_480.wav
83,192,42726,1,0,0:0:0:65:0_E2_183_480.wav
156,192,42726,1,0,0:0:0:54:0_B3_183_480.wav
256,192,42726,1,0,0:0:0:54:0_E4_183_480.wav
375,192,42726,1,0,0:0:0:65:0_A4_183_480.wav
83,192,43054,1,0,0:0:0:48:0_E1_183_480.wav
229,192,43054,1,0,0:0:0:43:0_B3_183_480.wav
375,192,43054,1,0,0:0:0:43:0_E4_183_480.wav
448,192,43054,1,0,0:0:0:54:0_G#4_183_480.wav
10,192,43382,1,0,0:0:0:42:0_D1_183_480.wav
83,192,43382,1,0,0:0:0:54:0_D2_183_480.wav
156,192,43382,1,0,0:0:0:43:0_A2_183_480.wav
302,192,43382,1,0,0:0:0:52:0_D3_183_480.wav
375,192,43382,1,0,0:0:0:63:0_F#3_183_480.wav
10,192,43737,1,0,0:0:0:33:0_D2_183_480.wav
229,192,43737,1,0,0:0:0:44:0_A2_183_480.wav
302,192,43737,1,0,0:0:0:33:0_F#3_183_480.wav
375,192,43737,1,0,0:0:0:33:0_A3_183_480.wav
448,192,43737,1,0,0:0:0:44:0_D4_183_480.wav
36,192,43846,1,0,0:0:0:33:0_F#3_183_480.wav
256,192,43846,1,0,0:0:0:33:0_A3_183_480.wav
402,192,43846,1,0,0:0:0:44:0_D4_183_480.wav
10,192,43956,1,0,0:0:0:37:0_F#3_183_480.wav
256,192,43956,1,0,0:0:0:37:0_A3_183_480.wav
375,192,43956,1,0,0:0:0:48:0_C#4_183_480.wav
448,192,44065,1,0,0:0:0:56:0_C#4_183_480.wav
302,192,44065,1,0,0:0:0:45:0_A3_183_480.wav
156,192,44065,1,0,0:0:0:51:0_E2_183_480.wav
83,192,44065,1,0,0:0:0:40:0_E1_183_480.wav
36,192,44065,1,0,0:0:0:45:0_E3_183_480.wav
10,192,44174,1,0,0:0:0:48:0_E3_183_480.wav
156,192,44174,1,0,0:0:0:48:0_A3_183_480.wav
329,192,44174,1,0,0:0:0:59:0_B3_183_480.wav
36,192,44283,1,0,0:0:0:52:0_E3_183_480.wav
182,192,44283,1,0,0:0:0:61:0_A3_183_480.wav
329,192,44283,1,0,0:0:0:57:0_B3_183_480.wav
10,192,44393,1,0,0:0:0:57:0_D1_183_480.wav
156,192,44393,1,0,0:0:0:57:0_E3_183_480.wav
229,192,44393,1,0,0:0:0:66:0_G#3_183_480.wav
375,192,44393,1,0,0:0:0:62:0_B3_183_480.wav
329,192,44502,1,0,0:0:0:60:0_E3_183_480.wav
475,192,44502,1,0,0:0:0:60:0_G#3_183_480.wav
109,192,44502,1,0,0:0:0:68:0_B3_183_480.wav
109,192,44611,1,0,0:0:0:66:0_E3_183_480.wav
329,192,44611,1,0,0:0:0:68:0_G#3_183_480.wav
475,192,44611,1,0,0:0:0:73:0_B3_183_480.wav
10,192,44714,1,0,0:0:0:66:0_C#1_183_480.wav
83,192,44714,1,0,0:0:0:67:0_C#2_183_480.wav
156,192,44714,1,0,0:0:0:66:0_C#3_183_480.wav
302,192,44714,1,0,0:0:0:66:0_F3_183_480.wav
375,192,44714,1,0,0:0:0:66:0_G#3_183_480.wav
448,192,44714,1,0,0:0:0:77:0_B3_183_480.wav
229,192,44939,1,0,0:0:0:63:0_F3_183_480.wav
83,192,44994,1,0,0:0:0:63:0_G#3_183_480.wav
302,192,44994,1,0,0:0:0:63:0_B3_183_480.wav
375,192,45049,1,0,0:0:0:74:0_E4_183_480.wav
156,192,45049,1,0,0:0:0:59:0_C#1_183_480.wav
10,192,45349,1,0,0:0:0:57:0_F#1_183_480.wav
83,192,45349,1,0,0:0:0:58:0_F#2_183_480.wav
229,192,45349,1,0,0:0:0:57:0_F#3_183_480.wav
302,192,45349,1,0,0:0:0:57:0_A3_183_480.wav
448,192,45349,1,0,0:0:0:68:0_C#4_183_480.wav
10,192,45677,1,0,0:0:0:39:0_E1_183_480.wav
83,192,45677,1,0,0:0:0:51:0_E2_183_480.wav
156,192,45677,1,0,0:0:0:59:0_F#3_183_480.wav
302,192,45677,1,0,0:0:0:50:0_A3_183_480.wav
375,192,45677,1,0,0:0:0:55:0_C#4_183_480.wav
83,192,46005,1,0,0:0:0:45:0_D#1_183_480.wav
229,192,46005,1,0,0:0:0:57:0_D#2_183_480.wav
302,192,46005,1,0,0:0:0:64:0_D#3_183_480.wav
375,192,46005,1,0,0:0:0:55:0_A3_183_480.wav
448,192,46005,1,0,0:0:0:60:0_C#4_183_480.wav
10,192,46169,1,0,0:0:0:48:0_B1_183_480.wav
156,192,46169,1,0,0:0:0:58:0_B2_183_480.wav
256,192,46251,1,0,0:0:0:58:0_D#3_183_480.wav
402,192,46333,1,0,0:0:0:59:0_F#3_183_480.wav
329,192,46333,1,0,0:0:0:49:0_D#2_183_480.wav
109,192,46415,1,0,0:0:0:58:0_D#3_183_480.wav
182,192,46497,1,0,0:0:0:58:0_F#3_183_480.wav
475,192,46497,1,0,0:0:0:48:0_E1_183_480.wav
256,192,46579,1,0,0:0:0:58:0_A3_183_480.wav
10,192,46661,1,0,0:0:0:43:0_B0_183_480.wav
329,192,46661,1,0,0:0:0:55:0_B1_183_480.wav
109,192,46661,1,0,0:0:0:54:0_D#3_183_480.wav
402,192,46661,1,0,0:0:0:54:0_A3_183_480.wav
448,192,46661,1,0,0:0:0:65:0_C#4_183_480.wav
109,192,46825,1,0,0:0:0:47:0_B0_183_480.wav
329,192,46825,1,0,0:0:0:58:0_D#3_183_480.wav
256,192,46907,1,0,0:0:0:58:0_F#3_183_480.wav
182,192,46989,1,0,0:0:0:49:0_B1_183_480.wav
475,192,46989,1,0,0:0:0:59:0_A3_183_480.wav
402,192,47071,1,0,0:0:0:58:0_F#3_183_480.wav
36,192,47153,1,0,0:0:0:47:0_B0_183_480.wav
329,192,47153,1,0,0:0:0:58:0_A3_183_480.wav
256,192,47235,1,0,0:0:0:58:0_C#4_183_480.wav
182,192,47316,1,0,0:0:0:55:0_E3_183_480.wav
83,192,47316,1,0,0:0:0:57:0_E2_183_480.wav
36,192,47316,1,0,0:0:0:55:0_F#3_183_480.wav
375,192,47316,1,0,0:0:0:55:0_A3_183_480.wav
448,192,47316,1,0,0:0:0:66:0_C#4_183_480.wav
256,192,47480,1,0,0:0:0:58:0_B2_183_480.wav
182,192,47562,1,0,0:0:0:58:0_E3_183_480.wav
109,192,47644,1,0,0:0:0:49:0_B1_183_480.wav
402,192,47644,1,0,0:0:0:59:0_A3_183_480.wav
329,192,47726,1,0,0:0:0:58:0_C#4_183_480.wav
256,192,47808,1,0,0:0:0:58:0_D4_183_480.wav
182,192,47890,1,0,0:0:0:58:0_C#4_183_480.wav
402,192,47972,1,0,0:0:0:54:0_G#3_183_480.wav
448,192,47972,1,0,0:0:0:62:0_B3_183_480.wav
10,192,47972,1,0,0:0:0:44:0_E1_183_480.wav
83,192,47972,1,0,0:0:0:55:0_E2_183_480.wav
256,192,47972,1,0,0:0:0:54:0_E3_183_480.wav
83,192,48300,1,0,0:0:0:48:0_D1_183_480.wav
36,192,48300,1,0,0:0:0:52:0_D3_183_480.wav
329,192,48300,1,0,0:0:0:52:0_E3_183_480.wav
375,192,48300,1,0,0:0:0:52:0_G#3_183_480.wav
448,192,48300,1,0,0:0:0:63:0_B3_183_480.wav
10,192,48628,1,0,0:0:0:43:0_E0_183_480.wav
83,192,48628,1,0,0:0:0:56:0_E1_183_480.wav
156,192,48628,1,0,0:0:0:46:0_B2_183_480.wav
229,192,48628,1,0,0:0:0:46:0_E3_183_480.wav
302,192,48628,1,0,0:0:0:57:0_G#3_183_480.wav
156,192,48983,1,0,0:0:0:48:0_B0_183_480.wav
229,192,48983,1,0,0:0:0:48:0_B1_183_480.wav
302,192,48983,1,0,0:0:0:40:0_G#3_183_480.wav
375,192,48983,1,0,0:0:0:40:0_B3_183_480.wav
448,192,48983,1,0,0:0:0:51:0_E4_183_480.wav
475,192,49093,1,0,0:0:0:43:0_G#3_183_480.wav
182,192,49093,1,0,0:0:0:43:0_B3_183_480.wav
329,192,49093,1,0,0:0:0:54:0_E4_183_480.wav
156,192,49202,1,0,0:0:0:53:0_G#3_183_480.wav
475,192,49202,1,0,0:0:0:53:0_B3_183_480.wav
302,192,49202,1,0,0:0:0:64:0_D#4_183_480.wav
10,192,49304,1,0,0:0:0:53:0_F#0_183_480.wav
83,192,49304,1,0,0:0:0:67:0_F#1_183_480.wav
375,192,49304,1,0,0:0:0:54:0_B3_183_480.wav
448,192,49304,1,0,0:0:0:65:0_D#4_183_480.wav
256,192,49311,1,0,0:0:0:54:0_F#3_183_480.wav
256,192,49420,1,0,0:0:0:62:0_F#3_183_480.wav
36,192,49420,1,0,0:0:0:62:0_B3_183_480.wav
402,192,49420,1,0,0:0:0:73:0_C#4_183_480.wav
10,192,49530,1,0,0:0:0:68:0_F#3_183_480.wav
256,192,49530,1,0,0:0:0:77:0_B3_183_480.wav
402,192,49530,1,0,0:0:0:73:0_C#4_183_480.wav
475,192,49639,1,0,0:0:0:76:0_C#4_183_480.wav
156,192,49639,1,0,0:0:0:67:0_E0_183_480.wav
109,192,49639,1,0,0:0:0:71:0_F#3_183_480.wav
302,192,49639,1,0,0:0:0:80:0_A#3_183_480.wav
329,192,49748,1,0,0:0:0:74:0_F#3_183_480.wav
109,192,49748,1,0,0:0:0:74:0_A#3_183_480.wav
448,192,49748,1,0,0:0:0:82:0_C#4_183_480.wav
109,192,49858,1,0,0:0:0:85:0_F#3_183_480.wav
329,192,49858,1,0,0:0:0:77:0_A#3_183_480.wav
475,192,49858,1,0,0:0:0:81:0_C#4_183_480.wav
10,192,49960,1,0,0:0:0:63:0_D#0_183_480.wav
83,192,49960,1,0,0:0:0:77:0_D#1_183_480.wav
156,192,49960,1,0,0:0:0:77:0_D#3_183_480.wav
229,192,49960,1,0,0:0:0:77:0_G3_183_480.wav
375,192,49960,1,0,0:0:0:77:0_A#3_183_480.wav
448,192,49960,1,0,0:0:0:88:0_C#4_183_480.wav
302,192,50186,1,0,0:0:0:74:0_G3_183_480.wav
182,192,50240,1,0,0:0:0:74:0_A#3_183_480.wav
402,192,50240,1,0,0:0:0:74:0_C#4_183_480.wav
109,192,50267,1,0,0:0:0:66:0_D#0_183_480.wav
475,192,50267,1,0,0:0:0:85:0_F#4_183_480.wav
10,192,50595,1,0,0:0:0:62:0_G#0_183_480.wav
83,192,50595,1,0,0:0:0:66:0_G#1_183_480.wav
229,192,50595,1,0,0:0:0:64:0_G#3_183_480.wav
302,192,50595,1,0,0:0:0:64:0_B3_183_480.wav
448,192,50595,1,0,0:0:0:75:0_D#4_183_480.wav
10,192,50925,1,0,0:0:0:40:0_F#0_181_480.wav
83,192,50925,1,0,0:0:0:55:0_F#1_181_480.wav
156,192,50925,1,0,0:0:0:53:0_G#3_181_480.wav
302,192,50925,1,0,0:0:0:53:0_B3_181_480.wav
375,192,50925,1,0,0:0:0:64:0_D#4_181_480.wav
83,192,51258,1,0,0:0:0:51:0_A#0_183_480.wav
156,192,51258,1,0,0:0:0:55:0_A#1_183_480.wav
229,192,51258,1,0,0:0:0:65:0_A#3_183_480.wav
375,192,51258,1,0,0:0:0:65:0_C#4_183_480.wav
448,192,51258,1,0,0:0:0:76:0_F4_183_480.wav
302,192,51421,1,0,0:0:0:60:0_F3_183_480.wav
256,192,51503,1,0,0:0:0:61:0_A#3_183_480.wav
156,192,51585,1,0,0:0:0:60:0_A#0_183_480.wav
475,192,51585,1,0,0:0:0:62:0_C#4_183_480.wav
402,192,51667,1,0,0:0:0:62:0_A#3_183_480.wav
36,192,51749,1,0,0:0:0:55:0_A#1_183_480.wav
329,192,51749,1,0,0:0:0:63:0_C#4_183_480.wav
109,192,51831,1,0,0:0:0:64:0_D#4_183_480.wav
329,192,51913,1,0,0:0:0:61:0_D2_183_480.wav
156,192,51913,1,0,0:0:0:66:0_G#3_183_480.wav
229,192,51913,1,0,0:0:0:66:0_B3_183_480.wav
375,192,51913,1,0,0:0:0:66:0_D4_183_480.wav
448,192,51913,1,0,0:0:0:77:0_F4_183_480.wav
83,192,52078,1,0,0:0:0:66:0_F3_181_480.wav
182,192,52161,1,0,0:0:0:67:0_A#3_180_480.wav
256,192,52244,1,0,0:0:0:59:0_D1_179_480.wav
402,192,52244,1,0,0:0:0:69:0_D4_179_480.wav
156,192,52328,1,0,0:0:0:70:0_A#3_178_480.wav
109,192,52412,1,0,0:0:0:62:0_D2_177_480.wav
475,192,52412,1,0,0:0:0:70:0_D4_177_480.wav
402,192,52496,1,0,0:0:0:71:0_G4_177_480.wav
10,192,52581,1,0,0:0:0:59:0_D#1_176_480.wav
156,192,52581,1,0,0:0:0:62:0_D#2_176_480.wav
302,192,52581,1,0,0:0:0:59:0_A#3_176_480.wav
109,192,52581,1,0,0:0:0:59:0_D#4_176_480.wav
448,192,52581,1,0,0:0:0:70:0_G#4_176_480.wav
256,192,52748,1,0,0:0:0:67:0_G3_183_480.wav
182,192,52830,1,0,0:0:0:68:0_A#3_183_480.wav
109,192,52912,1,0,0:0:0:59:0_D#1_183_480.wav
402,192,52912,1,0,0:0:0:69:0_D#4_183_480.wav
302,192,52994,1,0,0:0:0:70:0_G#4_183_480.wav
256,192,53076,1,0,0:0:0:70:0_A#4_183_480.wav
182,192,53158,1,0,0:0:0:71:0_G#4_183_480.wav
10,192,53240,1,0,0:0:0:59:0_G1_183_480.wav
83,192,53240,1,0,0:0:0:70:0_G2_183_480.wav
229,192,53240,1,0,0:0:0:69:0_A#3_183_480.wav
302,192,53240,1,0,0:0:0:77:0_D#4_183_480.wav
448,192,53240,1,0,0:0:0:74:0_G4_183_480.wav
156,192,53404,1,0,0:0:0:63:0_F1_183_480.wav
10,192,53568,1,0,0:0:0:63:0_D#1_183_480.wav
83,192,53568,1,0,0:0:0:76:0_G3_183_480.wav
229,192,53568,1,0,0:0:0:67:0_A#3_183_480.wav
302,192,53568,1,0,0:0:0:76:0_D4_183_480.wav
375,192,53568,1,0,0:0:0:72:0_G4_183_480.wav
448,192,53732,1,0,0:0:0:62:0_D1_183_480.wav
156,192,53896,1,0,0:0:0:66:0_C1_183_480.wav
302,192,53896,1,0,0:0:0:59:0_C2_183_480.wav
10,192,53896,1,0,0:0:0:70:0_A#3_183_480.wav
83,192,53896,1,0,0:0:0:70:0_C4_183_480.wav
229,192,53896,1,0,0:0:0:70:0_E4_183_480.wav
375,192,53896,1,0,0:0:0:75:0_G4_183_480.wav
448,192,54060,1,0,0:0:0:51:0_E2_183_480.wav
475,192,54224,1,0,0:0:0:46:0_G2_183_480.wav
109,192,54224,1,0,0:0:0:68:0_C4_183_480.wav
182,192,54306,1,0,0:0:0:67:0_E4_183_480.wav
256,192,54388,1,0,0:0:0:46:0_C3_183_480.wav
329,192,54470,1,0,0:0:0:67:0_G4_183_480.wav
475,192,54552,1,0,0:0:0:46:0_E3_183_480.wav
402,192,54552,1,0,0:0:0:70:0_C4_183_480.wav
109,192,54552,1,0,0:0:0:70:0_E4_183_480.wav
36,192,54552,1,0,0:0:0:81:0_A#4_183_480.wav
302,192,54881,1,0,0:0:0:57:0_C1_181_480.wav
329,192,55047,1,0,0:0:0:69:0_C5_180_480.wav
229,192,55130,1,0,0:0:0:70:0_A#4_180_480.wav
83,192,55214,1,0,0:0:0:53:0_F1_183_480.wav
156,192,55214,1,0,0:0:0:64:0_C4_183_480.wav
402,192,55214,1,0,0:0:0:64:0_F4_183_480.wav
448,192,55214,1,0,0:0:0:75:0_G#4_183_480.wav
256,192,55377,1,0,0:0:0:45:0_F2_183_480.wav
302,192,55377,1,0,0:0:0:62:0_G#3_183_480.wav
182,192,55459,1,0,0:0:0:64:0_G#4_183_480.wav
36,192,55541,1,0,0:0:0:57:0_D#1_183_480.wav
109,192,55541,1,0,0:0:0:59:0_A#3_183_480.wav
375,192,55541,1,0,0:0:0:59:0_D#4_183_480.wav
448,192,55541,1,0,0:0:0:70:0_G4_183_480.wav
182,192,55705,1,0,0:0:0:50:0_D#2_183_480.wav
256,192,55705,1,0,0:0:0:67:0_G3_183_480.wav
329,192,55787,1,0,0:0:0:69:0_G4_183_480.wav
83,192,55869,1,0,0:0:0:62:0_C#1_183_480.wav
36,192,55869,1,0,0:0:0:63:0_G#3_183_480.wav
375,192,55869,1,0,0:0:0:63:0_C#4_183_480.wav
448,192,55869,1,0,0:0:0:74:0_F4_183_480.wav
182,192,56034,1,0,0:0:0:55:0_C#2_182_480.wav
329,192,56034,1,0,0:0:0:72:0_F3_182_480.wav
229,192,56116,1,0,0:0:0:73:0_F4_181_480.wav
329,192,56198,1,0,0:0:0:68:0_G3_181_480.wav
83,192,56199,1,0,0:0:0:66:0_C1_181_480.wav
375,192,56199,1,0,0:0:0:68:0_C4_181_480.wav
448,192,56199,1,0,0:0:0:79:0_D#4_181_480.wav
182,192,56365,1,0,0:0:0:59:0_C2_180_480.wav
36,192,56365,1,0,0:0:0:77:0_D#3_180_480.wav
229,192,56448,1,0,0:0:0:77:0_D#4_180_480.wav
329,192,56531,1,0,0:0:0:70:0_D4_183_480.wav
448,192,56532,1,0,0:0:0:59:0_A#1_183_480.wav
36,192,56532,1,0,0:0:0:70:0_G#3_183_480.wav
109,192,56532,1,0,0:0:0:66:0_A#0_183_480.wav
375,192,56532,1,0,0:0:0:81:0_F4_183_480.wav
256,192,56695,1,0,0:0:0:51:0_D2_183_480.wav
36,192,56859,1,0,0:0:0:46:0_F2_183_480.wav
448,192,56859,1,0,0:0:0:69:0_A#3_183_480.wav
329,192,56941,1,0,0:0:0:68:0_D4_183_480.wav
182,192,57023,1,0,0:0:0:46:0_A#2_183_480.wav
36,192,57105,1,0,0:0:0:68:0_F4_183_480.wav
375,192,57187,1,0,0:0:0:46:0_D3_183_480.wav
109,192,57187,1,0,0:0:0:66:0_A#3_183_480.wav
229,192,57187,1,0,0:0:0:66:0_D4_183_480.wav
448,192,57187,1,0,0:0:0:77:0_G#4_183_480.wav
156,192,57518,1,0,0:0:0:57:0_A#0_180_480.wav
256,192,57686,1,0,0:0:0:59:0_A#4_177_480.wav
182,192,57770,1,0,0:0:0:59:0_G#4_177_480.wav
10,192,57855,1,0,0:0:0:43:0_D#1_176_480.wav
109,192,57855,1,0,0:0:0:53:0_A#3_176_480.wav
375,192,57855,1,0,0:0:0:53:0_D#4_176_480.wav
448,192,57855,1,0,0:0:0:64:0_G4_176_480.wav
256,192,58022,1,0,0:0:0:36:0_D#2_183_480.wav
302,192,58022,1,0,0:0:0:51:0_G3_183_480.wav
182,192,58104,1,0,0:0:0:54:0_G4_183_480.wav
109,192,58186,1,0,0:0:0:49:0_A#0_183_480.wav
36,192,58186,1,0,0:0:0:60:0_A#3_183_480.wav
375,192,58186,1,0,0:0:0:60:0_D4_183_480.wav
448,192,58186,1,0,0:0:0:71:0_F4_183_480.wav
256,192,58350,1,0,0:0:0:44:0_A#1_183_480.wav
302,192,58350,1,0,0:0:0:59:0_F3_183_480.wav
402,192,58432,1,0,0:0:0:62:0_F4_183_480.wav
10,192,58514,1,0,0:0:0:58:0_D#1_183_480.wav
182,192,58514,1,0,0:0:0:65:0_G3_183_480.wav
109,192,58514,1,0,0:0:0:65:0_A#3_183_480.wav
448,192,58514,1,0,0:0:0:76:0_D#4_183_480.wav
109,192,58678,1,0,0:0:0:51:0_D#2_183_480.wav
329,192,58678,1,0,0:0:0:67:0_G3_183_480.wav
182,192,58760,1,0,0:0:0:69:0_D#4_183_480.wav
10,192,58842,1,0,0:0:0:66:0_C#1_183_480.wav
256,192,58842,1,0,0:0:0:65:0_F3_183_480.wav
402,192,58842,1,0,0:0:0:65:0_A#3_183_480.wav
448,192,58842,1,0,0:0:0:76:0_C#4_183_480.wav
109,192,59006,1,0,0:0:0:59:0_C#2_183_480.wav
329,192,59006,1,0,0:0:0:75:0_C#3_183_480.wav
182,192,59088,1,0,0:0:0:77:0_C#4_183_480.wav
10,192,59170,1,0,0:0:0:66:0_D1_183_480.wav
256,192,59170,1,0,0:0:0:59:0_D2_183_480.wav
329,192,59170,1,0,0:0:0:67:0_C4_183_480.wav
375,192,59170,1,0,0:0:0:67:0_F#4_183_480.wav
448,192,59170,1,0,0:0:0:78:0_A4_183_480.wav
302,192,59334,1,0,0:0:0:51:0_D2_183_480.wav
83,192,59498,1,0,0:0:0:46:0_F#2_183_480.wav
375,192,59498,1,0,0:0:0:70:0_D4_183_480.wav
156,192,59580,1,0,0:0:0:70:0_F#4_183_480.wav
256,192,59662,1,0,0:0:0:46:0_A2_183_480.wav
329,192,59744,1,0,0:0:0:70:0_A4_183_480.wav
10,192,59826,1,0,0:0:0:57:0_D3_183_480.wav
83,192,59826,1,0,0:0:0:66:0_D4_183_480.wav
402,192,59826,1,0,0:0:0:66:0_F#4_183_480.wav
475,192,59826,1,0,0:0:0:77:0_C5_183_480.wav
156,192,60154,1,0,0:0:0:44:0_D1_183_480.wav
256,192,60318,1,0,0:0:0:59:0_D5_183_480.wav
329,192,60400,1,0,0:0:0:59:0_C5_183_480.wav
10,192,60482,1,0,0:0:0:61:0_G1_183_480.wav
83,192,60482,1,0,0:0:0:52:0_D4_183_480.wav
475,192,60482,1,0,0:0:0:52:0_G4_183_480.wav
375,192,60482,1,0,0:0:0:63:0_A#4_183_480.wav
182,192,60646,1,0,0:0:0:49:0_G2_183_480.wav
402,192,60646,1,0,0:0:0:62:0_A#3_183_480.wav
256,192,60728,1,0,0:0:0:63:0_A#4_183_480.wav
10,192,60810,1,0,0:0:0:58:0_F1_183_480.wav
83,192,60810,1,0,0:0:0:59:0_C4_183_480.wav
475,192,60810,1,0,0:0:0:59:0_F4_183_480.wav
329,192,60810,1,0,0:0:0:70:0_A4_183_480.wav
109,192,60973,1,0,0:0:0:49:0_F2_183_480.wav
402,192,60973,1,0,0:0:0:69:0_A3_183_480.wav
182,192,61055,1,0,0:0:0:70:0_A4_183_480.wav
10,192,61137,1,0,0:0:0:59:0_E1_183_480.wav
256,192,61137,1,0,0:0:0:66:0_E4_183_480.wav
302,192,61137,1,0,0:0:0:66:0_G4_183_480.wav
475,192,61137,1,0,0:0:0:77:0_C5_183_480.wav
156,192,61301,1,0,0:0:0:49:0_E2_183_480.wav
402,192,61301,1,0,0:0:0:75:0_E4_183_480.wav
229,192,61383,1,0,0:0:0:77:0_C5_183_480.wav
10,192,61465,1,0,0:0:0:61:0_E0_183_480.wav
83,192,61465,1,0,0:0:0:74:0_E4_183_480.wav
302,192,61465,1,0,0:0:0:74:0_G4_183_480.wav
475,192,61465,1,0,0:0:0:85:0_A#4_183_480.wav
256,192,61629,1,0,0:0:0:49:0_E1_183_480.wav
182,192,61629,1,0,0:0:0:71:0_A#3_183_480.wav
329,192,61711,1,0,0:0:0:71:0_A#4_183_480.wav
10,192,61793,1,0,0:0:0:60:0_D#1_183_480.wav
83,192,61793,1,0,0:0:0:58:0_G3_183_480.wav
475,192,61793,1,0,0:0:0:58:0_C4_183_480.wav
375,192,61793,1,0,0:0:0:69:0_D#4_183_480.wav
329,192,61957,1,0,0:0:0:49:0_D#2_183_480.wav
256,192,61957,1,0,0:0:0:60:0_G3_183_480.wav
182,192,62039,1,0,0:0:0:61:0_D#4_183_480.wav
109,192,62121,1,0,0:0:0:57:0_C#1_183_480.wav
36,192,62121,1,0,0:0:0:61:0_G3_183_480.wav
402,192,62121,1,0,0:0:0:61:0_A#3_183_480.wav
475,192,62121,1,0,0:0:0:72:0_C#4_183_480.wav
256,192,62285,1,0,0:0:0:49:0_C#2_183_480.wav
182,192,62285,1,0,0:0:0:63:0_G3_183_480.wav
109,192,62367,1,0,0:0:0:64:0_C#4_183_480.wav
475,192,62449,1,0,0:0:0:59:0_D1_183_480.wav
402,192,62449,1,0,0:0:0:64:0_G3_183_480.wav
329,192,62449,1,0,0:0:0:64:0_A3_183_480.wav
36,192,62449,1,0,0:0:0:75:0_D4_183_480.wav
256,192,62613,1,0,0:0:0:49:0_D2_183_480.wav
182,192,62613,1,0,0:0:0:66:0_G3_183_480.wav
329,192,62695,1,0,0:0:0:67:0_D4_183_480.wav
10,192,62777,1,0,0:0:0:57:0_D1_183_480.wav
83,192,62777,1,0,0:0:0:68:0_A3_183_480.wav
475,192,62777,1,0,0:0:0:68:0_C4_183_480.wav
375,192,62777,1,0,0:0:0:79:0_F#4_183_480.wav
156,192,62941,1,0,0:0:0:49:0_D2_183_480.wav
329,192,62941,1,0,0:0:0:70:0_D4_183_480.wav
229,192,63023,1,0,0:0:0:71:0_F#4_183_480.wav
182,192,63105,1,0,0:0:0:62:0_D1_183_480.wav
475,192,63105,1,0,0:0:0:66:0_A3_183_480.wav
302,192,63105,1,0,0:0:0:66:0_D4_183_480.wav
36,192,63105,1,0,0:0:0:77:0_G4_183_480.wav
109,192,63269,1,0,0:0:0:58:0_D1_183_480.wav
256,192,63269,1,0,0:0:0:74:0_A3_183_480.wav
182,192,63351,1,0,0:0:0:74:0_G4_183_480.wav
10,192,63433,1,0,0:0:0:52:0_D1_183_480.wav
256,192,63433,1,0,0:0:0:61:0_D2_183_480.wav
302,192,63433,1,0,0:0:0:69:0_A3_183_480.wav
375,192,63433,1,0,0:0:0:69:0_D4_183_480.wav
448,192,63433,1,0,0:0:0:80:0_F#4_183_480.wav
83,192,63597,1,0,0:0:0:51:0_D1_183_480.wav
329,192,63597,1,0,0:0:0:60:0_D2_183_480.wav
36,192,63597,1,0,0:0:0:77:0_D4_183_480.wav
448,192,63679,1,0,0:0:0:77:0_F#4_183_480.wav
182,192,63761,1,0,0:0:0:81:0_A3_183_480.wav
109,192,63761,1,0,0:0:0:59:0_D1_183_480.wav
375,192,63761,1,0,0:0:0:68:0_D2_183_480.wav
329,192,63843,1,0,0:0:0:71:0_A4_183_480.wav
256,192,63925,1,0,0:0:0:79:0_A3_183_480.wav
36,192,63925,1,0,0:0:0:57:0_D1_183_480.wav
448,192,63925,1,0,0:0:0:66:0_D2_183_480.wav
182,192,64006,1,0,0:0:0:71:0_A4_183_480.wav
475,192,64116,1,0,0:0:0:65:0_F#5_183_480.wav
402,192,64170,1,0,0:0:0:64:0_D5_183_480.wav
329,192,64225,1,0,0:0:0:64:0_F#4_183_480.wav
256,192,64280,1,0,0:0:0:62:0_D4_183_480.wav
156,192,64334,1,0,0:0:0:59:0_F#3_183_480.wav
83,192,64389,1,0,0:0:0:57:0_D3_183_480.wav
375,192,64444,1,0,0:0:0:61:0_G3_183_480.wav
475,192,64444,1,0,0:0:0:50:0_D3_183_480.wav
10,192,64444,1,0,0:0:0:45:0_G1_183_480.wav
329,192,64498,1,0,0:0:0:47:0_A#2_183_480.wav
83,192,64580,1,0,0:0:0:26:0_D2_183_480.wav
156,192,64580,1,0,0:0:0:37:0_G2_183_480.wav
256,192,64580,1,0,0:0:0:48:0_D3_183_480.wav
448,192,64580,1,0,0:0:0:59:0_G3_183_480.wav
10,192,64744,1,0,0:0:0:45:0_G1_183_480.wav
229,192,64744,1,0,0:0:0:44:0_G3_183_480.wav
375,192,64744,1,0,0:0:0:55:0_A#3_183_480.wav
302,192,64826,1,0,0:0:0:51:0_D3_183_480.wav
83,192,64908,1,0,0:0:0:32:0_D2_183_480.wav
156,192,64908,1,0,0:0:0:43:0_G2_183_480.wav
375,192,64908,1,0,0:0:0:47:0_G3_183_480.wav
448,192,64908,1,0,0:0:0:58:0_A#3_183_480.wav
10,192,65072,1,0,0:0:0:50:0_G1_183_480.wav
229,192,65072,1,0,0:0:0:49:0_F#3_183_480.wav
302,192,65072,1,0,0:0:0:60:0_A3_183_480.wav
83,192,65154,1,0,0:0:0:57:0_D3_183_480.wav
10,192,65236,1,0,0:0:0:37:0_D2_183_480.wav
156,192,65236,1,0,0:0:0:48:0_G2_183_480.wav
375,192,65236,1,0,0:0:0:52:0_F#3_183_480.wav
448,192,65236,1,0,0:0:0:63:0_A3_183_480.wav
83,192,65400,1,0,0:0:0:55:0_G1_183_480.wav
229,192,65400,1,0,0:0:0:55:0_A3_183_480.wav
302,192,65400,1,0,0:0:0:66:0_C4_183_480.wav
448,192,65482,1,0,0:0:0:62:0_D3_183_480.wav
10,192,65564,1,0,0:0:0:43:0_D2_183_480.wav
156,192,65564,1,0,0:0:0:54:0_G2_183_480.wav
302,192,65564,1,0,0:0:0:58:0_A3_183_480.wav
375,192,65564,1,0,0:0:0:69:0_C4_183_480.wav
83,192,65728,1,0,0:0:0:58:0_G1_183_480.wav
229,192,65728,1,0,0:0:0:57:0_G3_183_480.wav
448,192,65728,1,0,0:0:0:68:0_A#3_183_480.wav
10,192,65810,1,0,0:0:0:65:0_D3_183_480.wav
83,192,65892,1,0,0:0:0:54:0_D2_183_480.wav
156,192,65892,1,0,0:0:0:65:0_G2_183_480.wav
302,192,65892,1,0,0:0:0:59:0_G3_183_480.wav
375,192,65892,1,0,0:0:0:70:0_A#3_183_480.wav
10,192,66056,1,0,0:0:0:63:0_G1_183_480.wav
229,192,66056,1,0,0:0:0:62:0_A#3_183_480.wav
448,192,66056,1,0,0:0:0:74:0_D4_183_480.wav
302,192,66138,1,0,0:0:0:70:0_G3_183_480.wav
83,192,66220,1,0,0:0:0:59:0_D2_183_480.wav
156,192,66220,1,0,0:0:0:70:0_G2_183_480.wav
375,192,66220,1,0,0:0:0:65:0_A#3_183_480.wav
448,192,66220,1,0,0:0:0:76:0_D4_183_480.wav
10,192,66384,1,0,0:0:0:71:0_G1_183_480.wav
229,192,66384,1,0,0:0:0:70:0_A3_183_480.wav
302,192,66384,1,0,0:0:0:81:0_C4_183_480.wav
156,192,66466,1,0,0:0:0:74:0_F#3_183_480.wav
10,192,66548,1,0,0:0:0:62:0_D2_183_480.wav
83,192,66548,1,0,0:0:0:73:0_G2_183_480.wav
375,192,66548,1,0,0:0:0:67:0_A3_183_480.wav
448,192,66548,1,0,0:0:0:78:0_C4_183_480.wav
156,192,66712,1,0,0:0:0:62:0_G1_183_480.wav
229,192,66712,1,0,0:0:0:70:0_C4_183_480.wav
302,192,66712,1,0,0:0:0:81:0_D#4_183_480.wav
448,192,66794,1,0,0:0:0:74:0_F#3_183_480.wav
10,192,66855,1,0,0:0:0:49:0_D2_183_480.wav
83,192,66855,1,0,0:0:0:60:0_G2_183_480.wav
302,192,66855,1,0,0:0:0:64:0_C4_183_480.wav
375,192,66855,1,0,0:0:0:75:0_D#4_183_480.wav
156,192,67039,1,0,0:0:0:47:0_G1_183_480.wav
229,192,67039,1,0,0:0:0:53:0_A#3_183_480.wav
448,192,67039,1,0,0:0:0:64:0_D4_183_480.wav
83,192,67121,1,0,0:0:0:55:0_G3_183_480.wav
10,192,67203,1,0,0:0:0:37:0_D2_183_480.wav
156,192,67203,1,0,0:0:0:48:0_G2_183_480.wav
302,192,67203,1,0,0:0:0:50:0_A#3_183_480.wav
375,192,67203,1,0,0:0:0:61:0_D4_183_480.wav
83,192,67367,1,0,0:0:0:45:0_G1_183_480.wav
229,192,67367,1,0,0:0:0:51:0_D4_183_480.wav
448,192,67367,1,0,0:0:0:62:0_G4_183_480.wav
375,192,67449,1,0,0:0:0:59:0_A#3_183_480.wav
10,192,67531,1,0,0:0:0:41:0_D2_183_480.wav
156,192,67531,1,0,0:0:0:52:0_G2_183_480.wav
302,192,67531,1,0,0:0:0:54:0_D4_183_480.wav
448,192,67531,1,0,0:0:0:65:0_G4_183_480.wav
83,192,67695,1,0,0:0:0:49:0_G1_183_480.wav
229,192,67695,1,0,0:0:0:55:0_C4_183_480.wav
375,192,67695,1,0,0:0:0:66:0_F#4_183_480.wav
156,192,67777,1,0,0:0:0:63:0_F#3_182_480.wav
10,192,67860,1,0,0:0:0:45:0_D2_182_480.wav
83,192,67860,1,0,0:0:0:56:0_G2_182_480.wav
302,192,67860,1,0,0:0:0:58:0_C4_182_480.wav
448,192,67860,1,0,0:0:0:69:0_F#4_182_480.wav
156,192,68024,1,0,0:0:0:53:0_G1_181_480.wav
229,192,68024,1,0,0:0:0:59:0_D#4_181_480.wav
375,192,68024,1,0,0:0:0:70:0_A4_181_480.wav
448,192,68107,1,0,0:0:0:67:0_A3_180_480.wav
10,192,68170,1,0,0:0:0:49:0_D2_180_480.wav
83,192,68170,1,0,0:0:0:60:0_G2_180_480.wav
302,192,68170,1,0,0:0:0:62:0_D#4_180_480.wav
375,192,68170,1,0,0:0:0:73:0_A4_180_480.wav
10,192,68357,1,0,0:0:0:50:0_D1_183_480.wav
156,192,68357,1,0,0:0:0:62:0_D2_183_480.wav
229,192,68357,1,0,0:0:0:56:0_A3_183_480.wav
448,192,68357,1,0,0:0:0:67:0_D4_183_480.wav
375,192,68439,1,0,0:0:0:64:0_F#3_183_480.wav
10,192,68521,1,0,0:0:0:52:0_D1_183_480.wav
83,192,68521,1,0,0:0:0:64:0_D2_183_480.wav
302,192,68521,1,0,0:0:0:59:0_A3_183_480.wav
448,192,68521,1,0,0:0:0:70:0_D4_183_480.wav
156,192,68603,1,0,0:0:0:66:0_F#3_183_480.wav
10,192,68685,1,0,0:0:0:53:0_C1_183_480.wav
229,192,68685,1,0,0:0:0:66:0_C2_183_480.wav
302,192,68685,1,0,0:0:0:60:0_D4_183_480.wav
375,192,68685,1,0,0:0:0:71:0_G4_183_480.wav
83,192,68767,1,0,0:0:0:68:0_A#3_183_480.wav
10,192,68849,1,0,0:0:0:55:0_C1_183_480.wav
156,192,68849,1,0,0:0:0:68:0_C2_183_480.wav
375,192,68849,1,0,0:0:0:62:0_D4_183_480.wav
448,192,68849,1,0,0:0:0:74:0_G4_183_480.wav
302,192,68931,1,0,0:0:0:70:0_A#3_183_480.wav
10,192,69013,1,0,0:0:0:57:0_A#0_183_480.wav
83,192,69013,1,0,0:0:0:70:0_A#1_183_480.wav
229,192,69013,1,0,0:0:0:64:0_D4_183_480.wav
448,192,69013,1,0,0:0:0:75:0_G4_183_480.wav
375,192,69095,1,0,0:0:0:72:0_A#3_182_480.wav
10,192,69178,1,0,0:0:0:59:0_A#0_181_480.wav
156,192,69178,1,0,0:0:0:72:0_A#1_181_480.wav
302,192,69178,1,0,0:0:0:66:0_D4_181_480.wav
448,192,69178,1,0,0:0:0:77:0_G4_181_480.wav
83,192,69260,1,0,0:0:0:74:0_A#3_180_480.wav
156,192,69344,1,0,0:0:0:60:0_A0_179_480.wav
229,192,69344,1,0,0:0:0:74:0_A1_179_480.wav
302,192,69344,1,0,0:0:0:68:0_C4_179_480.wav
375,192,69344,1,0,0:0:0:79:0_F#4_179_480.wav
10,192,69427,1,0,0:0:0:76:0_A3_178_480.wav
83,192,69491,1,0,0:0:0:62:0_A0_177_480.wav
156,192,69491,1,0,0:0:0:76:0_A1_177_480.wav
302,192,69491,1,0,0:0:0:70:0_C4_177_480.wav
448,192,69491,1,0,0:0:0:81:0_F#4_177_480.wav
229,192,69575,1,0,0:0:0:77:0_A3_177_480.wav
10,192,69681,1,0,0:0:0:69:0_G0_176_480.wav
83,192,69681,1,0,0:0:0:82:0_G1_176_480.wav
156,192,69681,1,0,0:0:0:77:0_G3_176_480.wav
302,192,69681,1,0,0:0:0:77:0_A#3_176_480.wav
375,192,69681,1,0,0:0:0:77:0_D4_176_480.wav
448,192,69681,1,0,0:0:0:88:0_G4_176_480.wav
36,192,70012,1,0,0:0:0:59:0_G1_183_480.wav
256,192,70012,1,0,0:0:0:62:0_G4_183_480.wav
182,192,70094,1,0,0:0:0:59:0_D4_183_480.wav
109,192,70176,1,0,0:0:0:59:0_A1_183_480.wav
475,192,70176,1,0,0:0:0:59:0_A3_183_480.wav
402,192,70258,1,0,0:0:0:59:0_D4_183_480.wav
36,192,70340,1,0,0:0:0:61:0_B1_183_480.wav
329,192,70340,1,0,0:0:0:64:0_G4_183_480.wav
109,192,70422,1,0,0:0:0:59:0_D4_183_480.wav
182,192,70504,1,0,0:0:0:59:0_B3_183_480.wav
256,192,70586,1,0,0:0:0:59:0_G3_183_480.wav
109,192,70668,1,0,0:0:0:59:0_D2_183_480.wav
329,192,70668,1,0,0:0:0:62:0_F4_183_480.wav
182,192,70750,1,0,0:0:0:59:0_D4_183_480.wav
256,192,70832,1,0,0:0:0:59:0_B3_183_480.wav
329,192,70914,1,0,0:0:0:59:0_G3_183_480.wav
36,192,70996,1,0,0:0:0:62:0_C2_183_480.wav
402,192,70996,1,0,0:0:0:66:0_F4_183_480.wav
109,192,71078,1,0,0:0:0:59:0_C4_183_480.wav
475,192,71160,1,0,0:0:0:59:0_A#1_183_480.wav
182,192,71160,1,0,0:0:0:59:0_G3_183_480.wav
402,192,71242,1,0,0:0:0:59:0_D#3_183_480.wav
36,192,71324,1,0,0:0:0:59:0_C2_183_480.wav
302,192,71324,1,0,0:0:0:62:0_D#4_183_480.wav
109,192,71406,1,0,0:0:0:59:0_C4_183_480.wav
182,192,71488,1,0,0:0:0:59:0_D2_183_480.wav
375,192,71488,1,0,0:0:0:59:0_G3_183_480.wav
329,192,71570,1,0,0:0:0:59:0_D#3_183_480.wav
256,192,71652,1,0,0:0:0:61:0_D#2_183_480.wav
36,192,71652,1,0,0:0:0:64:0_D4_183_480.wav
109,192,71734,1,0,0:0:0:59:0_C4_183_480.wav
182,192,71816,1,0,0:0:0:59:0_D2_183_480.wav
402,192,71816,1,0,0:0:0:59:0_G3_183_480.wav
329,192,71898,1,0,0:0:0:59:0_D#3_183_480.wav
256,192,71980,1,0,0:0:0:59:0_C2_183_480.wav
448,192,71980,1,0,0:0:0:62:0_D#4_183_480.wav
402,192,72062,1,0,0:0:0:59:0_C4_183_480.wav
109,192,72144,1,0,0:0:0:59:0_A#1_183_480.wav
329,192,72144,1,0,0:0:0:59:0_G3_183_480.wav
182,192,72226,1,0,0:0:0:59:0_D#3_183_480.wav
10,192,72308,1,0,0:0:0:51:0_F0_183_480.wav
109,192,72308,1,0,0:0:0:65:0_F1_183_480.wav
229,192,72308,1,0,0:0:0:60:0_F3_183_480.wav
302,192,72308,1,0,0:0:0:60:0_A3_183_480.wav
375,192,72308,1,0,0:0:0:60:0_C4_183_480.wav
448,192,72308,1,0,0:0:0:71:0_F4_183_480.wav
256,192,72636,1,0,0:0:0:59:0_F1_183_480.wav
448,192,72636,1,0,0:0:0:64:0_F4_183_480.wav
329,192,72718,1,0,0:0:0:59:0_C4_183_480.wav
83,192,72799,1,0,0:0:0:59:0_G1_183_480.wav
375,192,72799,1,0,0:0:0:63:0_E4_183_480.wav
182,192,72881,1,0,0:0:0:59:0_C4_183_480.wav
475,192,72963,1,0,0:0:0:61:0_A1_183_480.wav
229,192,72963,1,0,0:0:0:66:0_F4_183_480.wav
402,192,73045,1,0,0:0:0:59:0_C4_183_480.wav
329,192,73127,1,0,0:0:0:59:0_A3_183_480.wav
256,192,73209,1,0,0:0:0:59:0_F3_183_480.wav
182,192,73291,1,0,0:0:0:59:0_F1_183_480.wav
475,192,73291,1,0,0:0:0:64:0_D#4_183_480.wav
402,192,73373,1,0,0:0:0:59:0_C4_183_480.wav
329,192,73455,1,0,0:0:0:59:0_A3_183_480.wav
256,192,73537,1,0,0:0:0:59:0_F3_183_480.wav
36,192,73619,1,0,0:0:0:62:0_A#1_183_480.wav
182,192,73619,1,0,0:0:0:67:0_D#4_183_480.wav
109,192,73701,1,0,0:0:0:59:0_A#3_183_480.wav
475,192,73783,1,0,0:0:0:59:0_A1_183_480.wav
182,192,73783,1,0,0:0:0:59:0_F3_183_480.wav
402,192,73865,1,0,0:0:0:59:0_D3_183_480.wav
329,192,73947,1,0,0:0:0:59:0_A#1_183_480.wav
109,192,73947,1,0,0:0:0:64:0_D4_183_480.wav
182,192,74029,1,0,0:0:0:59:0_A#3_183_480.wav
475,192,74111,1,0,0:0:0:59:0_C2_183_480.wav
256,192,74111,1,0,0:0:0:59:0_F3_183_480.wav
402,192,74193,1,0,0:0:0:59:0_D3_183_480.wav
36,192,74275,1,0,0:0:0:61:0_D2_183_480.wav
329,192,74275,1,0,0:0:0:66:0_C#4_183_480.wav
109,192,74357,1,0,0:0:0:59:0_A#3_183_480.wav
182,192,74439,1,0,0:0:0:59:0_C2_183_480.wav
375,192,74439,1,0,0:0:0:59:0_F3_183_480.wav
302,192,74521,1,0,0:0:0:59:0_D3_183_480.wav
36,192,74603,1,0,0:0:0:59:0_A#1_183_480.wav
229,192,74603,1,0,0:0:0:64:0_D4_183_480.wav
109,192,74685,1,0,0:0:0:59:0_A#3_183_480.wav
182,192,74767,1,0,0:0:0:59:0_A1_183_480.wav
475,192,74767,1,0,0:0:0:59:0_F3_183_480.wav
402,192,74849,1,0,0:0:0:59:0_D3_183_480.wav
109,192,74931,1,0,0:0:0:62:0_G1_183_480.wav
329,192,74931,1,0,0:0:0:62:0_D#4_183_480.wav
182,192,75013,1,0,0:0:0:59:0_A#3_183_480.wav
10,192,75095,1,0,0:0:0:59:0_F1_183_480.wav
256,192,75095,1,0,0:0:0:59:0_G3_183_480.wav
83,192,75177,1,0,0:0:0:59:0_D#3_183_480.wav
156,192,75259,1,0,0:0:0:59:0_D#1_183_480.wav
375,192,75259,1,0,0:0:0:59:0_A#3_183_480.wav
302,192,75341,1,0,0:0:0:59:0_G3_183_480.wav
229,192,75423,1,0,0:0:0:58:0_D1_183_480.wav
448,192,75423,1,0,0:0:0:59:0_D#3_183_480.wav
182,192,75505,1,0,0:0:0:59:0_A#2_183_480.wav
83,192,75587,1,0,0:0:0:53:0_C1_183_480.wav
36,192,75587,1,0,0:0:0:66:0_C2_183_480.wav
229,192,75587,1,0,0:0:0:57:0_C3_183_480.wav
302,192,75587,1,0,0:0:0:57:0_D#3_183_480.wav
375,192,75587,1,0,0:0:0:68:0_G#3_183_480.wav
448,192,75751,1,0,0:0:0:59:0_A#1_183_480.wav
402,192,75914,1,0,0:0:0:59:0_G#1_183_480.wav
329,192,76078,1,0,0:0:0:59:0_G1_183_480.wav
36,192,76242,1,0,0:0:0:52:0_F#1_183_480.wav
256,192,76242,1,0,0:0:0:69:0_D4_183_480.wav
109,192,76324,1,0,0:0:0:57:0_A3_183_480.wav
182,192,76406,1,0,0:0:0:48:0_E1_183_480.wav
448,192,76406,1,0,0:0:0:57:0_F#3_183_480.wav
402,192,76488,1,0,0:0:0:57:0_D3_183_480.wav
83,192,76570,1,0,0:0:0:48:0_D1_183_480.wav
329,192,76570,1,0,0:0:0:66:0_A3_183_480.wav
182,192,76652,1,0,0:0:0:57:0_F#3_183_480.wav
475,192,76734,1,0,0:0:0:47:0_C1_183_480.wav
229,192,76734,1,0,0:0:0:57:0_D3_183_480.wav
402,192,76816,1,0,0:0:0:57:0_A2_183_480.wav
10,192,76898,1,0,0:0:0:51:0_B0_183_480.wav
83,192,76898,1,0,0:0:0:63:0_B1_183_480.wav
229,192,76898,1,0,0:0:0:57:0_B2_183_480.wav
302,192,76898,1,0,0:0:0:57:0_D3_183_480.wav
182,192,76898,1,0,0:0:0:68:0_G3_183_480.wav
475,192,77062,1,0,0:0:0:48:0_A1_183_480.wav
329,192,77226,1,0,0:0:0:49:0_G1_183_480.wav
182,192,77390,1,0,0:0:0:48:0_F#1_183_480.wav
10,192,77554,1,0,0:0:0:51:0_E1_183_480.wav
302,192,77554,1,0,0:0:0:66:0_C4_183_480.wav
109,192,77636,1,0,0:0:0:55:0_G3_183_480.wav
156,192,77718,1,0,0:0:0:48:0_D1_183_480.wav
475,192,77718,1,0,0:0:0:55:0_E3_183_480.wav
402,192,77800,1,0,0:0:0:55:0_C3_183_480.wav
83,192,77882,1,0,0:0:0:48:0_C1_183_480.wav
302,192,77882,1,0,0:0:0:62:0_G3_183_480.wav
182,192,77964,1,0,0:0:0:56:0_E3_183_480.wav
256,192,78046,1,0,0:0:0:49:0_B0_183_480.wav
375,192,78046,1,0,0:0:0:57:0_C3_183_480.wav
329,192,78128,1,0,0:0:0:51:0_G2_183_480.wav
10,192,78210,1,0,0:0:0:51:0_A0_183_480.wav
83,192,78210,1,0,0:0:0:65:0_A1_183_480.wav
182,192,78210,1,0,0:0:0:51:0_C3_183_480.wav
375,192,78210,1,0,0:0:0:51:0_F3_183_480.wav
448,192,78210,1,0,0:0:0:62:0_A3_183_480.wav
256,192,78374,1,0,0:0:0:53:0_G1_183_480.wav
182,192,78538,1,0,0:0:0:55:0_F1_183_480.wav
402,192,78538,1,0,0:0:0:54:0_F3_183_480.wav
302,192,78538,1,0,0:0:0:54:0_A3_183_480.wav
448,192,78538,1,0,0:0:0:65:0_C4_183_480.wav
83,192,78702,1,0,0:0:0:55:0_E1_183_480.wav
36,192,78865,1,0,0:0:0:57:0_D#1_183_480.wav
475,192,78865,1,0,0:0:0:64:0_A3_183_480.wav
402,192,78947,1,0,0:0:0:56:0_F#3_183_480.wav
109,192,79029,1,0,0:0:0:59:0_D#2_183_480.wav
329,192,79029,1,0,0:0:0:56:0_D#3_183_480.wav
182,192,79111,1,0,0:0:0:57:0_C3_183_480.wav
256,192,79193,1,0,0:0:0:59:0_B0_183_480.wav
475,192,79193,1,0,0:0:0:66:0_C4_183_480.wav
402,192,79275,1,0,0:0:0:59:0_A3_183_480.wav
36,192,79357,1,0,0:0:0:62:0_B1_183_480.wav
329,192,79357,1,0,0:0:0:59:0_F#3_183_480.wav
109,192,79439,1,0,0:0:0:60:0_D#3_183_480.wav
10,192,79521,1,0,0:0:0:56:0_E1_183_480.wav
182,192,79521,1,0,0:0:0:68:0_E2_183_480.wav
329,192,79521,1,0,0:0:0:59:0_D3_183_480.wav
229,192,79521,1,0,0:0:0:59:0_E3_183_480.wav
375,192,79521,1,0,0:0:0:59:0_G#3_183_480.wav
448,192,79521,1,0,0:0:0:70:0_C4_183_480.wav
10,192,79849,1,0,0:0:0:65:0_E1_183_480.wav
83,192,79849,1,0,0:0:0:61:0_D3_183_480.wav
302,192,79849,1,0,0:0:0:61:0_E3_183_480.wav
375,192,79849,1,0,0:0:0:61:0_G#3_183_480.wav
448,192,79849,1,0,0:0:0:72:0_B3_183_480.wav
10,192,80177,1,0,0:0:0:66:0_D1_183_480.wav
83,192,80177,1,0,0:0:0:77:0_D2_183_480.wav
182,192,80177,1,0,0:0:0:66:0_D4_183_480.wav
329,192,80177,1,0,0:0:0:66:0_F#4_183_480.wav
375,192,80177,1,0,0:0:0:66:0_A4_183_480.wav
448,192,80177,1,0,0:0:0:77:0_D5_183_480.wav
256,192,80505,1,0,0:0:0:69:0_D1_183_480.wav
475,192,80505,1,0,0:0:0:70:0_D5_183_480.wav
375,192,80587,1,0,0:0:0:69:0_A4_183_480.wav
10,192,80669,1,0,0:0:0:68:0_E1_183_480.wav
329,192,80669,1,0,0:0:0:69:0_C#5_183_480.wav
109,192,80751,1,0,0:0:0:69:0_A4_183_480.wav
182,192,80833,1,0,0:0:0:71:0_F#1_183_480.wav
475,192,80833,1,0,0:0:0:71:0_D5_183_480.wav
402,192,80915,1,0,0:0:0:69:0_A4_183_480.wav
329,192,80997,1,0,0:0:0:69:0_F#4_183_480.wav
256,192,81079,1,0,0:0:0:69:0_D4_183_480.wav
182,192,81161,1,0,0:0:0:69:0_D1_183_480.wav
448,192,81161,1,0,0:0:0:70:0_C5_183_480.wav
402,192,81243,1,0,0:0:0:69:0_A4_183_480.wav
329,192,81325,1,0,0:0:0:69:0_F#4_183_480.wav
256,192,81407,1,0,0:0:0:69:0_D4_183_480.wav
475,192,81489,1,0,0:0:0:76:0_G1_183_480.wav
182,192,81489,1,0,0:0:0:73:0_C5_183_480.wav
402,192,81571,1,0,0:0:0:69:0_G4_183_480.wav
329,192,81653,1,0,0:0:0:72:0_F1_183_480.wav
36,192,81653,1,0,0:0:0:69:0_D4_183_480.wav
109,192,81735,1,0,0:0:0:69:0_A#3_183_480.wav
475,192,81816,1,0,0:0:0:73:0_G1_183_480.wav
182,192,81816,1,0,0:0:0:70:0_A#4_183_480.wav
402,192,81898,1,0,0:0:0:69:0_G4_183_480.wav
329,192,81980,1,0,0:0:0:72:0_A1_183_480.wav
36,192,81980,1,0,0:0:0:69:0_D4_183_480.wav
109,192,82062,1,0,0:0:0:69:0_A#3_183_480.wav
182,192,82144,1,0,0:0:0:74:0_A#1_183_480.wav
402,192,82144,1,0,0:0:0:71:0_A4_183_480.wav
329,192,82227,1,0,0:0:0:69:0_G4_182_480.wav
256,192,82309,1,0,0:0:0:72:0_A1_182_480.wav
475,192,82309,1,0,0:0:0:69:0_D4_182_480.wav
402,192,82391,1,0,0:0:0:69:0_A#3_181_480.wav
302,192,82473,1,0,0:0:0:70:0_A#4_181_480.wav
36,192,82474,1,0,0:0:0:73:0_G1_181_480.wav
109,192,82557,1,0,0:0:0:69:0_G4_180_480.wav
182,192,82640,1,0,0:0:0:72:0_F1_180_480.wav
475,192,82640,1,0,0:0:0:69:0_D4_180_480.wav
256,192,82723,1,0,0:0:0:69:0_A#3_180_480.wav
10,192,82806,1,0,0:0:0:65:0_C1_183_480.wav
156,192,82806,1,0,0:0:0:77:0_C2_183_480.wav
329,192,82806,1,0,0:0:0:66:0_G4_183_480.wav
448,192,82806,1,0,0:0:0:77:0_C5_183_480.wav
402,192,82807,1,0,0:0:0:66:0_E4_183_480.wav
109,192,82807,1,0,0:0:0:66:0_C4_183_480.wav
182,192,83134,1,0,0:0:0:68:0_C1_183_480.wav
448,192,83134,1,0,0:0:0:70:0_C5_183_480.wav
256,192,83216,1,0,0:0:0:69:0_G4_183_480.wav
36,192,83298,1,0,0:0:0:68:0_D1_183_480.wav
302,192,83298,1,0,0:0:0:69:0_B4_183_480.wav
109,192,83380,1,0,0:0:0:69:0_G4_183_480.wav
182,192,83462,1,0,0:0:0:70:0_E1_183_480.wav
375,192,83462,1,0,0:0:0:71:0_C5_183_480.wav
329,192,83544,1,0,0:0:0:69:0_G4_182_480.wav
256,192,83627,1,0,0:0:0:69:0_E4_181_480.wav
182,192,83709,1,0,0:0:0:69:0_C4_180_480.wav
109,192,83793,1,0,0:0:0:68:0_C1_179_480.wav
475,192,83793,1,0,0:0:0:70:0_A#4_179_480.wav
402,192,83876,1,0,0:0:0:69:0_G4_178_480.wav
329,192,83961,1,0,0:0:0:69:0_E4_177_480.wav
256,192,84046,1,0,0:0:0:69:0_C4_177_480.wav
10,192,84130,1,0,0:0:0:79:0_F1_176_480.wav
182,192,84130,1,0,0:0:0:73:0_A#4_176_480.wav
109,192,84215,1,0,0:0:0:69:0_F4_183_480.wav
475,192,84297,1,0,0:0:0:74:0_E1_183_480.wav
156,192,84297,1,0,0:0:0:69:0_C4_183_480.wav
375,192,84379,1,0,0:0:0:69:0_A3_183_480.wav
10,192,84461,1,0,0:0:0:76:0_F1_183_480.wav
329,192,84461,1,0,0:0:0:70:0_A4_183_480.wav
109,192,84543,1,0,0:0:0:69:0_F4_183_480.wav
156,192,84625,1,0,0:0:0:75:0_G1_183_480.wav
475,192,84625,1,0,0:0:0:69:0_C4_183_480.wav
402,192,84707,1,0,0:0:0:69:0_A3_183_480.wav
10,192,84789,1,0,0:0:0:77:0_A1_183_480.wav
329,192,84789,1,0,0:0:0:71:0_G#4_183_480.wav
109,192,84871,1,0,0:0:0:69:0_F4_183_480.wav
156,192,84953,1,0,0:0:0:75:0_G1_183_480.wav
402,192,84953,1,0,0:0:0:69:0_C4_183_480.wav
329,192,85035,1,0,0:0:0:69:0_A3_183_480.wav
36,192,85117,1,0,0:0:0:76:0_F1_183_480.wav
256,192,85117,1,0,0:0:0:70:0_A4_183_480.wav
109,192,85199,1,0,0:0:0:69:0_F4_183_480.wav
156,192,85281,1,0,0:0:0:74:0_D#1_183_480.wav
448,192,85281,1,0,0:0:0:69:0_C4_183_480.wav
402,192,85363,1,0,0:0:0:69:0_A3_183_480.wav
109,192,85445,1,0,0:0:0:72:0_D1_183_480.wav
329,192,85445,1,0,0:0:0:73:0_A#4_183_480.wav
182,192,85527,1,0,0:0:0:69:0_F4_183_480.wav
475,192,85609,1,0,0:0:0:67:0_C1_183_480.wav
256,192,85609,1,0,0:0:0:69:0_D4_183_480.wav
402,192,85691,1,0,0:0:0:69:0_A#3_183_480.wav
36,192,85773,1,0,0:0:0:68:0_A#0_183_480.wav
302,192,85773,1,0,0:0:0:70:0_F4_183_480.wav
109,192,85855,1,0,0:0:0:69:0_D4_183_480.wav
402,192,85937,1,0,0:0:0:66:0_A0_183_480.wav
182,192,85937,1,0,0:0:0:69:0_A#3_183_480.wav
256,192,86019,1,0,0:0:0:69:0_F3_183_480.wav
83,192,86101,1,0,0:0:0:62:0_G0_183_480.wav
156,192,86101,1,0,0:0:0:76:0_G1_183_480.wav
475,192,86101,1,0,0:0:0:65:0_A#3_183_480.wav
329,192,86101,1,0,0:0:0:65:0_D#4_183_480.wav
36,192,86101,1,0,0:0:0:76:0_G4_183_480.wav
402,192,86265,1,0,0:0:0:69:0_F1_183_480.wav
329,192,86429,1,0,0:0:0:69:0_D#1_183_480.wav
256,192,86593,1,0,0:0:0:68:0_D1_183_480.wav
182,192,86757,1,0,0:0:0:62:0_C#1_183_480.wav
402,192,86757,1,0,0:0:0:67:0_A4_183_480.wav
329,192,86839,1,0,0:0:0:66:0_E4_183_480.wav
36,192,86921,1,0,0:0:0:57:0_B0_183_480.wav
229,192,86921,1,0,0:0:0:66:0_C#4_183_480.wav
109,192,87003,1,0,0:0:0:66:0_A3_183_480.wav
156,192,87085,1,0,0:0:0:57:0_A0_183_480.wav
475,192,87085,1,0,0:0:0:67:0_E4_183_480.wav
402,192,87167,1,0,0:0:0:66:0_C#4_183_480.wav
109,192,87248,1,0,0:0:0:56:0_G0_183_480.wav
329,192,87248,1,0,0:0:0:66:0_A3_183_480.wav
182,192,87330,1,0,0:0:0:66:0_E3_183_480.wav
83,192,87412,1,0,0:0:0:62:0_F#0_183_480.wav
256,192,87412,1,0,0:0:0:66:0_F#1_183_480.wav
36,192,87412,1,0,0:0:0:67:0_A3_183_480.wav
375,192,87412,1,0,0:0:0:67:0_D4_183_480.wav
448,192,87412,1,0,0:0:0:78:0_F#4_183_480.wav
329,192,87576,1,0,0:0:0:62:0_E1_183_480.wav
182,192,87740,1,0,0:0:0:62:0_D1_183_480.wav
36,192,87904,1,0,0:0:0:62:0_C#1_183_480.wav
156,192,88068,1,0,0:0:0:66:0_B0_183_480.wav
475,192,88068,1,0,0:0:0:63:0_G4_183_480.wav
256,192,88150,1,0,0:0:0:63:0_D4_183_480.wav
329,192,88232,1,0,0:0:0:66:0_A0_183_480.wav
36,192,88232,1,0,0:0:0:64:0_B3_183_480.wav
109,192,88314,1,0,0:0:0:65:0_G3_183_480.wav
156,192,88396,1,0,0:0:0:68:0_G0_183_480.wav
448,192,88396,1,0,0:0:0:66:0_D4_183_480.wav
375,192,88478,1,0,0:0:0:66:0_B3_183_480.wav
83,192,88560,1,0,0:0:0:68:0_F#0_183_480.wav
329,192,88560,1,0,0:0:0:66:0_G3_183_480.wav
182,192,88642,1,0,0:0:0:67:0_D3_183_480.wav
10,192,88724,1,0,0:0:0:63:0_E0_183_480.wav
329,192,88724,1,0,0:0:0:66:0_E1_183_480.wav
229,192,88724,1,0,0:0:0:62:0_G3_183_480.wav
375,192,88724,1,0,0:0:0:62:0_C4_183_480.wav
448,192,88724,1,0,0:0:0:73:0_E4_183_480.wav
182,192,88888,1,0,0:0:0:63:0_D1_183_480.wav
10,192,89052,1,0,0:0:0:63:0_C1_183_480.wav
109,192,89052,1,0,0:0:0:64:0_C4_183_480.wav
302,192,89052,1,0,0:0:0:64:0_E4_183_480.wav
448,192,89052,1,0,0:0:0:75:0_G4_183_480.wav
375,192,89216,1,0,0:0:0:65:0_B0_183_480.wav
36,192,89380,1,0,0:0:0:62:0_A#0_183_480.wav
329,192,89380,1,0,0:0:0:63:0_E4_183_480.wav
109,192,89462,1,0,0:0:0:63:0_C#4_183_480.wav
182,192,89544,1,0,0:0:0:64:0_A#1_183_480.wav
475,192,89544,1,0,0:0:0:64:0_A#3_183_480.wav
402,192,89626,1,0,0:0:0:65:0_E3_183_480.wav
36,192,89708,1,0,0:0:0:62:0_F#0_183_480.wav
329,192,89708,1,0,0:0:0:66:0_G4_183_480.wav
109,192,89790,1,0,0:0:0:66:0_E4_183_480.wav
182,192,89872,1,0,0:0:0:66:0_F#1_183_480.wav
475,192,89872,1,0,0:0:0:66:0_C#4_183_480.wav
256,192,89954,1,0,0:0:0:67:0_A#3_183_480.wav
10,192,90036,1,0,0:0:0:60:0_B0_183_480.wav
83,192,90036,1,0,0:0:0:62:0_B1_183_480.wav
156,192,90036,1,0,0:0:0:62:0_A3_183_480.wav
329,192,90036,1,0,0:0:0:62:0_B3_183_480.wav
402,192,90036,1,0,0:0:0:62:0_D#4_183_480.wav
448,192,90036,1,0,0:0:0:73:0_G4_183_480.wav
10,192,90363,1,0,0:0:0:51:0_B0_183_480.wav
156,192,90363,1,0,0:0:0:68:0_A3_183_480.wav
302,192,90363,1,0,0:0:0:68:0_B3_183_480.wav
375,192,90363,1,0,0:0:0:68:0_D#4_183_480.wav
448,192,90363,1,0,0:0:0:79:0_F#4_183_480.wav
10,192,90691,1,0,0:0:0:62:0_E1_183_480.wav
83,192,90691,1,0,0:0:0:71:0_E2_183_480.wav
182,192,90691,1,0,0:0:0:77:0_G3_183_480.wav
329,192,90691,1,0,0:0:0:77:0_B3_183_480.wav
402,192,90691,1,0,0:0:0:88:0_E4_183_480.wav
10,192,90855,1,0,0:0:0:59:0_E1_183_480.wav
83,192,90855,1,0,0:0:0:70:0_E2_183_480.wav
156,192,90855,1,0,0:0:0:73:0_G3_183_480.wav
302,192,90855,1,0,0:0:0:73:0_B3_183_480.wav
375,192,90855,1,0,0:0:0:81:0_E4_183_480.wav
256,192,91019,1,0,0:0:0:71:0_E3_183_480.wav
329,192,91101,1,0,0:0:0:70:0_G3_183_480.wav
402,192,91183,1,0,0:0:0:70:0_B3_183_480.wav
329,192,91265,1,0,0:0:0:70:0_E4_183_480.wav
10,192,91347,1,0,0:0:0:60:0_C1_183_480.wav
83,192,91347,1,0,0:0:0:73:0_C2_183_480.wav
229,192,91347,1,0,0:0:0:75:0_G3_183_480.wav
375,192,91347,1,0,0:0:0:75:0_C4_183_480.wav
448,192,91347,1,0,0:0:0:83:0_E4_183_480.wav
10,192,91512,1,0,0:0:0:58:0_C1_182_480.wav
83,192,91512,1,0,0:0:0:70:0_C2_182_480.wav
475,192,91512,1,0,0:0:0:73:0_G3_182_480.wav
256,192,91512,1,0,0:0:0:73:0_C4_182_480.wav
375,192,91512,1,0,0:0:0:81:0_E4_182_480.wav
329,192,91676,1,0,0:0:0:71:0_E3_181_480.wav
229,192,91760,1,0,0:0:0:70:0_G3_180_480.wav
182,192,91843,1,0,0:0:0:70:0_C4_180_480.wav
256,192,91926,1,0,0:0:0:70:0_E4_180_480.wav
83,192,92009,1,0,0:0:0:61:0_A0_183_480.wav
156,192,92009,1,0,0:0:0:74:0_A1_183_480.wav
402,192,92009,1,0,0:0:0:77:0_A3_183_480.wav
302,192,92009,1,0,0:0:0:77:0_C4_183_480.wav
448,192,92009,1,0,0:0:0:85:0_E4_183_480.wav
475,192,92173,1,0,0:0:0:57:0_A0_183_480.wav
83,192,92173,1,0,0:0:0:70:0_A1_183_480.wav
156,192,92173,1,0,0:0:0:73:0_A3_183_480.wav
302,192,92173,1,0,0:0:0:73:0_C4_183_480.wav
375,192,92173,1,0,0:0:0:81:0_E4_183_480.wav
256,192,92337,1,0,0:0:0:71:0_E3_183_480.wav
182,192,92419,1,0,0:0:0:70:0_A3_183_480.wav
83,192,92501,1,0,0:0:0:70:0_C4_183_480.wav
36,192,92583,1,0,0:0:0:70:0_E4_183_480.wav
402,192,92665,1,0,0:0:0:73:0_B1_183_480.wav
156,192,92665,1,0,0:0:0:75:0_G3_183_480.wav
229,192,92665,1,0,0:0:0:75:0_B3_183_480.wav
302,192,92665,1,0,0:0:0:75:0_D#4_183_480.wav
448,192,92665,1,0,0:0:0:86:0_G4_183_480.wav
83,192,92830,1,0,0:0:0:71:0_B3_182_480.wav
182,192,92884,1,0,0:0:0:74:0_D#4_182_480.wav
256,192,92967,1,0,0:0:0:76:0_G4_181_480.wav
402,192,92995,1,0,0:0:0:74:0_B3_181_480.wav
83,192,92995,1,0,0:0:0:65:0_B0_181_480.wav
36,192,92995,1,0,0:0:0:74:0_F#3_181_480.wav
302,192,92995,1,0,0:0:0:74:0_D#4_181_480.wav
448,192,92995,1,0,0:0:0:85:0_F#4_181_480.wav
10,192,93328,1,0,0:0:0:62:0_E1_183_480.wav
83,192,93328,1,0,0:0:0:71:0_E2_183_480.wav
302,192,93328,1,0,0:0:0:77:0_G3_183_480.wav
375,192,93328,1,0,0:0:0:77:0_B3_183_480.wav
448,192,93328,1,0,0:0:0:88:0_E4_183_480.wav
10,192,93491,1,0,0:0:0:59:0_E1_183_480.wav
109,192,93491,1,0,0:0:0:70:0_E2_183_480.wav
329,192,93491,1,0,0:0:0:73:0_G3_183_480.wav
375,192,93491,1,0,0:0:0:73:0_B3_183_480.wav
448,192,93491,1,0,0:0:0:81:0_E4_183_480.wav
182,192,93655,1,0,0:0:0:70:0_E3_183_480.wav
256,192,93737,1,0,0:0:0:70:0_G3_183_480.wav
329,192,93819,1,0,0:0:0:70:0_B3_183_480.wav
256,192,93901,1,0,0:0:0:70:0_E4_183_480.wav
10,192,93983,1,0,0:0:0:60:0_C1_183_480.wav
83,192,93983,1,0,0:0:0:73:0_C2_183_480.wav
182,192,93983,1,0,0:0:0:75:0_G3_183_480.wav
302,192,93983,1,0,0:0:0:75:0_C4_183_480.wav
375,192,93983,1,0,0:0:0:83:0_E4_183_480.wav
10,192,94148,1,0,0:0:0:58:0_C1_181_480.wav
83,192,94148,1,0,0:0:0:70:0_C2_181_480.wav
156,192,94148,1,0,0:0:0:73:0_G3_181_480.wav
329,192,94148,1,0,0:0:0:73:0_C4_181_480.wav
402,192,94148,1,0,0:0:0:81:0_E4_181_480.wav
229,192,94314,1,0,0:0:0:70:0_E3_179_480.wav
329,192,94397,1,0,0:0:0:70:0_G3_178_480.wav
402,192,94482,1,0,0:0:0:70:0_C4_177_480.wav
302,192,94566,1,0,0:0:0:70:0_E4_177_480.wav
83,192,94651,1,0,0:0:0:61:0_A0_176_480.wav
156,192,94651,1,0,0:0:0:74:0_A1_176_480.wav
229,192,94651,1,0,0:0:0:77:0_A3_176_480.wav
375,192,94651,1,0,0:0:0:77:0_C4_176_480.wav
448,192,94651,1,0,0:0:0:85:0_E4_176_480.wav
256,192,94818,1,0,0:0:0:57:0_A0_183_480.wav
83,192,94818,1,0,0:0:0:70:0_A1_183_480.wav
182,192,94818,1,0,0:0:0:73:0_A3_183_480.wav
402,192,94818,1,0,0:0:0:73:0_C4_183_480.wav
448,192,94818,1,0,0:0:0:81:0_E4_183_480.wav
375,192,94982,1,0,0:0:0:70:0_E3_183_480.wav
229,192,95064,1,0,0:0:0:70:0_A3_183_480.wav
83,192,95146,1,0,0:0:0:70:0_C4_183_480.wav
448,192,95228,1,0,0:0:0:70:0_E4_183_480.wav
10,192,95310,1,0,0:0:0:60:0_B0_183_480.wav
83,192,95310,1,0,0:0:0:73:0_B1_183_480.wav
156,192,95310,1,0,0:0:0:75:0_C4_183_480.wav
229,192,95310,1,0,0:0:0:75:0_E4_183_480.wav
302,192,95310,1,0,0:0:0:75:0_A4_183_480.wav
375,192,95310,1,0,0:0:0:86:0_C5_183_480.wav
448,192,95502,1,0,0:0:0:70:0_C5_183_480.wav
402,192,95556,1,0,0:0:0:70:0_E4_183_480.wav
329,192,95611,1,0,0:0:0:70:0_C5_183_480.wav
182,192,95638,1,0,0:0:0:85:0_A#4_183_480.wav
229,192,95638,1,0,0:0:0:65:0_A#0_183_480.wav
83,192,95638,1,0,0:0:0:74:0_F#4_183_480.wav
10,192,95638,1,0,0:0:0:74:0_E4_183_480.wav
448,192,95966,1,0,0:0:0:62:0_B1_183_480.wav
256,192,96294,1,0,0:0:0:57:0_B0_183_960.wav
402,192,96294,1,0,0:0:0:59:0_E5_183_480.wav
475,192,96458,1,0,0:0:0:48:0_F#5_183_480.wav
302,192,96622,1,0,0:0:0:53:0_E5_183_480.wav
475,192,96704,1,0,0:0:0:55:0_F#5_183_480.wav
229,192,96786,1,0,0:0:0:59:0_E5_183_480.wav
402,192,96868,1,0,0:0:0:60:0_F#5_183_480.wav
156,192,96950,1,0,0:0:0:62:0_E5_183_480.wav
329,192,97032,1,0,0:0:0:65:0_F#5_183_480.wav
83,192,97114,1,0,0:0:0:68:0_E5_183_480.wav
256,192,97196,1,0,0:0:0:70:0_F#5_183_480.wav
182,192,97237,1,0,0:0:0:72:0_E5_183_480.wav
83,192,97278,1,0,0:0:0:59:0_B0_183_480.wav
36,192,97278,1,0,0:0:0:59:0_B1_183_480.wav
329,192,97278,1,0,0:0:0:74:0_F#4_183_480.wav
375,192,97278,1,0,0:0:0:74:0_B4_183_480.wav
448,192,97278,1,0,0:0:0:74:0_D#5_183_480.wav
256,192,97442,1,0,0:0:0:72:0_D5_183_480.wav
475,192,97524,1,0,0:0:0:71:0_C#5_183_480.wav
182,192,97524,1,0,0:0:0:43:0_B1_183_480.wav
402,192,97606,1,0,0:0:0:70:0_C5_183_480.wav
109,192,97606,1,0,0:0:0:45:0_B0_183_480.wav
329,192,97688,1,0,0:0:0:70:0_B4_183_480.wav
256,192,97742,1,0,0:0:0:48:0_B1_183_480.wav
182,192,97797,1,0,0:0:0:70:0_A#4_183_480.wav
475,192,97797,1,0,0:0:0:51:0_B0_183_480.wav
109,192,97851,1,0,0:0:0:67:0_A4_183_480.wav
36,192,97906,1,0,0:0:0:53:0_B1_183_480.wav
402,192,97933,1,0,0:0:0:64:0_B5_183_480.wav
329,192,97961,1,0,0:0:0:63:0_A5_183_480.wav
256,192,97988,1,0,0:0:0:56:0_B0_183_480.wav
182,192,98015,1,0,0:0:0:62:0_G5_183_480.wav
109,192,98043,1,0,0:0:0:62:0_F5_183_480.wav
36,192,98070,1,0,0:0:0:61:0_E5_183_480.wav
475,192,98097,1,0,0:0:0:60:0_D5_183_480.wav
402,192,98125,1,0,0:0:0:59:0_B1_183_480.wav
329,192,98152,1,0,0:0:0:59:0_C5_183_480.wav
256,192,98179,1,0,0:0:0:58:0_B4_183_480.wav
182,192,98207,1,0,0:0:0:57:0_A4_183_480.wav
109,192,98234,1,0,0:0:0:62:0_B0_183_480.wav
36,192,98261,1,0,0:0:0:56:0_G4_183_480.wav
475,192,98289,1,0,0:0:0:55:0_F4_183_480.wav
402,192,98316,1,0,0:0:0:54:0_E4_183_480.wav
329,192,98343,1,0,0:0:0:64:0_B1_183_480.wav
256,192,98371,1,0,0:0:0:53:0_D4_183_480.wav
182,192,98398,1,0,0:0:0:52:0_C4_183_480.wav
109,192,98425,1,0,0:0:0:51:0_B3_183_480.wav
36,192,98453,1,0,0:0:0:66:0_B0_183_480.wav
475,192,98480,1,0,0:0:0:51:0_A3_183_480.wav
402,192,98507,1,0,0:0:0:49:0_G3_183_480.wav
329,192,98535,1,0,0:0:0:48:0_F3_183_480.wav
256,192,98562,1,0,0:0:0:70:0_B1_183_480.wav
182,192,98589,1,0,0:0:0:48:0_E3_183_480.wav
109,192,98617,1,0,0:0:0:47:0_D3_183_480.wav
36,192,98644,1,0,0:0:0:52:0_A1_183_480.wav
475,192,98671,1,0,0:0:0:46:0_C3_183_480.wav
402,192,98699,1,0,0:0:0:72:0_B0_183_480.wav
329,192,98726,1,0,0:0:0:44:0_B2_183_480.wav
36,192,98753,1,0,0:0:0:40:0_E2_183_480.wav
256,192,98753,1,0,0:0:0:57:0_A3_183_480.wav
182,192,98753,1,0,0:0:0:57:0_C4_183_480.wav
109,192,98753,1,0,0:0:0:64:0_G4_183_480.wav
475,192,98917,1,0,0:0:0:40:0_A2_183_480.wav
402,192,98917,1,0,0:0:0:49:0_A3_183_480.wav
329,192,98999,1,0,0:0:0:48:0_C4_183_480.wav
256,192,99081,1,0,0:0:0:40:0_C3_183_480.wav
36,192,99081,1,0,0:0:0:48:0_E4_183_480.wav
182,192,99163,1,0,0:0:0:48:0_G4_183_480.wav
475,192,99245,1,0,0:0:0:51:0_D2_183_480.wav
402,192,99245,1,0,0:0:0:55:0_A3_183_480.wav
329,192,99245,1,0,0:0:0:55:0_D4_183_480.wav
109,192,99245,1,0,0:0:0:66:0_F#4_183_480.wav
229,192,99409,1,0,0:0:0:40:0_A2_183_480.wav
375,192,99409,1,0,0:0:0:48:0_F#3_183_480.wav
182,192,99491,1,0,0:0:0:48:0_F#4_183_480.wav
83,192,99573,1,0,0:0:0:40:0_C3_183_480.wav
448,192,99573,1,0,0:0:0:49:0_A3_183_480.wav
10,192,99655,1,0,0:0:0:48:0_A4_183_480.wav
156,192,99737,1,0,0:0:0:40:0_A2_183_480.wav
375,192,99737,1,0,0:0:0:48:0_F#3_183_480.wav
229,192,99819,1,0,0:0:0:48:0_F#4_183_480.wav
302,192,99901,1,0,0:0:0:48:0_B1_183_480.wav
10,192,100065,1,0,0:0:0:42:0_F#2_183_480.wav
83,192,100065,1,0,0:0:0:50:0_A3_183_480.wav
375,192,100065,1,0,0:0:0:50:0_D4_183_480.wav
448,192,100065,1,0,0:0:0:61:0_F#4_183_480.wav
156,192,100229,1,0,0:0:0:44:0_B2_183_480.wav
256,192,100229,1,0,0:0:0:53:0_F#3_183_480.wav
302,192,100311,1,0,0:0:0:55:0_A3_183_480.wav
475,192,100393,1,0,0:0:0:47:0_F#2_183_480.wav
375,192,100393,1,0,0:0:0:55:0_D4_183_480.wav
10,192,100475,1,0,0:0:0:57:0_F#4_183_480.wav
109,192,100557,1,0,0:0:0:59:0_E2_183_480.wav
182,192,100557,1,0,0:0:0:58:0_B3_183_480.wav
256,192,100557,1,0,0:0:0:58:0_D4_183_480.wav
329,192,100557,1,0,0:0:0:69:0_G4_183_480.wav
475,192,100721,1,0,0:0:0:52:0_B2_183_480.wav
375,192,100721,1,0,0:0:0:61:0_D4_183_480.wav
10,192,100884,1,0,0:0:0:55:0_D3_183_480.wav
329,192,100884,1,0,0:0:0:63:0_C4_183_480.wav
109,192,100966,1,0,0:0:0:65:0_B3_183_480.wav
182,192,101048,1,0,0:0:0:57:0_E2_183_480.wav
475,192,101048,1,0,0:0:0:66:0_C4_183_480.wav
256,192,101130,1,0,0:0:0:67:0_D4_183_480.wav
402,192,101212,1,0,0:0:0:59:0_A1_183_480.wav
10,192,101376,1,0,0:0:0:69:0_E2_183_480.wav
156,192,101376,1,0,0:0:0:62:0_A3_183_480.wav
302,192,101376,1,0,0:0:0:62:0_C4_183_480.wav
448,192,101376,1,0,0:0:0:74:0_E4_183_480.wav
10,192,101540,1,0,0:0:0:63:0_A1_183_480.wav
83,192,101540,1,0,0:0:0:66:0_A2_183_480.wav
229,192,101540,1,0,0:0:0:63:0_G3_183_480.wav
375,192,101540,1,0,0:0:0:74:0_A3_183_480.wav
182,192,101650,1,0,0:0:0:62:0_C2_183_480.wav
109,192,101650,1,0,0:0:0:65:0_C3_183_480.wav
302,192,101650,1,0,0:0:0:62:0_G3_183_480.wav
448,192,101650,1,0,0:0:0:74:0_C4_183_480.wav
10,192,101759,1,0,0:0:0:62:0_D2_183_480.wav
83,192,101759,1,0,0:0:0:65:0_D3_183_480.wav
229,192,101759,1,0,0:0:0:62:0_G3_183_480.wav
375,192,101759,1,0,0:0:0:74:0_D4_183_480.wav
156,192,101813,1,0,0:0:0:65:0_A3_183_480.wav
448,192,101813,1,0,0:0:0:65:0_F#3_183_480.wav
302,192,101868,1,0,0:0:0:65:0_C4_183_480.wav
256,192,101895,1,0,0:0:0:76:0_E4_183_480.wav
402,192,101895,1,0,0:0:0:66:0_D3_183_480.wav
36,192,101895,1,0,0:0:0:65:0_D2_183_480.wav
10,192,102087,1,0,0:0:0:62:0_D1_183_480.wav
83,192,102087,1,0,0:0:0:63:0_D2_183_480.wav
156,192,102087,1,0,0:0:0:62:0_F#3_183_480.wav
229,192,102087,1,0,0:0:0:62:0_A3_183_480.wav
302,192,102087,1,0,0:0:0:62:0_C4_183_480.wav
448,192,102087,1,0,0:0:0:74:0_D4_183_480.wav
10,192,102305,1,0,0:0:0:69:0_F#2_183_480.wav
83,192,102305,1,0,0:0:0:62:0_D3_183_480.wav
302,192,102305,1,0,0:0:0:62:0_F#3_183_480.wav
375,192,102305,1,0,0:0:0:62:0_A3_183_480.wav
448,192,102305,1,0,0:0:0:74:0_C4_183_480.wav
83,192,102524,1,0,0:0:0:69:0_G1_183_480.wav
156,192,102524,1,0,0:0:0:62:0_D3_183_480.wav
229,192,102524,1,0,0:0:0:62:0_F#3_183_480.wav
302,192,102524,1,0,0:0:0:62:0_A3_183_480.wav
448,192,102524,1,0,0:0:0:70:0_C4_183_480.wav
10,192,102688,1,0,0:0:0:66:0_D2_183_480.wav
375,192,102688,1,0,0:0:0:66:0_D3_183_480.wav
83,192,102770,1,0,0:0:0:66:0_F#3_183_480.wav
156,192,102852,1,0,0:0:0:62:0_G0_183_480.wav
229,192,102852,1,0,0:0:0:58:0_G3_183_480.wav
302,192,102852,1,0,0:0:0:69:0_A3_183_480.wav
448,192,102934,1,0,0:0:0:62:0_F#3_183_480.wav
10,192,103016,1,0,0:0:0:62:0_G1_183_480.wav
375,192,103016,1,0,0:0:0:62:0_A3_183_480.wav
83,192,103098,1,0,0:0:0:60:0_C4_183_480.wav
10,192,103180,1,0,0:0:0:52:0_F#1_183_480.wav
156,192,103180,1,0,0:0:0:63:0_F#2_183_480.wav
229,192,103180,1,0,0:0:0:59:0_D#3_183_480.wav
302,192,103180,1,0,0:0:0:59:0_F#3_183_480.wav
448,192,103180,1,0,0:0:0:70:0_B3_183_480.wav
475,192,103385,1,0,0:0:0:61:0_C4_183_480.wav
402,192,103426,1,0,0:0:0:61:0_B3_183_480.wav
302,192,103467,1,0,0:0:0:61:0_A#3_183_480.wav
10,192,103508,1,0,0:0:0:46:0_B0_183_480.wav
83,192,103508,1,0,0:0:0:59:0_B1_183_480.wav
156,192,103508,1,0,0:0:0:55:0_B2_183_480.wav
229,192,103508,1,0,0:0:0:55:0_D#3_183_480.wav
375,192,103508,1,0,0:0:0:55:0_F#3_183_480.wav
448,192,103508,1,0,0:0:0:66:0_A3_183_480.wav
10,192,103835,1,0,0:0:0:52:0_F1_183_480.wav
83,192,103835,1,0,0:0:0:57:0_C3_183_480.wav
302,192,103835,1,0,0:0:0:57:0_F3_183_480.wav
375,192,103835,1,0,0:0:0:68:0_G#3_183_480.wav
448,192,103999,1,0,0:0:0:48:0_C2_183_480.wav
156,192,104163,1,0,0:0:0:49:0_G#2_183_480.wav
229,192,104163,1,0,0:0:0:55:0_G#3_183_480.wav
83,192,104327,1,0,0:0:0:48:0_C2_183_480.wav
302,192,104327,1,0,0:0:0:55:0_G3_183_480.wav
10,192,104491,1,0,0:0:0:50:0_D#1_183_480.wav
156,192,104491,1,0,0:0:0:50:0_C3_183_480.wav
229,192,104491,1,0,0:0:0:50:0_D#3_183_480.wav
375,192,104491,1,0,0:0:0:50:0_F3_183_480.wav
448,192,104491,1,0,0:0:0:62:0_G#3_183_480.wav
83,192,104655,1,0,0:0:0:48:0_A#1_183_480.wav
302,192,104655,1,0,0:0:0:60:0_G3_183_480.wav
182,192,104819,1,0,0:0:0:49:0_D#2_183_480.wav
448,192,104819,1,0,0:0:0:61:0_G#3_183_480.wav
256,192,104901,1,0,0:0:0:60:0_G3_183_480.wav
329,192,104983,1,0,0:0:0:48:0_D#1_183_480.wav
402,192,104983,1,0,0:0:0:60:0_G#3_183_480.wav
182,192,105065,1,0,0:0:0:60:0_A#3_183_480.wav
10,192,105147,1,0,0:0:0:51:0_D1_183_480.wav
83,192,105147,1,0,0:0:0:55:0_D3_183_480.wav
375,192,105147,1,0,0:0:0:55:0_F3_183_480.wav
448,192,105147,1,0,0:0:0:66:0_G#3_183_480.wav
229,192,105311,1,0,0:0:0:48:0_A#1_183_480.wav
10,192,105475,1,0,0:0:0:49:0_F2_183_480.wav
156,192,105475,1,0,0:0:0:52:0_F3_183_480.wav
302,192,105475,1,0,0:0:0:52:0_G#3_183_480.wav
448,192,105475,1,0,0:0:0:63:0_C4_183_480.wav
83,192,105639,1,0,0:0:0:48:0_A#2_183_480.wav
475,192,105680,1,0,0:0:0:48:0_F3_183_480.wav
402,192,105721,1,0,0:0:0:48:0_A#3_183_480.wav
329,192,105762,1,0,0:0:0:48:0_D4_183_480.wav
182,192,105803,1,0,0:0:0:59:0_F4_183_480.wav
256,192,105803,1,0,0:0:0:51:0_D3_183_480.wav
10,192,106131,1,0,0:0:0:49:0_D2_183_480.wav
83,192,106131,1,0,0:0:0:48:0_G3_183_480.wav
229,192,106131,1,0,0:0:0:58:0_A#3_183_480.wav
375,192,106131,1,0,0:0:0:58:0_D4_183_480.wav
448,192,106131,1,0,0:0:0:69:0_G4_183_480.wav
10,192,106459,1,0,0:0:0:44:0_A#0_183_480.wav
83,192,106459,1,0,0:0:0:57:0_A#1_183_480.wav
156,192,106459,1,0,0:0:0:61:0_A#3_183_480.wav
229,192,106459,1,0,0:0:0:61:0_C#4_183_480.wav
302,192,106459,1,0,0:0:0:61:0_F4_183_480.wav
375,192,106459,1,0,0:0:0:72:0_G#4_183_480.wav
10,192,106786,1,0,0:0:0:33:0_F2_183_480.wav
156,192,106786,1,0,0:0:0:33:0_A#2_183_480.wav
229,192,106786,1,0,0:0:0:44:0_C#3_183_480.wav
302,192,106786,1,0,0:0:0:44:0_F3_183_480.wav
375,192,106786,1,0,0:0:0:44:0_G#3_183_480.wav
448,192,106786,1,0,0:0:0:55:0_C#4_183_480.wav
36,192,106896,1,0,0:0:0:43:0_F3_183_480.wav
156,192,106896,1,0,0:0:0:43:0_G#3_183_480.wav
375,192,106896,1,0,0:0:0:51:0_C#4_183_480.wav
10,192,107005,1,0,0:0:0:45:0_F3_183_480.wav
182,192,107005,1,0,0:0:0:45:0_G#3_183_480.wav
402,192,107005,1,0,0:0:0:56:0_C#4_183_480.wav
83,192,107114,1,0,0:0:0:35:0_B0_183_480.wav
156,192,107114,1,0,0:0:0:48:0_B1_183_480.wav
229,192,107114,1,0,0:0:0:44:0_G#3_183_480.wav
475,192,107114,1,0,0:0:0:44:0_C#4_183_480.wav
329,192,107114,1,0,0:0:0:55:0_F4_183_480.wav
256,192,107224,1,0,0:0:0:47:0_C#4_183_480.wav
109,192,107224,1,0,0:0:0:47:0_G#3_183_480.wav
448,192,107224,1,0,0:0:0:55:0_F4_183_480.wav
109,192,107333,1,0,0:0:0:49:0_G#3_183_480.wav
256,192,107333,1,0,0:0:0:49:0_C#4_183_480.wav
475,192,107333,1,0,0:0:0:60:0_F4_183_480.wav
10,192,107442,1,0,0:0:0:44:0_G2_183_480.wav
83,192,107442,1,0,0:0:0:55:0_B2_183_480.wav
182,192,107442,1,0,0:0:0:46:0_G#3_183_480.wav
302,192,107442,1,0,0:0:0:46:0_C#4_183_480.wav
448,192,107442,1,0,0:0:0:57:0_G4_183_480.wav
10,192,107552,1,0,0:0:0:48:0_G#3_183_480.wav
475,192,107552,1,0,0:0:0:56:0_G4_183_480.wav
329,192,107552,1,0,0:0:0:48:0_C#4_183_480.wav
475,192,107661,1,0,0:0:0:62:0_G4_183_480.wav
329,192,107661,1,0,0:0:0:51:0_C#4_183_480.wav
36,192,107661,1,0,0:0:0:51:0_G#3_183_480.wav
10,192,107770,1,0,0:0:0:49:0_C1_183_480.wav
256,192,107770,1,0,0:0:0:62:0_C2_183_480.wav
402,192,107770,1,0,0:0:0:57:0_C4_183_480.wav
109,192,107770,1,0,0:0:0:57:0_E4_183_480.wav
448,192,107770,1,0,0:0:0:68:0_G#4_183_480.wav
109,192,107879,1,0,0:0:0:59:0_C4_183_480.wav
402,192,107879,1,0,0:0:0:59:0_E4_183_480.wav
256,192,107879,1,0,0:0:0:67:0_G#4_183_480.wav
109,192,107989,1,0,0:0:0:62:0_C4_183_480.wav
256,192,107989,1,0,0:0:0:62:0_E4_183_480.wav
402,192,107989,1,0,0:0:0:73:0_G#4_183_480.wav
10,192,108098,1,0,0:0:0:58:0_G2_183_480.wav
83,192,108098,1,0,0:0:0:69:0_C3_183_480.wav
229,192,108098,1,0,0:0:0:66:0_C4_183_480.wav
475,192,108098,1,0,0:0:0:66:0_E4_183_480.wav
375,192,108098,1,0,0:0:0:77:0_A#4_183_480.wav
10,192,108207,1,0,0:0:0:68:0_C4_183_480.wav
402,192,108207,1,0,0:0:0:68:0_E4_183_480.wav
448,192,108207,1,0,0:0:0:76:0_A#4_183_480.wav
36,192,108317,1,0,0:0:0:70:0_C4_183_480.wav
475,192,108317,1,0,0:0:0:70:0_E4_183_480.wav
402,192,108317,1,0,0:0:0:81:0_A#4_183_480.wav
10,192,108426,1,0,0:0:0:60:0_C0_183_480.wav
329,192,108426,1,0,0:0:0:66:0_C1_183_480.wav
256,192,108426,1,0,0:0:0:74:0_G4_183_480.wav
109,192,108426,1,0,0:0:0:74:0_C5_183_480.wav
448,192,108426,1,0,0:0:0:85:0_F5_183_480.wav
36,192,108535,1,0,0:0:0:77:0_G4_182_480.wav
109,192,108535,1,0,0:0:0:77:0_C5_182_480.wav
475,192,108535,1,0,0:0:0:85:0_F5_182_480.wav
448,192,108645,1,0,0:0:0:90:0_F5_181_480.wav
109,192,108645,1,0,0:0:0:79:0_C5_181_480.wav
10,192,108645,1,0,0:0:0:79:0_G4_181_480.wav
329,192,108756,1,0,0:0:0:70:0_C1_179_480.wav
156,192,108756,1,0,0:0:0:77:0_G4_179_480.wav
229,192,108756,1,0,0:0:0:77:0_A#4_179_480.wav
375,192,108756,1,0,0:0:0:77:0_C5_179_480.wav
109,192,108756,1,0,0:0:0:88:0_E5_179_480.wav
10,192,109093,1,0,0:0:0:74:0_F0_176_480.wav
83,192,109093,1,0,0:0:0:79:0_F1_176_480.wav
156,192,109093,1,0,0:0:0:77:0_F4_176_480.wav
302,192,109093,1,0,0:0:0:77:0_G#4_176_480.wav
448,192,109093,1,0,0:0:0:88:0_F5_176_480.wav
256,192,109424,1,0,0:0:0:65:0_F2_183_480.wav
109,192,109424,1,0,0:0:0:72:0_F4_183_480.wav
329,192,109506,1,0,0:0:0:64:0_G#2_183_480.wav
182,192,109506,1,0,0:0:0:71:0_G#4_183_480.wav
402,192,109588,1,0,0:0:0:64:0_C3_183_480.wav
256,192,109588,1,0,0:0:0:71:0_C5_183_480.wav
475,192,109670,1,0,0:0:0:64:0_F3_183_480.wav
329,192,109670,1,0,0:0:0:71:0_F5_183_480.wav
402,192,109752,1,0,0:0:0:75:0_C2_183_480.wav
109,192,109752,1,0,0:0:0:77:0_F2_183_480.wav
256,192,109752,1,0,0:0:0:75:0_G#4_183_480.wav
182,192,109752,1,0,0:0:0:75:0_C5_183_480.wav
36,192,109752,1,0,0:0:0:86:0_G#5_183_480.wav
329,192,109916,1,0,0:0:0:72:0_G#5_183_480.wav
36,192,109971,1,0,0:0:0:68:0_F5_183_480.wav
109,192,110026,1,0,0:0:0:66:0_C5_183_480.wav
182,192,110080,1,0,0:0:0:66:0_G#4_183_480.wav
256,192,110135,1,0,0:0:0:64:0_G#3_183_480.wav
475,192,110189,1,0,0:0:0:63:0_G#2_183_480.wav
402,192,110244,1,0,0:0:0:62:0_F2_183_480.wav
329,192,110299,1,0,0:0:0:61:0_C2_183_480.wav
256,192,110353,1,0,0:0:0:60:0_G#1_183_480.wav
402,192,110408,1,0,0:0:0:58:0_C3_183_3360.wav
10,192,110408,1,0,0:0:0:48:0_F0_183_3360.wav
156,192,110408,1,0,0:0:0:59:0_F1_183_3360.wav
109,192,110408,1,0,0:0:0:58:0_G#2_183_3360.wav
448,192,110408,1,0,0:0:0:66:0_F3_183_3360.wav
