osu file format v14

[General]
AudioFilename: anima.mp3
AudioLeadIn: 0
PreviewTime: 90811
Countdown: 0
SampleSet: Soft
StackLeniency: 0.7
Mode: 3
LetterboxInBreaks: 0
SpecialStyle: 0
WidescreenStoryboard: 1

[Editor]
DistanceSpacing: 1
BeatDivisor: 1
GridSize: 32
TimelineZoom: 0.9

[Metadata]
Title:ANiMA
TitleUnicode:ANiMA
Artist:xi
ArtistUnicode:xi
Creator:Kuo Kyoka
Version:7K Lv.6
Source:Deemo
Tags:Yusuke Ishiwata World Flagments Comiket 89 Diverse System C89 Extension Full Version Piano Rayark Inc. Soul Alice Masked Lady Deemo's collection Vol.2 Ichigaki Zan_- Rizqy ExPew Starry- DE-CADE [_S_a_k_u_r_a_] Sakura Kyousuke- [Shana_Lesus] Roxas Collab
BeatmapID:864094
BeatmapSetID:397303

[Difficulty]
HPDrainRate:6
CircleSize:7
OverallDifficulty:6
ApproachRate:5
SliderMultiplier:1.4
SliderTickRate:1

[Events]
//Background and Video events
0,0,"BG.jpg",0,0
//Break Periods
//Storyboard Layer 0 (Background)
//Storyboard Layer 1 (Fail)
//Storyboard Layer 2 (Pass)
//Storyboard Layer 3 (Foreground)
//Storyboard Sound Samples

[TimingPoints]
566,326.975476839237,4,2,1,5,1,0
43726,-100,4,2,1,5,0,1
54189,-100,4,2,1,5,0,0
64653,-100,4,2,1,5,0,1
74789,-100,4,2,1,5,0,0
75116,-100,4,2,1,5,0,1
85579,-100,4,2,1,5,0,0
111737,-100,4,2,1,5,0,1
116969,-100,4,2,1,5,0,0
177132,-100,4,2,1,5,0,1
187268,-100,4,2,1,5,0,0
187595,-100,4,2,1,5,0,1
198059,-100,4,2,1,5,0,0
224217,-100,4,2,1,5,0,1
234680,-100,4,2,1,5,0,0
238604,-100,4,2,1,5,0,1
248740,-100,4,2,1,5,0,0
249067,-100,4,2,1,5,0,1
262146,-100,4,2,1,5,0,0

[HitObjects]
36,192,566,5,0,0:0:0:8:
475,192,3835,1,0,0:0:0:8:
402,192,4489,1,0,0:0:0:8:
329,192,5143,1,0,0:0:0:8:
256,192,5797,1,0,0:0:0:8:
182,192,6451,1,0,0:0:0:8:
109,192,7105,1,0,0:0:0:8:
36,192,7759,1,0,0:0:0:8:
182,192,8413,1,0,0:0:0:8:
329,192,9721,1,0,0:0:0:8:
475,192,10375,1,0,0:0:0:8:
402,192,10702,1,0,0:0:0:8:
329,192,11029,1,0,0:0:0:8:
256,192,11683,1,0,0:0:0:8:
182,192,12337,1,0,0:0:0:8:
182,192,13645,1,0,0:0:0:8:
329,192,14298,1,0,0:0:0:8:
109,192,14952,1,0,0:0:0:8:
402,192,15606,1,0,0:0:0:8:
36,192,16260,1,0,0:0:0:8:
475,192,16914,1,0,0:0:0:8:
256,192,17568,1,0,0:0:0:8:
256,192,18876,128,0,21492:0:0:0:8:
475,192,20184,128,0,21492:0:0:0:8:
36,192,21492,128,0,22800:0:0:0:8:
329,192,22800,128,0,24108:0:0:0:8:
109,192,24108,128,0,25416:0:0:0:8:
182,192,25743,1,0,0:0:0:8:
256,192,26070,1,0,0:0:0:8:
329,192,26397,1,0,0:0:0:8:
402,192,26724,128,0,28031:0:0:0:8:
182,192,28031,128,0,29339:0:0:0:8:
475,192,29339,128,0,30647:0:0:0:8:
402,192,30974,1,0,0:0:0:8:
329,192,31301,1,0,0:0:0:8:
256,192,31628,1,0,0:0:0:8:
36,192,31955,1,0,0:0:0:8:
182,192,31955,1,0,0:0:0:8:
329,192,33263,1,0,0:0:0:8:
182,192,34571,1,0,0:0:0:8:
36,192,34571,1,0,0:0:0:8:
402,192,35225,1,0,0:0:0:8:
182,192,35879,1,0,0:0:0:8:
36,192,35879,1,0,0:0:0:8:
329,192,36533,1,0,0:0:0:8:
475,192,36533,1,0,0:0:0:8:
182,192,37187,1,0,0:0:0:8:
36,192,37187,1,0,0:0:0:8:
402,192,37514,1,0,0:0:0:8:
182,192,37841,1,0,0:0:0:8:
402,192,38168,1,0,0:0:0:8:
109,192,38495,1,0,0:0:0:8:
36,192,38495,1,0,0:0:0:8:
329,192,38822,1,0,0:0:0:8:
109,192,39149,1,0,0:0:0:8:
329,192,39476,1,0,0:0:0:8:
475,192,39803,1,0,0:0:0:8:
36,192,39803,1,0,0:0:0:8:
256,192,40130,1,0,0:0:0:8:
36,192,40457,1,0,0:0:0:8:
475,192,40457,1,0,0:0:0:8:
256,192,40783,1,0,0:0:0:8:
402,192,41110,1,0,0:0:0:8:
109,192,41110,1,0,0:0:0:8:
182,192,41437,1,0,0:0:0:8:
256,192,41764,1,0,0:0:0:8:
475,192,41928,1,0,0:0:0:8:
329,192,42091,1,0,0:0:0:8:
182,192,42255,1,0,0:0:0:8:
36,192,42418,1,0,0:0:0:8:
402,192,42418,1,0,0:0:0:8:
109,192,42745,1,0,0:0:0:8:
182,192,43072,1,0,0:0:0:8:
256,192,43399,128,0,43726:0:0:0:8:
36,192,43726,1,0,0:0:0:8:
475,192,43726,1,0,0:0:0:8:
329,192,44053,1,0,0:0:0:8:
182,192,44380,1,0,0:0:0:8:
36,192,44707,1,0,0:0:0:8:
256,192,45034,1,0,0:0:0:8:
109,192,45361,1,0,0:0:0:8:
256,192,45688,1,0,0:0:0:8:
109,192,46015,1,0,0:0:0:8:
475,192,46342,1,0,0:0:0:8:
329,192,46669,1,0,0:0:0:8:
182,192,46996,1,0,0:0:0:8:
36,192,47323,1,0,0:0:0:8:
256,192,47650,1,0,0:0:0:8:
402,192,47977,1,0,0:0:0:8:
256,192,48304,1,0,0:0:0:8:
402,192,48631,128,0,48958:0:0:0:8:
182,192,48958,1,0,0:0:0:8:
36,192,48958,1,0,0:0:0:8:
329,192,49285,1,0,0:0:0:8:
182,192,49612,1,0,0:0:0:8:
329,192,49939,1,0,0:0:0:8:
109,192,50266,1,0,0:0:0:8:
256,192,50593,1,0,0:0:0:8:
109,192,50920,1,0,0:0:0:8:
256,192,51247,1,0,0:0:0:8:
402,192,51574,1,0,0:0:0:8:
36,192,51574,1,0,0:0:0:8:
182,192,51901,1,0,0:0:0:8:
329,192,52228,1,0,0:0:0:8:
109,192,52555,1,0,0:0:0:8:
256,192,52882,1,0,0:0:0:8:
402,192,53209,1,0,0:0:0:8:
182,192,53536,1,0,0:0:0:8:
329,192,53863,1,0,0:0:0:8:
109,192,54189,1,0,0:0:0:8:
475,192,54189,1,0,0:0:0:8:
402,192,54516,1,0,0:0:0:8:
329,192,54843,1,0,0:0:0:8:
256,192,55170,1,0,0:0:0:8:
182,192,55497,128,0,56151:0:0:0:8:
329,192,56151,128,0,56805:0:0:0:8:
109,192,56805,128,0,57459:0:0:0:8:
402,192,57459,128,0,58113:0:0:0:8:
36,192,58113,128,0,58767:0:0:0:8:
475,192,58767,128,0,59421:0:0:0:8:
182,192,59421,1,0,0:0:0:8:
109,192,59748,1,0,0:0:0:8:
36,192,60075,1,0,0:0:0:8:
256,192,60075,1,0,0:0:0:8:
182,192,60402,1,0,0:0:0:8:
329,192,60729,1,0,0:0:0:8:
402,192,61056,1,0,0:0:0:8:
475,192,61383,1,0,0:0:0:8:
256,192,61383,1,0,0:0:0:8:
329,192,61710,1,0,0:0:0:8:
182,192,62037,128,0,62691:0:0:0:8:
36,192,62691,128,0,63345:0:0:0:8:
256,192,63345,128,0,63999:0:0:0:8:
109,192,63999,128,0,64653:0:0:0:8:
475,192,64653,1,0,0:0:0:8:
256,192,64653,1,0,0:0:0:8:
329,192,64980,1,0,0:0:0:8:
182,192,65307,1,0,0:0:0:8:
36,192,65634,1,0,0:0:0:8:
402,192,65961,1,0,0:0:0:8:
256,192,66288,1,0,0:0:0:8:
109,192,66615,1,0,0:0:0:8:
109,192,66942,1,0,0:0:0:8:
329,192,67268,128,0,67922:0:0:0:8:
182,192,67922,128,0,68576:0:0:0:8:
402,192,68576,128,0,69230:0:0:0:8:
109,192,69230,128,0,69884:0:0:0:8:
256,192,69884,1,0,0:0:0:8:
475,192,69884,1,0,0:0:0:8:
329,192,70211,1,0,0:0:0:8:
182,192,70538,1,0,0:0:0:8:
36,192,70865,1,0,0:0:0:8:
402,192,71192,1,0,0:0:0:8:
256,192,71519,1,0,0:0:0:8:
109,192,71846,1,0,0:0:0:8:
109,192,72173,1,0,0:0:0:8:
329,192,72500,1,0,0:0:0:8:
475,192,72500,1,0,0:0:0:8:
256,192,72827,1,0,0:0:0:8:
182,192,73154,1,0,0:0:0:8:
109,192,73481,1,0,0:0:0:8:
256,192,73808,1,0,0:0:0:8:
182,192,74135,1,0,0:0:0:8:
109,192,74462,1,0,0:0:0:8:
36,192,74789,128,0,75116:0:0:0:8:
329,192,75116,1,0,0:0:0:8:
475,192,75116,1,0,0:0:0:8:
182,192,75443,1,0,0:0:0:8:
329,192,75770,1,0,0:0:0:8:
182,192,76097,1,0,0:0:0:8:
329,192,76424,1,0,0:0:0:8:
475,192,76424,1,0,0:0:0:8:
36,192,76751,1,0,0:0:0:8:
182,192,76751,1,0,0:0:0:8:
329,192,77078,1,0,0:0:0:8:
475,192,77078,1,0,0:0:0:8:
182,192,77405,1,0,0:0:0:8:
36,192,77405,1,0,0:0:0:8:
402,192,77732,1,0,0:0:0:8:
109,192,78059,1,0,0:0:0:8:
402,192,78386,1,0,0:0:0:8:
109,192,78713,1,0,0:0:0:8:
475,192,79040,1,0,0:0:0:8:
402,192,79040,1,0,0:0:0:8:
109,192,79367,1,0,0:0:0:8:
36,192,79367,1,0,0:0:0:8:
475,192,79694,1,0,0:0:0:8:
402,192,79694,1,0,0:0:0:8:
36,192,80021,1,0,0:0:0:8:
109,192,80021,1,0,0:0:0:8:
475,192,80348,1,0,0:0:0:8:
36,192,80674,1,0,0:0:0:8:
475,192,81001,1,0,0:0:0:8:
36,192,81328,1,0,0:0:0:8:
329,192,81655,1,0,0:0:0:8:
475,192,81655,1,0,0:0:0:8:
182,192,81982,1,0,0:0:0:8:
36,192,81982,1,0,0:0:0:8:
475,192,82309,1,0,0:0:0:8:
329,192,82309,1,0,0:0:0:8:
36,192,82636,1,0,0:0:0:8:
182,192,82636,1,0,0:0:0:8:
402,192,82963,1,0,0:0:0:8:
109,192,83290,1,0,0:0:0:8:
402,192,83617,1,0,0:0:0:8:
109,192,83944,1,0,0:0:0:8:
475,192,84271,1,0,0:0:0:8:
36,192,84598,1,0,0:0:0:8:
475,192,84925,1,0,0:0:0:8:
36,192,85252,128,0,85579:0:0:0:8:
256,192,85579,1,0,0:0:0:8:
475,192,85579,1,0,0:0:0:8:
182,192,85906,1,0,0:0:0:8:
109,192,86233,1,0,0:0:0:8:
36,192,86560,1,0,0:0:0:8:
329,192,86887,1,0,0:0:0:8:
256,192,87214,1,0,0:0:0:8:
182,192,87541,1,0,0:0:0:8:
109,192,87868,1,0,0:0:0:8:
402,192,88195,1,0,0:0:0:8:
475,192,88195,1,0,0:0:0:8:
329,192,88522,1,0,0:0:0:8:
256,192,88849,1,0,0:0:0:8:
182,192,89176,1,0,0:0:0:8:
36,192,89503,1,0,0:0:0:8:
109,192,89503,1,0,0:0:0:8:
402,192,89830,1,0,0:0:0:8:
475,192,89830,1,0,0:0:0:8:
36,192,90157,1,0,0:0:0:8:
109,192,90157,1,0,0:0:0:8:
402,192,90484,128,0,90811:0:0:0:8:
475,192,90484,128,0,90811:0:0:0:8:
36,192,90811,1,0,0:0:0:8:
109,192,90811,1,0,0:0:0:8:
402,192,93427,1,0,0:0:0:8:
475,192,93427,1,0,0:0:0:8:
402,192,96042,128,0,96696:0:0:0:8:
36,192,96696,1,0,0:0:0:8:
182,192,96696,1,0,0:0:0:8:
109,192,97350,128,0,98004:0:0:0:8:
475,192,98004,1,0,0:0:0:8:
329,192,98004,1,0,0:0:0:8:
256,192,98658,128,0,99312:0:0:0:8:
36,192,99312,1,0,0:0:0:8:
475,192,99312,1,0,0:0:0:8:
329,192,99639,1,0,0:0:0:8:
182,192,99966,1,0,0:0:0:8:
36,192,100293,1,0,0:0:0:8:
402,192,100620,1,0,0:0:0:8:
256,192,100947,1,0,0:0:0:8:
109,192,101274,1,0,0:0:0:8:
36,192,101274,1,0,0:0:0:8:
475,192,103890,1,0,0:0:0:8:
402,192,103890,1,0,0:0:0:8:
256,192,106506,128,0,107160:0:0:0:8:
36,192,107160,1,0,0:0:0:8:
109,192,107160,1,0,0:0:0:8:
256,192,107813,128,0,108467:0:0:0:8:
402,192,108467,1,0,0:0:0:8:
475,192,108467,1,0,0:0:0:8:
36,192,109121,1,0,0:0:0:8:
182,192,109448,1,0,0:0:0:8:
329,192,109775,1,0,0:0:0:8:
475,192,109775,1,0,0:0:0:8:
109,192,110102,1,0,0:0:0:8:
256,192,110429,1,0,0:0:0:8:
402,192,110756,1,0,0:0:0:8:
182,192,111083,1,0,0:0:0:8:
329,192,111410,1,0,0:0:0:8:
475,192,111737,1,0,0:0:0:8:
36,192,111737,1,0,0:0:0:8:
256,192,112064,128,0,112391:0:0:0:8:
36,192,112391,1,0,0:0:0:8:
475,192,112391,1,0,0:0:0:8:
256,192,112718,128,0,113045:0:0:0:8:
475,192,113045,1,0,0:0:0:8:
36,192,113045,1,0,0:0:0:8:
256,192,113372,128,0,113699:0:0:0:8:
475,192,113699,1,0,0:0:0:8:
36,192,113699,1,0,0:0:0:8:
256,192,114026,1,0,0:0:0:8:
36,192,114353,1,0,0:0:0:8:
475,192,114353,1,0,0:0:0:8:
256,192,114680,128,0,115007:0:0:0:8:
36,192,115007,1,0,0:0:0:8:
475,192,115007,1,0,0:0:0:8:
256,192,115334,128,0,115661:0:0:0:8:
36,192,115661,1,0,0:0:0:8:
475,192,115661,1,0,0:0:0:8:
256,192,115988,128,0,116315:0:0:0:8:
36,192,116315,1,0,0:0:0:8:
475,192,116315,1,0,0:0:0:8:
256,192,116642,1,0,0:0:0:8:
182,192,116969,1,0,0:0:0:8:
329,192,116969,1,0,0:0:0:8:
256,192,117296,128,0,122200:0:0:0:8:
109,192,122200,1,0,0:0:0:8:
402,192,122200,1,0,0:0:0:8:
36,192,124816,1,0,0:0:0:8:
475,192,124816,1,0,0:0:0:8:
182,192,126124,1,0,0:0:0:8:
109,192,127432,1,0,0:0:0:8:
109,192,128086,1,0,0:0:0:8:
475,192,129067,1,0,0:0:0:8:
329,192,129394,1,0,0:0:0:8:
182,192,129721,1,0,0:0:0:8:
36,192,130048,1,0,0:0:0:8:
402,192,130048,1,0,0:0:0:8:
402,192,131356,1,0,0:0:0:8:
329,192,132010,1,0,0:0:0:8:
256,192,132664,1,0,0:0:0:8:
36,192,132664,1,0,0:0:0:8:
256,192,133318,1,0,0:0:0:8:
402,192,134298,1,0,0:0:0:8:
329,192,134625,1,0,0:0:0:8:
256,192,134952,1,0,0:0:0:8:
182,192,135279,1,0,0:0:0:8:
36,192,135279,1,0,0:0:0:8:
256,192,136587,1,0,0:0:0:8:
329,192,137895,1,0,0:0:0:8:
475,192,137895,1,0,0:0:0:8:
329,192,138549,1,0,0:0:0:8:
402,192,139203,1,0,0:0:0:8:
256,192,139857,1,0,0:0:0:8:
36,192,140511,1,0,0:0:0:8:
109,192,140511,1,0,0:0:0:8:
256,192,141165,1,0,0:0:0:8:
475,192,141819,1,0,0:0:0:8:
402,192,141819,1,0,0:0:0:8:
256,192,143127,128,0,145743:0:0:0:8:
475,192,144435,128,0,145743:0:0:0:8:
36,192,145743,128,0,147051:0:0:0:8:
329,192,147051,128,0,148358:0:0:0:8:
109,192,148358,128,0,149666:0:0:0:8:
182,192,149993,1,0,0:0:0:8:
256,192,150320,1,0,0:0:0:8:
329,192,150647,1,0,0:0:0:8:
402,192,150974,128,0,152282:0:0:0:8:
182,192,152282,128,0,153590:0:0:0:8:
475,192,153590,128,0,154898:0:0:0:8:
402,192,155225,1,0,0:0:0:8:
329,192,155552,1,0,0:0:0:8:
256,192,155879,1,0,0:0:0:8:
36,192,156206,1,0,0:0:0:8:
182,192,156206,1,0,0:0:0:8:
402,192,156533,1,0,0:0:0:8:
182,192,156860,1,0,0:0:0:8:
402,192,157187,1,0,0:0:0:8:
109,192,157514,1,0,0:0:0:8:
329,192,157841,1,0,0:0:0:8:
109,192,158168,1,0,0:0:0:8:
329,192,158495,1,0,0:0:0:8:
182,192,158822,1,0,0:0:0:8:
36,192,158822,1,0,0:0:0:8:
475,192,159149,1,0,0:0:0:8:
182,192,159476,1,0,0:0:0:8:
475,192,159803,1,0,0:0:0:8:
36,192,160130,1,0,0:0:0:8:
256,192,160130,1,0,0:0:0:8:
402,192,160457,1,0,0:0:0:8:
256,192,160783,1,0,0:0:0:8:
36,192,160783,1,0,0:0:0:8:
402,192,161110,1,0,0:0:0:8:
182,192,161437,1,0,0:0:0:8:
36,192,161437,1,0,0:0:0:8:
329,192,161764,1,0,0:0:0:8:
182,192,162091,1,0,0:0:0:8:
329,192,162418,1,0,0:0:0:8:
109,192,162745,1,0,0:0:0:8:
36,192,162745,1,0,0:0:0:8:
256,192,163072,1,0,0:0:0:8:
109,192,163399,1,0,0:0:0:8:
256,192,163726,1,0,0:0:0:8:
475,192,164053,1,0,0:0:0:8:
36,192,164053,1,0,0:0:0:8:
256,192,164380,1,0,0:0:0:8:
36,192,164707,1,0,0:0:0:8:
475,192,164707,1,0,0:0:0:8:
256,192,165034,1,0,0:0:0:8:
402,192,165361,1,0,0:0:0:8:
109,192,165361,1,0,0:0:0:8:
402,192,165688,1,0,0:0:0:8:
182,192,166015,1,0,0:0:0:8:
36,192,166342,128,0,166669:0:0:0:8:
256,192,166669,1,0,0:0:0:8:
475,192,166669,1,0,0:0:0:8:
402,192,166996,1,0,0:0:0:8:
329,192,167323,1,0,0:0:0:8:
256,192,167650,1,0,0:0:0:8:
182,192,167977,128,0,168631:0:0:0:8:
329,192,168631,128,0,169285:0:0:0:8:
109,192,169285,128,0,169939:0:0:0:8:
402,192,169939,128,0,170593:0:0:0:8:
36,192,170593,128,0,171247:0:0:0:8:
475,192,171247,128,0,171901:0:0:0:8:
182,192,171901,1,0,0:0:0:8:
109,192,172228,1,0,0:0:0:8:
36,192,172555,1,0,0:0:0:8:
256,192,172555,1,0,0:0:0:8:
182,192,172882,1,0,0:0:0:8:
329,192,173209,1,0,0:0:0:8:
402,192,173536,1,0,0:0:0:8:
475,192,173863,1,0,0:0:0:8:
256,192,173863,1,0,0:0:0:8:
329,192,174189,1,0,0:0:0:8:
182,192,174516,128,0,175170:0:0:0:8:
36,192,175170,128,0,175824:0:0:0:8:
256,192,175824,128,0,176478:0:0:0:8:
109,192,176478,128,0,177132:0:0:0:8:
475,192,177132,1,0,0:0:0:8:
256,192,177132,1,0,0:0:0:8:
329,192,177459,1,0,0:0:0:8:
182,192,177786,1,0,0:0:0:8:
36,192,178113,1,0,0:0:0:8:
402,192,178440,1,0,0:0:0:8:
256,192,178767,1,0,0:0:0:8:
109,192,179094,1,0,0:0:0:8:
109,192,179421,1,0,0:0:0:8:
329,192,179748,128,0,180402:0:0:0:8:
182,192,180402,128,0,181056:0:0:0:8:
402,192,181056,128,0,181710:0:0:0:8:
109,192,181710,128,0,182364:0:0:0:8:
256,192,182364,1,0,0:0:0:8:
475,192,182364,1,0,0:0:0:8:
329,192,182691,1,0,0:0:0:8:
182,192,183018,1,0,0:0:0:8:
36,192,183345,1,0,0:0:0:8:
402,192,183672,1,0,0:0:0:8:
256,192,183999,1,0,0:0:0:8:
109,192,184326,1,0,0:0:0:8:
109,192,184653,1,0,0:0:0:8:
329,192,184980,1,0,0:0:0:8:
475,192,184980,1,0,0:0:0:8:
256,192,185307,1,0,0:0:0:8:
182,192,185634,1,0,0:0:0:8:
109,192,185961,1,0,0:0:0:8:
256,192,186288,1,0,0:0:0:8:
182,192,186615,1,0,0:0:0:8:
109,192,186942,1,0,0:0:0:8:
36,192,187268,128,0,187595:0:0:0:8:
329,192,187595,1,0,0:0:0:8:
475,192,187595,1,0,0:0:0:8:
182,192,187922,1,0,0:0:0:8:
329,192,188249,1,0,0:0:0:8:
182,192,188576,1,0,0:0:0:8:
329,192,188903,1,0,0:0:0:8:
475,192,188903,1,0,0:0:0:8:
36,192,189230,1,0,0:0:0:8:
182,192,189230,1,0,0:0:0:8:
329,192,189557,1,0,0:0:0:8:
475,192,189557,1,0,0:0:0:8:
182,192,189884,1,0,0:0:0:8:
36,192,189884,1,0,0:0:0:8:
402,192,190211,1,0,0:0:0:8:
109,192,190538,1,0,0:0:0:8:
402,192,190865,1,0,0:0:0:8:
109,192,191192,1,0,0:0:0:8:
475,192,191519,1,0,0:0:0:8:
402,192,191519,1,0,0:0:0:8:
109,192,191846,1,0,0:0:0:8:
36,192,191846,1,0,0:0:0:8:
475,192,192173,1,0,0:0:0:8:
402,192,192173,1,0,0:0:0:8:
36,192,192500,1,0,0:0:0:8:
109,192,192500,1,0,0:0:0:8:
475,192,192827,1,0,0:0:0:8:
36,192,193154,1,0,0:0:0:8:
475,192,193481,1,0,0:0:0:8:
36,192,193808,1,0,0:0:0:8:
329,192,194135,1,0,0:0:0:8:
475,192,194135,1,0,0:0:0:8:
182,192,194462,1,0,0:0:0:8:
36,192,194462,1,0,0:0:0:8:
475,192,194789,1,0,0:0:0:8:
329,192,194789,1,0,0:0:0:8:
36,192,195116,1,0,0:0:0:8:
182,192,195116,1,0,0:0:0:8:
402,192,195443,1,0,0:0:0:8:
109,192,195770,1,0,0:0:0:8:
402,192,196097,1,0,0:0:0:8:
109,192,196424,1,0,0:0:0:8:
475,192,196751,1,0,0:0:0:8:
36,192,197078,1,0,0:0:0:8:
475,192,197405,1,0,0:0:0:8:
36,192,197732,128,0,198059:0:0:0:8:
256,192,198059,1,0,0:0:0:8:
475,192,198059,1,0,0:0:0:8:
182,192,198386,1,0,0:0:0:8:
109,192,198713,1,0,0:0:0:8:
36,192,199040,1,0,0:0:0:8:
329,192,199367,1,0,0:0:0:8:
256,192,199694,1,0,0:0:0:8:
182,192,200021,1,0,0:0:0:8:
109,192,200348,1,0,0:0:0:8:
402,192,200674,1,0,0:0:0:8:
475,192,200674,1,0,0:0:0:8:
329,192,201001,1,0,0:0:0:8:
256,192,201328,1,0,0:0:0:8:
182,192,201655,1,0,0:0:0:8:
36,192,201982,1,0,0:0:0:8:
109,192,201982,1,0,0:0:0:8:
402,192,202309,1,0,0:0:0:8:
475,192,202309,1,0,0:0:0:8:
36,192,202636,1,0,0:0:0:8:
109,192,202636,1,0,0:0:0:8:
402,192,202963,128,0,203290:0:0:0:8:
475,192,202963,128,0,203290:0:0:0:8:
36,192,203290,1,0,0:0:0:8:
109,192,203290,1,0,0:0:0:8:
402,192,205906,1,0,0:0:0:8:
475,192,205906,1,0,0:0:0:8:
402,192,208522,128,0,209176:0:0:0:8:
36,192,209176,1,0,0:0:0:8:
182,192,209176,1,0,0:0:0:8:
109,192,209830,128,0,210484:0:0:0:8:
475,192,210484,1,0,0:0:0:8:
329,192,210484,1,0,0:0:0:8:
256,192,211138,128,0,211792:0:0:0:8:
36,192,211792,1,0,0:0:0:8:
475,192,211792,1,0,0:0:0:8:
329,192,212119,1,0,0:0:0:8:
182,192,212446,1,0,0:0:0:8:
36,192,212773,1,0,0:0:0:8:
402,192,213100,1,0,0:0:0:8:
256,192,213427,1,0,0:0:0:8:
109,192,213754,1,0,0:0:0:8:
36,192,213754,1,0,0:0:0:8:
475,192,216369,1,0,0:0:0:8:
402,192,216369,1,0,0:0:0:8:
256,192,218985,128,0,219639:0:0:0:8:
36,192,219639,1,0,0:0:0:8:
109,192,219639,1,0,0:0:0:8:
256,192,220293,128,0,220947:0:0:0:8:
402,192,220947,1,0,0:0:0:8:
475,192,220947,1,0,0:0:0:8:
36,192,221601,1,0,0:0:0:8:
182,192,221928,1,0,0:0:0:8:
329,192,222255,1,0,0:0:0:8:
475,192,222255,1,0,0:0:0:8:
109,192,222582,1,0,0:0:0:8:
256,192,222909,1,0,0:0:0:8:
402,192,223236,1,0,0:0:0:8:
182,192,223563,1,0,0:0:0:8:
329,192,223890,1,0,0:0:0:8:
475,192,224217,1,0,0:0:0:8:
36,192,224217,1,0,0:0:0:8:
256,192,224544,128,0,224871:0:0:0:8:
36,192,224871,1,0,0:0:0:8:
475,192,224871,1,0,0:0:0:8:
256,192,225198,128,0,225525:0:0:0:8:
475,192,225525,1,0,0:0:0:8:
36,192,225525,1,0,0:0:0:8:
256,192,225852,128,0,226179:0:0:0:8:
475,192,226179,1,0,0:0:0:8:
36,192,226179,1,0,0:0:0:8:
256,192,226506,1,0,0:0:0:8:
36,192,226833,1,0,0:0:0:8:
475,192,226833,1,0,0:0:0:8:
256,192,227160,128,0,227486:0:0:0:8:
36,192,227486,1,0,0:0:0:8:
475,192,227486,1,0,0:0:0:8:
256,192,227813,128,0,228140:0:0:0:8:
36,192,228140,1,0,0:0:0:8:
475,192,228140,1,0,0:0:0:8:
256,192,228467,128,0,228794:0:0:0:8:
36,192,228794,1,0,0:0:0:8:
475,192,228794,1,0,0:0:0:8:
256,192,229121,1,0,0:0:0:8:
109,192,229448,1,0,0:0:0:8:
402,192,229448,1,0,0:0:0:8:
256,192,229775,128,0,230102:0:0:0:8:
109,192,230102,1,0,0:0:0:8:
402,192,230102,1,0,0:0:0:8:
256,192,230429,128,0,230756:0:0:0:8:
109,192,230756,1,0,0:0:0:8:
402,192,230756,1,0,0:0:0:8:
256,192,231083,128,0,231410:0:0:0:8:
109,192,231410,1,0,0:0:0:8:
402,192,231410,1,0,0:0:0:8:
256,192,231737,1,0,0:0:0:8:
109,192,232064,1,0,0:0:0:8:
402,192,232064,1,0,0:0:0:8:
256,192,232391,128,0,232718:0:0:0:8:
109,192,232718,1,0,0:0:0:8:
402,192,232718,1,0,0:0:0:8:
256,192,233045,128,0,233372:0:0:0:8:
109,192,233372,1,0,0:0:0:8:
402,192,233372,1,0,0:0:0:8:
256,192,233699,128,0,234026:0:0:0:8:
109,192,234026,128,0,234680:0:0:0:8:
402,192,234026,128,0,234680:0:0:0:8:
256,192,234680,1,0,0:0:0:8:
182,192,235007,128,0,236642:0:0:0:8:
329,192,235007,128,0,236642:0:0:0:8:
36,192,236642,128,0,237296:0:0:0:8:
475,192,236642,128,0,237296:0:0:0:8:
256,192,237296,1,0,0:0:0:8:
182,192,237950,1,0,0:0:0:8:
329,192,238277,1,0,0:0:0:8:
109,192,238604,1,0,0:0:0:8:
475,192,238604,1,0,0:0:0:8:
256,192,238931,1,0,0:0:0:8:
109,192,239258,1,0,0:0:0:8:
256,192,239585,1,0,0:0:0:8:
36,192,239912,1,0,0:0:0:8:
182,192,240239,1,0,0:0:0:8:
36,192,240565,1,0,0:0:0:8:
182,192,240892,1,0,0:0:0:8:
329,192,241219,1,0,0:0:0:8:
475,192,241546,1,0,0:0:0:8:
329,192,241873,1,0,0:0:0:8:
475,192,242200,1,0,0:0:0:8:
256,192,242527,1,0,0:0:0:8:
109,192,242527,1,0,0:0:0:8:
402,192,242854,1,0,0:0:0:8:
182,192,243181,1,0,0:0:0:8:
329,192,243508,1,0,0:0:0:8:
109,192,243835,1,0,0:0:0:8:
36,192,243835,1,0,0:0:0:8:
256,192,244162,1,0,0:0:0:8:
109,192,244489,1,0,0:0:0:8:
256,192,244816,1,0,0:0:0:8:
402,192,245143,1,0,0:0:0:8:
256,192,245470,1,0,0:0:0:8:
402,192,245797,1,0,0:0:0:8:
256,192,246124,1,0,0:0:0:8:
475,192,246451,1,0,0:0:0:8:
329,192,246778,1,0,0:0:0:8:
182,192,247105,1,0,0:0:0:8:
36,192,247432,1,0,0:0:0:8:
256,192,247759,1,0,0:0:0:8:
109,192,248086,1,0,0:0:0:8:
329,192,248413,1,0,0:0:0:8:
182,192,248740,1,0,0:0:0:8:
329,192,249067,1,0,0:0:0:8:
475,192,249067,1,0,0:0:0:8:
109,192,249394,1,0,0:0:0:8:
256,192,249721,1,0,0:0:0:8:
36,192,250048,1,0,0:0:0:8:
182,192,250375,1,0,0:0:0:8:
402,192,250702,1,0,0:0:0:8:
182,192,251029,1,0,0:0:0:8:
402,192,251356,1,0,0:0:0:8:
109,192,251683,1,0,0:0:0:8:
329,192,252010,1,0,0:0:0:8:
109,192,252337,1,0,0:0:0:8:
329,192,252664,1,0,0:0:0:8:
182,192,252991,1,0,0:0:0:8:
36,192,252991,1,0,0:0:0:8:
402,192,253318,1,0,0:0:0:8:
256,192,253645,1,0,0:0:0:8:
475,192,253971,1,0,0:0:0:8:
329,192,254298,1,0,0:0:0:8:
109,192,254298,1,0,0:0:0:8:
475,192,254625,1,0,0:0:0:8:
256,192,254952,1,0,0:0:0:8:
402,192,255279,1,0,0:0:0:8:
182,192,255606,1,0,0:0:0:8:
329,192,255933,1,0,0:0:0:8:
109,192,256260,1,0,0:0:0:8:
256,192,256587,1,0,0:0:0:8:
36,192,256914,1,0,0:0:0:8:
402,192,256914,1,0,0:0:0:8:
182,192,257241,1,0,0:0:0:8:
329,192,257568,1,0,0:0:0:8:
475,192,257895,1,0,0:0:0:8:
109,192,258222,1,0,0:0:0:8:
256,192,258549,1,0,0:0:0:8:
402,192,258876,1,0,0:0:0:8:
402,192,259203,1,0,0:0:0:8:
182,192,259530,1,0,0:0:0:8:
36,192,259530,1,0,0:0:0:8:
475,192,259857,128,0,260184:0:0:0:8:
402,192,260184,1,0,0:0:0:8:
109,192,260184,1,0,0:0:0:8:
329,192,260511,128,0,260838:0:0:0:8:
402,192,260838,1,0,0:0:0:8:
109,192,260838,1,0,0:0:0:8:
182,192,261165,128,0,261492:0:0:0:8:
329,192,261492,1,0,0:0:0:8:
475,192,261492,1,0,0:0:0:8:
36,192,261819,128,0,262146:0:0:0:8:
256,192,262146,128,0,264762:0:0:0:8:
