osu file format v14

[General]
AudioFilename: audio.mp3
AudioLeadIn: 0
PreviewTime: 224222
Countdown: 0
SampleSet: Soft
StackLeniency: 0.7
Mode: 3
LetterboxInBreaks: 0
SpecialStyle: 0
WidescreenStoryboard: 1

[Editor]
Bookmarks: 571,5802,21170,21497,31960,39808,42423,43077,43731,53541,54194,64658,75121,82968,84930,85584,90816,101279,106511,110434,111415,113704,114358,116320,116974,121551,122205,135284,145421,145748,156211,164058,166674,177137,187600,195448,197410,198064,203295,213759,218990,222914,224222,226184,226838,228799,229453,231415,232069,234031,234685,237955,238609,249072,256919,259535,260843,262151
DistanceSpacing: 1
BeatDivisor: 3
GridSize: 32
TimelineZoom: 0.9999989

[Metadata]
Title:ANiMA
TitleUnicode:ANiMA
Artist:xi
ArtistUnicode:xi
Creator:Kawawa
Version:Normal
Source:Deemo
Tags:Instrumental Video Game Hardcore Techno Hard Renaissance Piano Extended Full Version Marathon Cytus II World Fragments Yusuke Ishiwata rayark inc. soul alice masked lady Deemo's collection Vol.2 DVSP-0145 C89 Diverse System
BeatmapID:3165980
BeatmapSetID:1549179

[Difficulty]
HPDrainRate:7.3
CircleSize:7
OverallDifficulty:7
ApproachRate:5
SliderMultiplier:1.4
SliderTickRate:1

[Events]
//Background and Video events
0,0,"BG2.jpg",0,0
//Break Periods
//Storyboard Layer 0 (Background)
//Storyboard Layer 1 (Fail)
//Storyboard Layer 2 (Pass)
//Storyboard Layer 3 (Foreground)
//Storyboard Layer 4 (Overlay)
//Storyboard Sound Samples

[TimingPoints]
571,326.975476839237,4,2,1,20,1,0
21170,-100,4,2,1,20,0,1
21497,-100,4,2,1,20,0,0
39808,-100,4,2,1,20,0,1
42423,-100,4,2,1,20,0,0
43077,-100,4,2,1,20,0,1
43731,-100,4,2,1,20,0,0
53541,-100,4,2,1,20,0,1
54194,-100,4,2,1,20,0,0
82968,-100,4,2,1,20,0,1
84930,-100,4,2,1,20,0,0
85584,-100,4,2,1,20,0,1
90816,-100,4,2,1,20,0,0
106511,-100,4,2,1,20,0,1
111415,-100,4,2,1,20,0,0
113704,-100,4,2,1,20,0,1
114358,-100,4,2,1,20,0,0
116320,-100,4,2,1,20,0,1
116974,-100,4,2,1,20,0,0
121551,-100,4,2,1,20,0,1
122205,-100,4,2,1,20,0,0
145421,-100,4,2,1,20,0,1
145748,-100,4,2,1,20,0,0
164058,-100,4,2,1,20,0,1
166674,-100,4,2,1,20,0,0
195448,-100,4,2,1,20,0,1
197410,-100,4,2,1,20,0,0
198064,-100,4,2,1,20,0,1
203295,-100,4,2,1,20,0,0
218990,-100,4,2,1,20,0,1
224222,-100,4,2,1,20,0,0
226184,-100,4,2,1,20,0,1
226838,-100,4,2,1,20,0,0
228799,-100,4,2,1,20,0,1
229453,-100,4,2,1,20,0,0
231415,-100,4,2,1,20,0,1
232069,-100,4,2,1,20,0,0
234031,-100,4,2,1,20,0,1
234685,-100,4,2,1,20,0,0
237955,-100,4,2,1,20,0,1
238609,-100,4,2,1,20,0,0
256919,-100,4,2,1,20,0,1
259535,-100,4,2,1,20,0,0
260843,-100,4,2,1,20,0,1
262151,-100,4,2,1,20,0,0

[HitObjects]
109,192,571,128,0,3186:0:0:0:0:
402,192,571,128,0,3186:0:0:0:0:
475,192,3840,1,0,0:0:0:0:
402,192,4494,1,0,0:0:0:0:
329,192,5148,1,0,0:0:0:0:
36,192,5802,1,0,0:0:0:0:
256,192,5802,1,0,0:0:0:0:
109,192,6456,1,0,0:0:0:0:
329,192,7110,1,0,0:0:0:0:
182,192,7110,1,0,0:0:0:0:
36,192,7764,1,0,0:0:0:0:
329,192,8418,1,0,0:0:0:0:
475,192,8418,1,0,0:0:0:0:
182,192,9726,1,0,0:0:0:0:
36,192,9726,1,0,0:0:0:0:
109,192,10380,1,0,0:0:0:0:
182,192,10707,1,0,0:0:0:0:
475,192,11034,1,0,0:0:0:0:
256,192,11034,1,0,0:0:0:0:
36,192,11688,1,0,0:0:0:0:
109,192,12342,1,0,0:0:0:0:
256,192,12342,1,0,0:0:0:0:
329,192,13650,1,0,0:0:0:0:
475,192,13650,1,0,0:0:0:0:
256,192,14303,1,0,0:0:0:0:
402,192,14957,1,0,0:0:0:0:
182,192,14957,1,0,0:0:0:0:
109,192,15611,1,0,0:0:0:0:
329,192,16265,1,0,0:0:0:0:
36,192,16265,1,0,0:0:0:0:
109,192,16919,1,0,0:0:0:0:
182,192,17573,1,0,0:0:0:0:
475,192,17573,1,0,0:0:0:0:
36,192,18227,1,0,0:0:0:0:
256,192,18445,1,0,0:0:0:0:
475,192,18663,1,0,0:0:0:0:
329,192,18881,1,0,0:0:0:0:
109,192,18881,1,0,0:0:0:0:
182,192,19535,1,0,0:0:0:0:
475,192,20189,1,0,0:0:0:0:
256,192,20189,1,0,0:0:0:0:
36,192,20843,1,0,0:0:0:0:
182,192,21006,1,0,0:0:0:0:
329,192,21170,1,0,0:0:0:0:
475,192,21333,1,0,0:0:0:0:
402,192,21497,1,0,0:0:0:30:Crash-L.wav
256,192,21497,1,0,0:0:0:50:KicK.wav
109,192,21497,128,0,22805:0:0:0:0:
182,192,22805,128,0,24113:0:0:0:0:
329,192,22805,1,0,0:0:0:0:
402,192,24113,1,0,0:0:0:0:
256,192,24113,128,0,25421:0:0:0:0:
475,192,25748,1,0,0:0:0:0:
329,192,26075,1,0,0:0:0:0:
182,192,26402,1,0,0:0:0:0:
36,192,26729,1,0,0:0:0:0:
475,192,26729,128,0,28036:0:0:0:0:
256,192,27709,1,0,0:0:0:0:
402,192,28036,128,0,29344:0:0:0:0:
109,192,28036,1,0,0:0:0:0:
182,192,28690,1,0,0:0:0:0:
329,192,29344,128,0,30652:0:0:0:0:
36,192,29344,1,0,0:0:0:0:
402,192,30979,1,0,0:0:0:0:
329,192,31306,1,0,0:0:0:0:
256,192,31633,1,0,0:0:0:0:
475,192,31960,1,0,0:0:0:0:
182,192,31960,1,0,0:0:0:30:Crash-L.wav
36,192,31960,1,0,0:0:0:50:KicK.wav
109,192,32778,1,0,0:0:0:0:
182,192,32941,1,0,0:0:0:0:
256,192,33105,1,0,0:0:0:0:
475,192,33268,1,0,0:0:0:0:
329,192,33268,1,0,0:0:0:0:
36,192,34085,1,0,0:0:0:0:
182,192,34249,1,0,0:0:0:0:
329,192,34412,1,0,0:0:0:0:
475,192,34576,1,0,0:0:0:0:
256,192,34576,1,0,0:0:0:30:Crash-L.wav
36,192,34576,1,0,0:0:0:50:KicK.wav
109,192,35230,1,0,0:0:0:0:
402,192,35230,1,0,0:0:0:0:
36,192,35884,1,0,0:0:0:0:
329,192,35884,1,0,0:0:0:30:Crash-L.wav
182,192,35884,1,0,0:0:0:50:KicK.wav
475,192,36538,1,0,0:0:0:0:
329,192,36538,1,0,0:0:0:30:Crash-L.wav
182,192,36538,1,0,0:0:0:50:KicK.wav
36,192,37192,1,0,0:0:0:0:
256,192,37192,1,0,0:0:0:30:Crash-L.wav
475,192,37192,1,0,0:0:0:50:KicK.wav
182,192,37846,1,0,0:0:0:0:
402,192,38009,1,0,0:0:0:0:
256,192,38173,1,0,0:0:0:0:
475,192,38336,1,0,0:0:0:50:KicK.wav
36,192,38500,1,0,0:0:0:0:
329,192,38500,1,0,0:0:0:30:Crash-L.wav
182,192,38500,1,0,0:0:0:50:KicK.wav
256,192,38827,1,0,0:0:0:0:
475,192,38827,1,0,0:0:0:0:
402,192,39154,1,0,0:0:0:0:
182,192,39154,1,0,0:0:0:0:
329,192,39481,1,0,0:0:0:0:
109,192,39481,1,0,0:0:0:0:
182,192,39644,1,0,0:0:0:50:KicK.wav
256,192,39808,1,0,0:0:0:0:
475,192,39808,1,0,0:0:0:30:Crash-L.wav
36,192,39808,1,0,0:0:0:50:KicK.wav
329,192,39971,1,0,0:0:0:0:
182,192,40135,1,0,0:0:0:0:
329,192,40298,1,0,0:0:0:50:KicK.wav
475,192,40462,1,0,0:0:0:50:KicK.wav
182,192,40462,1,0,0:0:0:0:
36,192,40462,1,0,0:0:0:30:Crash-L.wav
329,192,40625,1,0,0:0:0:0:
182,192,40788,1,0,0:0:0:0:
329,192,40952,1,0,0:0:0:50:KicK.wav
256,192,41115,1,0,0:0:0:50:KicK.wav
475,192,41115,1,0,0:0:0:30:Crash-L.wav
36,192,41115,1,0,0:0:0:0:
109,192,41442,1,0,0:0:0:50:KicK.wav
402,192,41442,1,0,0:0:0:30:Crash-S.wav
402,192,41769,1,0,0:0:0:30:Crash-L.wav
109,192,41769,1,0,0:0:0:50:KicK.wav
329,192,41933,1,0,0:0:0:50:KicK.wav
256,192,42096,1,0,0:0:0:50:KicK.wav
182,192,42260,1,0,0:0:0:50:KicK.wav
109,192,42423,1,0,0:0:0:50:KicK.wav
475,192,43077,1,0,0:0:0:30:Highlight.wav
475,192,43404,1,0,0:0:0:30:Highlight.wav
475,192,43731,1,0,0:0:0:30:Highlight.wav
36,192,43731,1,0,0:0:0:50:KicK.wav
256,192,43731,1,0,0:0:0:30:Crash-L.wav
329,192,43895,1,0,0:0:0:0:
182,192,44058,1,0,0:0:0:50:KicK.wav
36,192,44222,1,0,0:0:0:0:
256,192,44385,1,0,0:0:0:50:KicK.wav
475,192,44549,1,0,0:0:0:0:
182,192,44712,1,0,0:0:0:50:KicK.wav
402,192,44876,1,0,0:0:0:0:
109,192,45039,1,0,0:0:0:50:KicK.wav
329,192,45203,1,0,0:0:0:0:
36,192,45366,1,0,0:0:0:50:KicK.wav
256,192,45530,1,0,0:0:0:0:
109,192,45693,1,0,0:0:0:50:KicK.wav
402,192,45693,1,0,0:0:0:30:Highlight.wav
402,192,46020,1,0,0:0:0:30:Highlight.wav
109,192,46020,1,0,0:0:0:50:KicK.wav
402,192,46347,1,0,0:0:0:30:Highlight.wav
109,192,46347,1,0,0:0:0:50:KicK.wav
256,192,46511,1,0,0:0:0:0:
36,192,46674,1,0,0:0:0:50:KicK.wav
329,192,46838,1,0,0:0:0:0:
109,192,47001,1,0,0:0:0:50:KicK.wav
402,192,47165,1,0,0:0:0:0:
182,192,47328,1,0,0:0:0:50:KicK.wav
475,192,47491,1,0,0:0:0:0:
329,192,47655,1,0,0:0:0:50:KicK.wav
182,192,47818,1,0,0:0:0:0:
36,192,47982,1,0,0:0:0:50:KicK.wav
329,192,48309,1,0,0:0:0:30:Highlight.wav
109,192,48309,1,0,0:0:0:50:KicK.wav
329,192,48636,1,0,0:0:0:30:Highlight.wav
109,192,48636,1,0,0:0:0:50:KicK.wav
475,192,48636,1,0,0:0:0:30:Crash-L.wav
36,192,48963,1,0,0:0:0:30:Highlight.wav
182,192,48963,1,0,0:0:0:50:KicK.wav
475,192,48963,1,0,0:0:0:30:Crash-L.wav
256,192,49126,1,0,0:0:0:0:
329,192,49290,1,0,0:0:0:50:KicK.wav
402,192,49453,1,0,0:0:0:0:
256,192,49617,1,0,0:0:0:50:KicK.wav
109,192,49780,1,0,0:0:0:0:
329,192,49944,1,0,0:0:0:50:KicK.wav
182,192,50107,1,0,0:0:0:0:
36,192,50271,1,0,0:0:0:50:KicK.wav
256,192,50434,1,0,0:0:0:0:
475,192,50598,1,0,0:0:0:50:KicK.wav
402,192,50761,1,0,0:0:0:0:
329,192,50925,1,0,0:0:0:30:Highlight.wav
109,192,50925,1,0,0:0:0:50:KicK.wav
329,192,51252,1,0,0:0:0:30:Highlight.wav
109,192,51252,1,0,0:0:0:50:KicK.wav
256,192,51579,1,0,0:0:0:30:Highlight.wav
475,192,51579,1,0,0:0:0:30:Crash-L.wav
36,192,51579,1,0,0:0:0:50:KicK.wav
329,192,51742,1,0,0:0:0:0:
402,192,51906,1,0,0:0:0:50:KicK.wav
182,192,52069,1,0,0:0:0:0:
475,192,52069,1,0,0:0:0:30:Crash-L.wav
36,192,52069,1,0,0:0:0:50:KicK.wav
329,192,52233,1,0,0:0:0:30:KicK.wav
36,192,52396,1,0,0:0:0:0:
329,192,52560,1,0,0:0:0:0:
475,192,52560,1,0,0:0:0:30:Crash-L.wav
109,192,52560,1,0,0:0:0:50:KicK.wav
182,192,52723,1,0,0:0:0:50:KicK.wav
256,192,52887,1,0,0:0:0:50:KicK.wav
402,192,52887,1,0,0:0:0:30:Crash-S.wav
109,192,53050,1,0,0:0:0:50:KicK.wav
402,192,53214,5,0,0:0:0:30:Crash-S.wav
256,192,53214,1,0,0:0:0:50:KicK.wav
182,192,53541,1,0,0:0:0:50:KicK.wav
256,192,53704,1,0,0:0:0:0:
329,192,53868,1,0,0:0:0:0:
402,192,54031,1,0,0:0:0:0:
475,192,54194,5,0,0:0:0:50:KicK.wav
256,192,54194,1,0,0:0:0:0:
36,192,54194,1,0,0:0:0:30:Crash-L.wav
182,192,54358,1,0,0:0:0:0:
109,192,54521,1,0,0:0:0:0:
475,192,54685,1,0,0:0:0:0:
402,192,54848,1,0,0:0:0:50:KicK.wav
329,192,55012,1,0,0:0:0:0:
36,192,55175,1,0,0:0:0:0:
109,192,55339,1,0,0:0:0:0:
182,192,55502,1,0,0:0:0:50:KicK.wav
402,192,55666,1,0,0:0:0:0:
329,192,55829,1,0,0:0:0:50:KicK.wav
256,192,55993,1,0,0:0:0:0:
182,192,56156,1,0,0:0:0:0:
36,192,56156,1,0,0:0:0:50:KicK.wav
109,192,56483,1,0,0:0:0:0:
182,192,56647,1,0,0:0:0:0:
256,192,56810,1,0,0:0:0:0:
402,192,56810,1,0,0:0:0:50:KicK.wav
182,192,57137,1,0,0:0:0:0:
256,192,57301,1,0,0:0:0:0:
475,192,57464,1,0,0:0:0:0:
329,192,57464,1,0,0:0:0:50:KicK.wav
182,192,57791,1,0,0:0:0:50:KicK.wav
329,192,57791,1,0,0:0:0:0:
182,192,58118,1,0,0:0:0:0:
36,192,58118,1,0,0:0:0:50:KicK.wav
256,192,58282,1,0,0:0:0:0:
329,192,58445,1,0,0:0:0:0:
109,192,58445,1,0,0:0:0:50:KicK.wav
402,192,58609,1,0,0:0:0:0:
475,192,58772,1,0,0:0:0:0:
182,192,58772,1,0,0:0:0:50:KicK.wav
109,192,58936,1,0,0:0:0:50:KicK.wav
36,192,59099,1,0,0:0:0:50:KicK.wav
475,192,59099,1,0,0:0:0:0:
402,192,59263,1,0,0:0:0:50:KicK.wav
329,192,59426,1,0,0:0:0:0:
109,192,59426,1,0,0:0:0:30:Crash-L.wav
182,192,59426,1,0,0:0:0:50:KicK.wav
402,192,59753,1,0,0:0:0:0:
109,192,59753,1,0,0:0:0:30:Crash-L.wav
182,192,59753,1,0,0:0:0:50:KicK.wav
475,192,60080,1,0,0:0:0:0:
109,192,60080,1,0,0:0:0:30:Crash-L.wav
182,192,60080,1,0,0:0:0:50:KicK.wav
256,192,60407,1,0,0:0:0:50:KicK.wav
182,192,60570,1,0,0:0:0:50:KicK.wav
109,192,60734,1,0,0:0:0:0:
475,192,60734,1,0,0:0:0:30:Crash-L.wav
402,192,60734,1,0,0:0:0:50:KicK.wav
182,192,61061,1,0,0:0:0:0:
475,192,61061,1,0,0:0:0:30:Crash-L.wav
402,192,61061,1,0,0:0:0:50:KicK.wav
256,192,61388,1,0,0:0:0:0:
475,192,61388,1,0,0:0:0:30:Crash-L.wav
402,192,61388,1,0,0:0:0:50:KicK.wav
329,192,61715,1,0,0:0:0:50:KicK.wav
256,192,61878,1,0,0:0:0:50:KicK.wav
36,192,62042,1,0,0:0:0:30:Crash-L.wav
402,192,62042,1,0,0:0:0:0:
182,192,62042,1,0,0:0:0:50:KicK.wav
36,192,62369,1,0,0:0:0:50:KicK.wav
109,192,62532,1,0,0:0:0:50:KicK.wav
475,192,62696,1,0,0:0:0:0:
329,192,62696,1,0,0:0:0:30:Crash-L.wav
182,192,62696,1,0,0:0:0:50:KicK.wav
402,192,63023,1,0,0:0:0:50:KicK.wav
109,192,63023,1,0,0:0:0:0:
475,192,63350,1,0,0:0:0:0:
256,192,63350,1,0,0:0:0:50:KicK.wav
36,192,63350,1,0,0:0:0:30:Crash-L.wav
329,192,63513,1,0,0:0:0:50:KicK.wav
402,192,63677,1,0,0:0:0:30:Crash-L.wav
182,192,63677,1,0,0:0:0:50:KicK.wav
256,192,63840,1,0,0:0:0:50:KicK.wav
475,192,64004,1,0,0:0:0:0:
329,192,64004,1,0,0:0:0:50:KicK.wav
109,192,64004,1,0,0:0:0:30:Crash-L.wav
329,192,64331,1,0,0:0:0:50:KicK.wav
109,192,64331,1,0,0:0:0:30:Crash-L.wav
256,192,64658,1,0,0:0:0:0:
36,192,64658,1,0,0:0:0:50:KicK.wav
475,192,64658,1,0,0:0:0:30:Crash-L.wav
256,192,64985,128,0,65312:0:0:0:0:
475,192,64985,1,0,0:0:0:50:KicK.wav
182,192,65312,128,0,65639:0:0:0:0:
402,192,65312,1,0,0:0:0:50:KicK.wav
109,192,65639,128,0,65966:0:0:0:0:
329,192,65639,1,0,0:0:0:50:KicK.wav
256,192,65966,1,0,0:0:0:0:
36,192,65966,1,0,0:0:0:50:KicK.wav
329,192,66129,1,0,0:0:0:0:
402,192,66293,1,0,0:0:0:0:
109,192,66293,1,0,0:0:0:50:KicK.wav
329,192,66620,1,0,0:0:0:0:
182,192,66620,1,0,0:0:0:50:KicK.wav
329,192,66947,1,0,0:0:0:0:
182,192,66947,1,0,0:0:0:50:KicK.wav
475,192,67273,1,0,0:0:0:0:
256,192,67273,1,0,0:0:0:50:KicK.wav
36,192,67437,1,0,0:0:0:0:
182,192,67600,1,0,0:0:0:50:KicK.wav
329,192,67764,1,0,0:0:0:0:
109,192,67927,1,0,0:0:0:50:KicK.wav
256,192,68091,1,0,0:0:0:0:
475,192,68254,1,0,0:0:0:50:KicK.wav
329,192,68418,1,0,0:0:0:0:
182,192,68581,1,0,0:0:0:50:KicK.wav
36,192,68745,1,0,0:0:0:0:
256,192,68908,1,0,0:0:0:50:KicK.wav
475,192,69072,1,0,0:0:0:0:
182,192,69235,1,0,0:0:0:0:
36,192,69235,1,0,0:0:0:50:KicK.wav
182,192,69562,1,0,0:0:0:0:
36,192,69562,1,0,0:0:0:50:KicK.wav
475,192,69889,1,0,0:0:0:0:
109,192,69889,1,0,0:0:0:30:Crash-L.wav
329,192,69889,1,0,0:0:0:50:KicK.wav
329,192,70216,128,0,70543:0:0:0:0:
182,192,70216,1,0,0:0:0:50:KicK.wav
256,192,70543,128,0,70870:0:0:0:0:
475,192,70543,1,0,0:0:0:50:KicK.wav
182,192,70870,128,0,71197:0:0:0:0:
402,192,70870,1,0,0:0:0:50:KicK.wav
36,192,71197,1,0,0:0:0:0:
329,192,71197,1,0,0:0:0:50:KicK.wav
109,192,71361,1,0,0:0:0:0:
182,192,71524,1,0,0:0:0:0:
475,192,71524,1,0,0:0:0:50:KicK.wav
256,192,71851,1,0,0:0:0:0:
402,192,71851,1,0,0:0:0:50:KicK.wav
256,192,72178,1,0,0:0:0:0:
402,192,72178,1,0,0:0:0:50:KicK.wav
329,192,72505,1,0,0:0:0:0:
182,192,72505,1,0,0:0:0:30:Crash-L.wav
36,192,72505,1,0,0:0:0:50:KicK.wav
182,192,72832,1,0,0:0:0:50:KicK.wav
109,192,72996,1,0,0:0:0:50:KicK.wav
256,192,73159,1,0,0:0:0:0:
475,192,73159,1,0,0:0:0:30:Crash-L.wav
36,192,73159,1,0,0:0:0:50:KicK.wav
475,192,73486,1,0,0:0:0:50:KicK.wav
402,192,73650,1,0,0:0:0:50:KicK.wav
36,192,73813,1,0,0:0:0:0:
182,192,73813,1,0,0:0:0:30:Crash-L.wav
329,192,73813,1,0,0:0:0:50:KicK.wav
182,192,74140,1,0,0:0:0:50:KicK.wav
256,192,74303,1,0,0:0:0:50:KicK.wav
36,192,74467,1,0,0:0:0:50:KicK.wav
475,192,74467,1,0,0:0:0:0:
329,192,74467,1,0,0:0:0:30:Crash-L.wav
475,192,74794,1,0,0:0:0:0:
329,192,74794,1,0,0:0:0:30:Crash-L.wav
109,192,74794,1,0,0:0:0:50:KicK.wav
475,192,75121,1,0,0:0:0:0:
182,192,75121,1,0,0:0:0:50:KicK.wav
329,192,75121,1,0,0:0:0:30:Crash-L.wav
402,192,75448,128,0,76102:0:0:0:0:
36,192,75448,1,0,0:0:0:50:KicK.wav
256,192,75775,128,0,76102:0:0:0:0:
182,192,75775,1,0,0:0:0:50:KicK.wav
36,192,76102,1,0,0:0:0:50:KicK.wav
109,192,76265,1,0,0:0:0:0:
182,192,76429,1,0,0:0:0:0:
402,192,76429,1,0,0:0:0:30:Crash-L.wav
475,192,76429,1,0,0:0:0:50:KicK.wav
182,192,76756,1,0,0:0:0:0:
402,192,76756,1,0,0:0:0:30:Crash-L.wav
475,192,76756,1,0,0:0:0:50:KicK.wav
109,192,77083,1,0,0:0:0:0:
329,192,77083,1,0,0:0:0:50:KicK.wav
36,192,77083,1,0,0:0:0:30:Crash-L.wav
182,192,77410,1,0,0:0:0:0:
109,192,77410,1,0,0:0:0:30:Crash-L.wav
402,192,77410,1,0,0:0:0:50:KicK.wav
475,192,77737,1,0,0:0:0:50:KicK.wav
182,192,77737,1,0,0:0:0:30:Crash-L.wav
256,192,77737,1,0,0:0:0:0:
36,192,78064,128,0,78718:0:0:0:0:
329,192,78064,1,0,0:0:0:50:KicK.wav
182,192,78391,128,0,78718:0:0:0:0:
475,192,78391,1,0,0:0:0:50:KicK.wav
329,192,78718,1,0,0:0:0:50:KicK.wav
402,192,78881,1,0,0:0:0:0:
475,192,79045,1,0,0:0:0:0:
109,192,79045,1,0,0:0:0:30:Crash-L.wav
182,192,79045,1,0,0:0:0:50:KicK.wav
329,192,79372,1,0,0:0:0:0:
109,192,79372,1,0,0:0:0:30:Crash-L.wav
182,192,79372,1,0,0:0:0:50:KicK.wav
475,192,79699,1,0,0:0:0:0:
256,192,79699,1,0,0:0:0:30:Crash-L.wav
36,192,79699,1,0,0:0:0:50:KicK.wav
402,192,80026,1,0,0:0:0:0:
256,192,80026,1,0,0:0:0:30:Crash-L.wav
109,192,80026,1,0,0:0:0:50:KicK.wav
475,192,80353,1,0,0:0:0:0:
256,192,80353,1,0,0:0:0:30:Crash-L.wav
36,192,80353,1,0,0:0:0:50:KicK.wav
329,192,80679,128,0,81333:0:0:0:0:
182,192,80679,1,0,0:0:0:50:KicK.wav
36,192,81006,1,0,0:0:0:50:KicK.wav
475,192,81006,128,0,81333:0:0:0:30:Crash-L.wav
182,192,81333,1,0,0:0:0:20:Crash-S.wav
109,192,81497,1,0,0:0:0:20:Crash-S.wav
36,192,81660,1,0,0:0:0:50:KicK.wav
402,192,81660,1,0,0:0:0:0:
256,192,81660,1,0,0:0:0:30:Crash-L.wav
402,192,81987,1,0,0:0:0:0:
256,192,81987,1,0,0:0:0:30:Crash-L.wav
109,192,81987,1,0,0:0:0:50:KicK.wav
329,192,82314,1,0,0:0:0:0:
475,192,82314,1,0,0:0:0:30:Crash-L.wav
182,192,82314,1,0,0:0:0:50:KicK.wav
36,192,82641,1,0,0:0:0:0:
475,192,82641,1,0,0:0:0:30:Crash-L.wav
256,192,82641,1,0,0:0:0:50:KicK.wav
182,192,82968,1,0,0:0:0:0:
36,192,82968,1,0,0:0:0:30:Crash-L.wav
329,192,82968,1,0,0:0:0:50:KicK.wav
402,192,83132,1,0,0:0:0:50:KicK.wav
256,192,83295,1,0,0:0:0:50:KicK.wav
475,192,83295,1,0,0:0:0:30:Crash-L.wav
182,192,83459,1,0,0:0:0:50:KicK.wav
402,192,83622,1,0,0:0:0:50:KicK.wav
109,192,83622,1,0,0:0:0:30:Crash-L.wav
329,192,83786,1,0,0:0:0:50:KicK.wav
36,192,83949,1,0,0:0:0:50:KicK.wav
256,192,83949,1,0,0:0:0:30:Crash-L.wav
109,192,84113,1,0,0:0:0:50:KicK.wav
329,192,84276,1,0,0:0:0:30:Crash-L.wav
182,192,84276,1,0,0:0:0:50:KicK.wav
402,192,84440,1,0,0:0:0:50:KicK.wav
182,192,84603,1,0,0:0:0:50:KicK.wav
475,192,84603,1,0,0:0:0:30:Crash-L.wav
256,192,84767,1,0,0:0:0:50:KicK.wav
329,192,84930,1,0,0:0:0:30:Crash-L.wav
36,192,84930,1,0,0:0:0:50:KicK.wav
475,192,85584,1,0,0:0:0:0:
256,192,85584,1,0,0:0:0:30:Crash-L.wav
36,192,85584,1,0,0:0:0:50:KicK.wav
182,192,85748,1,0,0:0:0:0:
329,192,85911,1,0,0:0:0:50:KicK.wav
329,192,86075,1,0,0:0:0:0:
109,192,86238,1,0,0:0:0:50:KicK.wav
256,192,86402,1,0,0:0:0:0:
402,192,86565,1,0,0:0:0:50:KicK.wav
402,192,86729,1,0,0:0:0:0:
475,192,86892,1,0,0:0:0:50:KicK.wav
329,192,87056,1,0,0:0:0:0:
182,192,87219,1,0,0:0:0:50:KicK.wav
182,192,87382,1,0,0:0:0:0:
402,192,87546,1,0,0:0:0:50:KicK.wav
256,192,87709,1,0,0:0:0:0:
109,192,87873,1,0,0:0:0:50:KicK.wav
109,192,88036,1,0,0:0:0:50:KicK.wav
36,192,88200,1,0,0:0:0:0:
475,192,88200,1,0,0:0:0:50:KicK.wav
256,192,88200,1,0,0:0:0:30:Crash-L.wav
182,192,88363,1,0,0:0:0:0:
329,192,88527,1,0,0:0:0:50:KicK.wav
329,192,88690,1,0,0:0:0:0:
36,192,88854,1,0,0:0:0:0:
256,192,88854,1,0,0:0:0:30:Crash-L.wav
475,192,88854,1,0,0:0:0:50:KicK.wav
329,192,89017,1,0,0:0:0:0:
182,192,89181,1,0,0:0:0:50:KicK.wav
182,192,89344,1,0,0:0:0:50:KicK.wav
256,192,89508,1,0,0:0:0:0:
475,192,89508,1,0,0:0:0:50:KicK.wav
36,192,89508,1,0,0:0:0:30:Crash-L.wav
402,192,89671,5,0,0:0:0:50:KicK.wav
329,192,89835,5,0,0:0:0:50:KicK.wav
109,192,89835,1,0,0:0:0:30:Crash-L.wav
256,192,89998,5,0,0:0:0:50:KicK.wav
182,192,90162,1,0,0:0:0:50:KicK.wav
402,192,90162,1,0,0:0:0:30:Crash-L.wav
109,192,90325,1,0,0:0:0:50:KicK.wav
36,192,90489,1,0,0:0:0:50:KicK.wav
475,192,90489,1,0,0:0:0:30:Crash-L.wav
256,192,90489,1,0,0:0:0:30:Clap.wav
109,192,90816,5,0,0:0:0:50:KicK.wav
402,192,90816,1,0,0:0:0:0:
256,192,90816,1,0,0:0:0:30:Crash-L.wav
475,192,91143,128,0,91306:0:0:0:0:
329,192,91306,128,0,91470:0:0:0:0:
182,192,91470,128,0,91633:0:0:0:0:
402,192,91797,128,0,91960:0:0:0:0:
36,192,92124,1,0,0:0:0:0:
256,192,92287,1,0,0:0:0:0:
109,192,92451,1,0,0:0:0:0:
329,192,92614,1,0,0:0:0:0:
182,192,92778,1,0,0:0:0:0:
402,192,92941,1,0,0:0:0:0:
256,192,93105,1,0,0:0:0:0:
475,192,93268,1,0,0:0:0:0:
36,192,93432,1,0,0:0:0:0:
182,192,93432,1,0,0:0:0:0:
402,192,93759,128,0,93922:0:0:0:0:
256,192,93922,128,0,94085:0:0:0:0:
109,192,94085,128,0,94249:0:0:0:0:
329,192,94412,128,0,94576:0:0:0:0:
475,192,94739,1,0,0:0:0:0:
256,192,94903,1,0,0:0:0:0:
402,192,95066,1,0,0:0:0:0:
182,192,95230,1,0,0:0:0:0:
329,192,95393,1,0,0:0:0:0:
109,192,95557,1,0,0:0:0:0:
256,192,95720,1,0,0:0:0:0:
36,192,95884,1,0,0:0:0:0:
109,192,96047,1,0,0:0:0:0:
182,192,96211,1,0,0:0:0:0:
256,192,96374,1,0,0:0:0:0:
329,192,96538,1,0,0:0:0:0:
402,192,96701,1,0,0:0:0:0:
109,192,96701,1,0,0:0:0:0:
109,192,97355,1,0,0:0:0:0:
182,192,97519,1,0,0:0:0:0:
256,192,97682,1,0,0:0:0:0:
329,192,97846,1,0,0:0:0:0:
402,192,98009,1,0,0:0:0:0:
109,192,98009,1,0,0:0:0:0:
109,192,98663,1,0,0:0:0:0:
182,192,98827,1,0,0:0:0:0:
256,192,98990,1,0,0:0:0:0:
329,192,99154,1,0,0:0:0:0:
109,192,99317,1,0,0:0:0:0:
402,192,99317,1,0,0:0:0:0:
109,192,99644,1,0,0:0:0:0:
402,192,99644,1,0,0:0:0:0:
475,192,99971,1,0,0:0:0:0:
329,192,100135,1,0,0:0:0:0:
182,192,100298,1,0,0:0:0:0:
36,192,100462,1,0,0:0:0:0:
256,192,100625,1,0,0:0:0:0:
402,192,100625,1,0,0:0:0:0:
256,192,100952,1,0,0:0:0:0:
402,192,100952,1,0,0:0:0:0:
329,192,101279,1,0,0:0:0:0:
36,192,101279,1,0,0:0:0:50:KicK.wav
182,192,101279,1,0,0:0:0:30:Crash-L.wav
109,192,101606,128,0,101769:0:0:0:0:
256,192,101769,128,0,101933:0:0:0:0:
402,192,101933,128,0,102096:0:0:0:0:
109,192,102260,128,0,102423:0:0:0:0:
329,192,102587,1,0,0:0:0:0:
475,192,102750,1,0,0:0:0:0:
256,192,102914,1,0,0:0:0:0:
402,192,103077,1,0,0:0:0:0:
182,192,103241,1,0,0:0:0:0:
329,192,103404,1,0,0:0:0:0:
109,192,103568,1,0,0:0:0:0:
256,192,103731,1,0,0:0:0:30:KicK.wav
475,192,103895,1,0,0:0:0:0:
36,192,103895,1,0,0:0:0:50:KicK.wav
402,192,103895,1,0,0:0:0:30:Crash-L.wav
182,192,104222,128,0,104385:0:0:0:0:
329,192,104385,128,0,104549:0:0:0:0:
475,192,104549,128,0,104712:0:0:0:0:
182,192,104876,128,0,105039:0:0:0:0:
256,192,105203,1,0,0:0:0:0:
109,192,105366,1,0,0:0:0:0:
329,192,105530,1,0,0:0:0:0:
182,192,105693,1,0,0:0:0:0:
402,192,105857,1,0,0:0:0:0:
256,192,106020,1,0,0:0:0:50:KicK.wav
475,192,106184,1,0,0:0:0:50:KicK.wav
329,192,106347,1,0,0:0:0:0:
36,192,106511,1,0,0:0:0:0:
182,192,106511,1,0,0:0:0:50:KicK.wav
256,192,106674,1,0,0:0:0:0:
329,192,106838,1,0,0:0:0:50:KicK.wav
402,192,107001,1,0,0:0:0:50:KicK.wav
182,192,107165,1,0,0:0:0:0:
36,192,107165,1,0,0:0:0:30:Crash-L.wav
475,192,107165,1,0,0:0:0:50:KicK.wav
475,192,107818,1,0,0:0:0:0:
329,192,107818,1,0,0:0:0:50:KicK.wav
256,192,107982,1,0,0:0:0:0:
182,192,108145,1,0,0:0:0:50:KicK.wav
109,192,108309,1,0,0:0:0:0:
36,192,108472,1,0,0:0:0:0:
329,192,108472,1,0,0:0:0:30:Crash-L.wav
475,192,108472,1,0,0:0:0:50:KicK.wav
36,192,109126,1,0,0:0:0:0:
182,192,109126,1,0,0:0:0:50:KicK.wav
256,192,109290,1,0,0:0:0:50:KicK.wav
329,192,109453,1,0,0:0:0:50:KicK.wav
402,192,109617,1,0,0:0:0:50:KicK.wav
182,192,109780,1,0,0:0:0:0:
36,192,109780,1,0,0:0:0:30:Crash-L.wav
475,192,109780,1,0,0:0:0:50:KicK.wav
329,192,109944,1,0,0:0:0:50:KicK.wav
182,192,110107,1,0,0:0:0:50:KicK.wav
182,192,110271,1,0,0:0:0:50:KicK.wav
36,192,110434,1,0,0:0:0:0:
256,192,110434,1,0,0:0:0:50:KicK.wav
475,192,110434,1,0,0:0:0:30:Crash-S.wav
329,192,110598,1,0,0:0:0:50:KicK.wav
109,192,110761,1,0,0:0:0:50:KicK.wav
402,192,110761,1,0,0:0:0:30:Crash-S.wav
182,192,110925,1,0,0:0:0:50:KicK.wav
475,192,111088,1,0,0:0:0:0:
256,192,111088,1,0,0:0:0:50:KicK.wav
36,192,111088,1,0,0:0:0:30:Crash-S.wav
256,192,111415,1,0,0:0:0:30:Clap.wav
109,192,111415,1,0,0:0:0:50:KicK.wav
402,192,111415,1,0,0:0:0:30:Crash-L.wav
182,192,111742,1,0,0:0:0:30:Crash-S.wav
329,192,111742,1,0,0:0:0:50:KicK.wav
329,192,111906,1,0,0:0:0:50:KicK.wav
182,192,111906,1,0,0:0:0:30:Crash-S.wav
475,192,112069,1,0,0:0:0:0:
402,192,112233,1,0,0:0:0:0:
109,192,112396,1,0,0:0:0:30:Crash-S.wav
256,192,112396,1,0,0:0:0:50:KicK.wav
256,192,112560,1,0,0:0:0:50:KicK.wav
109,192,112560,1,0,0:0:0:30:Crash-S.wav
402,192,112723,1,0,0:0:0:0:
329,192,112887,1,0,0:0:0:0:
182,192,113050,1,0,0:0:0:50:KicK.wav
36,192,113050,1,0,0:0:0:30:Crash-S.wav
182,192,113214,1,0,0:0:0:50:KicK.wav
36,192,113214,1,0,0:0:0:30:Crash-S.wav
329,192,113377,1,0,0:0:0:0:
256,192,113541,1,0,0:0:0:50:KicK.wav
475,192,113704,1,0,0:0:0:0:
402,192,113704,1,0,0:0:0:30:Crash-L.wav
182,192,113704,1,0,0:0:0:50:KicK.wav
475,192,114031,1,0,0:0:0:0:
402,192,114031,1,0,0:0:0:30:Crash-L.wav
256,192,114031,1,0,0:0:0:50:KicK.wav
182,192,114358,1,0,0:0:0:30:Crash-S.wav
329,192,114358,1,0,0:0:0:50:KicK.wav
329,192,114521,1,0,0:0:0:50:KicK.wav
182,192,114521,1,0,0:0:0:30:Crash-S.wav
36,192,114685,1,0,0:0:0:0:
109,192,114848,1,0,0:0:0:0:
256,192,115012,1,0,0:0:0:30:Crash-S.wav
402,192,115012,1,0,0:0:0:50:KicK.wav
402,192,115175,1,0,0:0:0:50:KicK.wav
256,192,115175,1,0,0:0:0:30:Crash-S.wav
109,192,115339,1,0,0:0:0:0:
182,192,115502,1,0,0:0:0:0:
475,192,115666,1,0,0:0:0:50:KicK.wav
329,192,115666,1,0,0:0:0:30:Crash-S.wav
475,192,115829,1,0,0:0:0:50:KicK.wav
329,192,115829,1,0,0:0:0:30:Crash-S.wav
182,192,115993,1,0,0:0:0:50:KicK.wav
256,192,116156,1,0,0:0:0:50:KicK.wav
36,192,116320,1,0,0:0:0:30:Crash-L.wav
329,192,116320,1,0,0:0:0:50:KicK.wav
109,192,116320,1,0,0:0:0:0:
182,192,116647,1,0,0:0:0:0:
109,192,116647,1,0,0:0:0:30:Crash-L.wav
402,192,116647,1,0,0:0:0:50:KicK.wav
182,192,116974,5,0,0:0:0:30:Crash-L.wav
256,192,116974,1,0,0:0:0:0:
475,192,116974,1,0,0:0:0:50:KicK.wav
402,192,117301,128,0,117464:0:0:0:0:
329,192,117464,128,0,117628:0:0:0:0:
256,192,117628,128,0,117791:0:0:0:0:
182,192,117791,128,0,117955:0:0:0:0:
109,192,117955,128,0,118118:0:0:0:0:
36,192,118118,128,0,118282:0:0:0:0:
475,192,118282,128,0,118445:0:0:0:0:
329,192,118445,128,0,118609:0:0:0:0:
256,192,118609,128,0,118772:0:0:0:0:
182,192,118772,128,0,118936:0:0:0:0:
402,192,118936,128,0,119099:0:0:0:0:
256,192,119099,128,0,119263:0:0:0:0:
182,192,119263,128,0,119426:0:0:0:0:
109,192,119426,128,0,119590:0:0:0:0:
329,192,119590,128,0,119753:0:0:0:0:
182,192,119753,128,0,119917:0:0:0:0:
109,192,119917,128,0,120080:0:0:0:0:
36,192,120080,128,0,120244:0:0:0:0:
475,192,120244,128,0,120407:0:0:0:0:
329,192,120407,128,0,120570:0:0:0:0:
256,192,120570,128,0,120734:0:0:0:0:
402,192,120734,128,0,120897:0:0:0:0:
256,192,120897,128,0,121061:0:0:0:0:
182,192,121061,128,0,121224:0:0:0:0:
329,192,121224,128,0,121388:0:0:0:0:
182,192,121388,128,0,121551:0:0:0:0:
109,192,121551,128,0,121715:0:0:0:0:
256,192,121715,128,0,121878:0:0:0:0:
109,192,121878,128,0,122042:0:0:0:0:
36,192,122042,128,0,122205:0:0:0:0:
329,192,122205,1,0,0:0:0:0:
475,192,122205,1,0,0:0:0:0:
36,192,124821,1,0,0:0:0:0:
256,192,124821,1,0,0:0:0:30:Crash-L.wav
475,192,124821,1,0,0:0:0:50:KicK.wav
329,192,126129,1,0,0:0:0:0:
109,192,126129,1,0,0:0:0:0:
402,192,127437,1,0,0:0:0:0:
182,192,127437,1,0,0:0:0:0:
36,192,128091,1,0,0:0:0:0:
475,192,129072,1,0,0:0:0:0:
402,192,129399,1,0,0:0:0:0:
329,192,129726,1,0,0:0:0:0:
109,192,130053,1,0,0:0:0:0:
256,192,130053,1,0,0:0:0:0:
182,192,131361,1,0,0:0:0:0:
329,192,131361,1,0,0:0:0:0:
36,192,132015,1,0,0:0:0:0:
402,192,132669,1,0,0:0:0:0:
256,192,132669,1,0,0:0:0:0:
109,192,133323,1,0,0:0:0:0:
329,192,134303,1,0,0:0:0:0:
182,192,134630,1,0,0:0:0:0:
36,192,134957,1,0,0:0:0:0:
329,192,135284,1,0,0:0:0:0:
475,192,135284,1,0,0:0:0:0:
109,192,136102,1,0,0:0:0:0:
182,192,136265,1,0,0:0:0:0:
256,192,136429,1,0,0:0:0:0:
36,192,136592,1,0,0:0:0:0:
402,192,136592,1,0,0:0:0:0:
182,192,137410,1,0,0:0:0:0:
256,192,137573,1,0,0:0:0:0:
329,192,137737,1,0,0:0:0:0:
109,192,137900,1,0,0:0:0:0:
475,192,137900,1,0,0:0:0:0:
402,192,138554,1,0,0:0:0:0:
329,192,139208,1,0,0:0:0:0:
256,192,139862,1,0,0:0:0:0:
182,192,140516,1,0,0:0:0:0:
36,192,140516,1,0,0:0:0:0:
402,192,141170,1,0,0:0:0:0:
329,192,141824,1,0,0:0:0:0:
182,192,141824,1,0,0:0:0:0:
109,192,142641,1,0,0:0:0:0:
182,192,142805,1,0,0:0:0:0:
256,192,142968,1,0,0:0:0:0:
475,192,143132,1,0,0:0:0:0:
329,192,143132,1,0,0:0:0:0:
36,192,144440,1,0,0:0:0:0:
182,192,145094,1,0,0:0:0:0:
256,192,145257,1,0,0:0:0:0:
329,192,145421,1,0,0:0:0:0:
402,192,145584,1,0,0:0:0:0:
36,192,145748,1,0,0:0:0:30:Crash-L.wav
475,192,145748,1,0,0:0:0:50:KicK.wav
256,192,145748,128,0,147056:0:0:0:0:
329,192,147056,128,0,148363:0:0:0:0:
109,192,147056,1,0,0:0:0:0:
182,192,148363,1,0,0:0:0:0:
402,192,148363,128,0,149671:0:0:0:0:
256,192,149998,1,0,0:0:0:0:
182,192,150325,1,0,0:0:0:0:
109,192,150652,1,0,0:0:0:0:
329,192,150979,1,0,0:0:0:0:
36,192,150979,128,0,152287:0:0:0:0:
402,192,151960,1,0,0:0:0:0:
109,192,152287,128,0,153595:0:0:0:0:
256,192,152287,1,0,0:0:0:0:
475,192,152941,1,0,0:0:0:0:
182,192,153595,128,0,154903:0:0:0:0:
329,192,153595,1,0,0:0:0:0:
402,192,155230,1,0,0:0:0:0:
329,192,155557,1,0,0:0:0:0:
256,192,155884,1,0,0:0:0:0:
475,192,156211,1,0,0:0:0:0:
182,192,156211,1,0,0:0:0:30:Crash-L.wav
36,192,156211,1,0,0:0:0:50:KicK.wav
182,192,157028,1,0,0:0:0:0:
402,192,157192,1,0,0:0:0:0:
256,192,157355,1,0,0:0:0:0:
475,192,157519,1,0,0:0:0:0:
36,192,157519,1,0,0:0:0:0:
109,192,158336,1,0,0:0:0:0:
329,192,158500,1,0,0:0:0:0:
182,192,158663,1,0,0:0:0:0:
475,192,158827,1,0,0:0:0:0:
36,192,158827,1,0,0:0:0:30:Crash-L.wav
256,192,158827,1,0,0:0:0:50:KicK.wav
109,192,159481,1,0,0:0:0:0:
329,192,159481,1,0,0:0:0:0:
475,192,160135,1,0,0:0:0:0:
182,192,160135,1,0,0:0:0:30:Crash-L.wav
402,192,160135,1,0,0:0:0:50:KicK.wav
182,192,160788,1,0,0:0:0:30:Crash-L.wav
36,192,160788,1,0,0:0:0:0:
402,192,160788,1,0,0:0:0:50:KicK.wav
109,192,161442,1,0,0:0:0:0:
256,192,161442,1,0,0:0:0:30:Crash-L.wav
475,192,161442,1,0,0:0:0:50:KicK.wav
36,192,162096,1,0,0:0:0:0:
182,192,162260,1,0,0:0:0:0:
329,192,162423,1,0,0:0:0:0:
475,192,162587,1,0,0:0:0:50:KicK.wav
109,192,162750,1,0,0:0:0:0:
402,192,162750,1,0,0:0:0:30:Crash-L.wav
256,192,162750,1,0,0:0:0:50:KicK.wav
109,192,163077,1,0,0:0:0:0:
329,192,163077,1,0,0:0:0:0:
402,192,163404,1,0,0:0:0:0:
182,192,163404,1,0,0:0:0:0:
402,192,163731,1,0,0:0:0:0:
256,192,163731,1,0,0:0:0:0:
182,192,163895,1,0,0:0:0:50:KicK.wav
475,192,164058,1,0,0:0:0:0:
329,192,164058,1,0,0:0:0:30:Crash-L.wav
109,192,164058,1,0,0:0:0:50:KicK.wav
36,192,164222,1,0,0:0:0:0:
256,192,164385,1,0,0:0:0:0:
329,192,164549,1,0,0:0:0:50:KicK.wav
402,192,164712,1,0,0:0:0:0:
182,192,164712,1,0,0:0:0:30:Crash-L.wav
36,192,164712,1,0,0:0:0:50:KicK.wav
475,192,164876,1,0,0:0:0:0:
256,192,165039,1,0,0:0:0:0:
182,192,165203,1,0,0:0:0:50:KicK.wav
475,192,165366,1,0,0:0:0:30:Crash-L.wav
329,192,165366,1,0,0:0:0:50:KicK.wav
109,192,165366,1,0,0:0:0:0:
329,192,165693,5,0,0:0:0:50:KicK.wav
475,192,165693,1,0,0:0:0:30:Crash-S.wav
36,192,166020,1,0,0:0:0:50:KicK.wav
182,192,166020,1,0,0:0:0:30:Crash-L.wav
256,192,166184,1,0,0:0:0:50:KicK.wav
329,192,166347,1,0,0:0:0:50:KicK.wav
402,192,166511,1,0,0:0:0:0:
256,192,166674,1,0,0:0:0:30:Crash-L.wav
475,192,166674,1,0,0:0:0:0:
36,192,166674,1,0,0:0:0:50:KicK.wav
109,192,166838,5,0,0:0:0:0:
182,192,167001,1,0,0:0:0:0:
475,192,167165,1,0,0:0:0:0:
329,192,167328,1,0,0:0:0:50:KicK.wav
182,192,167491,1,0,0:0:0:0:
402,192,167655,1,0,0:0:0:0:
256,192,167818,1,0,0:0:0:0:
109,192,167982,1,0,0:0:0:50:KicK.wav
182,192,168145,1,0,0:0:0:0:
256,192,168309,1,0,0:0:0:50:KicK.wav
329,192,168472,1,0,0:0:0:0:
109,192,168636,1,0,0:0:0:0:
402,192,168636,1,0,0:0:0:50:KicK.wav
36,192,168963,1,0,0:0:0:0:
109,192,169126,1,0,0:0:0:0:
182,192,169290,1,0,0:0:0:0:
329,192,169290,1,0,0:0:0:50:KicK.wav
109,192,169617,1,0,0:0:0:0:
182,192,169780,1,0,0:0:0:0:
256,192,169944,1,0,0:0:0:0:
402,192,169944,1,0,0:0:0:50:KicK.wav
36,192,170271,1,0,0:0:0:0:
182,192,170271,1,0,0:0:0:50:KicK.wav
475,192,170598,1,0,0:0:0:0:
329,192,170598,1,0,0:0:0:50:KicK.wav
256,192,170761,1,0,0:0:0:0:
36,192,170925,1,0,0:0:0:0:
182,192,170925,1,0,0:0:0:50:KicK.wav
329,192,171088,1,0,0:0:0:0:
109,192,171252,1,0,0:0:0:0:
475,192,171252,1,0,0:0:0:50:KicK.wav
256,192,171415,1,0,0:0:0:50:KicK.wav
182,192,171579,1,0,0:0:0:0:
402,192,171579,1,0,0:0:0:50:KicK.wav
329,192,171742,1,0,0:0:0:50:KicK.wav
109,192,171906,1,0,0:0:0:50:KicK.wav
256,192,171906,1,0,0:0:0:0:
36,192,171906,1,0,0:0:0:30:Crash-L.wav
109,192,172233,1,0,0:0:0:50:KicK.wav
36,192,172233,1,0,0:0:0:30:Crash-L.wav
329,192,172233,1,0,0:0:0:0:
109,192,172560,1,0,0:0:0:50:KicK.wav
36,192,172560,1,0,0:0:0:30:Crash-L.wav
402,192,172560,1,0,0:0:0:0:
182,192,172887,1,0,0:0:0:50:KicK.wav
109,192,173050,1,0,0:0:0:50:KicK.wav
329,192,173214,1,0,0:0:0:50:KicK.wav
475,192,173214,1,0,0:0:0:30:Crash-L.wav
36,192,173214,1,0,0:0:0:0:
329,192,173541,1,0,0:0:0:50:KicK.wav
475,192,173541,1,0,0:0:0:30:Crash-L.wav
109,192,173541,1,0,0:0:0:0:
329,192,173868,1,0,0:0:0:50:KicK.wav
182,192,173868,1,0,0:0:0:0:
475,192,173868,1,0,0:0:0:30:Crash-L.wav
256,192,174194,1,0,0:0:0:50:KicK.wav
182,192,174358,1,0,0:0:0:50:KicK.wav
329,192,174521,1,0,0:0:0:30:Crash-L.wav
475,192,174521,1,0,0:0:0:0:
109,192,174521,1,0,0:0:0:50:KicK.wav
329,192,174848,1,0,0:0:0:50:KicK.wav
402,192,175012,1,0,0:0:0:50:KicK.wav
36,192,175175,1,0,0:0:0:30:Crash-L.wav
475,192,175175,1,0,0:0:0:50:KicK.wav
182,192,175175,1,0,0:0:0:0:
182,192,175502,1,0,0:0:0:50:KicK.wav
329,192,175502,1,0,0:0:0:0:
475,192,175829,1,0,0:0:0:50:KicK.wav
36,192,175829,1,0,0:0:0:0:
256,192,175829,1,0,0:0:0:30:Crash-L.wav
402,192,175993,1,0,0:0:0:50:KicK.wav
109,192,176156,1,0,0:0:0:0:
329,192,176156,1,0,0:0:0:50:KicK.wav
256,192,176320,1,0,0:0:0:50:KicK.wav
36,192,176483,5,0,0:0:0:0:
182,192,176483,1,0,0:0:0:30:Crash-L.wav
402,192,176483,1,0,0:0:0:50:KicK.wav
182,192,176810,1,0,0:0:0:30:Crash-L.wav
402,192,176810,1,0,0:0:0:50:KicK.wav
36,192,177137,1,0,0:0:0:30:Crash-L.wav
256,192,177137,1,0,0:0:0:50:KicK.wav
475,192,177137,1,0,0:0:0:0:
475,192,177464,128,0,177791:0:0:0:0:
256,192,177464,1,0,0:0:0:50:KicK.wav
402,192,177791,128,0,178118:0:0:0:0:
182,192,177791,1,0,0:0:0:50:KicK.wav
329,192,178118,128,0,178445:0:0:0:0:
109,192,178118,1,0,0:0:0:50:KicK.wav
36,192,178445,1,0,0:0:0:50:KicK.wav
256,192,178445,1,0,0:0:0:0:
109,192,178609,1,0,0:0:0:0:
182,192,178772,5,0,0:0:0:50:KicK.wav
329,192,178772,1,0,0:0:0:0:
402,192,179099,1,0,0:0:0:50:KicK.wav
256,192,179099,1,0,0:0:0:0:
256,192,179426,1,0,0:0:0:0:
402,192,179426,1,0,0:0:0:50:KicK.wav
109,192,179753,1,0,0:0:0:0:
475,192,179753,1,0,0:0:0:50:KicK.wav
256,192,179917,5,0,0:0:0:0:
402,192,180080,1,0,0:0:0:50:KicK.wav
182,192,180244,1,0,0:0:0:0:
36,192,180407,1,0,0:0:0:50:KicK.wav
329,192,180570,1,0,0:0:0:0:
182,192,180734,1,0,0:0:0:50:KicK.wav
475,192,180897,1,0,0:0:0:0:
329,192,181061,1,0,0:0:0:50:KicK.wav
36,192,181224,5,0,0:0:0:0:
256,192,181388,1,0,0:0:0:50:KicK.wav
475,192,181551,1,0,0:0:0:0:
402,192,181715,1,0,0:0:0:0:
109,192,181715,1,0,0:0:0:50:KicK.wav
402,192,182042,1,0,0:0:0:0:
109,192,182042,1,0,0:0:0:50:KicK.wav
36,192,182369,5,0,0:0:0:50:KicK.wav
475,192,182369,1,0,0:0:0:0:
256,192,182369,1,0,0:0:0:30:Crash-L.wav
475,192,182696,1,0,0:0:0:50:KicK.wav
182,192,182696,128,0,183023:0:0:0:0:
329,192,183023,1,0,0:0:0:50:KicK.wav
109,192,183023,128,0,183350:0:0:0:0:
402,192,183350,1,0,0:0:0:50:KicK.wav
36,192,183350,128,0,183677:0:0:0:0:
475,192,183677,1,0,0:0:0:0:
182,192,183677,1,0,0:0:0:50:KicK.wav
402,192,183840,1,0,0:0:0:0:
329,192,184004,1,0,0:0:0:0:
109,192,184004,1,0,0:0:0:50:KicK.wav
402,192,184331,1,0,0:0:0:0:
182,192,184331,1,0,0:0:0:50:KicK.wav
402,192,184658,1,0,0:0:0:0:
182,192,184658,1,0,0:0:0:50:KicK.wav
475,192,184985,1,0,0:0:0:0:
256,192,184985,1,0,0:0:0:30:Crash-L.wav
36,192,184985,1,0,0:0:0:50:KicK.wav
475,192,185312,1,0,0:0:0:50:KicK.wav
402,192,185475,1,0,0:0:0:50:KicK.wav
182,192,185639,1,0,0:0:0:0:
36,192,185639,1,0,0:0:0:30:Crash-L.wav
329,192,185639,1,0,0:0:0:50:KicK.wav
182,192,185966,1,0,0:0:0:50:KicK.wav
109,192,186129,1,0,0:0:0:50:KicK.wav
475,192,186293,1,0,0:0:0:0:
329,192,186293,1,0,0:0:0:30:Crash-L.wav
36,192,186293,1,0,0:0:0:50:KicK.wav
329,192,186620,1,0,0:0:0:50:KicK.wav
402,192,186783,1,0,0:0:0:50:KicK.wav
182,192,186947,1,0,0:0:0:0:
475,192,186947,1,0,0:0:0:30:Crash-L.wav
36,192,186947,1,0,0:0:0:50:KicK.wav
256,192,187273,1,0,0:0:0:0:
475,192,187273,1,0,0:0:0:30:Crash-L.wav
109,192,187273,1,0,0:0:0:50:KicK.wav
329,192,187600,1,0,0:0:0:0:
475,192,187600,1,0,0:0:0:30:Crash-L.wav
182,192,187600,1,0,0:0:0:50:KicK.wav
402,192,187927,128,0,188581:0:0:0:0:
109,192,187927,1,0,0:0:0:50:KicK.wav
329,192,188254,128,0,188581:0:0:0:0:
182,192,188254,1,0,0:0:0:50:KicK.wav
109,192,188581,1,0,0:0:0:50:KicK.wav
182,192,188745,1,0,0:0:0:0:
402,192,188908,1,0,0:0:0:0:
256,192,188908,1,0,0:0:0:30:Crash-L.wav
36,192,188908,1,0,0:0:0:50:KicK.wav
402,192,189235,1,0,0:0:0:0:
256,192,189235,1,0,0:0:0:30:Crash-L.wav
36,192,189235,1,0,0:0:0:50:KicK.wav
329,192,189562,1,0,0:0:0:0:
475,192,189562,1,0,0:0:0:50:KicK.wav
182,192,189562,1,0,0:0:0:30:Crash-L.wav
256,192,189889,1,0,0:0:0:0:
109,192,189889,1,0,0:0:0:30:Crash-L.wav
402,192,189889,1,0,0:0:0:50:KicK.wav
182,192,190216,1,0,0:0:0:0:
329,192,190216,1,0,0:0:0:50:KicK.wav
36,192,190216,1,0,0:0:0:30:Crash-L.wav
475,192,190543,1,0,0:0:0:50:KicK.wav
109,192,190543,128,0,191197:0:0:0:0:
329,192,190870,1,0,0:0:0:50:KicK.wav
182,192,190870,128,0,191197:0:0:0:0:
475,192,191197,1,0,0:0:0:50:KicK.wav
402,192,191361,1,0,0:0:0:0:
329,192,191524,1,0,0:0:0:0:
109,192,191524,1,0,0:0:0:30:Crash-L.wav
182,192,191524,1,0,0:0:0:50:KicK.wav
329,192,191851,1,0,0:0:0:0:
109,192,191851,1,0,0:0:0:30:Crash-L.wav
182,192,191851,1,0,0:0:0:50:KicK.wav
402,192,192178,1,0,0:0:0:0:
256,192,192178,1,0,0:0:0:30:Crash-L.wav
36,192,192178,1,0,0:0:0:50:KicK.wav
402,192,192505,1,0,0:0:0:0:
256,192,192505,1,0,0:0:0:30:Crash-L.wav
109,192,192505,1,0,0:0:0:50:KicK.wav
475,192,192832,1,0,0:0:0:0:
329,192,192832,1,0,0:0:0:30:Crash-L.wav
182,192,192832,1,0,0:0:0:50:KicK.wav
402,192,193159,128,0,193813:0:0:0:0:
36,192,193159,1,0,0:0:0:50:KicK.wav
182,192,193486,1,0,0:0:0:50:KicK.wav
329,192,193486,128,0,193813:0:0:0:0:
36,192,193813,1,0,0:0:0:50:KicK.wav
109,192,193976,1,0,0:0:0:0:
475,192,194140,1,0,0:0:0:0:
182,192,194140,1,0,0:0:0:30:Crash-L.wav
329,192,194140,1,0,0:0:0:50:KicK.wav
475,192,194467,1,0,0:0:0:0:
182,192,194467,1,0,0:0:0:30:Crash-L.wav
329,192,194467,1,0,0:0:0:50:KicK.wav
109,192,194794,1,0,0:0:0:0:
256,192,194794,1,0,0:0:0:30:Crash-L.wav
36,192,194794,1,0,0:0:0:50:KicK.wav
109,192,195121,1,0,0:0:0:0:
329,192,195121,1,0,0:0:0:30:Crash-L.wav
36,192,195121,1,0,0:0:0:50:KicK.wav
475,192,195448,1,0,0:0:0:0:
402,192,195448,1,0,0:0:0:30:Crash-L.wav
182,192,195448,1,0,0:0:0:50:KicK.wav
109,192,195611,1,0,0:0:0:50:KicK.wav
36,192,195775,1,0,0:0:0:50:KicK.wav
329,192,195775,1,0,0:0:0:30:Crash-L.wav
402,192,195938,1,0,0:0:0:50:KicK.wav
36,192,196102,1,0,0:0:0:30:Crash-L.wav
475,192,196102,1,0,0:0:0:50:KicK.wav
109,192,196265,1,0,0:0:0:50:KicK.wav
475,192,196429,1,0,0:0:0:50:KicK.wav
182,192,196429,1,0,0:0:0:30:Crash-L.wav
402,192,196592,1,0,0:0:0:50:KicK.wav
182,192,196756,1,0,0:0:0:30:Crash-L.wav
329,192,196756,1,0,0:0:0:50:KicK.wav
109,192,196919,1,0,0:0:0:50:KicK.wav
36,192,197083,1,0,0:0:0:50:KicK.wav
329,192,197083,1,0,0:0:0:30:Crash-L.wav
256,192,197246,1,0,0:0:0:50:KicK.wav
182,192,197410,1,0,0:0:0:30:Crash-L.wav
475,192,197410,1,0,0:0:0:50:KicK.wav
36,192,198064,1,0,0:0:0:0:
475,192,198064,1,0,0:0:0:30:Crash-L.wav
256,192,198064,1,0,0:0:0:50:KicK.wav
329,192,198227,1,0,0:0:0:0:
402,192,198391,1,0,0:0:0:50:KicK.wav
402,192,198554,1,0,0:0:0:0:
182,192,198718,1,0,0:0:0:50:KicK.wav
329,192,198881,1,0,0:0:0:0:
36,192,199045,1,0,0:0:0:50:KicK.wav
36,192,199208,1,0,0:0:0:0:
256,192,199372,1,0,0:0:0:50:KicK.wav
182,192,199535,1,0,0:0:0:0:
109,192,199699,1,0,0:0:0:50:KicK.wav
109,192,199862,1,0,0:0:0:0:
329,192,200026,1,0,0:0:0:50:KicK.wav
182,192,200189,1,0,0:0:0:0:
475,192,200353,1,0,0:0:0:50:KicK.wav
475,192,200516,1,0,0:0:0:50:KicK.wav
36,192,200679,1,0,0:0:0:0:
109,192,200679,1,0,0:0:0:50:KicK.wav
256,192,200679,1,0,0:0:0:30:Crash-L.wav
402,192,200843,1,0,0:0:0:0:
182,192,201006,1,0,0:0:0:50:KicK.wav
182,192,201170,1,0,0:0:0:0:
256,192,201333,1,0,0:0:0:0:
402,192,201333,1,0,0:0:0:30:Crash-L.wav
475,192,201333,1,0,0:0:0:50:KicK.wav
109,192,201497,1,0,0:0:0:0:
329,192,201660,1,0,0:0:0:50:KicK.wav
329,192,201824,1,0,0:0:0:50:KicK.wav
36,192,201987,1,0,0:0:0:0:
109,192,201987,1,0,0:0:0:50:KicK.wav
256,192,201987,1,0,0:0:0:30:Crash-L.wav
475,192,202151,1,0,0:0:0:50:KicK.wav
402,192,202314,5,0,0:0:0:50:KicK.wav
182,192,202314,1,0,0:0:0:30:Crash-L.wav
329,192,202478,1,0,0:0:0:50:KicK.wav
402,192,202641,1,0,0:0:0:50:KicK.wav
109,192,202641,1,0,0:0:0:30:Crash-L.wav
329,192,202805,1,0,0:0:0:50:KicK.wav
256,192,202968,1,0,0:0:0:30:Clap.wav
36,192,202968,1,0,0:0:0:50:KicK.wav
475,192,202968,1,0,0:0:0:30:Crash-L.wav
109,192,203295,5,0,0:0:0:50:KicK.wav
402,192,203295,1,0,0:0:0:0:
256,192,203295,1,0,0:0:0:30:Crash-L.wav
182,192,203622,128,0,203786:0:0:0:0:
329,192,203786,128,0,203949:0:0:0:0:
109,192,203949,128,0,204113:0:0:0:0:
36,192,204276,128,0,204440:0:0:0:0:
182,192,204603,1,0,0:0:0:0:
329,192,204767,1,0,0:0:0:0:
475,192,204930,1,0,0:0:0:0:
109,192,205094,1,0,0:0:0:0:
256,192,205257,1,0,0:0:0:0:
402,192,205421,1,0,0:0:0:0:
36,192,205584,1,0,0:0:0:0:
182,192,205748,1,0,0:0:0:0:
329,192,205911,1,0,0:0:0:0:
475,192,205911,1,0,0:0:0:0:
256,192,206238,128,0,206402:0:0:0:0:
402,192,206402,128,0,206565:0:0:0:0:
182,192,206565,128,0,206729:0:0:0:0:
109,192,206892,128,0,207056:0:0:0:0:
329,192,207219,1,0,0:0:0:0:
475,192,207382,1,0,0:0:0:0:
256,192,207546,1,0,0:0:0:0:
402,192,207709,1,0,0:0:0:0:
182,192,207873,1,0,0:0:0:0:
329,192,208036,1,0,0:0:0:0:
109,192,208200,1,0,0:0:0:0:
256,192,208363,1,0,0:0:0:0:
36,192,208527,1,0,0:0:0:0:
182,192,208690,1,0,0:0:0:0:
402,192,208854,1,0,0:0:0:0:
329,192,209017,1,0,0:0:0:0:
475,192,209181,1,0,0:0:0:0:
256,192,209181,1,0,0:0:0:0:
36,192,209835,1,0,0:0:0:0:
182,192,209998,1,0,0:0:0:0:
402,192,210162,1,0,0:0:0:0:
329,192,210325,1,0,0:0:0:0:
475,192,210489,1,0,0:0:0:0:
256,192,210489,1,0,0:0:0:0:
36,192,211143,1,0,0:0:0:0:
182,192,211306,1,0,0:0:0:0:
402,192,211470,1,0,0:0:0:0:
329,192,211633,1,0,0:0:0:0:
475,192,211797,1,0,0:0:0:0:
256,192,211797,1,0,0:0:0:0:
475,192,212124,1,0,0:0:0:0:
256,192,212124,1,0,0:0:0:0:
329,192,212451,1,0,0:0:0:0:
182,192,212614,1,0,0:0:0:0:
36,192,212778,1,0,0:0:0:0:
475,192,212941,1,0,0:0:0:0:
329,192,213105,1,0,0:0:0:0:
182,192,213105,1,0,0:0:0:0:
329,192,213432,1,0,0:0:0:0:
182,192,213432,1,0,0:0:0:0:
256,192,213759,1,0,0:0:0:30:Crash-L.wav
36,192,213759,1,0,0:0:0:50:KicK.wav
475,192,213759,1,0,0:0:0:0:
329,192,214085,128,0,214249:0:0:0:0:
182,192,214249,128,0,214412:0:0:0:0:
402,192,214412,128,0,214576:0:0:0:0:
475,192,214739,128,0,214903:0:0:0:0:
36,192,215066,1,0,0:0:0:0:
256,192,215230,1,0,0:0:0:0:
109,192,215393,1,0,0:0:0:0:
329,192,215557,1,0,0:0:0:0:
182,192,215720,1,0,0:0:0:0:
402,192,215884,1,0,0:0:0:0:
256,192,216047,1,0,0:0:0:0:
475,192,216211,1,0,0:0:0:50:KicK.wav
182,192,216374,1,0,0:0:0:30:Crash-L.wav
36,192,216374,1,0,0:0:0:50:KicK.wav
329,192,216374,1,0,0:0:0:0:
256,192,216701,128,0,216865:0:0:0:0:
109,192,216865,128,0,217028:0:0:0:0:
329,192,217028,128,0,217192:0:0:0:0:
402,192,217355,128,0,217519:0:0:0:0:
36,192,217682,5,0,0:0:0:0:
256,192,217682,1,0,0:0:0:0:
182,192,217846,1,0,0:0:0:0:
329,192,218009,1,0,0:0:0:0:
109,192,218173,1,0,0:0:0:0:
256,192,218336,1,0,0:0:0:0:
402,192,218500,1,0,0:0:0:50:KicK.wav
182,192,218663,1,0,0:0:0:50:KicK.wav
329,192,218827,1,0,0:0:0:0:
36,192,218990,1,0,0:0:0:50:KicK.wav
475,192,218990,1,0,0:0:0:0:
109,192,219154,1,0,0:0:0:0:
182,192,219317,1,0,0:0:0:50:KicK.wav
256,192,219481,1,0,0:0:0:50:KicK.wav
475,192,219644,1,0,0:0:0:0:
36,192,219644,1,0,0:0:0:30:Crash-L.wav
329,192,219644,1,0,0:0:0:50:KicK.wav
109,192,220298,1,0,0:0:0:0:
402,192,220298,1,0,0:0:0:50:KicK.wav
182,192,220462,1,0,0:0:0:0:
256,192,220625,1,0,0:0:0:50:KicK.wav
329,192,220788,1,0,0:0:0:0:
182,192,220952,1,0,0:0:0:30:Crash-L.wav
402,192,220952,1,0,0:0:0:50:KicK.wav
36,192,220952,1,0,0:0:0:0:
475,192,221606,1,0,0:0:0:0:
182,192,221606,1,0,0:0:0:50:KicK.wav
256,192,221769,1,0,0:0:0:50:KicK.wav
329,192,221933,1,0,0:0:0:50:KicK.wav
402,192,222096,1,0,0:0:0:50:KicK.wav
256,192,222260,1,0,0:0:0:0:
475,192,222260,1,0,0:0:0:30:Crash-L.wav
36,192,222260,1,0,0:0:0:50:KicK.wav
182,192,222423,1,0,0:0:0:50:KicK.wav
329,192,222587,1,0,0:0:0:50:KicK.wav
329,192,222750,1,0,0:0:0:50:KicK.wav
36,192,222914,1,0,0:0:0:0:
256,192,222914,1,0,0:0:0:50:KicK.wav
475,192,222914,1,0,0:0:0:30:Crash-S.wav
182,192,223077,5,0,0:0:0:50:KicK.wav
402,192,223241,1,0,0:0:0:50:KicK.wav
109,192,223241,1,0,0:0:0:30:Crash-S.wav
329,192,223404,1,0,0:0:0:50:KicK.wav
109,192,223568,1,0,0:0:0:50:KicK.wav
256,192,223568,1,0,0:0:0:30:Crash-S.wav
36,192,223568,1,0,0:0:0:0:
475,192,223895,1,0,0:0:0:30:Clap.wav
256,192,223895,1,0,0:0:0:50:KicK.wav
402,192,223895,1,0,0:0:0:30:Crash-L.wav
182,192,224222,5,0,0:0:0:50:KicK.wav
36,192,224222,1,0,0:0:0:30:Crash-S.wav
182,192,224385,1,0,0:0:0:50:KicK.wav
36,192,224385,1,0,0:0:0:30:Crash-S.wav
329,192,224549,1,0,0:0:0:0:
402,192,224712,1,0,0:0:0:0:
109,192,224876,1,0,0:0:0:50:KicK.wav
256,192,224876,1,0,0:0:0:30:Crash-S.wav
109,192,225039,1,0,0:0:0:50:KicK.wav
256,192,225039,1,0,0:0:0:30:Crash-S.wav
402,192,225203,1,0,0:0:0:0:
475,192,225366,1,0,0:0:0:0:
329,192,225530,1,0,0:0:0:30:Crash-S.wav
182,192,225530,1,0,0:0:0:50:KicK.wav
182,192,225693,1,0,0:0:0:50:KicK.wav
329,192,225693,1,0,0:0:0:30:Crash-S.wav
36,192,225857,1,0,0:0:0:0:
109,192,226020,1,0,0:0:0:50:KicK.wav
475,192,226184,1,0,0:0:0:0:
402,192,226184,1,0,0:0:0:50:KicK.wav
256,192,226184,1,0,0:0:0:30:Crash-L.wav
36,192,226511,1,0,0:0:0:0:
109,192,226511,1,0,0:0:0:50:KicK.wav
256,192,226511,1,0,0:0:0:30:Crash-L.wav
475,192,226838,1,0,0:0:0:50:KicK.wav
329,192,226838,1,0,0:0:0:30:Crash-S.wav
329,192,227001,1,0,0:0:0:30:Crash-S.wav
475,192,227001,1,0,0:0:0:50:KicK.wav
182,192,227165,1,0,0:0:0:0:
109,192,227328,1,0,0:0:0:0:
402,192,227491,1,0,0:0:0:30:Crash-S.wav
256,192,227491,1,0,0:0:0:50:KicK.wav
402,192,227655,1,0,0:0:0:30:Crash-S.wav
256,192,227655,1,0,0:0:0:50:KicK.wav
109,192,227818,1,0,0:0:0:0:
36,192,227982,1,0,0:0:0:0:
182,192,228145,1,0,0:0:0:50:KicK.wav
329,192,228145,1,0,0:0:0:30:Crash-S.wav
329,192,228309,1,0,0:0:0:30:Crash-S.wav
182,192,228309,1,0,0:0:0:50:KicK.wav
475,192,228472,1,0,0:0:0:50:KicK.wav
402,192,228636,1,0,0:0:0:50:KicK.wav
109,192,228799,1,0,0:0:0:30:Crash-L.wav
256,192,228799,1,0,0:0:0:50:KicK.wav
36,192,228799,1,0,0:0:0:0:
402,192,229126,1,0,0:0:0:30:Crash-L.wav
256,192,229126,1,0,0:0:0:50:KicK.wav
475,192,229126,1,0,0:0:0:0:
36,192,229453,1,0,0:0:0:30:Crash-S.wav
109,192,229453,1,0,0:0:0:50:KicK.wav
36,192,229617,1,0,0:0:0:30:Crash-S.wav
109,192,229617,1,0,0:0:0:50:KicK.wav
256,192,229780,1,0,0:0:0:50:KicK.wav
329,192,229944,1,0,0:0:0:0:
109,192,230107,1,0,0:0:0:30:Crash-S.wav
182,192,230107,1,0,0:0:0:50:KicK.wav
109,192,230271,1,0,0:0:0:30:Crash-S.wav
182,192,230271,1,0,0:0:0:50:KicK.wav
329,192,230434,1,0,0:0:0:50:KicK.wav
402,192,230598,1,0,0:0:0:50:KicK.wav
256,192,230761,1,0,0:0:0:50:KicK.wav
182,192,230761,1,0,0:0:0:30:Crash-S.wav
256,192,230925,1,0,0:0:0:50:KicK.wav
182,192,230925,1,0,0:0:0:30:Crash-S.wav
402,192,231088,1,0,0:0:0:50:KicK.wav
475,192,231252,1,0,0:0:0:50:KicK.wav
36,192,231415,1,0,0:0:0:0:
329,192,231415,1,0,0:0:0:50:KicK.wav
109,192,231415,1,0,0:0:0:30:Crash-L.wav
182,192,231742,1,0,0:0:0:0:
475,192,231742,1,0,0:0:0:50:KicK.wav
109,192,231742,1,0,0:0:0:30:Crash-L.wav
329,192,232069,1,0,0:0:0:50:KicK.wav
256,192,232069,1,0,0:0:0:30:Crash-S.wav
329,192,232233,1,0,0:0:0:30:Crash-S.wav
256,192,232233,1,0,0:0:0:50:KicK.wav
36,192,232396,1,0,0:0:0:50:KicK.wav
109,192,232560,1,0,0:0:0:50:KicK.wav
329,192,232723,1,0,0:0:0:30:Crash-S.wav
402,192,232723,1,0,0:0:0:50:KicK.wav
329,192,232887,1,0,0:0:0:30:Crash-S.wav
402,192,232887,1,0,0:0:0:50:KicK.wav
109,192,233050,1,0,0:0:0:50:KicK.wav
182,192,233214,1,0,0:0:0:50:KicK.wav
475,192,233377,1,0,0:0:0:50:KicK.wav
402,192,233377,1,0,0:0:0:30:Crash-S.wav
402,192,233541,1,0,0:0:0:30:Crash-S.wav
475,192,233541,1,0,0:0:0:50:KicK.wav
182,192,233704,1,0,0:0:0:50:KicK.wav
256,192,233868,1,0,0:0:0:50:KicK.wav
109,192,234031,1,0,0:0:0:50:KicK.wav
402,192,234031,1,0,0:0:0:30:Crash-L.wav
402,192,234249,1,0,0:0:0:30:Crash-S.wav
109,192,234249,1,0,0:0:0:0:
256,192,234467,1,0,0:0:0:30:Crash-S.wav
36,192,234685,1,0,0:0:0:50:KicK.wav
475,192,234685,1,0,0:0:0:30:Crash-S.wav
329,192,235012,128,0,235993:0:0:0:30:Crash-L.wav
182,192,235012,128,0,235993:0:0:0:0:
109,192,235993,128,0,236320:0:0:0:0:
402,192,236320,128,0,237301:0:0:0:0:
109,192,236647,128,0,237301:0:0:0:0:
256,192,237301,128,0,238282:0:0:0:50:KicK.wav
475,192,238282,1,0,0:0:0:30:Clap.wav
36,192,238609,5,0,0:0:0:30:Crash-L.wav
475,192,238609,1,0,0:0:0:0:
256,192,238609,1,0,0:0:0:50:KicK.wav
109,192,238772,1,0,0:0:0:0:
182,192,238936,1,0,0:0:0:50:KicK.wav
402,192,239099,1,0,0:0:0:0:
256,192,239263,1,0,0:0:0:50:KicK.wav
109,192,239426,1,0,0:0:0:0:
182,192,239590,1,0,0:0:0:50:KicK.wav
256,192,239753,1,0,0:0:0:0:
329,192,239917,1,0,0:0:0:50:KicK.wav
182,192,240080,1,0,0:0:0:0:
402,192,240244,1,0,0:0:0:50:KicK.wav
109,192,240407,1,0,0:0:0:0:
475,192,240570,1,0,0:0:0:50:KicK.wav
36,192,240734,1,0,0:0:0:0:
182,192,240897,1,0,0:0:0:50:KicK.wav
329,192,241061,1,0,0:0:0:0:
475,192,241224,1,0,0:0:0:50:KicK.wav
256,192,241388,1,0,0:0:0:0:
36,192,241551,1,0,0:0:0:50:KicK.wav
109,192,241715,1,0,0:0:0:0:
182,192,241878,1,0,0:0:0:50:KicK.wav
329,192,241878,1,0,0:0:0:0:
402,192,242096,1,0,0:0:0:0:
402,192,242314,1,0,0:0:0:0:
256,192,242532,1,0,0:0:0:0:
36,192,242532,1,0,0:0:0:30:Crash-L.wav
475,192,242532,1,0,0:0:0:50:KicK.wav
329,192,242696,1,0,0:0:0:0:
182,192,242859,1,0,0:0:0:50:KicK.wav
36,192,243023,1,0,0:0:0:0:
256,192,243186,1,0,0:0:0:0:
475,192,243186,1,0,0:0:0:30:Crash-L.wav
109,192,243186,1,0,0:0:0:50:KicK.wav
329,192,243513,1,0,0:0:0:0:
182,192,243513,1,0,0:0:0:50:KicK.wav
475,192,243513,1,0,0:0:0:30:Crash-L.wav
256,192,243840,1,0,0:0:0:50:KicK.wav
36,192,243840,1,0,0:0:0:30:Crash-L.wav
402,192,243840,1,0,0:0:0:0:
182,192,244004,1,0,0:0:0:0:
329,192,244167,1,0,0:0:0:50:KicK.wav
109,192,244331,1,0,0:0:0:0:
256,192,244494,1,0,0:0:0:50:KicK.wav
475,192,244658,1,0,0:0:0:0:
329,192,244821,1,0,0:0:0:50:KicK.wav
182,192,244985,1,0,0:0:0:0:
36,192,245148,1,0,0:0:0:50:KicK.wav
256,192,245312,1,0,0:0:0:0:
109,192,245475,1,0,0:0:0:50:KicK.wav
329,192,245639,1,0,0:0:0:0:
182,192,245802,1,0,0:0:0:50:KicK.wav
402,192,245966,1,0,0:0:0:0:
256,192,246129,1,0,0:0:0:50:KicK.wav
475,192,246293,1,0,0:0:0:50:KicK.wav
36,192,246456,1,0,0:0:0:0:
329,192,246456,1,0,0:0:0:50:KicK.wav
182,192,246456,1,0,0:0:0:30:Crash-L.wav
402,192,246620,1,0,0:0:0:50:KicK.wav
182,192,246783,1,0,0:0:0:50:KicK.wav
402,192,246947,1,0,0:0:0:50:KicK.wav
256,192,247110,1,0,0:0:0:30:Crash-L.wav
109,192,247110,1,0,0:0:0:50:KicK.wav
36,192,247273,1,0,0:0:0:50:KicK.wav
256,192,247437,1,0,0:0:0:30:Crash-L.wav
402,192,247437,1,0,0:0:0:50:KicK.wav
36,192,247600,1,0,0:0:0:50:KicK.wav
329,192,247764,1,0,0:0:0:30:Crash-L.wav
109,192,247764,1,0,0:0:0:50:KicK.wav
256,192,247927,1,0,0:0:0:50:KicK.wav
475,192,248091,1,0,0:0:0:30:Crash-L.wav
182,192,248091,1,0,0:0:0:50:KicK.wav
402,192,248254,1,0,0:0:0:50:KicK.wav
182,192,248418,1,0,0:0:0:50:KicK.wav
329,192,248418,1,0,0:0:0:30:Crash-L.wav
109,192,248581,1,0,0:0:0:50:KicK.wav
36,192,248745,1,0,0:0:0:30:Crash-L.wav
329,192,248745,1,0,0:0:0:50:KicK.wav
402,192,248908,1,0,0:0:0:50:KicK.wav
36,192,249072,1,0,0:0:0:0:
475,192,249072,1,0,0:0:0:50:KicK.wav
182,192,249072,1,0,0:0:0:30:Crash-L.wav
329,192,249235,1,0,0:0:0:0:
109,192,249399,1,0,0:0:0:50:KicK.wav
402,192,249562,1,0,0:0:0:0:
36,192,249726,1,0,0:0:0:50:KicK.wav
256,192,249889,1,0,0:0:0:0:
475,192,250053,1,0,0:0:0:50:KicK.wav
402,192,250216,1,0,0:0:0:0:
329,192,250380,1,0,0:0:0:50:KicK.wav
109,192,250543,1,0,0:0:0:0:
182,192,250707,1,0,0:0:0:50:KicK.wav
256,192,250870,1,0,0:0:0:0:
329,192,251034,1,0,0:0:0:50:KicK.wav
402,192,251197,1,0,0:0:0:0:
182,192,251361,1,0,0:0:0:50:KicK.wav
109,192,251524,1,0,0:0:0:0:
36,192,251688,1,0,0:0:0:50:KicK.wav
182,192,251851,1,0,0:0:0:0:
329,192,252015,1,0,0:0:0:50:KicK.wav
475,192,252178,1,0,0:0:0:0:
402,192,252342,1,0,0:0:0:0:
109,192,252342,1,0,0:0:0:50:KicK.wav
182,192,252560,1,0,0:0:0:0:
182,192,252778,1,0,0:0:0:0:
256,192,252996,1,0,0:0:0:0:
475,192,252996,1,0,0:0:0:50:KicK.wav
36,192,252996,1,0,0:0:0:30:Crash-L.wav
402,192,253159,1,0,0:0:0:0:
329,192,253323,1,0,0:0:0:50:KicK.wav
256,192,253486,1,0,0:0:0:0:
36,192,253650,1,0,0:0:0:0:
182,192,253650,1,0,0:0:0:50:KicK.wav
475,192,253650,1,0,0:0:0:30:Crash-L.wav
329,192,253976,1,0,0:0:0:0:
475,192,253976,1,0,0:0:0:30:Crash-L.wav
182,192,253976,1,0,0:0:0:50:KicK.wav
402,192,254303,1,0,0:0:0:0:
256,192,254303,1,0,0:0:0:50:KicK.wav
109,192,254303,1,0,0:0:0:30:Crash-L.wav
36,192,254467,1,0,0:0:0:0:
182,192,254630,1,0,0:0:0:50:KicK.wav
402,192,254794,1,0,0:0:0:0:
256,192,254957,1,0,0:0:0:50:KicK.wav
109,192,255121,1,0,0:0:0:0:
475,192,255284,1,0,0:0:0:50:KicK.wav
329,192,255448,1,0,0:0:0:0:
36,192,255611,1,0,0:0:0:50:KicK.wav
256,192,255775,1,0,0:0:0:0:
109,192,255938,1,0,0:0:0:50:KicK.wav
329,192,256102,1,0,0:0:0:0:
182,192,256265,1,0,0:0:0:50:KicK.wav
402,192,256429,1,0,0:0:0:0:
256,192,256592,1,0,0:0:0:50:KicK.wav
475,192,256756,1,0,0:0:0:50:KicK.wav
36,192,256919,1,0,0:0:0:0:
182,192,256919,1,0,0:0:0:50:KicK.wav
329,192,256919,1,0,0:0:0:30:Crash-L.wav
402,192,257083,1,0,0:0:0:50:KicK.wav
182,192,257246,1,0,0:0:0:50:KicK.wav
402,192,257410,1,0,0:0:0:50:KicK.wav
109,192,257573,1,0,0:0:0:50:KicK.wav
329,192,257573,1,0,0:0:0:30:Crash-L.wav
182,192,257737,1,0,0:0:0:50:KicK.wav
36,192,257900,1,0,0:0:0:50:KicK.wav
329,192,257900,1,0,0:0:0:30:Crash-L.wav
182,192,258064,1,0,0:0:0:50:KicK.wav
475,192,258227,1,0,0:0:0:30:Crash-L.wav
402,192,258227,1,0,0:0:0:0:
109,192,258227,1,0,0:0:0:50:KicK.wav
329,192,258391,1,0,0:0:0:50:KicK.wav
36,192,258554,1,0,0:0:0:30:Crash-L.wav
256,192,258554,1,0,0:0:0:50:KicK.wav
109,192,258718,1,0,0:0:0:50:KicK.wav
402,192,258881,1,0,0:0:0:50:KicK.wav
182,192,258881,1,0,0:0:0:30:Crash-L.wav
329,192,259045,1,0,0:0:0:50:KicK.wav
109,192,259208,1,0,0:0:0:0:
475,192,259208,1,0,0:0:0:50:KicK.wav
256,192,259208,1,0,0:0:0:30:Crash-L.wav
182,192,259535,1,0,0:0:0:0:
475,192,259535,1,0,0:0:0:50:KicK.wav
329,192,259535,1,0,0:0:0:30:Crash-L.wav
256,192,259862,1,0,0:0:0:0:
36,192,259862,1,0,0:0:0:50:KicK.wav
109,192,260026,1,0,0:0:0:50:KicK.wav
475,192,260189,1,0,0:0:0:0:
182,192,260189,1,0,0:0:0:50:KicK.wav
329,192,260189,1,0,0:0:0:30:Crash-L.wav
329,192,260516,1,0,0:0:0:0:
182,192,260516,1,0,0:0:0:50:KicK.wav
402,192,260679,1,0,0:0:0:50:KicK.wav
475,192,260843,1,0,0:0:0:0:
36,192,260843,1,0,0:0:0:50:KicK.wav
256,192,260843,1,0,0:0:0:30:Crash-L.wav
109,192,261006,1,0,0:0:0:50:KicK.wav
402,192,261170,1,0,0:0:0:50:KicK.wav
182,192,261170,1,0,0:0:0:30:Crash-L.wav
329,192,261333,1,0,0:0:0:50:KicK.wav
109,192,261497,1,0,0:0:0:30:Crash-L.wav
402,192,261497,1,0,0:0:0:50:KicK.wav
182,192,261660,1,0,0:0:0:50:KicK.wav
329,192,261824,1,0,0:0:0:50:KicK.wav
109,192,261824,1,0,0:0:0:30:Crash-L.wav
402,192,261987,1,0,0:0:0:50:KicK.wav
475,192,262151,128,0,264767:0:0:0:50:KicK.wav
36,192,262151,128,0,264767:0:0:0:0:
256,192,262151,1,0,0:0:0:30:Crash-L.wav
