osu file format v14

[General]
AudioFilename: audio.mp3
AudioLeadIn: 0
PreviewTime: 224222
Countdown: 0
SampleSet: Soft
StackLeniency: 0.7
Mode: 3
LetterboxInBreaks: 0
SpecialStyle: 0
WidescreenStoryboard: 1

[Editor]
Bookmarks: 571,5802,21170,21497,31960,39808,42423,43077,43731,53541,54194,64658,75121,82968,84930,85584,90816,101279,106511,110434,111415,113704,114358,116320,116974,121551,122205,135284,145421,145748,156211,164058,166674,177137,187600,195448,197410,198064,203295,213759,218990,222914,224222,226184,226838,228799,229453,231415,232069,234031,234685,237955,238609,249072,256919,259535,260843,262151
DistanceSpacing: 1
BeatDivisor: 4
GridSize: 32
TimelineZoom: 0.699999

[Metadata]
Title:ANiMA
TitleUnicode:ANiMA
Artist:xi
ArtistUnicode:xi
Creator:Kawawa
Version:Beginner
Source:Deemo
Tags:Instrumental Video Game Hardcore Techno Hard Renaissance Piano Extended Full Version Marathon Cytus II World Fragments Yusuke Ishiwata rayark inc. soul alice masked lady Deemo's collection Vol.2 DVSP-0145 C89 Diverse System
BeatmapID:3165975
BeatmapSetID:1549179

[Difficulty]
HPDrainRate:6.8
CircleSize:7
OverallDifficulty:6.5
ApproachRate:5
SliderMultiplier:1.4
SliderTickRate:1

[Events]
//Background and Video events
0,0,"BG2.jpg",0,0
//Break Periods
//Storyboard Layer 0 (Background)
//Storyboard Layer 1 (Fail)
//Storyboard Layer 2 (Pass)
//Storyboard Layer 3 (Foreground)
//Storyboard Layer 4 (Overlay)
//Storyboard Sound Samples

[TimingPoints]
571,326.975476839237,4,2,1,20,1,0
21170,-100,4,2,1,20,0,1
21497,-100,4,2,1,20,0,0
39808,-100,4,2,1,20,0,1
42423,-100,4,2,1,20,0,0
43077,-100,4,2,1,20,0,1
43731,-100,4,2,1,20,0,0
53541,-100,4,2,1,20,0,1
54194,-100,4,2,1,20,0,0
82968,-100,4,2,1,20,0,1
84930,-100,4,2,1,20,0,0
85584,-100,4,2,1,20,0,1
90816,-100,4,2,1,20,0,0
106511,-100,4,2,1,20,0,1
111415,-100,4,2,1,20,0,0
113704,-100,4,2,1,20,0,1
114358,-100,4,2,1,20,0,0
116320,-100,4,2,1,20,0,1
116974,-100,4,2,1,20,0,0
121551,-100,4,2,1,20,0,1
122205,-100,4,2,1,20,0,0
145421,-100,4,2,1,20,0,1
145748,-100,4,2,1,20,0,0
164058,-100,4,2,1,20,0,1
166674,-100,4,2,1,20,0,0
195448,-100,4,2,1,20,0,1
197410,-100,4,2,1,20,0,0
198064,-100,4,2,1,20,0,1
203295,-100,4,2,1,20,0,0
218990,-100,4,2,1,20,0,1
224222,-100,4,2,1,20,0,0
226184,-100,4,2,1,20,0,1
226838,-100,4,2,1,20,0,0
228799,-100,4,2,1,20,0,1
229453,-100,4,2,1,20,0,0
231415,-100,4,2,1,20,0,1
232069,-100,4,2,1,20,0,0
234031,-100,4,2,1,20,0,1
234685,-100,4,2,1,20,0,0
237955,-100,4,2,1,20,0,1
238609,-100,4,2,1,20,0,0
256919,-100,4,2,1,20,0,1
259535,-100,4,2,1,20,0,0
260843,-100,4,2,1,20,0,1
262151,-100,4,2,1,20,0,0

[HitObjects]
256,192,571,128,0,3186:0:0:0:0:
475,192,5802,1,0,0:0:0:0:
256,192,7110,1,0,0:0:0:0:
402,192,8418,1,0,0:0:0:0:
182,192,9726,1,0,0:0:0:0:
329,192,11034,1,0,0:0:0:0:
109,192,12342,1,0,0:0:0:0:
256,192,13650,1,0,0:0:0:0:
36,192,14957,1,0,0:0:0:0:
329,192,16265,1,0,0:0:0:0:
109,192,17573,1,0,0:0:0:0:
402,192,18881,1,0,0:0:0:0:
182,192,20189,1,0,0:0:0:0:
256,192,21497,128,0,22805:0:0:0:30:Crash-L.wav
329,192,22805,128,0,24113:0:0:0:0:
402,192,24113,128,0,25421:0:0:0:0:
36,192,26729,128,0,28036:0:0:0:0:
182,192,28036,128,0,29344:0:0:0:0:
329,192,29344,128,0,30652:0:0:0:0:
256,192,31960,1,0,0:0:0:30:Crash-L.wav
256,192,34576,1,0,0:0:0:30:Crash-L.wav
256,192,35884,1,0,0:0:0:30:Crash-L.wav
256,192,36538,1,0,0:0:0:30:Crash-L.wav
256,192,37192,1,0,0:0:0:30:Crash-L.wav
256,192,38500,1,0,0:0:0:30:Crash-L.wav
256,192,39808,1,0,0:0:0:30:Crash-L.wav
256,192,40462,1,0,0:0:0:30:Crash-L.wav
109,192,41115,1,0,0:0:0:30:Crash-L.wav
402,192,41442,1,0,0:0:0:50:KicK.wav
109,192,41769,128,0,42423:0:0:0:30:Crash-L.wav
109,192,43731,1,0,0:0:0:30:Crash-L.wav
402,192,43731,1,0,0:0:0:50:KicK.wav
402,192,44385,1,0,0:0:0:50:KicK.wav
182,192,45039,1,0,0:0:0:50:KicK.wav
182,192,45693,1,0,0:0:0:50:KicK.wav
329,192,46347,1,0,0:0:0:50:KicK.wav
329,192,47001,1,0,0:0:0:50:KicK.wav
36,192,47655,1,0,0:0:0:50:KicK.wav
36,192,48309,1,0,0:0:0:50:KicK.wav
256,192,48963,1,0,0:0:0:30:Crash-L.wav
475,192,48963,1,0,0:0:0:50:KicK.wav
475,192,49617,1,0,0:0:0:50:KicK.wav
109,192,50271,1,0,0:0:0:50:KicK.wav
109,192,50925,1,0,0:0:0:50:KicK.wav
329,192,51579,1,0,0:0:0:30:Crash-L.wav
329,192,52069,1,0,0:0:0:30:Crash-L.wav
329,192,52560,1,0,0:0:0:30:Crash-L.wav
109,192,52887,1,0,0:0:0:30:Crash-S.wav
182,192,53214,1,0,0:0:0:30:Crash-S.wav
256,192,53541,1,0,0:0:0:50:KicK.wav
36,192,54194,1,0,0:0:0:30:Crash-L.wav
475,192,54194,1,0,0:0:0:50:KicK.wav
402,192,54848,1,0,0:0:0:50:KicK.wav
329,192,55502,1,0,0:0:0:50:KicK.wav
256,192,56156,1,0,0:0:0:50:KicK.wav
182,192,56810,1,0,0:0:0:50:KicK.wav
109,192,57464,1,0,0:0:0:50:KicK.wav
36,192,58118,1,0,0:0:0:50:KicK.wav
182,192,58445,1,0,0:0:0:50:KicK.wav
329,192,58772,1,0,0:0:0:50:KicK.wav
475,192,59099,1,0,0:0:0:50:KicK.wav
109,192,59426,128,0,59753:0:0:0:30:Crash-L.wav
182,192,59753,128,0,60080:0:0:0:30:Crash-L.wav
256,192,60080,128,0,60407:0:0:0:30:Crash-L.wav
256,192,60734,128,0,61061:0:0:0:30:Crash-L.wav
329,192,61061,128,0,61388:0:0:0:30:Crash-L.wav
402,192,61388,128,0,61715:0:0:0:30:Crash-L.wav
475,192,62042,1,0,0:0:0:50:KicK.wav
36,192,62042,1,0,0:0:0:30:Crash-L.wav
402,192,62696,1,0,0:0:0:50:KicK.wav
109,192,62696,1,0,0:0:0:30:Crash-L.wav
182,192,63350,1,0,0:0:0:30:Crash-L.wav
329,192,63350,1,0,0:0:0:50:KicK.wav
256,192,64004,1,0,0:0:0:30:Crash-L.wav
256,192,64331,1,0,0:0:0:30:Crash-L.wav
36,192,64658,1,0,0:0:0:30:Crash-L.wav
475,192,64658,1,0,0:0:0:50:KicK.wav
256,192,64985,128,0,65966:0:0:0:50:KicK.wav
402,192,65966,1,0,0:0:0:50:KicK.wav
109,192,66293,1,0,0:0:0:50:KicK.wav
402,192,66620,1,0,0:0:0:50:KicK.wav
402,192,66947,1,0,0:0:0:50:KicK.wav
182,192,67273,128,0,67927:0:0:0:50:KicK.wav
256,192,67927,128,0,68581:0:0:0:50:KicK.wav
329,192,68581,128,0,69235:0:0:0:50:KicK.wav
36,192,69235,1,0,0:0:0:50:KicK.wav
182,192,69562,1,0,0:0:0:50:KicK.wav
36,192,69889,1,0,0:0:0:50:KicK.wav
475,192,69889,1,0,0:0:0:30:Crash-L.wav
256,192,70216,128,0,71197:0:0:0:50:KicK.wav
402,192,71197,1,0,0:0:0:50:KicK.wav
109,192,71524,1,0,0:0:0:50:KicK.wav
402,192,71851,1,0,0:0:0:50:KicK.wav
402,192,72178,1,0,0:0:0:50:KicK.wav
109,192,72505,128,0,73159:0:0:0:30:Crash-L.wav
256,192,73159,128,0,73813:0:0:0:30:Crash-L.wav
402,192,73813,128,0,74467:0:0:0:30:Crash-L.wav
182,192,74467,1,0,0:0:0:30:Crash-L.wav
36,192,74794,1,0,0:0:0:30:Crash-L.wav
329,192,75121,1,0,0:0:0:50:KicK.wav
182,192,75121,1,0,0:0:0:30:Crash-L.wav
475,192,75775,128,0,76429:0:0:0:50:KicK.wav
36,192,76429,1,0,0:0:0:30:Crash-L.wav
182,192,76756,1,0,0:0:0:30:Crash-L.wav
329,192,77083,1,0,0:0:0:30:Crash-L.wav
256,192,77410,1,0,0:0:0:30:Crash-L.wav
402,192,77737,1,0,0:0:0:50:KicK.wav
182,192,77737,1,0,0:0:0:30:Crash-L.wav
475,192,78391,128,0,79045:0:0:0:50:KicK.wav
256,192,79045,1,0,0:0:0:30:Crash-L.wav
109,192,79372,1,0,0:0:0:30:Crash-L.wav
329,192,79699,1,0,0:0:0:30:Crash-L.wav
182,192,80026,1,0,0:0:0:30:Crash-L.wav
402,192,80353,1,0,0:0:0:50:KicK.wav
36,192,80353,1,0,0:0:0:30:Crash-L.wav
475,192,81006,128,0,81660:0:0:0:50:KicK.wav
109,192,81660,1,0,0:0:0:30:Crash-L.wav
329,192,81987,1,0,0:0:0:30:Crash-L.wav
182,192,82314,1,0,0:0:0:30:Crash-L.wav
402,192,82641,1,0,0:0:0:30:Crash-L.wav
36,192,82968,1,0,0:0:0:30:Crash-L.wav
109,192,83295,1,0,0:0:0:30:Crash-L.wav
182,192,83622,1,0,0:0:0:30:Crash-L.wav
256,192,83949,1,0,0:0:0:30:Crash-L.wav
329,192,84276,1,0,0:0:0:30:Crash-L.wav
402,192,84603,1,0,0:0:0:30:Crash-L.wav
475,192,84930,1,0,0:0:0:30:Crash-L.wav
109,192,85584,1,0,0:0:0:50:KicK.wav
402,192,85584,1,0,0:0:0:30:Crash-L.wav
109,192,86238,1,0,0:0:0:50:KicK.wav
256,192,86892,1,0,0:0:0:50:KicK.wav
256,192,87546,1,0,0:0:0:50:KicK.wav
329,192,88200,1,0,0:0:0:30:Crash-L.wav
475,192,88200,1,0,0:0:0:50:KicK.wav
182,192,88854,1,0,0:0:0:50:KicK.wav
36,192,88854,1,0,0:0:0:30:Crash-L.wav
109,192,89508,1,0,0:0:0:30:Crash-L.wav
402,192,89508,1,0,0:0:0:50:KicK.wav
475,192,89835,5,0,0:0:0:50:KicK.wav
329,192,90162,1,0,0:0:0:50:KicK.wav
182,192,90489,1,0,0:0:0:50:KicK.wav
36,192,90816,5,0,0:0:0:50:KicK.wav
475,192,90816,1,0,0:0:0:30:Crash-L.wav
109,192,93105,128,0,93432:0:0:0:0:
402,192,93432,1,0,0:0:0:0:
109,192,96374,128,0,96701:0:0:0:0:
402,192,96701,1,0,0:0:0:0:
109,192,97682,128,0,98009:0:0:0:0:
402,192,98009,1,0,0:0:0:0:
256,192,99317,1,0,0:0:0:0:
256,192,99644,1,0,0:0:0:0:
36,192,100625,1,0,0:0:0:0:
36,192,100952,1,0,0:0:0:0:
329,192,101279,5,0,0:0:0:50:KicK.wav
475,192,101279,1,0,0:0:0:30:Crash-L.wav
109,192,103568,128,0,103895:0:0:0:0:
329,192,103895,5,0,0:0:0:50:KicK.wav
475,192,103895,1,0,0:0:0:30:Crash-L.wav
256,192,106511,5,0,0:0:0:50:KicK.wav
402,192,107165,1,0,0:0:0:50:KicK.wav
109,192,107165,1,0,0:0:0:30:Crash-L.wav
256,192,107818,5,0,0:0:0:50:KicK.wav
402,192,108472,1,0,0:0:0:50:KicK.wav
109,192,108472,1,0,0:0:0:30:Crash-L.wav
256,192,109126,1,0,0:0:0:50:KicK.wav
402,192,109780,1,0,0:0:0:50:KicK.wav
109,192,109780,1,0,0:0:0:30:Crash-L.wav
475,192,110107,1,0,0:0:0:50:KicK.wav
36,192,110107,1,0,0:0:0:30:Crash-L.wav
256,192,110434,1,0,0:0:0:50:KicK.wav
109,192,110761,1,0,0:0:0:50:KicK.wav
402,192,111088,1,0,0:0:0:50:KicK.wav
256,192,111415,1,0,0:0:0:50:KicK.wav
475,192,111742,1,0,0:0:0:50:KicK.wav
36,192,111742,1,0,0:0:0:30:Crash-S.wav
402,192,112396,1,0,0:0:0:50:KicK.wav
109,192,112396,1,0,0:0:0:30:Crash-S.wav
182,192,113050,1,0,0:0:0:30:Crash-S.wav
329,192,113050,1,0,0:0:0:50:KicK.wav
402,192,113704,1,0,0:0:0:30:Crash-L.wav
329,192,114031,1,0,0:0:0:30:Crash-L.wav
36,192,114358,1,0,0:0:0:50:KicK.wav
256,192,114358,1,0,0:0:0:30:Crash-S.wav
109,192,115012,1,0,0:0:0:50:KicK.wav
329,192,115012,1,0,0:0:0:30:Crash-S.wav
402,192,115666,1,0,0:0:0:30:Crash-S.wav
182,192,115666,1,0,0:0:0:50:KicK.wav
109,192,116320,1,0,0:0:0:30:Crash-L.wav
182,192,116647,1,0,0:0:0:30:Crash-L.wav
475,192,116974,1,0,0:0:0:50:KicK.wav
256,192,116974,1,0,0:0:0:30:Crash-L.wav
36,192,117301,128,0,122205:0:0:0:0:
475,192,122205,1,0,0:0:0:0:
109,192,124821,1,0,0:0:0:50:KicK.wav
402,192,124821,1,0,0:0:0:30:Crash-L.wav
36,192,126129,1,0,0:0:0:0:
182,192,127437,1,0,0:0:0:0:
329,192,130053,1,0,0:0:0:0:
475,192,131361,1,0,0:0:0:0:
402,192,132669,1,0,0:0:0:0:
182,192,135284,1,0,0:0:0:0:
329,192,136592,1,0,0:0:0:0:
256,192,137900,1,0,0:0:0:0:
109,192,140516,1,0,0:0:0:0:
256,192,141824,1,0,0:0:0:0:
402,192,143132,1,0,0:0:0:0:
36,192,144440,1,0,0:0:0:0:
182,192,145748,128,0,147056:0:0:0:30:Crash-L.wav
329,192,147056,128,0,148363:0:0:0:0:
475,192,148363,128,0,149671:0:0:0:0:
109,192,150979,128,0,152287:0:0:0:0:
256,192,152287,128,0,153595:0:0:0:0:
402,192,153595,128,0,154903:0:0:0:0:
256,192,156211,1,0,0:0:0:30:Crash-L.wav
256,192,158827,1,0,0:0:0:30:Crash-L.wav
256,192,160135,1,0,0:0:0:30:Crash-L.wav
256,192,160788,1,0,0:0:0:30:Crash-L.wav
256,192,161442,1,0,0:0:0:30:Crash-L.wav
256,192,162750,1,0,0:0:0:30:Crash-L.wav
256,192,164058,1,0,0:0:0:30:Crash-L.wav
256,192,164712,1,0,0:0:0:30:Crash-L.wav
109,192,165366,1,0,0:0:0:30:Crash-L.wav
402,192,165693,1,0,0:0:0:50:KicK.wav
109,192,166020,128,0,166674:0:0:0:30:Crash-L.wav
256,192,166674,1,0,0:0:0:50:KicK.wav
475,192,166674,1,0,0:0:0:30:Crash-L.wav
36,192,167328,1,0,0:0:0:50:KicK.wav
402,192,167982,1,0,0:0:0:50:KicK.wav
109,192,168636,1,0,0:0:0:50:KicK.wav
329,192,169290,1,0,0:0:0:50:KicK.wav
182,192,169944,1,0,0:0:0:50:KicK.wav
256,192,170598,1,0,0:0:0:50:KicK.wav
329,192,170925,1,0,0:0:0:50:KicK.wav
402,192,171252,1,0,0:0:0:50:KicK.wav
475,192,171579,1,0,0:0:0:50:KicK.wav
36,192,171906,128,0,172233:0:0:0:30:Crash-L.wav
182,192,172233,128,0,172560:0:0:0:30:Crash-L.wav
329,192,172560,128,0,172887:0:0:0:30:Crash-L.wav
109,192,173214,128,0,173541:0:0:0:30:Crash-L.wav
256,192,173541,128,0,173868:0:0:0:30:Crash-L.wav
402,192,173868,128,0,174194:0:0:0:30:Crash-L.wav
36,192,174521,1,0,0:0:0:30:Crash-L.wav
182,192,174521,1,0,0:0:0:50:KicK.wav
182,192,175175,1,0,0:0:0:30:Crash-L.wav
329,192,175175,1,0,0:0:0:50:KicK.wav
329,192,175829,1,0,0:0:0:50:KicK.wav
475,192,175829,1,0,0:0:0:30:Crash-L.wav
402,192,176483,1,0,0:0:0:30:Crash-L.wav
402,192,176810,1,0,0:0:0:30:Crash-L.wav
36,192,177137,1,0,0:0:0:50:KicK.wav
182,192,177137,1,0,0:0:0:30:Crash-L.wav
329,192,177464,128,0,178445:0:0:0:50:KicK.wav
109,192,178445,1,0,0:0:0:50:KicK.wav
402,192,178772,1,0,0:0:0:50:KicK.wav
109,192,179099,1,0,0:0:0:50:KicK.wav
109,192,179426,1,0,0:0:0:50:KicK.wav
256,192,179753,128,0,180407:0:0:0:50:KicK.wav
329,192,180407,128,0,181061:0:0:0:50:KicK.wav
402,192,181061,128,0,181715:0:0:0:50:KicK.wav
182,192,181715,1,0,0:0:0:50:KicK.wav
475,192,182042,1,0,0:0:0:50:KicK.wav
36,192,182369,1,0,0:0:0:30:Crash-L.wav
182,192,182369,1,0,0:0:0:50:KicK.wav
329,192,182696,128,0,183677:0:0:0:50:KicK.wav
402,192,183677,1,0,0:0:0:50:KicK.wav
109,192,184004,1,0,0:0:0:50:KicK.wav
402,192,184331,1,0,0:0:0:50:KicK.wav
402,192,184658,1,0,0:0:0:50:KicK.wav
36,192,184985,128,0,185639:0:0:0:30:Crash-L.wav
256,192,185639,128,0,186293:0:0:0:30:Crash-L.wav
475,192,186293,128,0,186947:0:0:0:30:Crash-L.wav
182,192,186947,1,0,0:0:0:30:Crash-L.wav
329,192,187273,1,0,0:0:0:30:Crash-L.wav
36,192,187600,1,0,0:0:0:30:Crash-L.wav
475,192,187600,1,0,0:0:0:50:KicK.wav
256,192,188254,128,0,188908:0:0:0:50:KicK.wav
182,192,188908,1,0,0:0:0:30:Crash-L.wav
402,192,189235,1,0,0:0:0:30:Crash-L.wav
256,192,189562,1,0,0:0:0:30:Crash-L.wav
475,192,189889,1,0,0:0:0:30:Crash-L.wav
329,192,190216,1,0,0:0:0:30:Crash-L.wav
36,192,190216,1,0,0:0:0:50:KicK.wav
256,192,190870,128,0,191524:0:0:0:50:KicK.wav
475,192,191524,1,0,0:0:0:30:Crash-L.wav
256,192,191851,1,0,0:0:0:30:Crash-L.wav
402,192,192178,1,0,0:0:0:30:Crash-L.wav
182,192,192505,1,0,0:0:0:30:Crash-L.wav
36,192,192832,1,0,0:0:0:30:Crash-L.wav
329,192,192832,1,0,0:0:0:50:KicK.wav
256,192,193486,128,0,194140:0:0:0:50:KicK.wav
182,192,194140,1,0,0:0:0:30:Crash-L.wav
329,192,194467,1,0,0:0:0:30:Crash-L.wav
475,192,194794,1,0,0:0:0:30:Crash-L.wav
256,192,195121,1,0,0:0:0:30:Crash-L.wav
36,192,195448,1,0,0:0:0:30:Crash-L.wav
329,192,195775,1,0,0:0:0:30:Crash-L.wav
109,192,196102,1,0,0:0:0:30:Crash-L.wav
402,192,196429,1,0,0:0:0:30:Crash-L.wav
182,192,196756,1,0,0:0:0:30:Crash-L.wav
475,192,197083,1,0,0:0:0:30:Crash-L.wav
256,192,197410,1,0,0:0:0:30:Crash-L.wav
109,192,198064,1,0,0:0:0:30:Crash-L.wav
402,192,198064,1,0,0:0:0:50:KicK.wav
402,192,198718,1,0,0:0:0:50:KicK.wav
36,192,199372,1,0,0:0:0:50:KicK.wav
36,192,200026,1,0,0:0:0:50:KicK.wav
402,192,200679,1,0,0:0:0:50:KicK.wav
256,192,200679,1,0,0:0:0:30:Crash-L.wav
109,192,201333,1,0,0:0:0:50:KicK.wav
256,192,201333,1,0,0:0:0:30:Crash-L.wav
329,192,201987,1,0,0:0:0:50:KicK.wav
182,192,201987,1,0,0:0:0:30:Crash-L.wav
36,192,202314,5,0,0:0:0:50:KicK.wav
256,192,202641,1,0,0:0:0:50:KicK.wav
475,192,202968,1,0,0:0:0:50:KicK.wav
109,192,203295,5,0,0:0:0:50:KicK.wav
402,192,203295,1,0,0:0:0:30:Crash-L.wav
329,192,205584,128,0,205911:0:0:0:0:
182,192,205911,1,0,0:0:0:0:
329,192,208854,128,0,209181:0:0:0:0:
182,192,209181,1,0,0:0:0:0:
329,192,210162,128,0,210489:0:0:0:0:
182,192,210489,1,0,0:0:0:0:
256,192,211797,1,0,0:0:0:0:
256,192,212124,1,0,0:0:0:0:
402,192,213105,1,0,0:0:0:0:
402,192,213432,1,0,0:0:0:0:
182,192,213759,5,0,0:0:0:50:KicK.wav
36,192,213759,1,0,0:0:0:30:Crash-L.wav
329,192,216047,128,0,216374:0:0:0:0:
182,192,216374,5,0,0:0:0:50:KicK.wav
36,192,216374,1,0,0:0:0:30:Crash-L.wav
109,192,218990,5,0,0:0:0:50:KicK.wav
402,192,219644,1,0,0:0:0:50:KicK.wav
256,192,219644,1,0,0:0:0:30:Crash-L.wav
109,192,220298,5,0,0:0:0:50:KicK.wav
402,192,220952,1,0,0:0:0:50:KicK.wav
256,192,220952,1,0,0:0:0:30:Crash-L.wav
109,192,221606,1,0,0:0:0:50:KicK.wav
402,192,222260,1,0,0:0:0:50:KicK.wav
256,192,222260,1,0,0:0:0:30:Crash-L.wav
182,192,222587,1,0,0:0:0:50:KicK.wav
36,192,222587,1,0,0:0:0:30:Crash-L.wav
475,192,222914,1,0,0:0:0:50:KicK.wav
329,192,223241,1,0,0:0:0:50:KicK.wav
182,192,223568,1,0,0:0:0:50:KicK.wav
36,192,223895,1,0,0:0:0:50:KicK.wav
329,192,224222,1,0,0:0:0:50:KicK.wav
109,192,224222,1,0,0:0:0:30:Crash-S.wav
402,192,224876,1,0,0:0:0:50:KicK.wav
182,192,224876,1,0,0:0:0:30:Crash-S.wav
256,192,225530,1,0,0:0:0:30:Crash-S.wav
475,192,225530,1,0,0:0:0:50:KicK.wav
402,192,226184,1,0,0:0:0:30:Crash-L.wav
329,192,226511,1,0,0:0:0:30:Crash-L.wav
256,192,226838,1,0,0:0:0:30:Crash-S.wav
475,192,226838,1,0,0:0:0:50:KicK.wav
402,192,227491,1,0,0:0:0:50:KicK.wav
182,192,227491,1,0,0:0:0:30:Crash-S.wav
109,192,228145,1,0,0:0:0:30:Crash-S.wav
329,192,228145,1,0,0:0:0:50:KicK.wav
182,192,228799,1,0,0:0:0:30:Crash-L.wav
256,192,229126,1,0,0:0:0:30:Crash-L.wav
36,192,229453,1,0,0:0:0:50:KicK.wav
329,192,229453,1,0,0:0:0:30:Crash-S.wav
109,192,230107,1,0,0:0:0:50:KicK.wav
402,192,230107,1,0,0:0:0:30:Crash-S.wav
475,192,230761,1,0,0:0:0:30:Crash-S.wav
182,192,230761,1,0,0:0:0:50:KicK.wav
329,192,231415,1,0,0:0:0:30:Crash-L.wav
256,192,231742,1,0,0:0:0:30:Crash-L.wav
475,192,232069,1,0,0:0:0:30:Crash-S.wav
182,192,232069,1,0,0:0:0:50:KicK.wav
402,192,232723,1,0,0:0:0:30:Crash-S.wav
109,192,232723,1,0,0:0:0:50:KicK.wav
36,192,233377,1,0,0:0:0:50:KicK.wav
329,192,233377,1,0,0:0:0:30:Crash-S.wav
109,192,234031,128,0,234685:0:0:0:30:Crash-S.wav
402,192,234685,5,0,0:0:0:50:KicK.wav
256,192,234685,1,0,0:0:0:30:Crash-S.wav
475,192,235012,128,0,237301:0:0:0:30:Crash-L.wav
329,192,237301,1,0,0:0:0:50:KicK.wav
256,192,237955,128,0,238609:0:0:0:0:
36,192,238609,1,0,0:0:0:50:KicK.wav
475,192,238609,1,0,0:0:0:30:Crash-L.wav
36,192,239263,1,0,0:0:0:50:KicK.wav
329,192,239917,1,0,0:0:0:50:KicK.wav
329,192,240570,1,0,0:0:0:50:KicK.wav
109,192,241224,1,0,0:0:0:50:KicK.wav
109,192,241878,1,0,0:0:0:50:KicK.wav
329,192,242532,1,0,0:0:0:30:Crash-L.wav
182,192,242532,1,0,0:0:0:50:KicK.wav
182,192,243186,1,0,0:0:0:50:KicK.wav
475,192,243186,1,0,0:0:0:30:Crash-L.wav
475,192,243513,1,0,0:0:0:30:Crash-L.wav
256,192,243840,1,0,0:0:0:30:Crash-L.wav
36,192,243840,1,0,0:0:0:50:KicK.wav
36,192,244494,1,0,0:0:0:50:KicK.wav
402,192,245148,1,0,0:0:0:50:KicK.wav
402,192,245802,1,0,0:0:0:50:KicK.wav
329,192,246456,1,0,0:0:0:30:Crash-L.wav
182,192,246456,1,0,0:0:0:50:KicK.wav
475,192,246783,1,0,0:0:0:50:KicK.wav
182,192,247110,1,0,0:0:0:50:KicK.wav
475,192,247437,1,0,0:0:0:50:KicK.wav
109,192,247764,1,0,0:0:0:50:KicK.wav
329,192,248091,1,0,0:0:0:50:KicK.wav
109,192,248418,1,0,0:0:0:50:KicK.wav
329,192,248745,1,0,0:0:0:50:KicK.wav
256,192,249072,1,0,0:0:0:30:Crash-L.wav
36,192,249072,1,0,0:0:0:50:KicK.wav
36,192,249726,1,0,0:0:0:50:KicK.wav
402,192,250380,1,0,0:0:0:50:KicK.wav
402,192,251034,1,0,0:0:0:50:KicK.wav
182,192,251688,1,0,0:0:0:50:KicK.wav
182,192,252342,1,0,0:0:0:50:KicK.wav
329,192,252996,1,0,0:0:0:30:Crash-L.wav
475,192,252996,1,0,0:0:0:50:KicK.wav
109,192,253650,1,0,0:0:0:30:Crash-L.wav
475,192,253650,1,0,0:0:0:50:KicK.wav
109,192,253976,1,0,0:0:0:30:Crash-L.wav
402,192,254303,1,0,0:0:0:30:Crash-L.wav
256,192,254303,1,0,0:0:0:50:KicK.wav
256,192,254957,1,0,0:0:0:50:KicK.wav
36,192,255611,1,0,0:0:0:50:KicK.wav
36,192,256265,1,0,0:0:0:50:KicK.wav
109,192,256919,1,0,0:0:0:50:KicK.wav
402,192,256919,1,0,0:0:0:30:Crash-L.wav
182,192,257246,1,0,0:0:0:50:KicK.wav
256,192,257573,1,0,0:0:0:50:KicK.wav
329,192,257900,1,0,0:0:0:50:KicK.wav
36,192,258227,1,0,0:0:0:30:Crash-L.wav
182,192,258227,1,0,0:0:0:50:KicK.wav
256,192,258554,1,0,0:0:0:50:KicK.wav
329,192,258881,1,0,0:0:0:50:KicK.wav
402,192,259208,1,0,0:0:0:50:KicK.wav
475,192,259535,1,0,0:0:0:30:Crash-L.wav
36,192,259535,1,0,0:0:0:50:KicK.wav
402,192,260189,1,0,0:0:0:30:Crash-L.wav
109,192,260189,1,0,0:0:0:50:KicK.wav
329,192,260843,1,0,0:0:0:30:Crash-L.wav
182,192,260843,1,0,0:0:0:50:KicK.wav
256,192,261170,1,0,0:0:0:50:KicK.wav
109,192,261497,1,0,0:0:0:50:KicK.wav
402,192,261497,1,0,0:0:0:30:Crash-L.wav
256,192,261824,1,0,0:0:0:50:KicK.wav
36,192,262151,128,0,264767:0:0:0:50:KicK.wav
475,192,262151,128,0,264767:0:0:0:30:Crash-L.wav
