osu file format v14

[General]
AudioFilename: audio.mp3
AudioLeadIn: 0
PreviewTime: 224222
Countdown: 0
SampleSet: Soft
StackLeniency: 0.7
Mode: 3
LetterboxInBreaks: 0
SpecialStyle: 0
WidescreenStoryboard: 1

[Editor]
Bookmarks: 571,5802,21170,21497,31960,39808,42423,43077,43731,53541,54194,64658,75121,82968,84930,85584,90816,101279,106511,110434,111415,113704,114358,116320,116974,121551,122205,135284,145421,145748,156211,164058,166674,177137,187600,195448,197410,198064,203295,213759,218990,222914,224222,226184,226838,228799,229453,231415,232069,234031,234685,237955,238609,249072,256919,259535,260843,262151
DistanceSpacing: 1
BeatDivisor: 3
GridSize: 32
TimelineZoom: 1.399999

[Metadata]
Title:ANiMA
TitleUnicode:ANiMA
Artist:xi
ArtistUnicode:xi
Creator:Kawawa
Version:Another
Source:Deemo
Tags:Instrumental Video Game Hardcore Techno Hard Renaissance Piano Extended Full Version Marathon Cytus II World Fragments Yusuke Ishiwata rayark inc. soul alice masked lady Deemo's collection Vol.2 DVSP-0145 C89 Diverse System
BeatmapID:3165974
BeatmapSetID:1549179

[Difficulty]
HPDrainRate:8
CircleSize:7
OverallDifficulty:8
ApproachRate:5
SliderMultiplier:1.4
SliderTickRate:1

[Events]
//Background and Video events
0,0,"BG2.jpg",0,0
//Break Periods
//Storyboard Layer 0 (Background)
//Storyboard Layer 1 (Fail)
//Storyboard Layer 2 (Pass)
//Storyboard Layer 3 (Foreground)
//Storyboard Layer 4 (Overlay)
//Storyboard Sound Samples

[TimingPoints]
571,326.975476839237,4,2,1,20,1,0
734,-142.857142857143,4,2,1,20,0,0
18881,-133.333333333333,4,2,1,20,0,0
18963,-129.87012987013,4,2,1,20,0,0
19045,-128.205128205128,4,2,1,20,0,0
19126.25,-125,4,2,1,20,0,0
19208,-123.456790123457,4,2,1,20,0,0
19290,-120.481927710843,4,2,1,20,0,0
19372,-119.047619047619,4,2,1,20,0,0
19453.25,-116.279069767442,4,2,1,20,0,0
19535,-113.636363636364,4,2,1,20,0,0
19617,-112.359550561798,4,2,1,20,0,0
19699,-109.89010989011,4,2,1,20,0,0
19780.25,-108.695652173913,4,2,1,20,0,0
19862,-106.382978723404,4,2,1,20,0,0
19944,-105.263157894737,4,2,1,20,0,0
20026,-103.092783505155,4,2,1,20,0,0
20107.25,-102.040816326531,4,2,1,20,0,0
20189,-100,4,2,1,20,0,0
21170,-100,4,2,1,20,0,1
21497,-100,4,2,1,20,0,0
39808,-100,4,2,1,20,0,1
42423,-100,4,2,1,20,0,0
43077,-100,4,2,1,20,0,1
43731,-100,4,2,1,20,0,0
53541,-100,4,2,1,20,0,1
54194,-100,4,2,1,20,0,0
82968,-100,4,2,1,20,0,1
84930,-100,4,2,1,20,0,0
85584,-100,4,2,1,20,0,1
90816,-100,4,2,1,20,0,0
106511,-100,4,2,1,20,0,1
111415,-100,4,2,1,20,0,0
113704,-100,4,2,1,20,0,1
114358,-100,4,2,1,20,0,0
116320,-100,4,2,1,20,0,1
116974,-100,4,2,1,20,0,0
121551,-100,4,2,1,20,0,1
122205,-100,4,2,1,20,0,0
124821,-120.481927710843,4,2,1,20,0,0
143132,-119.047619047619,4,2,1,20,0,0
143214,-117.647058823529,4,2,1,20,0,0
143295,-116.279069767442,4,2,1,20,0,0
143377,-114.942528735632,4,2,1,20,0,0
143459,-113.636363636364,4,2,1,20,0,0
143541,-112.359550561798,4,2,1,20,0,0
143622,-111.111111111111,4,2,1,20,0,0
143704,-109.89010989011,4,2,1,20,0,0
143786,-108.695652173913,4,2,1,20,0,0
143868,-107.52688172043,4,2,1,20,0,0
143949,-106.382978723404,4,2,1,20,0,0
144031,-105.263157894737,4,2,1,20,0,0
144113,-104.166666666667,4,2,1,20,0,0
144194,-103.092783505155,4,2,1,20,0,0
144276,-102.040816326531,4,2,1,20,0,0
144358,-101.010101010101,4,2,1,20,0,0
144440,-100,4,2,1,20,0,0
145421,-100,4,2,1,20,0,1
145748,-100,4,2,1,20,0,0
164058,-100,4,2,1,20,0,1
166674,-100,4,2,1,20,0,0
195448,-100,4,2,1,20,0,1
197410,-100,4,2,1,20,0,0
198064,-100,4,2,1,20,0,1
203295,-100,4,2,1,20,0,0
218990,-100,4,2,1,20,0,1
224222,-100,4,2,1,20,0,0
226184,-100,4,2,1,20,0,1
226838,-100,4,2,1,20,0,0
228799,-100,4,2,1,20,0,1
229453,-100,4,2,1,20,0,0
231415,-100,4,2,1,20,0,1
232069,-100,4,2,1,20,0,0
234031,-100,4,2,1,20,0,1
234685,-100,4,2,1,20,0,0
237955,-100,4,2,1,20,0,1
238609,-100,4,2,1,20,0,0
256919,-100,4,2,1,20,0,1
259535,-100,4,2,1,20,0,0
260843,-100,4,2,1,20,0,1
262151,-100,4,2,1,20,0,0

[HitObjects]
36,192,543,5,0,0:0:0:0:
475,192,571,128,0,3186:0:0:0:0:
329,192,571,128,0,3186:0:0:0:0:
109,192,571,1,0,0:0:0:0:
182,192,598,1,0,0:0:0:0:
475,192,3840,1,0,0:0:0:0:
402,192,4494,1,0,0:0:0:0:
329,192,5148,1,0,0:0:0:0:
36,192,5802,1,0,0:0:0:0:
256,192,5802,1,0,0:0:0:0:
329,192,5829,1,0,0:0:0:0:
402,192,5857,1,0,0:0:0:0:
109,192,6456,1,0,0:0:0:0:
402,192,7110,1,0,0:0:0:0:
182,192,7110,1,0,0:0:0:0:
329,192,7151,1,0,0:0:0:0:
109,192,7764,1,0,0:0:0:0:
36,192,8418,1,0,0:0:0:0:
329,192,8418,1,0,0:0:0:0:
475,192,8418,1,0,0:0:0:0:
36,192,9726,1,0,0:0:0:0:
329,192,9726,1,0,0:0:0:0:
182,192,9726,1,0,0:0:0:0:
109,192,10380,1,0,0:0:0:0:
182,192,10707,1,0,0:0:0:0:
256,192,11034,1,0,0:0:0:0:
402,192,11034,1,0,0:0:0:0:
475,192,11075,1,0,0:0:0:0:
36,192,11688,1,0,0:0:0:0:
329,192,12301,1,0,0:0:0:0:
256,192,12342,1,0,0:0:0:0:
109,192,12342,1,0,0:0:0:0:
109,192,13541,1,0,0:0:0:0:
182,192,13650,1,0,0:0:0:0:
475,192,13650,1,0,0:0:0:0:
402,192,13690,1,0,0:0:0:0:
329,192,13731,1,0,0:0:0:0:
36,192,14303,1,0,0:0:0:0:
256,192,14957,1,0,0:0:0:0:
402,192,14957,1,0,0:0:0:0:
109,192,15611,1,0,0:0:0:0:
329,192,16265,1,0,0:0:0:0:
475,192,16265,1,0,0:0:0:0:
256,192,16306,1,0,0:0:0:0:
182,192,16347,1,0,0:0:0:0:
36,192,16919,1,0,0:0:0:0:
329,192,17532,1,0,0:0:0:0:
402,192,17573,1,0,0:0:0:0:
109,192,17573,1,0,0:0:0:0:
36,192,18227,1,0,0:0:0:0:
182,192,18445,1,0,0:0:0:0:
329,192,18663,1,0,0:0:0:0:
475,192,18881,1,0,0:0:0:0:
256,192,18881,1,0,0:0:0:0:
36,192,18881,128,0,21415:0:0:0:0:
402,192,19535,1,0,0:0:0:0:
475,192,20189,128,0,21415:0:0:0:0:
182,192,20189,1,0,0:0:0:0:
329,192,20189,1,0,0:0:0:0:
109,192,20244,1,0,0:0:0:0:
402,192,20843,1,0,0:0:0:0:
109,192,20843,1,0,0:0:0:0:
256,192,21006,1,0,0:0:0:0:
109,192,21170,128,0,21252:0:0:0:0:
329,192,21252,128,0,21333:0:0:0:0:
182,192,21333,128,0,21415:0:0:0:0:
402,192,21415,128,0,21497:0:0:0:0:
256,192,21497,1,0,0:0:0:0:
475,192,21497,1,0,0:0:0:50:KicK.wav
36,192,21497,1,0,0:0:0:30:Crash-L.wav
109,192,21497,1,0,0:0:0:0:
329,192,21579,1,0,0:0:0:0:
402,192,21660,1,0,0:0:0:0:
329,192,21824,1,0,0:0:0:0:
182,192,21824,1,0,0:0:0:0:
36,192,21906,1,0,0:0:0:0:
182,192,21987,1,0,0:0:0:0:
109,192,22151,1,0,0:0:0:0:
402,192,22151,1,0,0:0:0:0:
182,192,22233,1,0,0:0:0:0:
256,192,22314,1,0,0:0:0:0:
475,192,22478,1,0,0:0:0:0:
109,192,22478,1,0,0:0:0:0:
329,192,22560,1,0,0:0:0:0:
475,192,22641,1,0,0:0:0:0:
36,192,22805,1,0,0:0:0:0:
182,192,22805,1,0,0:0:0:0:
402,192,22805,1,0,0:0:0:0:
329,192,22887,1,0,0:0:0:0:
256,192,22968,1,0,0:0:0:0:
109,192,23132,1,0,0:0:0:0:
329,192,23132,1,0,0:0:0:0:
182,192,23214,1,0,0:0:0:0:
109,192,23295,1,0,0:0:0:0:
475,192,23459,1,0,0:0:0:0:
256,192,23459,1,0,0:0:0:0:
402,192,23541,1,0,0:0:0:0:
329,192,23622,1,0,0:0:0:0:
36,192,23786,1,0,0:0:0:0:
182,192,23786,1,0,0:0:0:0:
329,192,23868,1,0,0:0:0:0:
182,192,23949,1,0,0:0:0:0:
475,192,24113,1,0,0:0:0:0:
36,192,24113,1,0,0:0:0:0:
256,192,24113,1,0,0:0:0:0:
109,192,24194,1,0,0:0:0:0:
182,192,24276,1,0,0:0:0:0:
109,192,24440,1,0,0:0:0:0:
329,192,24440,1,0,0:0:0:0:
475,192,24521,1,0,0:0:0:0:
329,192,24603,1,0,0:0:0:0:
402,192,24767,1,0,0:0:0:0:
109,192,24767,1,0,0:0:0:0:
182,192,24848,1,0,0:0:0:0:
256,192,24930,1,0,0:0:0:0:
475,192,25094,1,0,0:0:0:0:
329,192,25094,1,0,0:0:0:0:
182,192,25175,1,0,0:0:0:0:
329,192,25257,1,0,0:0:0:0:
109,192,25421,1,0,0:0:0:0:
402,192,25421,1,0,0:0:0:0:
329,192,25502,1,0,0:0:0:0:
256,192,25584,1,0,0:0:0:0:
475,192,25748,128,0,25911:0:0:0:0:
182,192,25748,1,0,0:0:0:0:
36,192,25748,1,0,0:0:0:0:
329,192,25829,1,0,0:0:0:0:
182,192,25911,1,0,0:0:0:0:
402,192,26075,128,0,26238:0:0:0:0:
256,192,26075,1,0,0:0:0:0:
36,192,26075,1,0,0:0:0:0:
109,192,26156,1,0,0:0:0:0:
182,192,26238,1,0,0:0:0:0:
329,192,26402,128,0,26565:0:0:0:0:
475,192,26402,1,0,0:0:0:0:
109,192,26402,1,0,0:0:0:0:
182,192,26483,1,0,0:0:0:0:
109,192,26565,1,0,0:0:0:0:
475,192,26729,1,0,0:0:0:0:
256,192,26729,1,0,0:0:0:0:
36,192,26729,1,0,0:0:0:0:
329,192,26810,1,0,0:0:0:0:
402,192,26892,1,0,0:0:0:0:
182,192,27056,1,0,0:0:0:0:
329,192,27056,1,0,0:0:0:0:
36,192,27137,1,0,0:0:0:0:
182,192,27219,1,0,0:0:0:0:
402,192,27382,1,0,0:0:0:0:
109,192,27382,1,0,0:0:0:0:
329,192,27464,1,0,0:0:0:0:
256,192,27546,1,0,0:0:0:0:
182,192,27709,1,0,0:0:0:0:
36,192,27709,1,0,0:0:0:0:
329,192,27709,1,0,0:0:0:0:
475,192,27791,1,0,0:0:0:0:
329,192,27873,1,0,0:0:0:0:
256,192,28036,1,0,0:0:0:0:
36,192,28036,1,0,0:0:0:0:
402,192,28036,1,0,0:0:0:0:
109,192,28118,1,0,0:0:0:0:
182,192,28200,1,0,0:0:0:0:
329,192,28363,1,0,0:0:0:0:
475,192,28363,1,0,0:0:0:0:
256,192,28445,1,0,0:0:0:0:
329,192,28527,1,0,0:0:0:0:
36,192,28690,1,0,0:0:0:0:
402,192,28690,1,0,0:0:0:0:
182,192,28690,1,0,0:0:0:0:
329,192,28772,1,0,0:0:0:0:
256,192,28854,1,0,0:0:0:0:
109,192,29017,1,0,0:0:0:0:
329,192,29017,1,0,0:0:0:0:
36,192,29099,1,0,0:0:0:0:
109,192,29181,1,0,0:0:0:0:
36,192,29344,1,0,0:0:0:0:
329,192,29344,1,0,0:0:0:0:
182,192,29344,1,0,0:0:0:0:
402,192,29426,1,0,0:0:0:0:
475,192,29508,1,0,0:0:0:0:
109,192,29671,1,0,0:0:0:0:
256,192,29671,1,0,0:0:0:0:
402,192,29753,1,0,0:0:0:0:
256,192,29835,1,0,0:0:0:0:
36,192,29998,1,0,0:0:0:0:
329,192,29998,1,0,0:0:0:0:
256,192,30080,1,0,0:0:0:0:
182,192,30162,1,0,0:0:0:0:
109,192,30325,1,0,0:0:0:0:
329,192,30325,1,0,0:0:0:0:
475,192,30407,1,0,0:0:0:0:
329,192,30489,1,0,0:0:0:0:
402,192,30652,1,0,0:0:0:0:
182,192,30652,1,0,0:0:0:0:
109,192,30734,1,0,0:0:0:0:
36,192,30816,1,0,0:0:0:0:
256,192,30979,128,0,31143:0:0:0:0:
475,192,30979,1,0,0:0:0:0:
109,192,30979,1,0,0:0:0:0:
329,192,31061,1,0,0:0:0:0:
475,192,31143,1,0,0:0:0:0:
182,192,31306,128,0,31470:0:0:0:0:
402,192,31306,1,0,0:0:0:0:
36,192,31306,1,0,0:0:0:0:
329,192,31388,1,0,0:0:0:0:
256,192,31470,1,0,0:0:0:0:
109,192,31633,128,0,31797:0:0:0:0:
475,192,31633,1,0,0:0:0:0:
329,192,31633,1,0,0:0:0:0:
182,192,31715,1,0,0:0:0:0:
329,192,31797,1,0,0:0:0:0:
256,192,31960,1,0,0:0:0:0:
36,192,31960,1,0,0:0:0:50:KicK.wav
475,192,31960,1,0,0:0:0:30:Crash-L.wav
109,192,31960,1,0,0:0:0:0:
329,192,32042,1,0,0:0:0:0:
402,192,32124,1,0,0:0:0:0:
109,192,32287,1,0,0:0:0:0:
329,192,32287,1,0,0:0:0:0:
182,192,32369,1,0,0:0:0:0:
109,192,32451,1,0,0:0:0:0:
475,192,32614,1,0,0:0:0:0:
256,192,32614,1,0,0:0:0:0:
402,192,32696,1,0,0:0:0:0:
36,192,32778,1,0,0:0:0:0:
329,192,32778,1,0,0:0:0:0:
475,192,32941,1,0,0:0:0:0:
109,192,32941,1,0,0:0:0:0:
329,192,33023,1,0,0:0:0:0:
182,192,33105,1,0,0:0:0:0:
475,192,33105,1,0,0:0:0:0:
402,192,33268,1,0,0:0:0:0:
256,192,33268,1,0,0:0:0:0:
36,192,33268,1,0,0:0:0:0:
182,192,33350,1,0,0:0:0:0:
329,192,33350,1,0,0:0:0:0:
109,192,33432,1,0,0:0:0:0:
329,192,33595,1,0,0:0:0:0:
182,192,33595,1,0,0:0:0:0:
475,192,33677,1,0,0:0:0:0:
329,192,33759,1,0,0:0:0:0:
402,192,33922,1,0,0:0:0:0:
182,192,33922,1,0,0:0:0:0:
109,192,34004,1,0,0:0:0:0:
256,192,34085,1,0,0:0:0:0:
36,192,34085,1,0,0:0:0:0:
475,192,34249,1,0,0:0:0:0:
329,192,34249,1,0,0:0:0:0:
182,192,34249,1,0,0:0:0:0:
36,192,34331,1,0,0:0:0:0:
182,192,34412,1,0,0:0:0:0:
402,192,34412,1,0,0:0:0:0:
109,192,34576,1,0,0:0:0:0:
256,192,34576,1,0,0:0:0:50:KicK.wav
36,192,34576,1,0,0:0:0:30:Crash-L.wav
475,192,34576,1,0,0:0:0:0:
402,192,34658,1,0,0:0:0:0:
329,192,34739,1,0,0:0:0:0:
182,192,34903,1,0,0:0:0:0:
402,192,34903,1,0,0:0:0:0:
109,192,34985,1,0,0:0:0:0:
182,192,35066,1,0,0:0:0:0:
256,192,35230,1,0,0:0:0:0:
475,192,35230,1,0,0:0:0:0:
36,192,35230,1,0,0:0:0:0:
329,192,35312,1,0,0:0:0:0:
402,192,35393,1,0,0:0:0:0:
109,192,35557,1,0,0:0:0:0:
256,192,35557,1,0,0:0:0:0:
402,192,35639,1,0,0:0:0:0:
256,192,35720,1,0,0:0:0:0:
109,192,35884,1,0,0:0:0:0:
329,192,35884,1,0,0:0:0:50:KicK.wav
475,192,35884,1,0,0:0:0:30:Crash-L.wav
36,192,35884,1,0,0:0:0:0:
256,192,35966,1,0,0:0:0:0:
182,192,36047,1,0,0:0:0:0:
256,192,36211,1,0,0:0:0:0:
402,192,36211,1,0,0:0:0:0:
475,192,36293,1,0,0:0:0:0:
402,192,36374,1,0,0:0:0:0:
36,192,36538,1,0,0:0:0:0:
475,192,36538,1,0,0:0:0:50:KicK.wav
329,192,36538,1,0,0:0:0:30:Crash-L.wav
109,192,36538,1,0,0:0:0:0:
182,192,36620,1,0,0:0:0:0:
256,192,36701,1,0,0:0:0:0:
329,192,36865,1,0,0:0:0:0:
109,192,36865,1,0,0:0:0:0:
182,192,36947,1,0,0:0:0:0:
109,192,37028,1,0,0:0:0:0:
182,192,37192,1,0,0:0:0:0:
402,192,37192,1,0,0:0:0:50:KicK.wav
475,192,37192,1,0,0:0:0:30:Crash-L.wav
36,192,37192,1,0,0:0:0:0:
329,192,37273,1,0,0:0:0:0:
256,192,37355,1,0,0:0:0:0:
329,192,37519,1,0,0:0:0:0:
475,192,37519,1,0,0:0:0:0:
182,192,37600,1,0,0:0:0:0:
329,192,37682,1,0,0:0:0:0:
256,192,37846,1,0,0:0:0:0:
36,192,37846,1,0,0:0:0:0:
329,192,38009,1,0,0:0:0:0:
109,192,38009,1,0,0:0:0:0:
402,192,38173,1,0,0:0:0:0:
182,192,38173,1,0,0:0:0:0:
475,192,38336,1,0,0:0:0:0:
256,192,38336,1,0,0:0:0:0:
109,192,38336,1,0,0:0:0:50:KicK.wav
36,192,38336,1,0,0:0:0:0:
402,192,38418,1,0,0:0:0:0:
109,192,38500,1,0,0:0:0:0:
36,192,38500,1,0,0:0:0:0:
182,192,38500,1,0,0:0:0:50:KicK.wav
329,192,38500,1,0,0:0:0:30:Crash-L.wav
402,192,38663,1,0,0:0:0:0:
475,192,38827,1,0,0:0:0:0:
256,192,38827,1,0,0:0:0:0:
109,192,38827,1,0,0:0:0:0:
36,192,38908,1,0,0:0:0:0:
109,192,38990,1,0,0:0:0:0:
475,192,39154,1,0,0:0:0:0:
329,192,39154,1,0,0:0:0:0:
182,192,39154,1,0,0:0:0:0:
109,192,39235,1,0,0:0:0:0:
36,192,39317,1,0,0:0:0:0:
402,192,39481,1,0,0:0:0:0:
182,192,39481,1,0,0:0:0:0:
329,192,39562,1,0,0:0:0:0:
36,192,39644,1,0,0:0:0:0:
109,192,39644,1,0,0:0:0:0:
256,192,39644,1,0,0:0:0:50:KicK.wav
475,192,39644,1,0,0:0:0:0:
402,192,39726,1,0,0:0:0:0:
36,192,39808,1,0,0:0:0:0:
109,192,39808,1,0,0:0:0:50:KicK.wav
329,192,39808,1,0,0:0:0:30:Crash-L.wav
182,192,39808,1,0,0:0:0:0:
402,192,39971,1,0,0:0:0:0:
329,192,40053,1,0,0:0:0:0:
402,192,40135,1,0,0:0:0:0:
109,192,40135,1,0,0:0:0:0:
182,192,40216,1,0,0:0:0:0:
256,192,40298,1,0,0:0:0:0:
475,192,40298,1,0,0:0:0:0:
36,192,40298,1,0,0:0:0:50:KicK.wav
402,192,40298,1,0,0:0:0:0:
109,192,40380,1,0,0:0:0:0:
182,192,40462,1,0,0:0:0:30:Crash-L.wav
329,192,40462,1,0,0:0:0:50:KicK.wav
475,192,40462,1,0,0:0:0:0:
36,192,40462,1,0,0:0:0:0:
402,192,40543,1,0,0:0:0:0:
182,192,40625,1,0,0:0:0:0:
329,192,40625,1,0,0:0:0:0:
109,192,40707,1,0,0:0:0:0:
182,192,40788,1,0,0:0:0:0:
329,192,40788,1,0,0:0:0:0:
402,192,40870,1,0,0:0:0:0:
256,192,40952,1,0,0:0:0:0:
475,192,40952,1,0,0:0:0:0:
36,192,40952,1,0,0:0:0:50:KicK.wav
109,192,40952,1,0,0:0:0:0:
402,192,41006,1,0,0:0:0:0:
329,192,41061,1,0,0:0:0:0:
256,192,41115,1,0,0:0:0:0:
475,192,41115,1,0,0:0:0:30:Crash-L.wav
36,192,41115,1,0,0:0:0:50:KicK.wav
109,192,41115,1,0,0:0:0:0:
402,192,41279,1,0,0:0:0:0:
475,192,41442,1,0,0:0:0:0:
329,192,41442,1,0,0:0:0:30:Crash-S.wav
182,192,41442,1,0,0:0:0:50:KicK.wav
36,192,41442,1,0,0:0:0:0:
256,192,41606,1,0,0:0:0:0:
182,192,41769,1,0,0:0:0:0:
402,192,41769,1,0,0:0:0:50:KicK.wav
36,192,41769,1,0,0:0:0:30:Crash-L.wav
329,192,41878,1,0,0:0:0:0:
475,192,41878,1,0,0:0:0:0:
109,192,41933,1,0,0:0:0:50:KicK.wav
402,192,41987,1,0,0:0:0:0:
256,192,41987,1,0,0:0:0:0:
182,192,42096,1,0,0:0:0:0:
329,192,42096,1,0,0:0:0:50:KicK.wav
475,192,42096,1,0,0:0:0:0:
109,192,42205,1,0,0:0:0:0:
256,192,42205,1,0,0:0:0:0:
475,192,42260,1,0,0:0:0:50:KicK.wav
36,192,42314,1,0,0:0:0:0:
182,192,42314,1,0,0:0:0:0:
109,192,42423,1,0,0:0:0:0:
402,192,42423,1,0,0:0:0:30:Crash-L.wav
329,192,42423,1,0,0:0:0:50:KicK.wav
475,192,42423,1,0,0:0:0:0:
402,192,42750,1,0,0:0:0:0:
329,192,42750,1,0,0:0:0:30:Crash-S.wav
475,192,43077,128,0,43568:0:0:0:30:Highlight.wav
36,192,43077,128,0,43159:0:0:0:0:
109,192,43159,128,0,43241:0:0:0:0:
182,192,43241,128,0,43323:0:0:0:0:
256,192,43323,128,0,43404:0:0:0:0:
402,192,43404,128,0,43568:0:0:0:30:Highlight.wav
109,192,43404,128,0,43486:0:0:0:0:
182,192,43486,128,0,43568:0:0:0:0:
256,192,43568,128,0,43650:0:0:0:0:
329,192,43650,128,0,43731:0:0:0:0:
109,192,43731,1,0,0:0:0:30:Crash-L.wav
475,192,43731,1,0,0:0:0:0:
182,192,43731,1,0,0:0:0:30:Highlight.wav
36,192,43731,1,0,0:0:0:50:KicK.wav
402,192,43813,1,0,0:0:0:0:
36,192,43895,1,0,0:0:0:0:
329,192,43895,1,0,0:0:0:0:
256,192,43976,1,0,0:0:0:0:
402,192,44058,1,0,0:0:0:50:KicK.wav
475,192,44058,1,0,0:0:0:0:
182,192,44058,1,0,0:0:0:0:
36,192,44222,1,0,0:0:0:0:
329,192,44222,1,0,0:0:0:0:
109,192,44303,1,0,0:0:0:0:
402,192,44385,1,0,0:0:0:0:
182,192,44385,1,0,0:0:0:50:KicK.wav
475,192,44385,1,0,0:0:0:0:
256,192,44467,1,0,0:0:0:0:
109,192,44549,1,0,0:0:0:0:
329,192,44549,1,0,0:0:0:0:
402,192,44712,1,0,0:0:0:0:
36,192,44712,1,0,0:0:0:50:KicK.wav
182,192,44712,1,0,0:0:0:0:
329,192,44794,1,0,0:0:0:0:
256,192,44876,1,0,0:0:0:0:
475,192,44876,1,0,0:0:0:0:
402,192,44957,1,0,0:0:0:0:
182,192,45039,1,0,0:0:0:0:
36,192,45039,1,0,0:0:0:0:
329,192,45039,1,0,0:0:0:50:KicK.wav
109,192,45203,1,0,0:0:0:0:
402,192,45203,1,0,0:0:0:0:
182,192,45284,1,0,0:0:0:0:
256,192,45366,1,0,0:0:0:0:
36,192,45366,1,0,0:0:0:0:
475,192,45366,1,0,0:0:0:50:KicK.wav
402,192,45448,1,0,0:0:0:0:
109,192,45530,1,0,0:0:0:0:
329,192,45530,1,0,0:0:0:0:
402,192,45693,128,0,45857:0:0:0:30:Highlight.wav
182,192,45693,1,0,0:0:0:0:
475,192,45693,1,0,0:0:0:50:KicK.wav
256,192,45775,1,0,0:0:0:0:
329,192,45857,1,0,0:0:0:0:
109,192,45857,1,0,0:0:0:0:
36,192,46020,1,0,0:0:0:0:
402,192,46020,128,0,46184:0:0:0:30:Highlight.wav
475,192,46020,1,0,0:0:0:50:KicK.wav
109,192,46102,1,0,0:0:0:0:
329,192,46184,1,0,0:0:0:0:
182,192,46184,1,0,0:0:0:0:
109,192,46347,1,0,0:0:0:0:
475,192,46347,1,0,0:0:0:50:KicK.wav
256,192,46347,1,0,0:0:0:30:Highlight.wav
402,192,46429,1,0,0:0:0:0:
329,192,46511,1,0,0:0:0:0:
36,192,46511,1,0,0:0:0:0:
256,192,46592,1,0,0:0:0:0:
475,192,46674,1,0,0:0:0:0:
402,192,46674,1,0,0:0:0:0:
182,192,46674,1,0,0:0:0:50:KicK.wav
36,192,46838,1,0,0:0:0:0:
256,192,46838,1,0,0:0:0:0:
182,192,46919,1,0,0:0:0:0:
109,192,47001,1,0,0:0:0:0:
475,192,47001,1,0,0:0:0:0:
329,192,47001,1,0,0:0:0:50:KicK.wav
36,192,47083,1,0,0:0:0:0:
402,192,47165,1,0,0:0:0:0:
256,192,47165,1,0,0:0:0:0:
36,192,47328,1,0,0:0:0:0:
329,192,47328,1,0,0:0:0:0:
182,192,47328,1,0,0:0:0:50:KicK.wav
402,192,47410,1,0,0:0:0:0:
109,192,47491,1,0,0:0:0:0:
475,192,47491,1,0,0:0:0:0:
182,192,47573,1,0,0:0:0:0:
256,192,47655,1,0,0:0:0:0:
402,192,47655,1,0,0:0:0:0:
36,192,47655,1,0,0:0:0:50:KicK.wav
329,192,47818,1,0,0:0:0:0:
182,192,47818,1,0,0:0:0:0:
109,192,47818,1,0,0:0:0:0:
475,192,47900,1,0,0:0:0:0:
402,192,47900,1,0,0:0:0:0:
329,192,47982,1,0,0:0:0:0:
109,192,47982,1,0,0:0:0:0:
182,192,47982,1,0,0:0:0:50:KicK.wav
36,192,48309,1,0,0:0:0:50:KicK.wav
256,192,48309,1,0,0:0:0:30:Highlight.wav
475,192,48309,128,0,48472:0:0:0:0:
109,192,48391,1,0,0:0:0:0:
182,192,48472,1,0,0:0:0:0:
329,192,48472,1,0,0:0:0:0:
256,192,48636,128,0,48799:0:0:0:30:Highlight.wav
109,192,48636,1,0,0:0:0:50:KicK.wav
36,192,48636,1,0,0:0:0:0:
475,192,48636,1,0,0:0:0:30:Crash-L.wav
402,192,48718,1,0,0:0:0:0:
329,192,48799,1,0,0:0:0:0:
182,192,48799,1,0,0:0:0:0:
109,192,48799,1,0,0:0:0:50:KicK.wav
475,192,48963,1,0,0:0:0:30:Crash-L.wav
182,192,48963,1,0,0:0:0:0:
256,192,48963,1,0,0:0:0:30:Highlight.wav
402,192,48963,1,0,0:0:0:50:KicK.wav
36,192,49045,1,0,0:0:0:0:
109,192,49126,1,0,0:0:0:0:
329,192,49126,1,0,0:0:0:0:
182,192,49208,1,0,0:0:0:0:
256,192,49290,1,0,0:0:0:0:
402,192,49290,1,0,0:0:0:0:
475,192,49290,1,0,0:0:0:50:KicK.wav
36,192,49453,1,0,0:0:0:0:
329,192,49453,1,0,0:0:0:0:
256,192,49535,1,0,0:0:0:0:
182,192,49617,1,0,0:0:0:0:
109,192,49617,1,0,0:0:0:0:
475,192,49617,1,0,0:0:0:50:KicK.wav
402,192,49699,1,0,0:0:0:0:
329,192,49780,1,0,0:0:0:0:
36,192,49780,1,0,0:0:0:0:
256,192,49944,1,0,0:0:0:0:
475,192,49944,1,0,0:0:0:0:
36,192,49944,1,0,0:0:0:50:KicK.wav
182,192,50026,1,0,0:0:0:0:
109,192,50107,1,0,0:0:0:0:
402,192,50107,1,0,0:0:0:0:
36,192,50189,1,0,0:0:0:0:
182,192,50271,1,0,0:0:0:0:
329,192,50271,1,0,0:0:0:0:
475,192,50271,1,0,0:0:0:50:KicK.wav
109,192,50434,1,0,0:0:0:0:
256,192,50434,1,0,0:0:0:0:
329,192,50516,1,0,0:0:0:0:
182,192,50598,1,0,0:0:0:0:
402,192,50598,1,0,0:0:0:0:
36,192,50598,1,0,0:0:0:50:KicK.wav
475,192,50679,1,0,0:0:0:0:
182,192,50761,1,0,0:0:0:0:
329,192,50761,1,0,0:0:0:0:
109,192,50925,128,0,51088:0:0:0:30:Highlight.wav
329,192,50925,1,0,0:0:0:0:
475,192,50925,1,0,0:0:0:50:KicK.wav
256,192,51006,1,0,0:0:0:0:
182,192,51088,1,0,0:0:0:0:
402,192,51088,1,0,0:0:0:0:
109,192,51252,128,0,51415:0:0:0:30:Highlight.wav
475,192,51252,1,0,0:0:0:0:
256,192,51252,1,0,0:0:0:50:KicK.wav
402,192,51333,1,0,0:0:0:0:
329,192,51415,1,0,0:0:0:0:
182,192,51415,1,0,0:0:0:0:
36,192,51415,1,0,0:0:0:50:KicK.wav
475,192,51579,1,0,0:0:0:50:KicK.wav
402,192,51579,1,0,0:0:0:0:
182,192,51579,1,0,0:0:0:30:Highlight.wav
36,192,51579,1,0,0:0:0:30:Crash-L.wav
256,192,51660,1,0,0:0:0:0:
329,192,51742,1,0,0:0:0:0:
109,192,51742,1,0,0:0:0:0:
402,192,51824,1,0,0:0:0:0:
475,192,51906,1,0,0:0:0:0:
36,192,51906,1,0,0:0:0:0:
182,192,51906,1,0,0:0:0:50:KicK.wav
475,192,52069,1,0,0:0:0:0:
402,192,52069,1,0,0:0:0:0:
329,192,52069,1,0,0:0:0:30:Crash-L.wav
182,192,52069,1,0,0:0:0:50:KicK.wav
36,192,52151,1,0,0:0:0:0:
402,192,52233,1,0,0:0:0:0:
109,192,52233,1,0,0:0:0:0:
329,192,52233,1,0,0:0:0:50:KicK.wav
182,192,52314,1,0,0:0:0:0:
256,192,52396,1,0,0:0:0:0:
475,192,52396,1,0,0:0:0:0:
475,192,52560,1,0,0:0:0:0:
36,192,52560,1,0,0:0:0:0:
256,192,52560,1,0,0:0:0:50:KicK.wav
109,192,52560,1,0,0:0:0:30:Crash-L.wav
402,192,52641,1,0,0:0:0:0:
329,192,52723,1,0,0:0:0:0:
36,192,52723,1,0,0:0:0:0:
109,192,52723,1,0,0:0:0:50:KicK.wav
256,192,52805,1,0,0:0:0:0:
402,192,52887,1,0,0:0:0:0:
475,192,52887,1,0,0:0:0:0:
36,192,52887,1,0,0:0:0:50:KicK.wav
109,192,52887,1,0,0:0:0:30:Crash-S.wav
475,192,53050,1,0,0:0:0:0:
402,192,53050,1,0,0:0:0:50:KicK.wav
36,192,53091,1,0,0:0:0:50:KicK.wav
109,192,53132,1,0,0:0:0:50:KicK.wav
182,192,53173,1,0,0:0:0:50:KicK.wav
256,192,53214,5,0,0:0:0:30:Crash-S.wav
475,192,53214,1,0,0:0:0:0:
402,192,53214,1,0,0:0:0:50:KicK.wav
109,192,53377,1,0,0:0:0:0:
36,192,53377,1,0,0:0:0:50:KicK.wav
109,192,53541,1,0,0:0:0:0:
329,192,53541,128,0,53622:0:0:0:0:
36,192,53541,1,0,0:0:0:50:KicK.wav
256,192,53622,128,0,53704:0:0:0:0:
182,192,53704,128,0,53786:0:0:0:0:
109,192,53786,128,0,53868:0:0:0:0:
36,192,53868,128,0,53949:0:0:0:0:
182,192,53949,128,0,54031:0:0:0:0:
329,192,54031,128,0,54113:0:0:0:0:
475,192,54113,128,0,54194:0:0:0:0:
36,192,54194,5,0,0:0:0:50:KicK.wav
402,192,54194,1,0,0:0:0:0:
109,192,54194,1,0,0:0:0:0:
182,192,54194,1,0,0:0:0:30:Crash-L.wav
329,192,54276,1,0,0:0:0:0:
256,192,54358,1,0,0:0:0:0:
475,192,54358,1,0,0:0:0:0:
402,192,54440,1,0,0:0:0:0:
256,192,54521,1,0,0:0:0:0:
36,192,54521,1,0,0:0:0:0:
182,192,54603,1,0,0:0:0:0:
109,192,54685,1,0,0:0:0:0:
329,192,54685,1,0,0:0:0:0:
256,192,54767,1,0,0:0:0:0:
109,192,54848,1,0,0:0:0:0:
402,192,54848,1,0,0:0:0:0:
475,192,54848,1,0,0:0:0:50:KicK.wav
36,192,54930,1,0,0:0:0:0:
329,192,55012,1,0,0:0:0:0:
182,192,55012,1,0,0:0:0:0:
109,192,55094,1,0,0:0:0:0:
256,192,55175,1,0,0:0:0:0:
475,192,55175,1,0,0:0:0:0:
329,192,55257,1,0,0:0:0:0:
182,192,55339,1,0,0:0:0:0:
402,192,55339,1,0,0:0:0:0:
475,192,55421,1,0,0:0:0:0:
109,192,55502,1,0,0:0:0:0:
36,192,55502,1,0,0:0:0:0:
256,192,55502,1,0,0:0:0:50:KicK.wav
402,192,55666,1,0,0:0:0:0:
182,192,55666,1,0,0:0:0:0:
329,192,55748,1,0,0:0:0:0:
36,192,55829,1,0,0:0:0:0:
475,192,55829,1,0,0:0:0:0:
182,192,55829,1,0,0:0:0:50:KicK.wav
256,192,55884,1,0,0:0:0:0:
329,192,55938,1,0,0:0:0:0:
402,192,55993,1,0,0:0:0:0:
109,192,55993,1,0,0:0:0:0:
329,192,56156,1,0,0:0:0:0:
182,192,56156,1,0,0:0:0:0:
475,192,56156,1,0,0:0:0:50:KicK.wav
402,192,56320,1,0,0:0:0:0:
109,192,56320,1,0,0:0:0:0:
182,192,56402,1,0,0:0:0:0:
256,192,56483,1,0,0:0:0:0:
329,192,56565,1,0,0:0:0:0:
402,192,56647,1,0,0:0:0:0:
109,192,56647,1,0,0:0:0:0:
475,192,56729,1,0,0:0:0:0:
182,192,56810,1,0,0:0:0:0:
329,192,56810,1,0,0:0:0:0:
36,192,56810,1,0,0:0:0:50:KicK.wav
475,192,56974,1,0,0:0:0:0:
109,192,57137,1,0,0:0:0:0:
329,192,57137,1,0,0:0:0:0:
182,192,57219,1,0,0:0:0:0:
475,192,57301,1,0,0:0:0:0:
256,192,57301,1,0,0:0:0:0:
402,192,57382,1,0,0:0:0:0:
182,192,57464,1,0,0:0:0:0:
329,192,57464,1,0,0:0:0:0:
36,192,57464,1,0,0:0:0:50:KicK.wav
402,192,57628,1,0,0:0:0:0:
256,192,57791,1,0,0:0:0:0:
36,192,57791,1,0,0:0:0:0:
475,192,57791,1,0,0:0:0:50:KicK.wav
109,192,57955,1,0,0:0:0:0:
475,192,58118,1,0,0:0:0:0:
329,192,58118,1,0,0:0:0:0:
182,192,58118,1,0,0:0:0:50:KicK.wav
109,192,58200,1,0,0:0:0:0:
402,192,58282,1,0,0:0:0:0:
256,192,58282,1,0,0:0:0:0:
182,192,58363,1,0,0:0:0:0:
475,192,58445,1,0,0:0:0:0:
329,192,58445,1,0,0:0:0:0:
36,192,58445,1,0,0:0:0:50:KicK.wav
256,192,58527,1,0,0:0:0:0:
402,192,58609,1,0,0:0:0:0:
109,192,58609,1,0,0:0:0:0:
329,192,58690,1,0,0:0:0:0:
182,192,58772,1,0,0:0:0:0:
36,192,58772,1,0,0:0:0:50:KicK.wav
475,192,58772,1,0,0:0:0:0:
256,192,58854,1,0,0:0:0:0:
182,192,58936,1,0,0:0:0:0:
329,192,58936,1,0,0:0:0:0:
36,192,58936,1,0,0:0:0:50:KicK.wav
402,192,59017,1,0,0:0:0:0:
256,192,59099,1,0,0:0:0:0:
109,192,59099,1,0,0:0:0:50:KicK.wav
475,192,59099,1,0,0:0:0:0:
402,192,59181,1,0,0:0:0:0:
329,192,59181,1,0,0:0:0:50:KicK.wav
182,192,59263,1,0,0:0:0:0:
36,192,59263,1,0,0:0:0:50:KicK.wav
256,192,59344,1,0,0:0:0:0:
329,192,59344,1,0,0:0:0:50:KicK.wav
475,192,59426,1,0,0:0:0:50:KicK.wav
182,192,59426,1,0,0:0:0:0:
402,192,59426,1,0,0:0:0:30:Crash-L.wav
36,192,59426,1,0,0:0:0:0:
109,192,59590,1,0,0:0:0:0:
329,192,59590,1,0,0:0:0:0:
256,192,59644,1,0,0:0:0:0:
182,192,59699,1,0,0:0:0:0:
402,192,59753,1,0,0:0:0:0:
36,192,59753,1,0,0:0:0:0:
329,192,59753,1,0,0:0:0:30:Crash-L.wav
475,192,59753,1,0,0:0:0:50:KicK.wav
256,192,59917,1,0,0:0:0:0:
402,192,60080,1,0,0:0:0:50:KicK.wav
36,192,60080,1,0,0:0:0:0:
475,192,60080,1,0,0:0:0:0:
182,192,60080,1,0,0:0:0:30:Crash-L.wav
329,192,60244,1,0,0:0:0:0:
256,192,60325,1,0,0:0:0:0:
402,192,60407,1,0,0:0:0:0:
36,192,60407,1,0,0:0:0:0:
109,192,60407,1,0,0:0:0:50:KicK.wav
329,192,60489,1,0,0:0:0:0:
475,192,60570,1,0,0:0:0:0:
36,192,60570,1,0,0:0:0:0:
109,192,60570,1,0,0:0:0:50:KicK.wav
402,192,60652,1,0,0:0:0:0:
36,192,60734,1,0,0:0:0:0:
109,192,60734,1,0,0:0:0:0:
182,192,60734,1,0,0:0:0:50:KicK.wav
329,192,60734,1,0,0:0:0:30:Crash-L.wav
402,192,60897,1,0,0:0:0:0:
329,192,60897,1,0,0:0:0:0:
109,192,60952,1,0,0:0:0:0:
182,192,61006,1,0,0:0:0:0:
36,192,61061,1,0,0:0:0:0:
475,192,61061,1,0,0:0:0:0:
402,192,61061,1,0,0:0:0:30:Crash-L.wav
256,192,61061,1,0,0:0:0:50:KicK.wav
36,192,61224,1,0,0:0:0:0:
182,192,61224,1,0,0:0:0:50:KicK.wav
329,192,61224,1,0,0:0:0:0:
475,192,61388,1,0,0:0:0:0:
402,192,61388,1,0,0:0:0:0:
256,192,61388,1,0,0:0:0:30:Crash-L.wav
109,192,61388,1,0,0:0:0:50:KicK.wav
329,192,61551,1,0,0:0:0:0:
256,192,61633,1,0,0:0:0:0:
182,192,61715,1,0,0:0:0:0:
36,192,61715,1,0,0:0:0:50:KicK.wav
402,192,61715,1,0,0:0:0:0:
475,192,61797,1,0,0:0:0:0:
256,192,61797,1,0,0:0:0:50:KicK.wav
402,192,61878,1,0,0:0:0:0:
182,192,61878,1,0,0:0:0:50:KicK.wav
109,192,61960,1,0,0:0:0:50:KicK.wav
329,192,61960,1,0,0:0:0:0:
256,192,62042,1,0,0:0:0:0:
475,192,62042,1,0,0:0:0:50:KicK.wav
36,192,62042,1,0,0:0:0:30:Crash-L.wav
402,192,62042,1,0,0:0:0:0:
256,192,62369,1,0,0:0:0:0:
402,192,62369,1,0,0:0:0:50:KicK.wav
36,192,62369,1,0,0:0:0:0:
109,192,62451,1,0,0:0:0:0:
329,192,62451,1,0,0:0:0:50:KicK.wav
182,192,62532,1,0,0:0:0:0:
475,192,62532,1,0,0:0:0:50:KicK.wav
256,192,62614,1,0,0:0:0:0:
402,192,62614,1,0,0:0:0:50:KicK.wav
109,192,62696,1,0,0:0:0:0:
182,192,62696,1,0,0:0:0:50:KicK.wav
329,192,62696,1,0,0:0:0:30:Crash-L.wav
36,192,62696,1,0,0:0:0:0:
402,192,63023,1,0,0:0:0:50:KicK.wav
475,192,63023,1,0,0:0:0:0:
182,192,63023,128,0,63268:0:0:0:0:
36,192,63023,128,0,63268:0:0:0:0:
329,192,63105,1,0,0:0:0:50:KicK.wav
402,192,63186,1,0,0:0:0:50:KicK.wav
475,192,63186,1,0,0:0:0:0:
329,192,63268,1,0,0:0:0:50:KicK.wav
256,192,63350,1,0,0:0:0:30:Crash-L.wav
475,192,63350,1,0,0:0:0:0:
109,192,63350,1,0,0:0:0:0:
402,192,63350,1,0,0:0:0:50:KicK.wav
109,192,63513,1,0,0:0:0:0:
256,192,63513,1,0,0:0:0:50:KicK.wav
329,192,63554,1,0,0:0:0:50:KicK.wav
402,192,63595,1,0,0:0:0:50:KicK.wav
475,192,63636,1,0,0:0:0:50:KicK.wav
182,192,63677,1,0,0:0:0:50:KicK.wav
36,192,63677,1,0,0:0:0:30:Crash-L.wav
109,192,63677,1,0,0:0:0:0:
256,192,63759,1,0,0:0:0:0:
475,192,63840,1,0,0:0:0:0:
329,192,63840,1,0,0:0:0:50:KicK.wav
109,192,63922,1,0,0:0:0:0:
36,192,63922,1,0,0:0:0:50:KicK.wav
182,192,64004,1,0,0:0:0:30:Crash-L.wav
329,192,64004,1,0,0:0:0:50:KicK.wav
256,192,64004,1,0,0:0:0:0:
402,192,64085,1,0,0:0:0:0:
475,192,64085,1,0,0:0:0:50:KicK.wav
109,192,64167,1,0,0:0:0:0:
36,192,64167,1,0,0:0:0:50:KicK.wav
475,192,64249,1,0,0:0:0:0:
402,192,64249,1,0,0:0:0:50:KicK.wav
256,192,64331,1,0,0:0:0:30:Crash-L.wav
329,192,64331,1,0,0:0:0:50:KicK.wav
182,192,64331,1,0,0:0:0:0:
36,192,64412,1,0,0:0:0:50:KicK.wav
109,192,64412,1,0,0:0:0:0:
475,192,64494,1,0,0:0:0:0:
402,192,64494,1,0,0:0:0:50:KicK.wav
329,192,64535,1,0,0:0:0:50:KicK.wav
256,192,64576,1,0,0:0:0:50:KicK.wav
182,192,64617,1,0,0:0:0:50:KicK.wav
36,192,64658,1,0,0:0:0:0:
475,192,64658,1,0,0:0:0:0:
402,192,64658,1,0,0:0:0:50:KicK.wav
109,192,64658,1,0,0:0:0:30:Crash-L.wav
329,192,64985,1,0,0:0:0:50:KicK.wav
475,192,64985,1,0,0:0:0:0:
36,192,64985,1,0,0:0:0:0:
109,192,65094,1,0,0:0:0:0:
256,192,65094,1,0,0:0:0:0:
109,192,65203,1,0,0:0:0:0:
256,192,65203,1,0,0:0:0:0:
475,192,65312,1,0,0:0:0:50:KicK.wav
36,192,65312,1,0,0:0:0:0:
402,192,65312,1,0,0:0:0:0:
329,192,65421,1,0,0:0:0:0:
182,192,65421,1,0,0:0:0:0:
329,192,65530,1,0,0:0:0:0:
182,192,65530,1,0,0:0:0:0:
109,192,65639,1,0,0:0:0:0:
36,192,65639,1,0,0:0:0:50:KicK.wav
475,192,65639,1,0,0:0:0:0:
402,192,65748,1,0,0:0:0:0:
256,192,65748,1,0,0:0:0:0:
402,192,65857,1,0,0:0:0:0:
256,192,65857,1,0,0:0:0:0:
182,192,65966,1,0,0:0:0:0:
36,192,65966,1,0,0:0:0:0:
475,192,65966,1,0,0:0:0:50:KicK.wav
402,192,66047,1,0,0:0:0:0:
329,192,66129,1,0,0:0:0:0:
109,192,66129,1,0,0:0:0:0:
182,192,66184,1,0,0:0:0:0:
256,192,66238,1,0,0:0:0:0:
475,192,66293,1,0,0:0:0:0:
402,192,66293,1,0,0:0:0:0:
36,192,66293,1,0,0:0:0:50:KicK.wav
36,192,66456,1,0,0:0:0:0:
256,192,66620,1,0,0:0:0:0:
182,192,66620,1,0,0:0:0:0:
475,192,66620,128,0,66783:0:0:0:50:KicK.wav
329,192,66701,1,0,0:0:0:0:
402,192,66783,1,0,0:0:0:0:
109,192,66783,1,0,0:0:0:0:
475,192,66947,128,0,67110:0:0:0:50:KicK.wav
329,192,66947,1,0,0:0:0:0:
36,192,66947,1,0,0:0:0:0:
109,192,67028,1,0,0:0:0:0:
182,192,67110,1,0,0:0:0:0:
256,192,67110,1,0,0:0:0:0:
109,192,67273,1,0,0:0:0:0:
475,192,67273,1,0,0:0:0:0:
329,192,67273,1,0,0:0:0:50:KicK.wav
182,192,67355,1,0,0:0:0:0:
256,192,67437,1,0,0:0:0:0:
36,192,67437,1,0,0:0:0:0:
329,192,67519,1,0,0:0:0:0:
256,192,67600,1,0,0:0:0:0:
475,192,67600,1,0,0:0:0:0:
109,192,67600,1,0,0:0:0:50:KicK.wav
329,192,67682,1,0,0:0:0:0:
402,192,67764,1,0,0:0:0:0:
182,192,67764,1,0,0:0:0:0:
475,192,67846,1,0,0:0:0:0:
109,192,67927,1,0,0:0:0:0:
36,192,67927,1,0,0:0:0:0:
256,192,67927,1,0,0:0:0:50:KicK.wav
475,192,68009,1,0,0:0:0:0:
182,192,68091,1,0,0:0:0:0:
402,192,68091,1,0,0:0:0:0:
329,192,68173,1,0,0:0:0:0:
256,192,68254,1,0,0:0:0:0:
109,192,68254,1,0,0:0:0:0:
475,192,68254,1,0,0:0:0:50:KicK.wav
329,192,68336,1,0,0:0:0:0:
256,192,68418,1,0,0:0:0:0:
36,192,68418,1,0,0:0:0:0:
182,192,68500,1,0,0:0:0:0:
475,192,68581,1,0,0:0:0:0:
329,192,68581,1,0,0:0:0:0:
109,192,68581,1,0,0:0:0:50:KicK.wav
182,192,68663,1,0,0:0:0:0:
36,192,68745,1,0,0:0:0:0:
256,192,68745,1,0,0:0:0:0:
329,192,68827,1,0,0:0:0:0:
182,192,68908,1,0,0:0:0:0:
475,192,68908,1,0,0:0:0:0:
36,192,68908,1,0,0:0:0:50:KicK.wav
402,192,68990,1,0,0:0:0:0:
329,192,69072,1,0,0:0:0:0:
109,192,69072,1,0,0:0:0:0:
256,192,69154,1,0,0:0:0:0:
402,192,69235,1,0,0:0:0:0:
475,192,69235,1,0,0:0:0:0:
182,192,69235,1,0,0:0:0:50:KicK.wav
256,192,69317,1,0,0:0:0:0:
329,192,69399,1,0,0:0:0:0:
109,192,69399,1,0,0:0:0:0:
182,192,69562,1,0,0:0:0:0:
475,192,69562,1,0,0:0:0:0:
36,192,69562,1,0,0:0:0:50:KicK.wav
402,192,69644,1,0,0:0:0:0:
182,192,69726,1,0,0:0:0:0:
329,192,69726,1,0,0:0:0:0:
36,192,69726,1,0,0:0:0:50:KicK.wav
475,192,69889,1,0,0:0:0:0:
402,192,69889,1,0,0:0:0:0:
109,192,69889,1,0,0:0:0:30:Crash-L.wav
256,192,69889,1,0,0:0:0:50:KicK.wav
402,192,70216,1,0,0:0:0:50:KicK.wav
329,192,70216,1,0,0:0:0:0:
109,192,70216,1,0,0:0:0:0:
36,192,70325,1,0,0:0:0:0:
256,192,70325,1,0,0:0:0:0:
256,192,70434,1,0,0:0:0:0:
36,192,70434,1,0,0:0:0:0:
182,192,70543,1,0,0:0:0:50:KicK.wav
402,192,70543,1,0,0:0:0:0:
475,192,70543,1,0,0:0:0:0:
109,192,70652,1,0,0:0:0:0:
329,192,70652,1,0,0:0:0:0:
329,192,70761,1,0,0:0:0:0:
109,192,70761,1,0,0:0:0:0:
475,192,70870,1,0,0:0:0:50:KicK.wav
256,192,70870,1,0,0:0:0:0:
36,192,70870,1,0,0:0:0:0:
402,192,70979,1,0,0:0:0:0:
182,192,70979,1,0,0:0:0:0:
182,192,71088,1,0,0:0:0:0:
402,192,71088,1,0,0:0:0:0:
36,192,71197,1,0,0:0:0:0:
329,192,71197,1,0,0:0:0:0:
109,192,71197,1,0,0:0:0:50:KicK.wav
402,192,71279,1,0,0:0:0:0:
475,192,71361,1,0,0:0:0:0:
182,192,71361,1,0,0:0:0:0:
256,192,71415,1,0,0:0:0:0:
329,192,71470,1,0,0:0:0:0:
109,192,71524,1,0,0:0:0:0:
402,192,71524,1,0,0:0:0:0:
36,192,71524,1,0,0:0:0:50:KicK.wav
402,192,71688,1,0,0:0:0:0:
109,192,71851,128,0,72015:0:0:0:0:
475,192,71851,1,0,0:0:0:50:KicK.wav
256,192,71851,1,0,0:0:0:0:
402,192,71933,1,0,0:0:0:0:
329,192,72015,1,0,0:0:0:0:
109,192,72178,128,0,72342:0:0:0:0:
182,192,72178,1,0,0:0:0:0:
402,192,72178,1,0,0:0:0:50:KicK.wav
256,192,72260,1,0,0:0:0:0:
36,192,72342,1,0,0:0:0:0:
475,192,72342,1,0,0:0:0:0:
329,192,72342,1,0,0:0:0:50:KicK.wav
475,192,72505,1,0,0:0:0:0:
329,192,72505,1,0,0:0:0:0:
36,192,72505,1,0,0:0:0:30:Crash-L.wav
182,192,72505,1,0,0:0:0:50:KicK.wav
402,192,72832,1,0,0:0:0:0:
256,192,72832,1,0,0:0:0:50:KicK.wav
36,192,72832,1,0,0:0:0:0:
109,192,72914,1,0,0:0:0:0:
329,192,72914,1,0,0:0:0:0:
402,192,72996,1,0,0:0:0:50:KicK.wav
182,192,72996,1,0,0:0:0:0:
475,192,73077,1,0,0:0:0:0:
256,192,73077,1,0,0:0:0:0:
36,192,73159,1,0,0:0:0:0:
329,192,73159,1,0,0:0:0:50:KicK.wav
182,192,73159,1,0,0:0:0:30:Crash-L.wav
109,192,73159,1,0,0:0:0:0:
329,192,73486,1,0,0:0:0:0:
36,192,73486,1,0,0:0:0:50:KicK.wav
475,192,73486,1,0,0:0:0:0:
256,192,73568,1,0,0:0:0:0:
109,192,73568,1,0,0:0:0:0:
402,192,73650,1,0,0:0:0:0:
182,192,73650,1,0,0:0:0:50:KicK.wav
329,192,73731,1,0,0:0:0:0:
109,192,73731,1,0,0:0:0:0:
475,192,73813,1,0,0:0:0:0:
256,192,73813,1,0,0:0:0:50:KicK.wav
36,192,73813,1,0,0:0:0:30:Crash-L.wav
402,192,73813,1,0,0:0:0:0:
36,192,74140,1,0,0:0:0:0:
256,192,74140,1,0,0:0:0:50:KicK.wav
475,192,74140,1,0,0:0:0:0:
182,192,74222,1,0,0:0:0:0:
402,192,74222,1,0,0:0:0:0:
329,192,74303,1,0,0:0:0:50:KicK.wav
109,192,74303,1,0,0:0:0:0:
402,192,74385,1,0,0:0:0:0:
256,192,74385,1,0,0:0:0:0:
36,192,74467,1,0,0:0:0:0:
182,192,74467,1,0,0:0:0:30:Crash-L.wav
329,192,74467,1,0,0:0:0:50:KicK.wav
475,192,74467,1,0,0:0:0:0:
182,192,74630,1,0,0:0:0:50:KicK.wav
36,192,74630,1,0,0:0:0:0:
256,192,74671,1,0,0:0:0:50:KicK.wav
329,192,74712,1,0,0:0:0:50:KicK.wav
402,192,74753,1,0,0:0:0:50:KicK.wav
36,192,74794,1,0,0:0:0:50:KicK.wav
182,192,74794,1,0,0:0:0:30:Crash-L.wav
109,192,74794,1,0,0:0:0:0:
475,192,74794,1,0,0:0:0:0:
329,192,74957,1,0,0:0:0:50:KicK.wav
256,192,74957,1,0,0:0:0:0:
402,192,74957,1,0,0:0:0:0:
36,192,75121,1,0,0:0:0:0:
182,192,75121,1,0,0:0:0:0:
475,192,75121,1,0,0:0:0:30:Crash-L.wav
109,192,75121,1,0,0:0:0:50:KicK.wav
256,192,75448,1,0,0:0:0:0:
475,192,75448,1,0,0:0:0:50:KicK.wav
36,192,75448,1,0,0:0:0:0:
329,192,75557,1,0,0:0:0:0:
109,192,75557,1,0,0:0:0:0:
402,192,75666,1,0,0:0:0:0:
182,192,75666,1,0,0:0:0:0:
475,192,75775,128,0,76102:0:0:0:0:
36,192,75775,1,0,0:0:0:50:KicK.wav
256,192,75775,128,0,76102:0:0:0:0:
109,192,75938,1,0,0:0:0:0:
402,192,76102,1,0,0:0:0:0:
182,192,76102,1,0,0:0:0:0:
36,192,76102,1,0,0:0:0:50:KicK.wav
475,192,76265,1,0,0:0:0:0:
256,192,76265,1,0,0:0:0:0:
402,192,76347,1,0,0:0:0:0:
182,192,76429,1,0,0:0:0:0:
329,192,76429,1,0,0:0:0:0:
109,192,76429,1,0,0:0:0:30:Crash-L.wav
36,192,76429,1,0,0:0:0:50:KicK.wav
475,192,76592,1,0,0:0:0:0:
329,192,76592,1,0,0:0:0:0:
256,192,76674,1,0,0:0:0:0:
109,192,76756,1,0,0:0:0:0:
182,192,76756,1,0,0:0:0:0:
402,192,76756,1,0,0:0:0:30:Crash-L.wav
36,192,76756,1,0,0:0:0:50:KicK.wav
329,192,76919,1,0,0:0:0:0:
182,192,76919,1,0,0:0:0:0:
109,192,77001,1,0,0:0:0:0:
402,192,77083,1,0,0:0:0:0:
256,192,77083,1,0,0:0:0:0:
36,192,77083,1,0,0:0:0:50:KicK.wav
475,192,77083,1,0,0:0:0:30:Crash-L.wav
109,192,77246,1,0,0:0:0:0:
256,192,77246,1,0,0:0:0:0:
329,192,77328,1,0,0:0:0:0:
36,192,77410,1,0,0:0:0:0:
475,192,77410,1,0,0:0:0:0:
182,192,77410,1,0,0:0:0:30:Crash-L.wav
402,192,77410,1,0,0:0:0:50:KicK.wav
182,192,77573,1,0,0:0:0:0:
402,192,77573,1,0,0:0:0:0:
36,192,77573,1,0,0:0:0:50:KicK.wav
329,192,77655,1,0,0:0:0:0:
475,192,77737,1,0,0:0:0:0:
256,192,77737,1,0,0:0:0:0:
36,192,77737,1,0,0:0:0:50:KicK.wav
109,192,77737,1,0,0:0:0:30:Crash-L.wav
36,192,78064,1,0,0:0:0:0:
256,192,78064,1,0,0:0:0:50:KicK.wav
475,192,78064,1,0,0:0:0:0:
182,192,78173,1,0,0:0:0:0:
402,192,78173,1,0,0:0:0:0:
329,192,78282,1,0,0:0:0:0:
109,192,78282,1,0,0:0:0:0:
402,192,78391,128,0,78718:0:0:0:0:
256,192,78391,128,0,78718:0:0:0:0:
36,192,78391,1,0,0:0:0:50:KicK.wav
109,192,78554,1,0,0:0:0:0:
182,192,78718,1,0,0:0:0:0:
329,192,78718,1,0,0:0:0:0:
475,192,78718,1,0,0:0:0:50:KicK.wav
402,192,78881,1,0,0:0:0:0:
182,192,78881,1,0,0:0:0:0:
329,192,78963,1,0,0:0:0:0:
475,192,79045,1,0,0:0:0:0:
109,192,79045,1,0,0:0:0:0:
256,192,79045,1,0,0:0:0:30:Crash-L.wav
36,192,79045,1,0,0:0:0:50:KicK.wav
109,192,79208,1,0,0:0:0:0:
329,192,79208,1,0,0:0:0:0:
182,192,79290,1,0,0:0:0:0:
402,192,79372,1,0,0:0:0:0:
256,192,79372,1,0,0:0:0:0:
475,192,79372,1,0,0:0:0:30:Crash-L.wav
36,192,79372,1,0,0:0:0:50:KicK.wav
256,192,79535,1,0,0:0:0:0:
402,192,79535,1,0,0:0:0:0:
182,192,79617,1,0,0:0:0:0:
36,192,79699,1,0,0:0:0:0:
329,192,79699,1,0,0:0:0:0:
475,192,79699,1,0,0:0:0:30:Crash-L.wav
109,192,79699,1,0,0:0:0:50:KicK.wav
329,192,79862,1,0,0:0:0:0:
109,192,79862,1,0,0:0:0:50:KicK.wav
475,192,79862,1,0,0:0:0:0:
256,192,79944,1,0,0:0:0:0:
182,192,80026,1,0,0:0:0:0:
402,192,80026,1,0,0:0:0:0:
36,192,80026,1,0,0:0:0:30:Crash-L.wav
475,192,80026,1,0,0:0:0:50:KicK.wav
36,192,80189,1,0,0:0:0:0:
329,192,80189,1,0,0:0:0:0:
182,192,80189,1,0,0:0:0:50:KicK.wav
402,192,80271,1,0,0:0:0:0:
36,192,80353,1,0,0:0:0:0:
109,192,80353,1,0,0:0:0:0:
475,192,80353,1,0,0:0:0:30:Crash-L.wav
256,192,80353,1,0,0:0:0:50:KicK.wav
109,192,80679,1,0,0:0:0:0:
256,192,80679,1,0,0:0:0:50:KicK.wav
475,192,80679,1,0,0:0:0:0:
402,192,80788,1,0,0:0:0:0:
182,192,80788,1,0,0:0:0:0:
329,192,80897,1,0,0:0:0:0:
109,192,80897,1,0,0:0:0:0:
256,192,81006,128,0,81333:0:0:0:0:
36,192,81006,128,0,81333:0:0:0:0:
402,192,81006,1,0,0:0:0:50:KicK.wav
475,192,81006,1,0,0:0:0:30:Crash-L.wav
329,192,81170,1,0,0:0:0:0:
402,192,81333,1,0,0:0:0:0:
182,192,81333,1,0,0:0:0:50:KicK.wav
475,192,81333,1,0,0:0:0:20:Crash-S.wav
329,192,81497,1,0,0:0:0:0:
182,192,81497,1,0,0:0:0:20:Crash-S.wav
36,192,81497,1,0,0:0:0:0:
256,192,81579,1,0,0:0:0:0:
475,192,81660,1,0,0:0:0:0:
109,192,81660,1,0,0:0:0:0:
402,192,81660,1,0,0:0:0:50:KicK.wav
36,192,81660,1,0,0:0:0:30:Crash-L.wav
402,192,81824,1,0,0:0:0:0:
182,192,81824,1,0,0:0:0:0:
329,192,81906,1,0,0:0:0:0:
256,192,81987,1,0,0:0:0:0:
475,192,81987,1,0,0:0:0:0:
36,192,81987,1,0,0:0:0:30:Crash-L.wav
109,192,81987,1,0,0:0:0:50:KicK.wav
256,192,82151,1,0,0:0:0:0:
402,192,82151,1,0,0:0:0:0:
182,192,82233,1,0,0:0:0:0:
109,192,82314,1,0,0:0:0:0:
329,192,82314,1,0,0:0:0:0:
36,192,82314,1,0,0:0:0:30:Crash-L.wav
475,192,82314,1,0,0:0:0:50:KicK.wav
329,192,82478,1,0,0:0:0:0:
182,192,82478,1,0,0:0:0:0:
402,192,82560,1,0,0:0:0:0:
475,192,82641,1,0,0:0:0:0:
109,192,82641,1,0,0:0:0:0:
36,192,82641,1,0,0:0:0:30:Crash-L.wav
256,192,82641,1,0,0:0:0:50:KicK.wav
475,192,82805,1,0,0:0:0:0:
256,192,82805,1,0,0:0:0:0:
109,192,82805,1,0,0:0:0:50:KicK.wav
329,192,82887,1,0,0:0:0:0:
182,192,82968,1,0,0:0:0:0:
36,192,82968,1,0,0:0:0:0:
402,192,82968,1,0,0:0:0:30:Crash-L.wav
475,192,82968,1,0,0:0:0:50:KicK.wav
182,192,83132,1,0,0:0:0:0:
36,192,83132,1,0,0:0:0:50:KicK.wav
402,192,83132,1,0,0:0:0:0:
256,192,83214,1,0,0:0:0:0:
109,192,83295,1,0,0:0:0:0:
36,192,83295,1,0,0:0:0:0:
475,192,83295,1,0,0:0:0:50:KicK.wav
329,192,83295,1,0,0:0:0:30:Crash-L.wav
109,192,83459,1,0,0:0:0:0:
329,192,83459,1,0,0:0:0:50:KicK.wav
475,192,83459,1,0,0:0:0:0:
182,192,83541,1,0,0:0:0:0:
36,192,83622,1,0,0:0:0:0:
475,192,83622,1,0,0:0:0:0:
256,192,83622,1,0,0:0:0:50:KicK.wav
402,192,83622,1,0,0:0:0:30:Crash-L.wav
36,192,83786,1,0,0:0:0:0:
402,192,83786,1,0,0:0:0:50:KicK.wav
256,192,83786,1,0,0:0:0:0:
182,192,83868,1,0,0:0:0:0:
329,192,83949,1,0,0:0:0:0:
36,192,83949,1,0,0:0:0:0:
475,192,83949,1,0,0:0:0:50:KicK.wav
109,192,83949,1,0,0:0:0:30:Crash-L.wav
329,192,84113,1,0,0:0:0:0:
475,192,84113,1,0,0:0:0:50:KicK.wav
109,192,84113,1,0,0:0:0:0:
256,192,84194,1,0,0:0:0:50:KicK.wav
402,192,84276,1,0,0:0:0:0:
36,192,84276,1,0,0:0:0:50:KicK.wav
182,192,84276,1,0,0:0:0:30:Crash-L.wav
329,192,84358,1,0,0:0:0:0:
475,192,84358,1,0,0:0:0:50:KicK.wav
182,192,84440,1,0,0:0:0:0:
36,192,84440,1,0,0:0:0:50:KicK.wav
475,192,84521,1,0,0:0:0:0:
329,192,84521,1,0,0:0:0:50:KicK.wav
256,192,84603,1,0,0:0:0:30:Crash-L.wav
36,192,84603,1,0,0:0:0:50:KicK.wav
109,192,84603,1,0,0:0:0:0:
402,192,84685,1,0,0:0:0:0:
475,192,84685,1,0,0:0:0:50:KicK.wav
329,192,84767,1,0,0:0:0:0:
182,192,84767,1,0,0:0:0:50:KicK.wav
109,192,84848,1,0,0:0:0:0:
36,192,84848,1,0,0:0:0:50:KicK.wav
256,192,84930,1,0,0:0:0:30:Crash-L.wav
402,192,84930,1,0,0:0:0:50:KicK.wav
475,192,84930,1,0,0:0:0:0:
36,192,85012,1,0,0:0:0:0:
109,192,85012,1,0,0:0:0:50:KicK.wav
475,192,85094,1,0,0:0:0:0:
402,192,85094,1,0,0:0:0:50:KicK.wav
329,192,85135,1,0,0:0:0:50:KicK.wav
256,192,85175,1,0,0:0:0:50:KicK.wav
182,192,85216,1,0,0:0:0:50:KicK.wav
36,192,85257,1,0,0:0:0:0:
109,192,85257,1,0,0:0:0:0:
475,192,85257,128,0,85421:0:0:0:50:KicK.wav
402,192,85312,128,0,85475:0:0:0:0:
329,192,85366,128,0,85530:0:0:0:0:
256,192,85421,128,0,85584:0:0:0:0:
109,192,85584,1,0,0:0:0:0:
36,192,85584,1,0,0:0:0:0:
402,192,85584,1,0,0:0:0:30:Crash-L.wav
475,192,85584,1,0,0:0:0:50:KicK.wav
182,192,85666,1,0,0:0:0:0:
256,192,85748,1,0,0:0:0:0:
329,192,85911,1,0,0:0:0:0:
36,192,85911,1,0,0:0:0:0:
182,192,85911,1,0,0:0:0:50:KicK.wav
475,192,85993,1,0,0:0:0:0:
182,192,86075,1,0,0:0:0:0:
329,192,86075,1,0,0:0:0:0:
475,192,86238,1,0,0:0:0:0:
256,192,86238,1,0,0:0:0:0:
109,192,86238,1,0,0:0:0:50:KicK.wav
402,192,86320,1,0,0:0:0:0:
329,192,86402,1,0,0:0:0:0:
36,192,86565,1,0,0:0:0:0:
182,192,86565,1,0,0:0:0:0:
475,192,86565,1,0,0:0:0:50:KicK.wav
329,192,86647,1,0,0:0:0:0:
182,192,86729,1,0,0:0:0:0:
475,192,86729,1,0,0:0:0:0:
256,192,86892,1,0,0:0:0:0:
402,192,86892,1,0,0:0:0:0:
36,192,86892,1,0,0:0:0:50:KicK.wav
182,192,86974,1,0,0:0:0:0:
109,192,87056,1,0,0:0:0:0:
475,192,87219,1,0,0:0:0:0:
36,192,87219,1,0,0:0:0:0:
329,192,87219,1,0,0:0:0:50:KicK.wav
182,192,87301,1,0,0:0:0:0:
36,192,87382,1,0,0:0:0:0:
329,192,87382,1,0,0:0:0:0:
256,192,87546,1,0,0:0:0:0:
109,192,87546,1,0,0:0:0:0:
475,192,87546,1,0,0:0:0:50:KicK.wav
402,192,87628,1,0,0:0:0:0:
329,192,87709,1,0,0:0:0:0:
109,192,87873,1,0,0:0:0:0:
182,192,87873,1,0,0:0:0:0:
402,192,87873,1,0,0:0:0:50:KicK.wav
256,192,87955,1,0,0:0:0:0:
182,192,88036,1,0,0:0:0:0:
109,192,88036,1,0,0:0:0:0:
402,192,88036,1,0,0:0:0:50:KicK.wav
475,192,88200,1,0,0:0:0:0:
36,192,88200,1,0,0:0:0:0:
256,192,88200,1,0,0:0:0:50:KicK.wav
109,192,88200,1,0,0:0:0:30:Crash-L.wav
329,192,88282,1,0,0:0:0:0:
402,192,88363,1,0,0:0:0:0:
475,192,88527,1,0,0:0:0:0:
256,192,88527,1,0,0:0:0:50:KicK.wav
109,192,88527,1,0,0:0:0:0:
36,192,88609,1,0,0:0:0:0:
256,192,88690,1,0,0:0:0:0:
109,192,88690,1,0,0:0:0:0:
182,192,88854,1,0,0:0:0:0:
402,192,88854,1,0,0:0:0:0:
475,192,88854,1,0,0:0:0:30:Crash-L.wav
36,192,88854,1,0,0:0:0:50:KicK.wav
256,192,88936,1,0,0:0:0:0:
329,192,89017,1,0,0:0:0:0:
36,192,89181,1,0,0:0:0:0:
475,192,89181,1,0,0:0:0:0:
182,192,89181,1,0,0:0:0:50:KicK.wav
329,192,89263,1,0,0:0:0:0:
36,192,89344,1,0,0:0:0:0:
475,192,89344,1,0,0:0:0:0:
182,192,89344,1,0,0:0:0:50:KicK.wav
402,192,89508,1,0,0:0:0:0:
475,192,89508,1,0,0:0:0:0:
256,192,89508,1,0,0:0:0:50:KicK.wav
109,192,89508,1,0,0:0:0:30:Crash-L.wav
329,192,89671,1,0,0:0:0:0:
36,192,89671,1,0,0:0:0:50:KicK.wav
109,192,89712,1,0,0:0:0:50:KicK.wav
182,192,89753,1,0,0:0:0:50:KicK.wav
475,192,89794,1,0,0:0:0:50:KicK.wav
109,192,89835,5,0,0:0:0:50:KicK.wav
402,192,89835,1,0,0:0:0:0:
36,192,89835,1,0,0:0:0:0:
256,192,89835,1,0,0:0:0:30:Crash-L.wav
402,192,89998,1,0,0:0:0:50:KicK.wav
475,192,89998,1,0,0:0:0:0:
256,192,89998,1,0,0:0:0:0:
109,192,90162,1,0,0:0:0:30:Crash-L.wav
329,192,90162,1,0,0:0:0:0:
36,192,90162,1,0,0:0:0:50:KicK.wav
182,192,90162,1,0,0:0:0:0:
475,192,90244,1,0,0:0:0:50:KicK.wav
256,192,90244,1,0,0:0:0:0:
182,192,90325,1,0,0:0:0:0:
402,192,90325,1,0,0:0:0:50:KicK.wav
109,192,90407,1,0,0:0:0:0:
329,192,90407,1,0,0:0:0:50:KicK.wav
256,192,90489,1,0,0:0:0:30:Clap.wav
36,192,90489,1,0,0:0:0:30:Crash-L.wav
402,192,90489,1,0,0:0:0:50:KicK.wav
475,192,90489,1,0,0:0:0:0:
329,192,90816,128,0,90979:0:0:0:30:Crash-L.wav
475,192,90816,128,0,90979:0:0:0:0:
36,192,90816,128,0,90979:0:0:0:50:KicK.wav
182,192,90816,128,0,90979:0:0:0:0:
182,192,91143,1,0,0:0:0:0:
36,192,91143,128,0,91224:0:0:0:0:
256,192,91224,1,0,0:0:0:0:
329,192,91306,1,0,0:0:0:0:
109,192,91306,128,0,91388:0:0:0:0:
402,192,91388,1,0,0:0:0:0:
475,192,91470,1,0,0:0:0:0:
182,192,91470,128,0,91551:0:0:0:0:
402,192,91551,1,0,0:0:0:0:
329,192,91633,1,0,0:0:0:0:
256,192,91715,1,0,0:0:0:0:
182,192,91797,1,0,0:0:0:0:
36,192,91797,128,0,91878:0:0:0:0:
475,192,91878,1,0,0:0:0:0:
329,192,91960,1,0,0:0:0:0:
182,192,92042,1,0,0:0:0:0:
36,192,92124,1,0,0:0:0:0:
256,192,92124,1,0,0:0:0:0:
109,192,92205,1,0,0:0:0:0:
256,192,92287,1,0,0:0:0:0:
329,192,92369,1,0,0:0:0:0:
109,192,92451,1,0,0:0:0:0:
402,192,92451,1,0,0:0:0:0:
182,192,92532,1,0,0:0:0:0:
402,192,92614,1,0,0:0:0:0:
475,192,92696,1,0,0:0:0:0:
182,192,92778,1,0,0:0:0:0:
36,192,92778,1,0,0:0:0:0:
256,192,92859,1,0,0:0:0:0:
36,192,92941,1,0,0:0:0:0:
109,192,93023,1,0,0:0:0:0:
256,192,93105,1,0,0:0:0:0:
475,192,93105,1,0,0:0:0:0:
329,192,93186,1,0,0:0:0:0:
402,192,93268,1,0,0:0:0:0:
475,192,93350,1,0,0:0:0:0:
36,192,93432,1,0,0:0:0:0:
109,192,93432,1,0,0:0:0:0:
256,192,93432,1,0,0:0:0:0:
36,192,93759,1,0,0:0:0:0:
329,192,93759,128,0,93840:0:0:0:0:
182,192,93840,1,0,0:0:0:0:
36,192,93922,1,0,0:0:0:0:
402,192,93922,128,0,94004:0:0:0:0:
256,192,94004,1,0,0:0:0:0:
109,192,94085,1,0,0:0:0:0:
475,192,94085,128,0,94167:0:0:0:0:
329,192,94167,1,0,0:0:0:0:
182,192,94249,1,0,0:0:0:0:
329,192,94331,1,0,0:0:0:0:
256,192,94412,1,0,0:0:0:0:
402,192,94412,128,0,94494:0:0:0:0:
182,192,94494,1,0,0:0:0:0:
109,192,94576,1,0,0:0:0:0:
36,192,94658,1,0,0:0:0:0:
475,192,94739,1,0,0:0:0:0:
256,192,94739,1,0,0:0:0:0:
109,192,94821,1,0,0:0:0:0:
256,192,94903,1,0,0:0:0:0:
182,192,94985,1,0,0:0:0:0:
329,192,95066,1,0,0:0:0:0:
475,192,95066,1,0,0:0:0:0:
109,192,95148,1,0,0:0:0:0:
329,192,95230,1,0,0:0:0:0:
182,192,95312,1,0,0:0:0:0:
36,192,95393,1,0,0:0:0:0:
402,192,95393,1,0,0:0:0:0:
256,192,95475,1,0,0:0:0:0:
402,192,95557,1,0,0:0:0:0:
182,192,95639,1,0,0:0:0:0:
36,192,95720,1,0,0:0:0:0:
475,192,95720,1,0,0:0:0:0:
256,192,95802,1,0,0:0:0:0:
475,192,95884,1,0,0:0:0:0:
329,192,95966,1,0,0:0:0:0:
36,192,96047,1,0,0:0:0:0:
182,192,96047,1,0,0:0:0:0:
402,192,96129,1,0,0:0:0:0:
329,192,96211,1,0,0:0:0:0:
256,192,96293,1,0,0:0:0:0:
182,192,96374,1,0,0:0:0:0:
256,192,96456,1,0,0:0:0:0:
182,192,96538,1,0,0:0:0:0:
402,192,96538,1,0,0:0:0:0:
109,192,96620,1,0,0:0:0:0:
329,192,96620,1,0,0:0:0:0:
36,192,96701,1,0,0:0:0:0:
256,192,96701,1,0,0:0:0:0:
475,192,96701,1,0,0:0:0:0:
256,192,96865,1,0,0:0:0:0:
109,192,97028,1,0,0:0:0:0:
109,192,97192,1,0,0:0:0:0:
36,192,97355,1,0,0:0:0:0:
182,192,97355,1,0,0:0:0:0:
402,192,97437,1,0,0:0:0:0:
329,192,97519,1,0,0:0:0:0:
256,192,97600,1,0,0:0:0:0:
182,192,97682,1,0,0:0:0:0:
256,192,97764,1,0,0:0:0:0:
182,192,97846,1,0,0:0:0:0:
402,192,97846,1,0,0:0:0:0:
109,192,97927,1,0,0:0:0:0:
329,192,97927,1,0,0:0:0:0:
36,192,98009,1,0,0:0:0:0:
256,192,98009,1,0,0:0:0:0:
475,192,98009,1,0,0:0:0:0:
475,192,98173,1,0,0:0:0:0:
329,192,98336,1,0,0:0:0:0:
329,192,98500,1,0,0:0:0:0:
36,192,98663,1,0,0:0:0:0:
182,192,98663,1,0,0:0:0:0:
402,192,98745,1,0,0:0:0:0:
329,192,98827,1,0,0:0:0:0:
256,192,98908,1,0,0:0:0:0:
182,192,98990,1,0,0:0:0:0:
256,192,99072,1,0,0:0:0:0:
182,192,99154,1,0,0:0:0:0:
402,192,99154,1,0,0:0:0:0:
109,192,99235,1,0,0:0:0:0:
329,192,99235,1,0,0:0:0:0:
36,192,99317,1,0,0:0:0:0:
256,192,99317,1,0,0:0:0:0:
475,192,99317,1,0,0:0:0:0:
36,192,99481,1,0,0:0:0:0:
475,192,99644,1,0,0:0:0:0:
182,192,99644,1,0,0:0:0:0:
329,192,99644,1,0,0:0:0:0:
475,192,99808,1,0,0:0:0:0:
329,192,99971,1,0,0:0:0:0:
36,192,99971,1,0,0:0:0:0:
256,192,100053,1,0,0:0:0:0:
182,192,100135,1,0,0:0:0:0:
109,192,100216,1,0,0:0:0:0:
256,192,100298,1,0,0:0:0:0:
402,192,100298,1,0,0:0:0:0:
182,192,100380,1,0,0:0:0:0:
109,192,100462,1,0,0:0:0:0:
36,192,100543,1,0,0:0:0:0:
329,192,100625,1,0,0:0:0:0:
475,192,100625,1,0,0:0:0:0:
182,192,100625,1,0,0:0:0:0:
256,192,100788,1,0,0:0:0:0:
182,192,100952,1,0,0:0:0:0:
329,192,100952,1,0,0:0:0:0:
36,192,100952,1,0,0:0:0:0:
402,192,101279,128,0,101442:0:0:0:0:
475,192,101279,128,0,101442:0:0:0:50:KicK.wav
256,192,101279,128,0,101442:0:0:0:0:
109,192,101279,128,0,101442:0:0:0:30:Crash-L.wav
402,192,101606,1,0,0:0:0:0:
109,192,101606,128,0,101688:0:0:0:0:
329,192,101688,1,0,0:0:0:0:
475,192,101769,1,0,0:0:0:0:
182,192,101769,128,0,101851:0:0:0:0:
402,192,101851,1,0,0:0:0:0:
36,192,101933,1,0,0:0:0:0:
256,192,101933,128,0,102015:0:0:0:0:
182,192,102015,1,0,0:0:0:0:
329,192,102096,1,0,0:0:0:0:
475,192,102178,1,0,0:0:0:0:
402,192,102260,1,0,0:0:0:0:
36,192,102260,128,0,102342:0:0:0:0:
329,192,102342,1,0,0:0:0:0:
256,192,102423,1,0,0:0:0:0:
182,192,102505,1,0,0:0:0:0:
109,192,102587,1,0,0:0:0:0:
402,192,102587,1,0,0:0:0:0:
256,192,102669,1,0,0:0:0:0:
109,192,102750,1,0,0:0:0:0:
329,192,102832,1,0,0:0:0:0:
182,192,102914,1,0,0:0:0:0:
36,192,102914,1,0,0:0:0:0:
402,192,102996,1,0,0:0:0:0:
182,192,103077,1,0,0:0:0:0:
329,192,103159,1,0,0:0:0:0:
256,192,103241,1,0,0:0:0:0:
109,192,103241,1,0,0:0:0:0:
402,192,103323,1,0,0:0:0:0:
256,192,103404,1,0,0:0:0:0:
475,192,103486,1,0,0:0:0:0:
329,192,103568,1,0,0:0:0:0:
182,192,103568,1,0,0:0:0:0:
109,192,103650,1,0,0:0:0:0:
329,192,103731,1,0,0:0:0:30:KicK.wav
36,192,103731,1,0,0:0:0:0:
402,192,103813,1,0,0:0:0:30:KicK.wav
256,192,103813,1,0,0:0:0:0:
182,192,103895,1,0,0:0:0:0:
36,192,103895,1,0,0:0:0:0:
475,192,103895,1,0,0:0:0:50:KicK.wav
109,192,103895,1,0,0:0:0:30:Crash-L.wav
329,192,104222,128,0,104303:0:0:0:0:
182,192,104222,1,0,0:0:0:0:
109,192,104303,1,0,0:0:0:0:
36,192,104385,1,0,0:0:0:0:
402,192,104385,128,0,104467:0:0:0:0:
256,192,104467,1,0,0:0:0:0:
475,192,104549,128,0,104630:0:0:0:0:
109,192,104549,1,0,0:0:0:0:
329,192,104630,1,0,0:0:0:0:
182,192,104712,1,0,0:0:0:0:
402,192,104794,1,0,0:0:0:0:
36,192,104876,128,0,104957:0:0:0:0:
256,192,104876,1,0,0:0:0:0:
475,192,104957,1,0,0:0:0:0:
329,192,105039,1,0,0:0:0:0:
182,192,105121,1,0,0:0:0:0:
36,192,105203,1,0,0:0:0:0:
402,192,105203,1,0,0:0:0:0:
256,192,105284,1,0,0:0:0:0:
36,192,105366,1,0,0:0:0:0:
329,192,105448,1,0,0:0:0:0:
475,192,105530,1,0,0:0:0:0:
109,192,105530,1,0,0:0:0:0:
256,192,105611,1,0,0:0:0:0:
109,192,105693,1,0,0:0:0:0:
329,192,105775,1,0,0:0:0:0:
182,192,105857,1,0,0:0:0:0:
36,192,105857,1,0,0:0:0:0:
402,192,105938,1,0,0:0:0:0:
329,192,106020,1,0,0:0:0:50:KicK.wav
182,192,106020,1,0,0:0:0:0:
36,192,106102,1,0,0:0:0:50:KicK.wav
475,192,106102,1,0,0:0:0:0:
402,192,106184,1,0,0:0:0:50:KicK.wav
256,192,106184,1,0,0:0:0:0:
109,192,106265,1,0,0:0:0:0:
256,192,106347,1,0,0:0:0:0:
182,192,106429,1,0,0:0:0:0:
475,192,106511,1,0,0:0:0:0:
329,192,106511,1,0,0:0:0:50:KicK.wav
36,192,106511,1,0,0:0:0:0:
256,192,106592,1,0,0:0:0:0:
182,192,106674,1,0,0:0:0:0:
109,192,106756,1,0,0:0:0:0:
256,192,106838,1,0,0:0:0:0:
36,192,106838,1,0,0:0:0:50:KicK.wav
475,192,106838,1,0,0:0:0:0:
402,192,106919,1,0,0:0:0:0:
329,192,107001,1,0,0:0:0:0:
109,192,107001,1,0,0:0:0:50:KicK.wav
36,192,107001,1,0,0:0:0:0:
402,192,107083,1,0,0:0:0:0:
182,192,107083,1,0,0:0:0:50:KicK.wav
109,192,107165,1,0,0:0:0:0:
475,192,107165,1,0,0:0:0:50:KicK.wav
256,192,107165,1,0,0:0:0:30:Crash-L.wav
36,192,107165,1,0,0:0:0:0:
402,192,107328,1,0,0:0:0:0:
329,192,107491,1,0,0:0:0:0:
182,192,107491,1,0,0:0:0:50:KicK.wav
36,192,107491,1,0,0:0:0:0:
475,192,107655,1,0,0:0:0:0:
182,192,107655,1,0,0:0:0:50:KicK.wav
329,192,107655,1,0,0:0:0:0:
402,192,107818,1,0,0:0:0:0:
256,192,107818,1,0,0:0:0:50:KicK.wav
36,192,107818,1,0,0:0:0:0:
109,192,107900,1,0,0:0:0:0:
182,192,107982,1,0,0:0:0:0:
256,192,108064,1,0,0:0:0:0:
329,192,108145,1,0,0:0:0:0:
36,192,108145,1,0,0:0:0:50:KicK.wav
475,192,108145,1,0,0:0:0:0:
256,192,108227,1,0,0:0:0:0:
182,192,108309,1,0,0:0:0:0:
109,192,108391,1,0,0:0:0:0:
402,192,108472,1,0,0:0:0:0:
475,192,108472,1,0,0:0:0:50:KicK.wav
256,192,108472,1,0,0:0:0:30:Crash-L.wav
36,192,108472,1,0,0:0:0:0:
109,192,108636,1,0,0:0:0:0:
329,192,108799,1,0,0:0:0:0:
182,192,108799,1,0,0:0:0:50:KicK.wav
475,192,108799,1,0,0:0:0:0:
109,192,108881,1,0,0:0:0:50:KicK.wav
36,192,108881,1,0,0:0:0:0:
329,192,108963,1,0,0:0:0:0:
182,192,108963,1,0,0:0:0:50:KicK.wav
475,192,108963,1,0,0:0:0:0:
256,192,109126,1,0,0:0:0:0:
36,192,109126,1,0,0:0:0:50:KicK.wav
402,192,109126,1,0,0:0:0:0:
182,192,109208,1,0,0:0:0:0:
109,192,109290,1,0,0:0:0:0:
329,192,109290,1,0,0:0:0:50:KicK.wav
36,192,109372,1,0,0:0:0:0:
256,192,109372,1,0,0:0:0:50:KicK.wav
182,192,109453,1,0,0:0:0:0:
402,192,109453,1,0,0:0:0:50:KicK.wav
475,192,109453,1,0,0:0:0:0:
256,192,109535,1,0,0:0:0:0:
109,192,109617,1,0,0:0:0:0:
329,192,109617,1,0,0:0:0:50:KicK.wav
36,192,109617,1,0,0:0:0:0:
402,192,109699,1,0,0:0:0:0:
36,192,109780,1,0,0:0:0:0:
109,192,109780,1,0,0:0:0:50:KicK.wav
475,192,109780,1,0,0:0:0:30:Crash-L.wav
256,192,109780,1,0,0:0:0:0:
182,192,109944,1,0,0:0:0:0:
475,192,109944,1,0,0:0:0:50:KicK.wav
329,192,109944,1,0,0:0:0:0:
109,192,110107,1,0,0:0:0:0:
256,192,110107,1,0,0:0:0:0:
402,192,110107,1,0,0:0:0:50:KicK.wav
182,192,110271,1,0,0:0:0:0:
329,192,110271,1,0,0:0:0:50:KicK.wav
36,192,110271,1,0,0:0:0:0:
402,192,110434,1,0,0:0:0:0:
256,192,110434,1,0,0:0:0:30:Crash-S.wav
475,192,110434,1,0,0:0:0:50:KicK.wav
36,192,110434,1,0,0:0:0:0:
109,192,110516,1,0,0:0:0:0:
182,192,110516,1,0,0:0:0:50:KicK.wav
402,192,110598,1,0,0:0:0:0:
329,192,110598,1,0,0:0:0:50:KicK.wav
109,192,110679,1,0,0:0:0:0:
36,192,110679,1,0,0:0:0:50:KicK.wav
329,192,110761,1,0,0:0:0:30:Crash-S.wav
256,192,110761,1,0,0:0:0:50:KicK.wav
475,192,110761,1,0,0:0:0:0:
182,192,110843,1,0,0:0:0:0:
109,192,110843,1,0,0:0:0:50:KicK.wav
402,192,110925,1,0,0:0:0:0:
329,192,110925,1,0,0:0:0:50:KicK.wav
182,192,111006,1,0,0:0:0:0:
256,192,111006,1,0,0:0:0:50:KicK.wav
475,192,111088,1,0,0:0:0:0:
109,192,111088,1,0,0:0:0:30:Crash-S.wav
36,192,111088,1,0,0:0:0:50:KicK.wav
402,192,111088,1,0,0:0:0:0:
329,192,111252,1,0,0:0:0:0:
182,192,111252,1,0,0:0:0:0:
109,192,111252,1,0,0:0:0:50:KicK.wav
475,192,111415,1,0,0:0:0:30:Crash-L.wav
402,192,111415,1,0,0:0:0:0:
256,192,111415,1,0,0:0:0:30:Clap.wav
182,192,111415,1,0,0:0:0:50:KicK.wav
256,192,111742,1,0,0:0:0:0:
475,192,111742,1,0,0:0:0:0:
109,192,111742,1,0,0:0:0:30:Crash-S.wav
36,192,111742,1,0,0:0:0:50:KicK.wav
256,192,111906,1,0,0:0:0:0:
475,192,111906,1,0,0:0:0:30:Crash-S.wav
109,192,111906,1,0,0:0:0:50:KicK.wav
36,192,111906,1,0,0:0:0:0:
182,192,112069,1,0,0:0:0:0:
402,192,112069,1,0,0:0:0:0:
329,192,112151,1,0,0:0:0:0:
256,192,112233,1,0,0:0:0:0:
36,192,112233,1,0,0:0:0:0:
109,192,112314,1,0,0:0:0:0:
402,192,112396,1,0,0:0:0:0:
182,192,112396,1,0,0:0:0:0:
475,192,112396,1,0,0:0:0:30:Crash-S.wav
329,192,112396,1,0,0:0:0:50:KicK.wav
182,192,112560,1,0,0:0:0:0:
329,192,112560,1,0,0:0:0:30:Crash-S.wav
402,192,112560,1,0,0:0:0:50:KicK.wav
475,192,112560,1,0,0:0:0:0:
256,192,112723,1,0,0:0:0:0:
109,192,112723,1,0,0:0:0:0:
329,192,112805,1,0,0:0:0:0:
182,192,112887,1,0,0:0:0:0:
402,192,112887,1,0,0:0:0:0:
475,192,112968,1,0,0:0:0:0:
256,192,113050,1,0,0:0:0:0:
329,192,113050,1,0,0:0:0:0:
109,192,113050,1,0,0:0:0:50:KicK.wav
36,192,113050,1,0,0:0:0:30:Crash-S.wav
256,192,113214,1,0,0:0:0:0:
109,192,113214,1,0,0:0:0:30:Crash-S.wav
329,192,113214,1,0,0:0:0:50:KicK.wav
36,192,113214,1,0,0:0:0:0:
182,192,113377,1,0,0:0:0:0:
475,192,113377,1,0,0:0:0:0:
402,192,113459,1,0,0:0:0:0:
109,192,113541,1,0,0:0:0:0:
36,192,113541,1,0,0:0:0:50:KicK.wav
329,192,113541,1,0,0:0:0:0:
182,192,113622,1,0,0:0:0:0:
402,192,113622,1,0,0:0:0:50:KicK.wav
475,192,113704,1,0,0:0:0:0:
256,192,113704,1,0,0:0:0:50:KicK.wav
109,192,113704,1,0,0:0:0:30:Crash-L.wav
36,192,113704,1,0,0:0:0:0:
182,192,113868,1,0,0:0:0:0:
402,192,113868,1,0,0:0:0:50:KicK.wav
329,192,113922,1,0,0:0:0:0:
256,192,113976,1,0,0:0:0:0:
36,192,114031,1,0,0:0:0:0:
402,192,114031,1,0,0:0:0:0:
475,192,114031,1,0,0:0:0:30:Crash-L.wav
109,192,114031,1,0,0:0:0:50:KicK.wav
36,192,114358,1,0,0:0:0:0:
475,192,114358,1,0,0:0:0:0:
329,192,114358,1,0,0:0:0:30:Crash-S.wav
182,192,114358,1,0,0:0:0:50:KicK.wav
182,192,114521,1,0,0:0:0:30:Crash-S.wav
36,192,114521,1,0,0:0:0:50:KicK.wav
329,192,114521,1,0,0:0:0:0:
475,192,114521,1,0,0:0:0:0:
402,192,114685,1,0,0:0:0:0:
109,192,114685,1,0,0:0:0:0:
182,192,114767,1,0,0:0:0:0:
475,192,114848,1,0,0:0:0:0:
256,192,114848,1,0,0:0:0:0:
329,192,114930,1,0,0:0:0:0:
402,192,115012,1,0,0:0:0:0:
109,192,115012,1,0,0:0:0:0:
36,192,115012,1,0,0:0:0:30:Crash-S.wav
182,192,115012,1,0,0:0:0:50:KicK.wav
109,192,115175,1,0,0:0:0:0:
182,192,115175,1,0,0:0:0:30:Crash-S.wav
402,192,115175,1,0,0:0:0:50:KicK.wav
36,192,115175,1,0,0:0:0:0:
256,192,115339,1,0,0:0:0:0:
475,192,115339,1,0,0:0:0:0:
329,192,115421,1,0,0:0:0:0:
402,192,115502,1,0,0:0:0:0:
182,192,115502,1,0,0:0:0:0:
475,192,115584,1,0,0:0:0:0:
36,192,115666,1,0,0:0:0:0:
256,192,115666,1,0,0:0:0:0:
109,192,115666,1,0,0:0:0:50:KicK.wav
329,192,115666,1,0,0:0:0:30:Crash-S.wav
256,192,115829,1,0,0:0:0:0:
109,192,115829,1,0,0:0:0:30:Crash-S.wav
36,192,115829,1,0,0:0:0:50:KicK.wav
329,192,115829,1,0,0:0:0:0:
182,192,115993,1,0,0:0:0:0:
402,192,115993,1,0,0:0:0:50:KicK.wav
475,192,115993,1,0,0:0:0:0:
256,192,116075,1,0,0:0:0:0:
36,192,116075,1,0,0:0:0:50:KicK.wav
109,192,116156,1,0,0:0:0:0:
329,192,116156,1,0,0:0:0:50:KicK.wav
182,192,116238,1,0,0:0:0:0:
402,192,116238,1,0,0:0:0:50:KicK.wav
256,192,116320,1,0,0:0:0:0:
475,192,116320,1,0,0:0:0:50:KicK.wav
36,192,116320,1,0,0:0:0:30:Crash-L.wav
109,192,116320,1,0,0:0:0:0:
402,192,116483,1,0,0:0:0:50:KicK.wav
109,192,116483,1,0,0:0:0:0:
329,192,116524,1,0,0:0:0:50:KicK.wav
256,192,116565,1,0,0:0:0:50:KicK.wav
182,192,116606,1,0,0:0:0:50:KicK.wav
475,192,116647,1,0,0:0:0:30:Crash-L.wav
402,192,116647,1,0,0:0:0:50:KicK.wav
329,192,116647,1,0,0:0:0:0:
36,192,116647,1,0,0:0:0:0:
256,192,116974,128,0,117219:0:0:0:50:KicK.wav
402,192,116974,128,0,117219:0:0:0:0:
475,192,116974,128,0,117219:0:0:0:0:
109,192,116974,128,0,117219:0:0:0:0:
36,192,116974,128,0,117219:0:0:0:30:Crash-L.wav
182,192,117301,1,0,0:0:0:0:
475,192,117301,1,0,0:0:0:0:
402,192,117382,1,0,0:0:0:0:
329,192,117464,1,0,0:0:0:0:
256,192,117546,1,0,0:0:0:0:
402,192,117628,1,0,0:0:0:0:
109,192,117628,1,0,0:0:0:0:
329,192,117709,1,0,0:0:0:0:
256,192,117791,1,0,0:0:0:0:
182,192,117873,1,0,0:0:0:0:
329,192,117955,1,0,0:0:0:0:
36,192,117955,1,0,0:0:0:0:
256,192,118036,1,0,0:0:0:0:
182,192,118118,1,0,0:0:0:0:
109,192,118200,1,0,0:0:0:0:
256,192,118282,1,0,0:0:0:0:
475,192,118282,1,0,0:0:0:0:
402,192,118363,1,0,0:0:0:0:
182,192,118445,1,0,0:0:0:0:
402,192,118527,1,0,0:0:0:0:
109,192,118609,1,0,0:0:0:0:
329,192,118609,1,0,0:0:0:0:
256,192,118690,1,0,0:0:0:0:
36,192,118772,1,0,0:0:0:0:
256,192,118854,1,0,0:0:0:0:
182,192,118936,1,0,0:0:0:0:
475,192,118936,1,0,0:0:0:0:
109,192,119017,1,0,0:0:0:0:
402,192,119099,1,0,0:0:0:0:
109,192,119181,1,0,0:0:0:0:
36,192,119263,1,0,0:0:0:0:
329,192,119263,1,0,0:0:0:0:
475,192,119344,1,0,0:0:0:0:
256,192,119426,1,0,0:0:0:0:
402,192,119508,1,0,0:0:0:0:
36,192,119590,1,0,0:0:0:0:
182,192,119590,1,0,0:0:0:0:
329,192,119671,1,0,0:0:0:0:
109,192,119753,1,0,0:0:0:0:
256,192,119835,1,0,0:0:0:0:
402,192,119917,1,0,0:0:0:0:
36,192,119917,1,0,0:0:0:0:
182,192,119998,1,0,0:0:0:0:
329,192,120080,1,0,0:0:0:0:
475,192,120162,1,0,0:0:0:0:
402,192,120244,1,0,0:0:0:0:
182,192,120244,1,0,0:0:0:0:
329,192,120325,1,0,0:0:0:0:
256,192,120407,1,0,0:0:0:0:
402,192,120489,1,0,0:0:0:0:
329,192,120570,1,0,0:0:0:0:
109,192,120570,1,0,0:0:0:0:
256,192,120652,1,0,0:0:0:0:
182,192,120734,1,0,0:0:0:0:
329,192,120816,1,0,0:0:0:0:
36,192,120897,1,0,0:0:0:0:
256,192,120897,1,0,0:0:0:0:
182,192,120979,1,0,0:0:0:0:
109,192,121061,1,0,0:0:0:0:
475,192,121143,1,0,0:0:0:0:
402,192,121224,1,0,0:0:0:0:
182,192,121224,1,0,0:0:0:0:
329,192,121306,1,0,0:0:0:0:
256,192,121388,1,0,0:0:0:0:
182,192,121470,1,0,0:0:0:0:
329,192,121551,1,0,0:0:0:0:
109,192,121551,1,0,0:0:0:0:
475,192,121551,128,0,122124:0:0:0:0:
36,192,121633,1,0,0:0:0:0:
402,192,121715,1,0,0:0:0:0:
329,192,121797,1,0,0:0:0:0:
36,192,121878,1,0,0:0:0:0:
256,192,121878,1,0,0:0:0:0:
182,192,121960,1,0,0:0:0:0:
109,192,122042,1,0,0:0:0:0:
36,192,122124,1,0,0:0:0:0:
256,192,122205,1,0,0:0:0:0:
402,192,122205,128,0,122287:0:0:0:0:
475,192,122205,128,0,122287:0:0:0:0:
36,192,124821,1,0,0:0:0:0:
256,192,124821,1,0,0:0:0:0:
475,192,124821,1,0,0:0:0:50:KicK.wav
402,192,124821,1,0,0:0:0:30:Crash-L.wav
329,192,126129,1,0,0:0:0:0:
109,192,126129,1,0,0:0:0:0:
402,192,126156,1,0,0:0:0:0:
475,192,127410,1,0,0:0:0:0:
402,192,127437,1,0,0:0:0:0:
182,192,127437,1,0,0:0:0:0:
36,192,128091,1,0,0:0:0:0:
475,192,129072,1,0,0:0:0:0:
402,192,129399,1,0,0:0:0:0:
329,192,129726,1,0,0:0:0:0:
256,192,130032,1,0,0:0:0:0:
36,192,130053,1,0,0:0:0:0:
329,192,130053,1,0,0:0:0:0:
109,192,130053,1,0,0:0:0:0:
402,192,130073,1,0,0:0:0:0:
109,192,131340,1,0,0:0:0:0:
475,192,131361,1,0,0:0:0:0:
182,192,131361,1,0,0:0:0:0:
402,192,131361,1,0,0:0:0:0:
256,192,131381,1,0,0:0:0:0:
182,192,132015,1,0,0:0:0:0:
36,192,132015,1,0,0:0:0:0:
475,192,132648,1,0,0:0:0:0:
402,192,132669,1,0,0:0:0:0:
256,192,132669,1,0,0:0:0:0:
109,192,133323,1,0,0:0:0:0:
402,192,134303,1,0,0:0:0:0:
329,192,134630,1,0,0:0:0:0:
256,192,134957,1,0,0:0:0:0:
36,192,135264,1,0,0:0:0:0:
402,192,135284,1,0,0:0:0:0:
475,192,135284,1,0,0:0:0:0:
109,192,135284,1,0,0:0:0:0:
182,192,135305,1,0,0:0:0:0:
256,192,136102,1,0,0:0:0:0:
329,192,136265,1,0,0:0:0:0:
402,192,136429,1,0,0:0:0:0:
109,192,136592,1,0,0:0:0:0:
475,192,136592,1,0,0:0:0:0:
182,192,136633,1,0,0:0:0:0:
256,192,136674,1,0,0:0:0:0:
36,192,137410,1,0,0:0:0:0:
109,192,137573,1,0,0:0:0:0:
182,192,137737,1,0,0:0:0:0:
475,192,137900,1,0,0:0:0:0:
256,192,137900,1,0,0:0:0:0:
402,192,137900,1,0,0:0:0:0:
36,192,138554,1,0,0:0:0:0:
475,192,139208,1,0,0:0:0:0:
402,192,139862,1,0,0:0:0:0:
329,192,140516,1,0,0:0:0:0:
182,192,140516,1,0,0:0:0:0:
36,192,140516,1,0,0:0:0:0:
109,192,141170,1,0,0:0:0:0:
475,192,141824,1,0,0:0:0:0:
402,192,141824,1,0,0:0:0:0:
256,192,141824,1,0,0:0:0:0:
182,192,142641,1,0,0:0:0:0:
256,192,142805,1,0,0:0:0:0:
329,192,142968,1,0,0:0:0:0:
402,192,143132,128,0,145666:0:0:0:0:
182,192,143132,1,0,0:0:0:0:
36,192,143132,1,0,0:0:0:0:
109,192,144440,128,0,145666:0:0:0:0:
256,192,144440,1,0,0:0:0:0:
475,192,145094,1,0,0:0:0:0:
256,192,145257,1,0,0:0:0:0:
36,192,145421,128,0,145502:0:0:0:0:
329,192,145502,128,0,145584:0:0:0:0:
182,192,145584,128,0,145666:0:0:0:0:
475,192,145666,128,0,145748:0:0:0:0:
256,192,145748,1,0,0:0:0:0:
329,192,145748,1,0,0:0:0:50:KicK.wav
402,192,145748,1,0,0:0:0:30:Crash-L.wav
36,192,145748,1,0,0:0:0:0:
109,192,145829,1,0,0:0:0:0:
182,192,145911,1,0,0:0:0:0:
109,192,146075,1,0,0:0:0:0:
329,192,146075,1,0,0:0:0:0:
475,192,146156,1,0,0:0:0:0:
329,192,146238,1,0,0:0:0:0:
182,192,146402,1,0,0:0:0:0:
402,192,146402,1,0,0:0:0:0:
256,192,146483,1,0,0:0:0:0:
329,192,146565,1,0,0:0:0:0:
36,192,146729,1,0,0:0:0:0:
402,192,146729,1,0,0:0:0:0:
182,192,146810,1,0,0:0:0:0:
36,192,146892,1,0,0:0:0:0:
475,192,147056,1,0,0:0:0:0:
256,192,147056,1,0,0:0:0:0:
109,192,147056,1,0,0:0:0:0:
402,192,147137,1,0,0:0:0:0:
329,192,147219,1,0,0:0:0:0:
402,192,147382,1,0,0:0:0:0:
182,192,147382,1,0,0:0:0:0:
36,192,147464,1,0,0:0:0:0:
182,192,147546,1,0,0:0:0:0:
109,192,147709,1,0,0:0:0:0:
402,192,147709,1,0,0:0:0:0:
329,192,147791,1,0,0:0:0:0:
256,192,147873,1,0,0:0:0:0:
329,192,148036,1,0,0:0:0:0:
182,192,148036,1,0,0:0:0:0:
475,192,148118,1,0,0:0:0:0:
329,192,148200,1,0,0:0:0:0:
256,192,148363,1,0,0:0:0:0:
36,192,148363,1,0,0:0:0:0:
475,192,148363,1,0,0:0:0:0:
182,192,148445,1,0,0:0:0:0:
109,192,148527,1,0,0:0:0:0:
402,192,148690,1,0,0:0:0:0:
182,192,148690,1,0,0:0:0:0:
329,192,148772,1,0,0:0:0:0:
402,192,148854,1,0,0:0:0:0:
109,192,149017,1,0,0:0:0:0:
475,192,149017,1,0,0:0:0:0:
402,192,149099,1,0,0:0:0:0:
329,192,149181,1,0,0:0:0:0:
256,192,149344,1,0,0:0:0:0:
36,192,149344,1,0,0:0:0:0:
402,192,149426,1,0,0:0:0:0:
256,192,149508,1,0,0:0:0:0:
109,192,149671,1,0,0:0:0:0:
329,192,149671,1,0,0:0:0:0:
182,192,149753,1,0,0:0:0:0:
256,192,149835,1,0,0:0:0:0:
182,192,149998,1,0,0:0:0:0:
329,192,149998,1,0,0:0:0:0:
402,192,149998,128,0,150162:0:0:0:0:
109,192,150080,1,0,0:0:0:0:
182,192,150162,1,0,0:0:0:0:
36,192,150325,1,0,0:0:0:0:
256,192,150325,1,0,0:0:0:0:
329,192,150325,128,0,150489:0:0:0:0:
182,192,150407,1,0,0:0:0:0:
109,192,150489,1,0,0:0:0:0:
475,192,150652,1,0,0:0:0:0:
182,192,150652,1,0,0:0:0:0:
256,192,150652,128,0,150816:0:0:0:0:
329,192,150734,1,0,0:0:0:0:
475,192,150816,1,0,0:0:0:0:
36,192,150979,1,0,0:0:0:0:
182,192,150979,1,0,0:0:0:0:
402,192,150979,1,0,0:0:0:0:
329,192,151061,1,0,0:0:0:0:
256,192,151143,1,0,0:0:0:0:
329,192,151306,1,0,0:0:0:0:
109,192,151306,1,0,0:0:0:0:
182,192,151388,1,0,0:0:0:0:
109,192,151470,1,0,0:0:0:0:
256,192,151633,1,0,0:0:0:0:
475,192,151633,1,0,0:0:0:0:
402,192,151715,1,0,0:0:0:0:
329,192,151797,1,0,0:0:0:0:
475,192,151960,1,0,0:0:0:0:
36,192,151960,1,0,0:0:0:0:
182,192,151960,1,0,0:0:0:0:
329,192,152042,1,0,0:0:0:0:
182,192,152124,1,0,0:0:0:0:
475,192,152287,1,0,0:0:0:0:
109,192,152287,1,0,0:0:0:0:
256,192,152287,1,0,0:0:0:0:
329,192,152369,1,0,0:0:0:0:
402,192,152451,1,0,0:0:0:0:
329,192,152614,1,0,0:0:0:0:
36,192,152614,1,0,0:0:0:0:
182,192,152696,1,0,0:0:0:0:
36,192,152778,1,0,0:0:0:0:
329,192,152941,1,0,0:0:0:0:
475,192,152941,1,0,0:0:0:0:
109,192,152941,1,0,0:0:0:0:
256,192,153023,1,0,0:0:0:0:
182,192,153105,1,0,0:0:0:0:
402,192,153268,1,0,0:0:0:0:
109,192,153268,1,0,0:0:0:0:
256,192,153350,1,0,0:0:0:0:
402,192,153432,1,0,0:0:0:0:
182,192,153595,1,0,0:0:0:0:
329,192,153595,1,0,0:0:0:0:
36,192,153595,1,0,0:0:0:0:
402,192,153677,1,0,0:0:0:0:
475,192,153759,1,0,0:0:0:0:
256,192,153922,1,0,0:0:0:0:
109,192,153922,1,0,0:0:0:0:
36,192,154004,1,0,0:0:0:0:
109,192,154085,1,0,0:0:0:0:
402,192,154249,1,0,0:0:0:0:
182,192,154249,1,0,0:0:0:0:
329,192,154331,1,0,0:0:0:0:
256,192,154412,1,0,0:0:0:0:
475,192,154576,1,0,0:0:0:0:
109,192,154576,1,0,0:0:0:0:
329,192,154658,1,0,0:0:0:0:
475,192,154739,1,0,0:0:0:0:
36,192,154903,1,0,0:0:0:0:
182,192,154903,1,0,0:0:0:0:
256,192,154985,1,0,0:0:0:0:
329,192,155066,1,0,0:0:0:0:
36,192,155230,1,0,0:0:0:0:
475,192,155230,1,0,0:0:0:0:
182,192,155230,128,0,155393:0:0:0:0:
329,192,155312,1,0,0:0:0:0:
475,192,155393,1,0,0:0:0:0:
182,192,155557,1,0,0:0:0:0:
402,192,155557,1,0,0:0:0:0:
109,192,155557,128,0,155720:0:0:0:0:
256,192,155639,1,0,0:0:0:0:
329,192,155720,1,0,0:0:0:0:
182,192,155884,1,0,0:0:0:0:
475,192,155884,1,0,0:0:0:0:
36,192,155884,128,0,156047:0:0:0:0:
329,192,155966,1,0,0:0:0:0:
182,192,156047,1,0,0:0:0:0:
475,192,156211,1,0,0:0:0:30:Crash-L.wav
402,192,156211,1,0,0:0:0:0:
256,192,156211,1,0,0:0:0:0:
36,192,156211,1,0,0:0:0:50:KicK.wav
109,192,156293,1,0,0:0:0:0:
182,192,156374,1,0,0:0:0:0:
475,192,156538,1,0,0:0:0:0:
109,192,156538,1,0,0:0:0:0:
329,192,156620,1,0,0:0:0:0:
475,192,156701,1,0,0:0:0:0:
256,192,156865,1,0,0:0:0:0:
36,192,156865,1,0,0:0:0:0:
182,192,156947,1,0,0:0:0:0:
109,192,157028,1,0,0:0:0:0:
329,192,157028,1,0,0:0:0:0:
402,192,157192,1,0,0:0:0:0:
182,192,157192,1,0,0:0:0:0:
329,192,157273,1,0,0:0:0:0:
256,192,157355,1,0,0:0:0:0:
475,192,157355,1,0,0:0:0:0:
36,192,157519,1,0,0:0:0:0:
109,192,157519,1,0,0:0:0:0:
329,192,157519,1,0,0:0:0:0:
182,192,157600,1,0,0:0:0:0:
402,192,157600,1,0,0:0:0:0:
256,192,157682,1,0,0:0:0:0:
182,192,157846,1,0,0:0:0:0:
475,192,157846,1,0,0:0:0:0:
329,192,157927,1,0,0:0:0:0:
475,192,158009,1,0,0:0:0:0:
109,192,158173,1,0,0:0:0:0:
402,192,158173,1,0,0:0:0:0:
182,192,158254,1,0,0:0:0:0:
36,192,158336,1,0,0:0:0:0:
256,192,158336,1,0,0:0:0:0:
109,192,158500,1,0,0:0:0:0:
329,192,158500,1,0,0:0:0:0:
475,192,158500,1,0,0:0:0:0:
256,192,158581,1,0,0:0:0:0:
402,192,158663,1,0,0:0:0:0:
182,192,158663,1,0,0:0:0:0:
36,192,158827,1,0,0:0:0:30:Crash-L.wav
475,192,158827,1,0,0:0:0:0:
109,192,158827,1,0,0:0:0:0:
256,192,158827,1,0,0:0:0:50:KicK.wav
329,192,158908,1,0,0:0:0:0:
402,192,158990,1,0,0:0:0:0:
329,192,159154,1,0,0:0:0:0:
36,192,159154,1,0,0:0:0:0:
182,192,159235,1,0,0:0:0:0:
36,192,159317,1,0,0:0:0:0:
109,192,159481,1,0,0:0:0:0:
475,192,159481,1,0,0:0:0:0:
256,192,159481,1,0,0:0:0:0:
402,192,159562,1,0,0:0:0:0:
329,192,159644,1,0,0:0:0:0:
182,192,159808,1,0,0:0:0:0:
36,192,159808,1,0,0:0:0:0:
329,192,159889,1,0,0:0:0:0:
182,192,159971,1,0,0:0:0:0:
475,192,160135,1,0,0:0:0:30:Crash-L.wav
36,192,160135,1,0,0:0:0:0:
256,192,160135,1,0,0:0:0:0:
402,192,160135,1,0,0:0:0:50:KicK.wav
182,192,160216,1,0,0:0:0:0:
109,192,160298,1,0,0:0:0:0:
329,192,160462,1,0,0:0:0:0:
182,192,160462,1,0,0:0:0:0:
475,192,160543,1,0,0:0:0:0:
329,192,160625,1,0,0:0:0:0:
256,192,160788,1,0,0:0:0:30:Crash-L.wav
402,192,160788,1,0,0:0:0:0:
36,192,160788,1,0,0:0:0:0:
475,192,160788,1,0,0:0:0:50:KicK.wav
182,192,160870,1,0,0:0:0:0:
109,192,160952,1,0,0:0:0:0:
182,192,161115,1,0,0:0:0:0:
329,192,161115,1,0,0:0:0:0:
36,192,161197,1,0,0:0:0:0:
182,192,161279,1,0,0:0:0:0:
475,192,161442,1,0,0:0:0:30:Crash-L.wav
36,192,161442,1,0,0:0:0:0:
109,192,161442,1,0,0:0:0:0:
256,192,161442,1,0,0:0:0:50:KicK.wav
402,192,161524,1,0,0:0:0:0:
329,192,161606,1,0,0:0:0:0:
402,192,161769,1,0,0:0:0:0:
109,192,161769,1,0,0:0:0:0:
256,192,161851,1,0,0:0:0:0:
109,192,161933,1,0,0:0:0:0:
36,192,162096,1,0,0:0:0:0:
182,192,162096,1,0,0:0:0:0:
109,192,162260,1,0,0:0:0:0:
256,192,162260,1,0,0:0:0:0:
182,192,162423,1,0,0:0:0:0:
329,192,162423,1,0,0:0:0:0:
475,192,162587,1,0,0:0:0:50:KicK.wav
36,192,162587,1,0,0:0:0:0:
402,192,162587,1,0,0:0:0:0:
256,192,162587,1,0,0:0:0:0:
109,192,162669,1,0,0:0:0:0:
182,192,162750,1,0,0:0:0:50:KicK.wav
329,192,162750,1,0,0:0:0:30:Crash-L.wav
402,192,162750,1,0,0:0:0:0:
475,192,162750,1,0,0:0:0:0:
109,192,162914,1,0,0:0:0:0:
36,192,163077,1,0,0:0:0:0:
256,192,163077,1,0,0:0:0:0:
475,192,163077,1,0,0:0:0:0:
402,192,163159,1,0,0:0:0:0:
329,192,163241,1,0,0:0:0:0:
182,192,163404,1,0,0:0:0:0:
402,192,163404,1,0,0:0:0:0:
36,192,163404,1,0,0:0:0:0:
256,192,163486,1,0,0:0:0:0:
329,192,163568,1,0,0:0:0:0:
36,192,163731,1,0,0:0:0:0:
256,192,163731,1,0,0:0:0:0:
109,192,163813,1,0,0:0:0:0:
182,192,163895,1,0,0:0:0:50:KicK.wav
402,192,163895,1,0,0:0:0:0:
475,192,163895,1,0,0:0:0:0:
329,192,163895,1,0,0:0:0:0:
109,192,163976,1,0,0:0:0:0:
402,192,164058,1,0,0:0:0:30:Crash-L.wav
256,192,164058,1,0,0:0:0:0:
36,192,164058,1,0,0:0:0:0:
475,192,164058,1,0,0:0:0:50:KicK.wav
182,192,164222,1,0,0:0:0:0:
402,192,164303,1,0,0:0:0:0:
329,192,164385,1,0,0:0:0:0:
182,192,164385,1,0,0:0:0:0:
402,192,164467,1,0,0:0:0:0:
36,192,164549,1,0,0:0:0:50:KicK.wav
256,192,164549,1,0,0:0:0:0:
109,192,164549,1,0,0:0:0:0:
475,192,164549,1,0,0:0:0:0:
329,192,164630,1,0,0:0:0:0:
475,192,164712,1,0,0:0:0:0:
36,192,164712,1,0,0:0:0:0:
402,192,164712,1,0,0:0:0:30:Crash-L.wav
182,192,164712,1,0,0:0:0:50:KicK.wav
256,192,164794,1,0,0:0:0:0:
329,192,164876,1,0,0:0:0:0:
109,192,164876,1,0,0:0:0:0:
182,192,164957,1,0,0:0:0:0:
329,192,165039,1,0,0:0:0:0:
109,192,165039,1,0,0:0:0:0:
402,192,165121,1,0,0:0:0:0:
36,192,165203,1,0,0:0:0:50:KicK.wav
256,192,165203,1,0,0:0:0:0:
109,192,165203,1,0,0:0:0:0:
475,192,165203,1,0,0:0:0:0:
329,192,165257,1,0,0:0:0:0:
182,192,165312,1,0,0:0:0:0:
36,192,165366,1,0,0:0:0:50:KicK.wav
256,192,165366,1,0,0:0:0:0:
402,192,165366,1,0,0:0:0:0:
475,192,165366,1,0,0:0:0:30:Crash-L.wav
109,192,165530,1,0,0:0:0:0:
182,192,165693,1,0,0:0:0:50:KicK.wav
402,192,165693,1,0,0:0:0:0:
475,192,165693,1,0,0:0:0:0:
329,192,165693,1,0,0:0:0:30:Crash-S.wav
256,192,165857,1,0,0:0:0:0:
36,192,166020,1,0,0:0:0:0:
182,192,166020,1,0,0:0:0:30:Crash-L.wav
329,192,166020,1,0,0:0:0:50:KicK.wav
475,192,166102,1,0,0:0:0:50:KicK.wav
256,192,166102,1,0,0:0:0:0:
182,192,166184,1,0,0:0:0:0:
402,192,166184,1,0,0:0:0:50:KicK.wav
109,192,166265,1,0,0:0:0:0:
329,192,166265,1,0,0:0:0:50:KicK.wav
402,192,166347,1,0,0:0:0:50:KicK.wav
475,192,166347,1,0,0:0:0:0:
256,192,166347,1,0,0:0:0:0:
36,192,166429,1,0,0:0:0:0:
182,192,166511,1,0,0:0:0:0:
329,192,166592,1,0,0:0:0:0:
36,192,166674,5,0,0:0:0:50:KicK.wav
109,192,166674,1,0,0:0:0:0:
256,192,166674,1,0,0:0:0:30:Crash-L.wav
475,192,166674,1,0,0:0:0:0:
402,192,166756,1,0,0:0:0:0:
329,192,166838,1,0,0:0:0:0:
182,192,166838,1,0,0:0:0:0:
109,192,166919,1,0,0:0:0:0:
402,192,167001,1,0,0:0:0:0:
329,192,167083,1,0,0:0:0:0:
256,192,167165,1,0,0:0:0:0:
109,192,167165,1,0,0:0:0:0:
36,192,167246,1,0,0:0:0:0:
475,192,167328,1,0,0:0:0:50:KicK.wav
402,192,167328,1,0,0:0:0:0:
182,192,167328,1,0,0:0:0:0:
256,192,167410,1,0,0:0:0:0:
109,192,167491,1,0,0:0:0:0:
329,192,167491,1,0,0:0:0:0:
402,192,167573,1,0,0:0:0:0:
36,192,167655,1,0,0:0:0:0:
256,192,167655,1,0,0:0:0:0:
329,192,167737,1,0,0:0:0:0:
402,192,167818,1,0,0:0:0:0:
109,192,167818,1,0,0:0:0:0:
475,192,167900,1,0,0:0:0:0:
329,192,167982,1,0,0:0:0:50:KicK.wav
36,192,167982,1,0,0:0:0:0:
182,192,167982,1,0,0:0:0:0:
256,192,168145,1,0,0:0:0:0:
402,192,168145,1,0,0:0:0:0:
182,192,168227,1,0,0:0:0:0:
475,192,168309,1,0,0:0:0:50:KicK.wav
36,192,168309,1,0,0:0:0:0:
109,192,168309,1,0,0:0:0:0:
256,192,168363,1,0,0:0:0:0:
329,192,168418,1,0,0:0:0:0:
182,192,168472,1,0,0:0:0:0:
402,192,168472,1,0,0:0:0:0:
475,192,168636,1,0,0:0:0:50:KicK.wav
36,192,168636,1,0,0:0:0:0:
256,192,168636,1,0,0:0:0:0:
109,192,168799,1,0,0:0:0:0:
402,192,168799,1,0,0:0:0:0:
256,192,168881,1,0,0:0:0:0:
182,192,168963,1,0,0:0:0:0:
329,192,169045,1,0,0:0:0:0:
256,192,169126,1,0,0:0:0:0:
475,192,169126,1,0,0:0:0:0:
402,192,169208,1,0,0:0:0:0:
36,192,169290,1,0,0:0:0:50:KicK.wav
329,192,169290,1,0,0:0:0:0:
182,192,169290,1,0,0:0:0:0:
475,192,169453,1,0,0:0:0:0:
329,192,169617,1,0,0:0:0:0:
109,192,169617,1,0,0:0:0:0:
256,192,169699,1,0,0:0:0:0:
182,192,169780,1,0,0:0:0:0:
402,192,169780,1,0,0:0:0:0:
109,192,169862,1,0,0:0:0:0:
36,192,169944,1,0,0:0:0:50:KicK.wav
475,192,169944,1,0,0:0:0:0:
256,192,169944,1,0,0:0:0:0:
402,192,170107,1,0,0:0:0:0:
329,192,170271,1,0,0:0:0:50:KicK.wav
36,192,170271,1,0,0:0:0:0:
182,192,170271,1,0,0:0:0:0:
109,192,170434,1,0,0:0:0:0:
36,192,170598,1,0,0:0:0:50:KicK.wav
256,192,170598,1,0,0:0:0:0:
475,192,170598,1,0,0:0:0:0:
182,192,170679,1,0,0:0:0:0:
109,192,170761,1,0,0:0:0:0:
329,192,170761,1,0,0:0:0:0:
256,192,170843,1,0,0:0:0:0:
36,192,170925,1,0,0:0:0:50:KicK.wav
182,192,170925,1,0,0:0:0:0:
402,192,170925,1,0,0:0:0:0:
329,192,171006,1,0,0:0:0:0:
475,192,171088,1,0,0:0:0:0:
256,192,171088,1,0,0:0:0:0:
402,192,171170,1,0,0:0:0:0:
329,192,171252,1,0,0:0:0:0:
36,192,171252,1,0,0:0:0:50:KicK.wav
109,192,171252,1,0,0:0:0:0:
182,192,171333,1,0,0:0:0:0:
36,192,171415,1,0,0:0:0:50:KicK.wav
329,192,171415,1,0,0:0:0:0:
109,192,171415,1,0,0:0:0:0:
256,192,171497,1,0,0:0:0:0:
475,192,171579,1,0,0:0:0:0:
182,192,171579,1,0,0:0:0:50:KicK.wav
402,192,171579,1,0,0:0:0:0:
36,192,171660,1,0,0:0:0:50:KicK.wav
256,192,171660,1,0,0:0:0:0:
109,192,171742,1,0,0:0:0:50:KicK.wav
329,192,171742,1,0,0:0:0:0:
182,192,171824,1,0,0:0:0:50:KicK.wav
402,192,171824,1,0,0:0:0:0:
475,192,171906,1,0,0:0:0:30:Crash-L.wav
36,192,171906,1,0,0:0:0:0:
256,192,171906,1,0,0:0:0:50:KicK.wav
109,192,171906,1,0,0:0:0:0:
182,192,172069,1,0,0:0:0:0:
402,192,172069,1,0,0:0:0:0:
329,192,172124,1,0,0:0:0:0:
256,192,172178,1,0,0:0:0:0:
109,192,172233,1,0,0:0:0:30:Crash-L.wav
475,192,172233,1,0,0:0:0:50:KicK.wav
402,192,172233,1,0,0:0:0:0:
36,192,172233,1,0,0:0:0:0:
182,192,172396,1,0,0:0:0:0:
475,192,172560,1,0,0:0:0:0:
402,192,172560,1,0,0:0:0:30:Crash-L.wav
256,192,172560,1,0,0:0:0:50:KicK.wav
36,192,172560,1,0,0:0:0:0:
109,192,172723,1,0,0:0:0:0:
329,192,172805,1,0,0:0:0:0:
402,192,172887,1,0,0:0:0:50:KicK.wav
475,192,172887,1,0,0:0:0:0:
182,192,172887,1,0,0:0:0:0:
36,192,172968,1,0,0:0:0:0:
402,192,173050,1,0,0:0:0:50:KicK.wav
475,192,173050,1,0,0:0:0:0:
109,192,173050,1,0,0:0:0:0:
182,192,173132,1,0,0:0:0:0:
256,192,173214,1,0,0:0:0:50:KicK.wav
36,192,173214,1,0,0:0:0:30:Crash-L.wav
475,192,173214,1,0,0:0:0:0:
402,192,173214,1,0,0:0:0:0:
329,192,173377,1,0,0:0:0:0:
109,192,173377,1,0,0:0:0:0:
256,192,173432,1,0,0:0:0:0:
182,192,173486,1,0,0:0:0:0:
475,192,173541,1,0,0:0:0:30:Crash-L.wav
329,192,173541,1,0,0:0:0:50:KicK.wav
36,192,173541,1,0,0:0:0:0:
402,192,173541,1,0,0:0:0:0:
109,192,173704,1,0,0:0:0:0:
182,192,173704,1,0,0:0:0:50:KicK.wav
36,192,173704,1,0,0:0:0:0:
329,192,173868,1,0,0:0:0:30:Crash-L.wav
182,192,173868,1,0,0:0:0:50:KicK.wav
475,192,173868,1,0,0:0:0:0:
402,192,173868,1,0,0:0:0:0:
256,192,174031,1,0,0:0:0:0:
182,192,174113,1,0,0:0:0:0:
475,192,174194,1,0,0:0:0:0:
109,192,174194,1,0,0:0:0:50:KicK.wav
329,192,174194,1,0,0:0:0:0:
256,192,174276,1,0,0:0:0:50:KicK.wav
36,192,174276,1,0,0:0:0:0:
329,192,174358,1,0,0:0:0:50:KicK.wav
109,192,174358,1,0,0:0:0:0:
402,192,174440,1,0,0:0:0:0:
182,192,174440,1,0,0:0:0:50:KicK.wav
109,192,174521,1,0,0:0:0:30:Crash-L.wav
36,192,174521,1,0,0:0:0:0:
256,192,174521,1,0,0:0:0:0:
475,192,174521,1,0,0:0:0:50:KicK.wav
475,192,174848,1,0,0:0:0:0:
36,192,174848,1,0,0:0:0:50:KicK.wav
256,192,174848,1,0,0:0:0:0:
182,192,174930,1,0,0:0:0:50:KicK.wav
402,192,174930,1,0,0:0:0:0:
109,192,175012,1,0,0:0:0:50:KicK.wav
329,192,175012,1,0,0:0:0:0:
36,192,175094,1,0,0:0:0:50:KicK.wav
256,192,175094,1,0,0:0:0:0:
182,192,175175,1,0,0:0:0:30:Crash-L.wav
475,192,175175,1,0,0:0:0:0:
402,192,175175,1,0,0:0:0:0:
329,192,175175,1,0,0:0:0:50:KicK.wav
182,192,175502,128,0,175748:0:0:0:0:
109,192,175502,128,0,175748:0:0:0:0:
402,192,175502,1,0,0:0:0:50:KicK.wav
475,192,175502,1,0,0:0:0:0:
329,192,175584,1,0,0:0:0:50:KicK.wav
475,192,175666,1,0,0:0:0:0:
402,192,175666,1,0,0:0:0:50:KicK.wav
329,192,175748,1,0,0:0:0:50:KicK.wav
36,192,175829,1,0,0:0:0:0:
256,192,175829,1,0,0:0:0:50:KicK.wav
402,192,175829,1,0,0:0:0:30:Crash-L.wav
475,192,175829,1,0,0:0:0:0:
36,192,175993,1,0,0:0:0:50:KicK.wav
109,192,175993,1,0,0:0:0:0:
402,192,176034,1,0,0:0:0:50:KicK.wav
329,192,176075,1,0,0:0:0:50:KicK.wav
256,192,176115,1,0,0:0:0:50:KicK.wav
475,192,176156,1,0,0:0:0:50:KicK.wav
36,192,176156,1,0,0:0:0:0:
109,192,176156,1,0,0:0:0:30:Crash-L.wav
402,192,176238,1,0,0:0:0:0:
182,192,176320,1,0,0:0:0:50:KicK.wav
329,192,176320,1,0,0:0:0:0:
475,192,176402,1,0,0:0:0:50:KicK.wav
402,192,176402,1,0,0:0:0:0:
36,192,176483,1,0,0:0:0:0:
256,192,176483,1,0,0:0:0:50:KicK.wav
109,192,176483,1,0,0:0:0:30:Crash-L.wav
475,192,176565,1,0,0:0:0:50:KicK.wav
402,192,176565,1,0,0:0:0:0:
329,192,176647,1,0,0:0:0:50:KicK.wav
182,192,176647,1,0,0:0:0:0:
109,192,176729,1,0,0:0:0:0:
36,192,176729,1,0,0:0:0:50:KicK.wav
475,192,176810,1,0,0:0:0:0:
402,192,176810,1,0,0:0:0:50:KicK.wav
256,192,176810,1,0,0:0:0:30:Crash-L.wav
182,192,176892,1,0,0:0:0:0:
109,192,176892,1,0,0:0:0:50:KicK.wav
475,192,176974,1,0,0:0:0:50:KicK.wav
402,192,176974,1,0,0:0:0:0:
329,192,177015,1,0,0:0:0:50:KicK.wav
256,192,177056,1,0,0:0:0:50:KicK.wav
182,192,177096,1,0,0:0:0:50:KicK.wav
402,192,177137,1,0,0:0:0:50:KicK.wav
109,192,177137,1,0,0:0:0:30:Crash-L.wav
36,192,177137,1,0,0:0:0:0:
475,192,177137,1,0,0:0:0:0:
329,192,177464,1,0,0:0:0:50:KicK.wav
475,192,177464,1,0,0:0:0:0:
36,192,177464,1,0,0:0:0:0:
256,192,177573,1,0,0:0:0:0:
182,192,177573,1,0,0:0:0:0:
256,192,177682,1,0,0:0:0:0:
182,192,177682,1,0,0:0:0:0:
475,192,177791,1,0,0:0:0:50:KicK.wav
109,192,177791,1,0,0:0:0:0:
402,192,177791,1,0,0:0:0:0:
329,192,177900,1,0,0:0:0:0:
256,192,177900,1,0,0:0:0:0:
329,192,178009,1,0,0:0:0:0:
256,192,178009,1,0,0:0:0:0:
182,192,178118,1,0,0:0:0:0:
36,192,178118,1,0,0:0:0:50:KicK.wav
475,192,178118,1,0,0:0:0:0:
402,192,178227,1,0,0:0:0:0:
329,192,178227,1,0,0:0:0:0:
402,192,178336,1,0,0:0:0:0:
329,192,178336,1,0,0:0:0:0:
256,192,178445,1,0,0:0:0:0:
36,192,178445,1,0,0:0:0:0:
475,192,178445,1,0,0:0:0:50:KicK.wav
109,192,178527,1,0,0:0:0:0:
402,192,178609,1,0,0:0:0:0:
182,192,178609,1,0,0:0:0:0:
329,192,178663,1,0,0:0:0:0:
256,192,178718,1,0,0:0:0:0:
475,192,178772,1,0,0:0:0:0:
109,192,178772,1,0,0:0:0:0:
36,192,178772,1,0,0:0:0:50:KicK.wav
475,192,178936,1,0,0:0:0:0:
256,192,179099,1,0,0:0:0:0:
329,192,179099,1,0,0:0:0:0:
36,192,179099,128,0,179263:0:0:0:50:KicK.wav
182,192,179181,1,0,0:0:0:0:
402,192,179263,1,0,0:0:0:0:
109,192,179263,1,0,0:0:0:0:
36,192,179426,128,0,179590:0:0:0:50:KicK.wav
475,192,179426,1,0,0:0:0:0:
182,192,179426,1,0,0:0:0:0:
402,192,179508,1,0,0:0:0:0:
329,192,179590,1,0,0:0:0:0:
256,192,179590,1,0,0:0:0:0:
36,192,179753,1,0,0:0:0:0:
475,192,179753,1,0,0:0:0:0:
182,192,179753,1,0,0:0:0:50:KicK.wav
256,192,179835,1,0,0:0:0:0:
329,192,179917,1,0,0:0:0:0:
109,192,179917,1,0,0:0:0:0:
402,192,179998,1,0,0:0:0:0:
256,192,180080,1,0,0:0:0:0:
475,192,180080,1,0,0:0:0:0:
36,192,180080,1,0,0:0:0:50:KicK.wav
182,192,180162,1,0,0:0:0:0:
402,192,180244,1,0,0:0:0:0:
109,192,180244,1,0,0:0:0:0:
182,192,180325,1,0,0:0:0:0:
475,192,180407,1,0,0:0:0:0:
36,192,180407,1,0,0:0:0:0:
256,192,180407,1,0,0:0:0:50:KicK.wav
329,192,180489,1,0,0:0:0:0:
109,192,180570,1,0,0:0:0:0:
256,192,180570,1,0,0:0:0:0:
329,192,180652,1,0,0:0:0:0:
402,192,180734,1,0,0:0:0:0:
182,192,180734,1,0,0:0:0:0:
36,192,180734,1,0,0:0:0:50:KicK.wav
475,192,180816,1,0,0:0:0:0:
109,192,180897,1,0,0:0:0:0:
329,192,180897,1,0,0:0:0:0:
256,192,180979,1,0,0:0:0:0:
475,192,181061,1,0,0:0:0:0:
182,192,181061,1,0,0:0:0:0:
36,192,181061,1,0,0:0:0:50:KicK.wav
402,192,181143,1,0,0:0:0:0:
109,192,181224,1,0,0:0:0:0:
329,192,181224,1,0,0:0:0:0:
256,192,181306,1,0,0:0:0:0:
182,192,181388,1,0,0:0:0:0:
475,192,181388,1,0,0:0:0:0:
402,192,181388,1,0,0:0:0:50:KicK.wav
36,192,181470,1,0,0:0:0:0:
329,192,181551,1,0,0:0:0:0:
109,192,181551,1,0,0:0:0:0:
182,192,181633,1,0,0:0:0:0:
256,192,181715,1,0,0:0:0:0:
475,192,181715,1,0,0:0:0:0:
36,192,181715,1,0,0:0:0:50:KicK.wav
182,192,181797,1,0,0:0:0:0:
109,192,181878,1,0,0:0:0:0:
402,192,181878,1,0,0:0:0:0:
329,192,182042,1,0,0:0:0:0:
182,192,182042,1,0,0:0:0:0:
475,192,182042,1,0,0:0:0:50:KicK.wav
109,192,182124,1,0,0:0:0:0:
329,192,182205,1,0,0:0:0:0:
36,192,182205,1,0,0:0:0:0:
475,192,182205,1,0,0:0:0:50:KicK.wav
475,192,182369,1,0,0:0:0:0:
329,192,182369,1,0,0:0:0:0:
36,192,182369,1,0,0:0:0:30:Crash-L.wav
182,192,182369,1,0,0:0:0:50:KicK.wav
475,192,182696,1,0,0:0:0:50:KicK.wav
256,192,182696,1,0,0:0:0:0:
36,192,182696,1,0,0:0:0:0:
182,192,182805,1,0,0:0:0:0:
329,192,182805,1,0,0:0:0:0:
329,192,182914,1,0,0:0:0:0:
182,192,182914,1,0,0:0:0:0:
36,192,183023,1,0,0:0:0:50:KicK.wav
475,192,183023,1,0,0:0:0:0:
109,192,183023,1,0,0:0:0:0:
256,192,183132,1,0,0:0:0:0:
402,192,183132,1,0,0:0:0:0:
402,192,183241,1,0,0:0:0:0:
256,192,183241,1,0,0:0:0:0:
475,192,183350,1,0,0:0:0:50:KicK.wav
329,192,183350,1,0,0:0:0:0:
36,192,183350,1,0,0:0:0:0:
182,192,183459,1,0,0:0:0:0:
109,192,183459,1,0,0:0:0:0:
109,192,183568,1,0,0:0:0:0:
182,192,183568,1,0,0:0:0:0:
36,192,183677,1,0,0:0:0:0:
475,192,183677,1,0,0:0:0:0:
256,192,183677,1,0,0:0:0:50:KicK.wav
329,192,183759,1,0,0:0:0:0:
402,192,183840,1,0,0:0:0:0:
109,192,183840,1,0,0:0:0:0:
182,192,183895,1,0,0:0:0:0:
256,192,183949,1,0,0:0:0:0:
475,192,184004,1,0,0:0:0:0:
329,192,184004,1,0,0:0:0:0:
36,192,184004,1,0,0:0:0:50:KicK.wav
329,192,184167,1,0,0:0:0:0:
402,192,184331,128,0,184494:0:0:0:0:
36,192,184331,1,0,0:0:0:50:KicK.wav
182,192,184331,1,0,0:0:0:0:
256,192,184412,1,0,0:0:0:0:
329,192,184494,1,0,0:0:0:0:
402,192,184658,128,0,184821:0:0:0:0:
256,192,184658,1,0,0:0:0:0:
36,192,184658,1,0,0:0:0:50:KicK.wav
182,192,184739,1,0,0:0:0:0:
475,192,184821,1,0,0:0:0:0:
109,192,184821,1,0,0:0:0:0:
329,192,184821,1,0,0:0:0:50:KicK.wav
475,192,184985,1,0,0:0:0:0:
36,192,184985,1,0,0:0:0:0:
329,192,184985,1,0,0:0:0:30:Crash-L.wav
182,192,184985,1,0,0:0:0:50:KicK.wav
475,192,185312,1,0,0:0:0:0:
256,192,185312,1,0,0:0:0:50:KicK.wav
109,192,185312,1,0,0:0:0:0:
36,192,185393,1,0,0:0:0:0:
402,192,185393,1,0,0:0:0:0:
329,192,185475,1,0,0:0:0:50:KicK.wav
109,192,185475,1,0,0:0:0:0:
402,192,185557,1,0,0:0:0:0:
182,192,185557,1,0,0:0:0:0:
36,192,185639,1,0,0:0:0:0:
475,192,185639,1,0,0:0:0:50:KicK.wav
109,192,185639,1,0,0:0:0:30:Crash-L.wav
256,192,185639,1,0,0:0:0:0:
329,192,185966,1,0,0:0:0:0:
475,192,185966,1,0,0:0:0:50:KicK.wav
36,192,185966,1,0,0:0:0:0:
109,192,186047,1,0,0:0:0:0:
256,192,186047,1,0,0:0:0:0:
182,192,186129,1,0,0:0:0:0:
475,192,186129,1,0,0:0:0:50:KicK.wav
256,192,186211,1,0,0:0:0:0:
402,192,186211,1,0,0:0:0:0:
36,192,186293,1,0,0:0:0:0:
329,192,186293,1,0,0:0:0:50:KicK.wav
182,192,186293,1,0,0:0:0:30:Crash-L.wav
109,192,186293,1,0,0:0:0:0:
475,192,186620,1,0,0:0:0:0:
256,192,186620,1,0,0:0:0:50:KicK.wav
36,192,186620,1,0,0:0:0:0:
182,192,186701,1,0,0:0:0:0:
402,192,186701,1,0,0:0:0:0:
329,192,186783,1,0,0:0:0:50:KicK.wav
109,192,186783,1,0,0:0:0:0:
402,192,186865,1,0,0:0:0:0:
256,192,186865,1,0,0:0:0:0:
475,192,186947,1,0,0:0:0:0:
329,192,186947,1,0,0:0:0:30:Crash-L.wav
182,192,186947,1,0,0:0:0:50:KicK.wav
36,192,186947,1,0,0:0:0:0:
402,192,187110,1,0,0:0:0:50:KicK.wav
109,192,187110,1,0,0:0:0:0:
329,192,187151,1,0,0:0:0:50:KicK.wav
182,192,187192,1,0,0:0:0:50:KicK.wav
475,192,187233,1,0,0:0:0:50:KicK.wav
402,192,187273,1,0,0:0:0:50:KicK.wav
109,192,187273,1,0,0:0:0:30:Crash-L.wav
36,192,187273,1,0,0:0:0:0:
256,192,187273,1,0,0:0:0:0:
329,192,187437,1,0,0:0:0:50:KicK.wav
475,192,187437,1,0,0:0:0:0:
182,192,187437,1,0,0:0:0:0:
36,192,187600,1,0,0:0:0:0:
402,192,187600,1,0,0:0:0:0:
256,192,187600,1,0,0:0:0:30:Crash-L.wav
109,192,187600,1,0,0:0:0:50:KicK.wav
36,192,187927,1,0,0:0:0:0:
475,192,187927,1,0,0:0:0:50:KicK.wav
256,192,187927,1,0,0:0:0:0:
182,192,188036,1,0,0:0:0:0:
402,192,188036,1,0,0:0:0:0:
109,192,188145,1,0,0:0:0:0:
329,192,188145,1,0,0:0:0:0:
475,192,188254,128,0,188581:0:0:0:0:
36,192,188254,1,0,0:0:0:50:KicK.wav
256,192,188254,128,0,188581:0:0:0:0:
109,192,188418,1,0,0:0:0:0:
182,192,188581,1,0,0:0:0:50:KicK.wav
402,192,188581,1,0,0:0:0:0:
36,192,188581,1,0,0:0:0:0:
109,192,188745,1,0,0:0:0:0:
329,192,188745,1,0,0:0:0:0:
256,192,188827,1,0,0:0:0:0:
182,192,188908,1,0,0:0:0:30:Crash-L.wav
36,192,188908,1,0,0:0:0:50:KicK.wav
402,192,188908,1,0,0:0:0:0:
475,192,188908,1,0,0:0:0:0:
36,192,189072,1,0,0:0:0:0:
256,192,189072,1,0,0:0:0:0:
109,192,189154,1,0,0:0:0:0:
475,192,189235,1,0,0:0:0:30:Crash-L.wav
329,192,189235,1,0,0:0:0:50:KicK.wav
402,192,189235,1,0,0:0:0:0:
182,192,189235,1,0,0:0:0:0:
109,192,189399,1,0,0:0:0:0:
329,192,189399,1,0,0:0:0:0:
256,192,189481,1,0,0:0:0:0:
36,192,189562,1,0,0:0:0:50:KicK.wav
475,192,189562,1,0,0:0:0:30:Crash-L.wav
182,192,189562,1,0,0:0:0:0:
402,192,189562,1,0,0:0:0:0:
402,192,189726,1,0,0:0:0:0:
182,192,189726,1,0,0:0:0:0:
256,192,189808,1,0,0:0:0:0:
109,192,189889,1,0,0:0:0:30:Crash-L.wav
329,192,189889,1,0,0:0:0:50:KicK.wav
36,192,189889,1,0,0:0:0:0:
475,192,189889,1,0,0:0:0:0:
182,192,190053,1,0,0:0:0:50:KicK.wav
329,192,190053,1,0,0:0:0:0:
109,192,190053,1,0,0:0:0:0:
402,192,190135,1,0,0:0:0:0:
36,192,190216,1,0,0:0:0:50:KicK.wav
182,192,190216,1,0,0:0:0:30:Crash-L.wav
475,192,190216,1,0,0:0:0:0:
256,192,190216,1,0,0:0:0:0:
36,192,190543,1,0,0:0:0:0:
256,192,190543,1,0,0:0:0:50:KicK.wav
475,192,190543,1,0,0:0:0:0:
109,192,190652,1,0,0:0:0:0:
329,192,190652,1,0,0:0:0:0:
402,192,190761,1,0,0:0:0:0:
182,192,190761,1,0,0:0:0:0:
475,192,190870,1,0,0:0:0:50:KicK.wav
256,192,190870,128,0,191197:0:0:0:0:
109,192,190870,128,0,191197:0:0:0:0:
402,192,191034,1,0,0:0:0:0:
36,192,191197,1,0,0:0:0:50:KicK.wav
182,192,191197,1,0,0:0:0:0:
329,192,191197,1,0,0:0:0:0:
402,192,191361,1,0,0:0:0:0:
256,192,191361,1,0,0:0:0:0:
182,192,191442,1,0,0:0:0:0:
329,192,191524,1,0,0:0:0:30:Crash-L.wav
36,192,191524,1,0,0:0:0:50:KicK.wav
475,192,191524,1,0,0:0:0:0:
109,192,191524,1,0,0:0:0:0:
329,192,191688,1,0,0:0:0:0:
182,192,191688,1,0,0:0:0:0:
402,192,191769,1,0,0:0:0:0:
475,192,191851,1,0,0:0:0:30:Crash-L.wav
36,192,191851,1,0,0:0:0:50:KicK.wav
109,192,191851,1,0,0:0:0:0:
256,192,191851,1,0,0:0:0:0:
329,192,192015,1,0,0:0:0:0:
109,192,192015,1,0,0:0:0:0:
182,192,192096,1,0,0:0:0:0:
475,192,192178,1,0,0:0:0:30:Crash-L.wav
256,192,192178,1,0,0:0:0:50:KicK.wav
36,192,192178,1,0,0:0:0:0:
402,192,192178,1,0,0:0:0:0:
182,192,192342,1,0,0:0:0:0:
36,192,192342,1,0,0:0:0:50:KicK.wav
402,192,192342,1,0,0:0:0:0:
329,192,192423,1,0,0:0:0:0:
109,192,192505,1,0,0:0:0:50:KicK.wav
36,192,192505,1,0,0:0:0:0:
475,192,192505,1,0,0:0:0:0:
256,192,192505,1,0,0:0:0:30:Crash-L.wav
256,192,192669,1,0,0:0:0:50:KicK.wav
109,192,192669,1,0,0:0:0:0:
475,192,192669,1,0,0:0:0:0:
329,192,192750,1,0,0:0:0:0:
475,192,192832,1,0,0:0:0:30:Crash-L.wav
402,192,192832,1,0,0:0:0:50:KicK.wav
36,192,192832,1,0,0:0:0:0:
182,192,192832,1,0,0:0:0:0:
36,192,193159,1,0,0:0:0:0:
256,192,193159,1,0,0:0:0:50:KicK.wav
475,192,193159,1,0,0:0:0:0:
402,192,193268,1,0,0:0:0:0:
109,192,193268,1,0,0:0:0:0:
329,192,193377,1,0,0:0:0:0:
182,192,193377,1,0,0:0:0:0:
36,192,193486,1,0,0:0:0:50:KicK.wav
475,192,193486,1,0,0:0:0:30:Crash-L.wav
402,192,193486,128,0,193813:0:0:0:0:
256,192,193486,128,0,193813:0:0:0:0:
109,192,193650,1,0,0:0:0:0:
182,192,193813,1,0,0:0:0:20:Crash-S.wav
475,192,193813,1,0,0:0:0:50:KicK.wav
329,192,193813,1,0,0:0:0:0:
109,192,193976,1,0,0:0:0:0:
329,192,193976,1,0,0:0:0:20:Crash-S.wav
36,192,193976,1,0,0:0:0:0:
182,192,194058,1,0,0:0:0:0:
402,192,194140,1,0,0:0:0:50:KicK.wav
36,192,194140,1,0,0:0:0:30:Crash-L.wav
475,192,194140,1,0,0:0:0:0:
256,192,194140,1,0,0:0:0:0:
182,192,194303,1,0,0:0:0:0:
402,192,194303,1,0,0:0:0:0:
329,192,194385,1,0,0:0:0:0:
36,192,194467,1,0,0:0:0:30:Crash-L.wav
109,192,194467,1,0,0:0:0:50:KicK.wav
256,192,194467,1,0,0:0:0:0:
475,192,194467,1,0,0:0:0:0:
329,192,194630,1,0,0:0:0:0:
109,192,194630,1,0,0:0:0:0:
182,192,194712,1,0,0:0:0:0:
36,192,194794,1,0,0:0:0:30:Crash-L.wav
475,192,194794,1,0,0:0:0:50:KicK.wav
256,192,194794,1,0,0:0:0:0:
402,192,194794,1,0,0:0:0:0:
109,192,194957,1,0,0:0:0:0:
256,192,194957,1,0,0:0:0:0:
329,192,195039,1,0,0:0:0:0:
36,192,195121,1,0,0:0:0:30:Crash-L.wav
402,192,195121,1,0,0:0:0:50:KicK.wav
475,192,195121,1,0,0:0:0:0:
182,192,195121,1,0,0:0:0:0:
475,192,195284,1,0,0:0:0:50:KicK.wav
182,192,195284,1,0,0:0:0:0:
402,192,195284,1,0,0:0:0:0:
109,192,195366,1,0,0:0:0:0:
256,192,195448,1,0,0:0:0:30:Crash-L.wav
475,192,195448,1,0,0:0:0:50:KicK.wav
402,192,195448,1,0,0:0:0:0:
36,192,195448,1,0,0:0:0:0:
256,192,195611,1,0,0:0:0:0:
109,192,195611,1,0,0:0:0:50:KicK.wav
36,192,195611,1,0,0:0:0:0:
329,192,195693,1,0,0:0:0:0:
475,192,195775,1,0,0:0:0:50:KicK.wav
402,192,195775,1,0,0:0:0:30:Crash-L.wav
182,192,195775,1,0,0:0:0:0:
109,192,195775,1,0,0:0:0:0:
402,192,195938,1,0,0:0:0:0:
182,192,195938,1,0,0:0:0:50:KicK.wav
329,192,195938,1,0,0:0:0:0:
109,192,196020,1,0,0:0:0:0:
329,192,196102,1,0,0:0:0:50:KicK.wav
256,192,196102,1,0,0:0:0:30:Crash-L.wav
36,192,196102,1,0,0:0:0:0:
475,192,196102,1,0,0:0:0:0:
256,192,196265,1,0,0:0:0:0:
182,192,196265,1,0,0:0:0:50:KicK.wav
36,192,196265,1,0,0:0:0:0:
329,192,196347,1,0,0:0:0:0:
109,192,196429,1,0,0:0:0:50:KicK.wav
475,192,196429,1,0,0:0:0:30:Crash-L.wav
182,192,196429,1,0,0:0:0:0:
402,192,196429,1,0,0:0:0:0:
109,192,196592,1,0,0:0:0:0:
36,192,196592,1,0,0:0:0:50:KicK.wav
402,192,196592,1,0,0:0:0:0:
329,192,196674,1,0,0:0:0:0:
256,192,196756,1,0,0:0:0:30:Crash-L.wav
36,192,196756,1,0,0:0:0:50:KicK.wav
475,192,196756,1,0,0:0:0:0:
402,192,196838,1,0,0:0:0:50:KicK.wav
182,192,196838,1,0,0:0:0:0:
109,192,196919,1,0,0:0:0:50:KicK.wav
329,192,196919,1,0,0:0:0:0:
256,192,197001,1,0,0:0:0:50:KicK.wav
36,192,197001,1,0,0:0:0:0:
402,192,197083,1,0,0:0:0:0:
475,192,197083,1,0,0:0:0:50:KicK.wav
182,192,197083,1,0,0:0:0:30:Crash-L.wav
109,192,197165,1,0,0:0:0:50:KicK.wav
329,192,197165,1,0,0:0:0:0:
402,192,197246,1,0,0:0:0:50:KicK.wav
182,192,197246,1,0,0:0:0:0:
256,192,197328,1,0,0:0:0:50:KicK.wav
475,192,197328,1,0,0:0:0:0:
36,192,197410,1,0,0:0:0:0:
329,192,197410,1,0,0:0:0:50:KicK.wav
109,192,197410,1,0,0:0:0:30:Crash-L.wav
256,192,197491,1,0,0:0:0:50:KicK.wav
182,192,197491,1,0,0:0:0:0:
475,192,197573,1,0,0:0:0:0:
402,192,197573,1,0,0:0:0:50:KicK.wav
109,192,197614,1,0,0:0:0:50:KicK.wav
182,192,197655,1,0,0:0:0:50:KicK.wav
256,192,197696,1,0,0:0:0:50:KicK.wav
36,192,197737,128,0,197900:0:0:0:50:KicK.wav
402,192,197737,1,0,0:0:0:0:
329,192,197737,1,0,0:0:0:0:
109,192,197791,128,0,197955:0:0:0:0:
182,192,197846,128,0,198009:0:0:0:0:
256,192,197900,128,0,198064:0:0:0:0:
402,192,198064,1,0,0:0:0:30:Crash-L.wav
475,192,198064,1,0,0:0:0:50:KicK.wav
109,192,198064,1,0,0:0:0:0:
36,192,198064,1,0,0:0:0:0:
329,192,198145,1,0,0:0:0:0:
256,192,198227,1,0,0:0:0:0:
182,192,198391,1,0,0:0:0:50:KicK.wav
36,192,198391,1,0,0:0:0:0:
475,192,198391,1,0,0:0:0:0:
329,192,198472,1,0,0:0:0:0:
475,192,198554,1,0,0:0:0:0:
182,192,198554,1,0,0:0:0:0:
36,192,198718,1,0,0:0:0:50:KicK.wav
256,192,198718,1,0,0:0:0:0:
402,192,198718,1,0,0:0:0:0:
109,192,198799,1,0,0:0:0:0:
182,192,198881,1,0,0:0:0:0:
475,192,199045,1,0,0:0:0:50:KicK.wav
329,192,199045,1,0,0:0:0:0:
36,192,199045,1,0,0:0:0:0:
182,192,199126,1,0,0:0:0:0:
475,192,199208,1,0,0:0:0:0:
329,192,199208,1,0,0:0:0:0:
36,192,199372,1,0,0:0:0:50:KicK.wav
256,192,199372,1,0,0:0:0:0:
109,192,199372,1,0,0:0:0:0:
329,192,199453,1,0,0:0:0:0:
402,192,199535,1,0,0:0:0:0:
256,192,199699,1,0,0:0:0:50:KicK.wav
109,192,199699,1,0,0:0:0:0:
475,192,199699,1,0,0:0:0:0:
36,192,199780,1,0,0:0:0:0:
256,192,199862,1,0,0:0:0:0:
109,192,199862,1,0,0:0:0:0:
475,192,200026,1,0,0:0:0:50:KicK.wav
182,192,200026,1,0,0:0:0:0:
329,192,200026,1,0,0:0:0:0:
109,192,200107,1,0,0:0:0:0:
36,192,200189,1,0,0:0:0:0:
402,192,200353,1,0,0:0:0:50:KicK.wav
475,192,200353,1,0,0:0:0:0:
182,192,200353,1,0,0:0:0:0:
256,192,200434,1,0,0:0:0:0:
402,192,200516,1,0,0:0:0:50:KicK.wav
475,192,200516,1,0,0:0:0:0:
182,192,200516,1,0,0:0:0:0:
256,192,200679,1,0,0:0:0:50:KicK.wav
109,192,200679,1,0,0:0:0:30:Crash-L.wav
475,192,200679,1,0,0:0:0:0:
36,192,200679,1,0,0:0:0:0:
402,192,200761,1,0,0:0:0:0:
329,192,200843,1,0,0:0:0:0:
36,192,201006,1,0,0:0:0:0:
182,192,201006,1,0,0:0:0:50:KicK.wav
475,192,201006,1,0,0:0:0:0:
329,192,201088,1,0,0:0:0:0:
36,192,201170,1,0,0:0:0:0:
182,192,201170,1,0,0:0:0:0:
475,192,201333,1,0,0:0:0:30:Crash-L.wav
109,192,201333,1,0,0:0:0:50:KicK.wav
256,192,201333,1,0,0:0:0:0:
36,192,201333,1,0,0:0:0:0:
402,192,201415,1,0,0:0:0:0:
329,192,201497,1,0,0:0:0:0:
256,192,201660,1,0,0:0:0:50:KicK.wav
402,192,201660,1,0,0:0:0:0:
109,192,201660,1,0,0:0:0:0:
475,192,201742,1,0,0:0:0:0:
256,192,201824,1,0,0:0:0:50:KicK.wav
402,192,201824,1,0,0:0:0:0:
109,192,201824,1,0,0:0:0:0:
182,192,201987,1,0,0:0:0:50:KicK.wav
36,192,201987,1,0,0:0:0:30:Crash-L.wav
329,192,201987,1,0,0:0:0:0:
475,192,201987,1,0,0:0:0:0:
109,192,202151,1,0,0:0:0:50:KicK.wav
402,192,202151,1,0,0:0:0:0:
182,192,202192,1,0,0:0:0:50:KicK.wav
256,192,202233,1,0,0:0:0:50:KicK.wav
329,192,202273,1,0,0:0:0:50:KicK.wav
36,192,202314,5,0,0:0:0:50:KicK.wav
402,192,202314,1,0,0:0:0:30:Crash-L.wav
109,192,202314,1,0,0:0:0:0:
475,192,202314,1,0,0:0:0:0:
182,192,202478,1,0,0:0:0:0:
109,192,202478,1,0,0:0:0:0:
329,192,202478,1,0,0:0:0:50:KicK.wav
36,192,202641,1,0,0:0:0:50:KicK.wav
256,192,202641,1,0,0:0:0:0:
402,192,202641,1,0,0:0:0:0:
475,192,202641,1,0,0:0:0:30:Crash-L.wav
109,192,202723,1,0,0:0:0:0:
182,192,202723,1,0,0:0:0:50:KicK.wav
402,192,202805,1,0,0:0:0:50:KicK.wav
329,192,202805,1,0,0:0:0:0:
182,192,202887,1,0,0:0:0:50:KicK.wav
256,192,202887,1,0,0:0:0:0:
109,192,202968,1,0,0:0:0:50:KicK.wav
402,192,202968,1,0,0:0:0:0:
475,192,202968,1,0,0:0:0:30:Clap.wav
36,192,202968,1,0,0:0:0:30:Crash-L.wav
475,192,203295,128,0,203459:0:0:0:0:
109,192,203295,128,0,203459:0:0:0:50:KicK.wav
256,192,203295,128,0,203459:0:0:0:0:
402,192,203295,128,0,203459:0:0:0:30:Crash-L.wav
329,192,203622,1,0,0:0:0:0:
182,192,203622,128,0,203704:0:0:0:0:
402,192,203704,1,0,0:0:0:0:
475,192,203786,1,0,0:0:0:0:
256,192,203786,128,0,203868:0:0:0:0:
36,192,203868,1,0,0:0:0:0:
109,192,203949,1,0,0:0:0:0:
329,192,203949,128,0,204031:0:0:0:0:
182,192,204031,1,0,0:0:0:0:
256,192,204113,1,0,0:0:0:0:
329,192,204194,1,0,0:0:0:0:
402,192,204276,1,0,0:0:0:0:
182,192,204276,128,0,204358:0:0:0:0:
475,192,204358,1,0,0:0:0:0:
329,192,204440,1,0,0:0:0:0:
182,192,204521,1,0,0:0:0:0:
36,192,204603,1,0,0:0:0:0:
256,192,204603,1,0,0:0:0:0:
109,192,204685,1,0,0:0:0:0:
329,192,204767,1,0,0:0:0:0:
109,192,204848,1,0,0:0:0:0:
402,192,204930,1,0,0:0:0:0:
182,192,204930,1,0,0:0:0:0:
256,192,205012,1,0,0:0:0:0:
475,192,205094,1,0,0:0:0:0:
256,192,205175,1,0,0:0:0:0:
329,192,205257,1,0,0:0:0:0:
36,192,205257,1,0,0:0:0:0:
402,192,205339,1,0,0:0:0:0:
109,192,205421,1,0,0:0:0:0:
402,192,205502,1,0,0:0:0:0:
182,192,205584,1,0,0:0:0:0:
475,192,205584,1,0,0:0:0:0:
256,192,205666,1,0,0:0:0:0:
329,192,205748,1,0,0:0:0:0:
402,192,205829,1,0,0:0:0:0:
36,192,205911,1,0,0:0:0:0:
256,192,205911,1,0,0:0:0:0:
475,192,205911,1,0,0:0:0:0:
256,192,206238,1,0,0:0:0:0:
109,192,206238,128,0,206320:0:0:0:0:
329,192,206320,1,0,0:0:0:0:
402,192,206402,1,0,0:0:0:0:
182,192,206402,128,0,206483:0:0:0:0:
475,192,206483,1,0,0:0:0:0:
36,192,206565,1,0,0:0:0:0:
256,192,206565,128,0,206647:0:0:0:0:
182,192,206647,1,0,0:0:0:0:
329,192,206729,1,0,0:0:0:0:
475,192,206810,1,0,0:0:0:0:
402,192,206892,1,0,0:0:0:0:
36,192,206892,128,0,206974:0:0:0:0:
329,192,206974,1,0,0:0:0:0:
256,192,207056,1,0,0:0:0:0:
182,192,207137,1,0,0:0:0:0:
329,192,207219,1,0,0:0:0:0:
109,192,207219,1,0,0:0:0:0:
402,192,207301,1,0,0:0:0:0:
475,192,207382,1,0,0:0:0:0:
402,192,207464,1,0,0:0:0:0:
329,192,207546,1,0,0:0:0:0:
109,192,207546,1,0,0:0:0:0:
182,192,207628,1,0,0:0:0:0:
36,192,207709,1,0,0:0:0:0:
182,192,207791,1,0,0:0:0:0:
329,192,207873,1,0,0:0:0:0:
109,192,207873,1,0,0:0:0:0:
402,192,207955,1,0,0:0:0:0:
475,192,208036,1,0,0:0:0:0:
402,192,208118,1,0,0:0:0:0:
109,192,208200,1,0,0:0:0:0:
329,192,208200,1,0,0:0:0:0:
182,192,208282,1,0,0:0:0:0:
36,192,208363,1,0,0:0:0:0:
182,192,208445,1,0,0:0:0:0:
109,192,208527,1,0,0:0:0:0:
329,192,208527,1,0,0:0:0:0:
475,192,208609,1,0,0:0:0:0:
402,192,208690,1,0,0:0:0:0:
329,192,208772,1,0,0:0:0:0:
256,192,208854,1,0,0:0:0:0:
182,192,208936,1,0,0:0:0:0:
109,192,209017,1,0,0:0:0:0:
329,192,209017,1,0,0:0:0:0:
36,192,209099,1,0,0:0:0:0:
256,192,209099,1,0,0:0:0:0:
182,192,209181,1,0,0:0:0:0:
402,192,209181,1,0,0:0:0:0:
475,192,209181,1,0,0:0:0:0:
182,192,209344,1,0,0:0:0:0:
402,192,209508,1,0,0:0:0:0:
402,192,209671,1,0,0:0:0:0:
109,192,209835,1,0,0:0:0:0:
329,192,209835,1,0,0:0:0:0:
475,192,209917,1,0,0:0:0:0:
402,192,209998,1,0,0:0:0:0:
329,192,210080,1,0,0:0:0:0:
256,192,210162,1,0,0:0:0:0:
182,192,210244,1,0,0:0:0:0:
109,192,210325,1,0,0:0:0:0:
329,192,210325,1,0,0:0:0:0:
36,192,210407,1,0,0:0:0:0:
256,192,210407,1,0,0:0:0:0:
182,192,210489,1,0,0:0:0:0:
402,192,210489,1,0,0:0:0:0:
475,192,210489,1,0,0:0:0:0:
182,192,210652,1,0,0:0:0:0:
36,192,210816,1,0,0:0:0:0:
36,192,210979,1,0,0:0:0:0:
109,192,211143,1,0,0:0:0:0:
329,192,211143,1,0,0:0:0:0:
475,192,211224,1,0,0:0:0:0:
402,192,211306,1,0,0:0:0:0:
329,192,211388,1,0,0:0:0:0:
256,192,211470,1,0,0:0:0:0:
182,192,211551,1,0,0:0:0:0:
109,192,211633,1,0,0:0:0:0:
329,192,211633,1,0,0:0:0:0:
36,192,211715,1,0,0:0:0:0:
256,192,211715,1,0,0:0:0:0:
402,192,211797,1,0,0:0:0:0:
182,192,211797,1,0,0:0:0:0:
475,192,211797,1,0,0:0:0:0:
256,192,211960,1,0,0:0:0:0:
475,192,212124,1,0,0:0:0:0:
109,192,212124,1,0,0:0:0:0:
329,192,212124,1,0,0:0:0:0:
329,192,212287,1,0,0:0:0:0:
182,192,212451,1,0,0:0:0:0:
36,192,212451,1,0,0:0:0:0:
402,192,212532,1,0,0:0:0:0:
329,192,212614,1,0,0:0:0:0:
256,192,212696,1,0,0:0:0:0:
182,192,212778,1,0,0:0:0:0:
475,192,212778,1,0,0:0:0:0:
329,192,212859,1,0,0:0:0:0:
182,192,212941,1,0,0:0:0:0:
36,192,213023,1,0,0:0:0:0:
109,192,213105,1,0,0:0:0:0:
402,192,213105,1,0,0:0:0:0:
256,192,213105,1,0,0:0:0:0:
109,192,213268,1,0,0:0:0:0:
182,192,213432,1,0,0:0:0:0:
329,192,213432,1,0,0:0:0:0:
475,192,213432,1,0,0:0:0:0:
402,192,213759,128,0,213922:0:0:0:30:Crash-L.wav
256,192,213759,128,0,213922:0:0:0:0:
109,192,213759,128,0,213922:0:0:0:0:
36,192,213759,128,0,213922:0:0:0:50:KicK.wav
36,192,214085,1,0,0:0:0:0:
256,192,214085,128,0,214167:0:0:0:0:
109,192,214167,1,0,0:0:0:0:
182,192,214249,1,0,0:0:0:0:
329,192,214249,128,0,214331:0:0:0:0:
256,192,214331,1,0,0:0:0:0:
109,192,214412,1,0,0:0:0:0:
402,192,214412,128,0,214494:0:0:0:0:
329,192,214494,1,0,0:0:0:0:
182,192,214576,1,0,0:0:0:0:
402,192,214658,1,0,0:0:0:0:
256,192,214739,1,0,0:0:0:0:
109,192,214739,128,0,214821:0:0:0:0:
475,192,214821,1,0,0:0:0:0:
329,192,214903,1,0,0:0:0:0:
182,192,214985,1,0,0:0:0:0:
36,192,215066,1,0,0:0:0:0:
402,192,215066,1,0,0:0:0:0:
109,192,215148,1,0,0:0:0:0:
182,192,215230,1,0,0:0:0:0:
329,192,215312,1,0,0:0:0:0:
109,192,215393,1,0,0:0:0:0:
475,192,215393,1,0,0:0:0:0:
402,192,215475,1,0,0:0:0:0:
329,192,215557,1,0,0:0:0:0:
182,192,215639,1,0,0:0:0:0:
402,192,215720,1,0,0:0:0:0:
36,192,215720,1,0,0:0:0:0:
109,192,215802,1,0,0:0:0:0:
182,192,215884,1,0,0:0:0:0:
329,192,215966,1,0,0:0:0:0:
475,192,216047,1,0,0:0:0:0:
109,192,216047,1,0,0:0:0:0:
402,192,216129,1,0,0:0:0:0:
329,192,216211,1,0,0:0:0:30:KicK.wav
182,192,216211,1,0,0:0:0:0:
256,192,216293,1,0,0:0:0:30:KicK.wav
402,192,216293,1,0,0:0:0:0:
109,192,216374,1,0,0:0:0:0:
36,192,216374,1,0,0:0:0:0:
475,192,216374,1,0,0:0:0:50:KicK.wav
329,192,216374,1,0,0:0:0:30:Crash-L.wav
36,192,216701,128,0,216783:0:0:0:0:
256,192,216701,1,0,0:0:0:0:
329,192,216783,1,0,0:0:0:0:
402,192,216865,1,0,0:0:0:0:
109,192,216865,128,0,216947:0:0:0:0:
475,192,216947,1,0,0:0:0:0:
182,192,217028,128,0,217110:0:0:0:0:
402,192,217028,1,0,0:0:0:0:
329,192,217110,1,0,0:0:0:0:
256,192,217192,1,0,0:0:0:0:
182,192,217273,1,0,0:0:0:0:
36,192,217355,128,0,217437:0:0:0:0:
329,192,217355,1,0,0:0:0:0:
256,192,217437,1,0,0:0:0:0:
182,192,217519,1,0,0:0:0:0:
109,192,217600,1,0,0:0:0:0:
36,192,217682,1,0,0:0:0:0:
329,192,217682,1,0,0:0:0:0:
256,192,217764,1,0,0:0:0:0:
36,192,217846,1,0,0:0:0:0:
182,192,217927,1,0,0:0:0:0:
402,192,218009,1,0,0:0:0:0:
109,192,218009,1,0,0:0:0:0:
329,192,218091,1,0,0:0:0:0:
109,192,218173,1,0,0:0:0:0:
256,192,218254,1,0,0:0:0:0:
182,192,218336,1,0,0:0:0:0:
475,192,218336,1,0,0:0:0:0:
402,192,218418,1,0,0:0:0:0:
329,192,218500,1,0,0:0:0:50:KicK.wav
182,192,218500,1,0,0:0:0:0:
36,192,218581,1,0,0:0:0:50:KicK.wav
402,192,218581,1,0,0:0:0:0:
475,192,218663,1,0,0:0:0:50:KicK.wav
256,192,218663,1,0,0:0:0:0:
109,192,218745,1,0,0:0:0:0:
329,192,218827,1,0,0:0:0:0:
182,192,218908,1,0,0:0:0:0:
475,192,218990,1,0,0:0:0:0:
256,192,218990,1,0,0:0:0:50:KicK.wav
36,192,218990,1,0,0:0:0:0:
109,192,219072,1,0,0:0:0:0:
182,192,219154,1,0,0:0:0:0:
256,192,219235,1,0,0:0:0:0:
329,192,219317,1,0,0:0:0:0:
475,192,219317,1,0,0:0:0:50:KicK.wav
36,192,219317,1,0,0:0:0:0:
256,192,219399,1,0,0:0:0:0:
475,192,219481,1,0,0:0:0:0:
402,192,219481,1,0,0:0:0:50:KicK.wav
182,192,219481,1,0,0:0:0:0:
329,192,219562,1,0,0:0:0:0:
109,192,219562,1,0,0:0:0:50:KicK.wav
402,192,219644,1,0,0:0:0:0:
36,192,219644,1,0,0:0:0:50:KicK.wav
256,192,219644,1,0,0:0:0:30:Crash-L.wav
475,192,219644,1,0,0:0:0:0:
109,192,219808,1,0,0:0:0:0:
329,192,219971,1,0,0:0:0:0:
182,192,219971,1,0,0:0:0:50:KicK.wav
475,192,219971,1,0,0:0:0:0:
402,192,220135,1,0,0:0:0:0:
36,192,220135,1,0,0:0:0:50:KicK.wav
182,192,220135,1,0,0:0:0:0:
475,192,220298,1,0,0:0:0:0:
256,192,220298,1,0,0:0:0:50:KicK.wav
109,192,220298,1,0,0:0:0:0:
402,192,220380,1,0,0:0:0:0:
329,192,220462,1,0,0:0:0:0:
182,192,220543,1,0,0:0:0:0:
36,192,220625,1,0,0:0:0:0:
329,192,220625,1,0,0:0:0:50:KicK.wav
475,192,220625,1,0,0:0:0:0:
256,192,220707,1,0,0:0:0:0:
182,192,220788,1,0,0:0:0:0:
109,192,220870,1,0,0:0:0:0:
475,192,220952,1,0,0:0:0:0:
256,192,220952,1,0,0:0:0:50:KicK.wav
402,192,220952,1,0,0:0:0:30:Crash-L.wav
36,192,220952,1,0,0:0:0:0:
109,192,221115,1,0,0:0:0:0:
182,192,221279,1,0,0:0:0:0:
475,192,221279,1,0,0:0:0:50:KicK.wav
36,192,221279,1,0,0:0:0:0:
402,192,221361,1,0,0:0:0:50:KicK.wav
329,192,221361,1,0,0:0:0:0:
182,192,221442,1,0,0:0:0:0:
475,192,221442,1,0,0:0:0:50:KicK.wav
36,192,221442,1,0,0:0:0:0:
256,192,221606,1,0,0:0:0:0:
109,192,221606,1,0,0:0:0:50:KicK.wav
402,192,221606,1,0,0:0:0:0:
475,192,221688,1,0,0:0:0:0:
109,192,221769,1,0,0:0:0:0:
329,192,221769,1,0,0:0:0:50:KicK.wav
182,192,221851,1,0,0:0:0:0:
402,192,221851,1,0,0:0:0:50:KicK.wav
256,192,221933,1,0,0:0:0:0:
36,192,221933,1,0,0:0:0:50:KicK.wav
475,192,221933,1,0,0:0:0:0:
329,192,222015,1,0,0:0:0:0:
109,192,222096,1,0,0:0:0:0:
402,192,222096,1,0,0:0:0:50:KicK.wav
182,192,222096,1,0,0:0:0:0:
475,192,222178,1,0,0:0:0:0:
36,192,222260,1,0,0:0:0:0:
109,192,222260,1,0,0:0:0:50:KicK.wav
256,192,222260,1,0,0:0:0:30:Crash-L.wav
329,192,222260,1,0,0:0:0:0:
182,192,222423,1,0,0:0:0:0:
402,192,222423,1,0,0:0:0:50:KicK.wav
329,192,222423,1,0,0:0:0:0:
256,192,222587,1,0,0:0:0:0:
402,192,222587,1,0,0:0:0:0:
475,192,222587,1,0,0:0:0:50:KicK.wav
109,192,222750,1,0,0:0:0:0:
256,192,222750,1,0,0:0:0:50:KicK.wav
36,192,222750,1,0,0:0:0:0:
329,192,222914,1,0,0:0:0:0:
402,192,222914,1,0,0:0:0:30:Crash-S.wav
182,192,222914,1,0,0:0:0:50:KicK.wav
475,192,222914,1,0,0:0:0:0:
36,192,222996,1,0,0:0:0:0:
109,192,222996,1,0,0:0:0:50:KicK.wav
329,192,223077,5,0,0:0:0:0:
182,192,223077,1,0,0:0:0:50:KicK.wav
256,192,223159,1,0,0:0:0:0:
475,192,223159,1,0,0:0:0:50:KicK.wav
109,192,223241,1,0,0:0:0:30:Crash-S.wav
402,192,223241,1,0,0:0:0:50:KicK.wav
36,192,223241,1,0,0:0:0:0:
329,192,223323,1,0,0:0:0:0:
182,192,223323,1,0,0:0:0:50:KicK.wav
109,192,223404,1,0,0:0:0:0:
402,192,223404,1,0,0:0:0:50:KicK.wav
36,192,223486,1,0,0:0:0:0:
329,192,223486,1,0,0:0:0:50:KicK.wav
109,192,223568,1,0,0:0:0:0:
402,192,223568,1,0,0:0:0:30:Crash-S.wav
475,192,223568,1,0,0:0:0:50:KicK.wav
256,192,223568,1,0,0:0:0:0:
182,192,223731,1,0,0:0:0:0:
329,192,223731,1,0,0:0:0:0:
402,192,223731,1,0,0:0:0:50:KicK.wav
36,192,223895,1,0,0:0:0:30:Crash-L.wav
109,192,223895,1,0,0:0:0:0:
256,192,223895,1,0,0:0:0:30:Clap.wav
329,192,223895,1,0,0:0:0:50:KicK.wav
475,192,224222,5,0,0:0:0:30:Crash-S.wav
36,192,224222,1,0,0:0:0:50:KicK.wav
182,192,224222,1,0,0:0:0:0:
329,192,224222,1,0,0:0:0:0:
36,192,224385,1,0,0:0:0:50:KicK.wav
329,192,224385,1,0,0:0:0:0:
475,192,224385,1,0,0:0:0:30:Crash-S.wav
182,192,224385,1,0,0:0:0:0:
109,192,224549,1,0,0:0:0:0:
402,192,224549,1,0,0:0:0:0:
329,192,224630,1,0,0:0:0:0:
256,192,224712,1,0,0:0:0:0:
475,192,224712,1,0,0:0:0:0:
182,192,224794,1,0,0:0:0:0:
329,192,224876,1,0,0:0:0:0:
109,192,224876,1,0,0:0:0:0:
402,192,224876,1,0,0:0:0:30:Crash-S.wav
36,192,224876,1,0,0:0:0:50:KicK.wav
402,192,225039,1,0,0:0:0:0:
329,192,225039,1,0,0:0:0:30:Crash-S.wav
36,192,225039,1,0,0:0:0:50:KicK.wav
109,192,225039,1,0,0:0:0:0:
475,192,225203,1,0,0:0:0:0:
256,192,225203,1,0,0:0:0:0:
329,192,225284,1,0,0:0:0:0:
402,192,225366,1,0,0:0:0:0:
182,192,225366,1,0,0:0:0:0:
475,192,225448,1,0,0:0:0:0:
109,192,225530,1,0,0:0:0:0:
36,192,225530,1,0,0:0:0:0:
256,192,225530,1,0,0:0:0:50:KicK.wav
329,192,225530,1,0,0:0:0:30:Crash-S.wav
36,192,225693,1,0,0:0:0:0:
256,192,225693,1,0,0:0:0:30:Crash-S.wav
109,192,225693,1,0,0:0:0:50:KicK.wav
329,192,225693,1,0,0:0:0:0:
402,192,225857,1,0,0:0:0:0:
182,192,225857,1,0,0:0:0:0:
109,192,225938,1,0,0:0:0:0:
36,192,226020,1,0,0:0:0:50:KicK.wav
475,192,226020,1,0,0:0:0:0:
329,192,226020,1,0,0:0:0:0:
402,192,226102,1,0,0:0:0:0:
256,192,226102,1,0,0:0:0:50:KicK.wav
182,192,226184,1,0,0:0:0:50:KicK.wav
36,192,226184,1,0,0:0:0:0:
329,192,226184,1,0,0:0:0:30:Crash-L.wav
109,192,226184,1,0,0:0:0:0:
256,192,226347,1,0,0:0:0:0:
402,192,226347,1,0,0:0:0:0:
182,192,226347,1,0,0:0:0:50:KicK.wav
475,192,226511,1,0,0:0:0:0:
36,192,226511,1,0,0:0:0:0:
329,192,226511,1,0,0:0:0:30:Crash-L.wav
256,192,226511,1,0,0:0:0:50:KicK.wav
256,192,226838,1,0,0:0:0:0:
109,192,226838,1,0,0:0:0:30:Crash-S.wav
402,192,226838,1,0,0:0:0:0:
36,192,226838,1,0,0:0:0:50:KicK.wav
402,192,227001,1,0,0:0:0:0:
36,192,227001,1,0,0:0:0:50:KicK.wav
109,192,227001,1,0,0:0:0:30:Crash-S.wav
256,192,227001,1,0,0:0:0:0:
475,192,227165,1,0,0:0:0:0:
182,192,227165,1,0,0:0:0:0:
402,192,227246,1,0,0:0:0:0:
329,192,227328,1,0,0:0:0:0:
109,192,227328,1,0,0:0:0:0:
256,192,227410,1,0,0:0:0:0:
475,192,227491,1,0,0:0:0:30:Crash-S.wav
36,192,227491,1,0,0:0:0:0:
182,192,227491,1,0,0:0:0:0:
402,192,227491,1,0,0:0:0:50:KicK.wav
182,192,227655,1,0,0:0:0:0:
402,192,227655,1,0,0:0:0:50:KicK.wav
475,192,227655,1,0,0:0:0:30:Crash-S.wav
36,192,227655,1,0,0:0:0:0:
109,192,227818,1,0,0:0:0:0:
329,192,227818,1,0,0:0:0:0:
256,192,227900,1,0,0:0:0:0:
182,192,227982,1,0,0:0:0:0:
402,192,227982,1,0,0:0:0:0:
329,192,228064,1,0,0:0:0:0:
109,192,228145,1,0,0:0:0:50:KicK.wav
256,192,228145,1,0,0:0:0:0:
475,192,228145,1,0,0:0:0:0:
36,192,228145,1,0,0:0:0:30:Crash-S.wav
256,192,228309,1,0,0:0:0:0:
109,192,228309,1,0,0:0:0:50:KicK.wav
36,192,228309,1,0,0:0:0:30:Crash-S.wav
475,192,228309,1,0,0:0:0:0:
182,192,228472,1,0,0:0:0:0:
329,192,228472,1,0,0:0:0:50:KicK.wav
402,192,228472,1,0,0:0:0:0:
36,192,228554,1,0,0:0:0:0:
256,192,228554,1,0,0:0:0:50:KicK.wav
109,192,228636,1,0,0:0:0:0:
329,192,228636,1,0,0:0:0:50:KicK.wav
182,192,228718,1,0,0:0:0:0:
402,192,228718,1,0,0:0:0:50:KicK.wav
36,192,228799,1,0,0:0:0:30:Crash-L.wav
475,192,228799,1,0,0:0:0:50:KicK.wav
109,192,228799,1,0,0:0:0:0:
256,192,228799,1,0,0:0:0:0:
182,192,228963,1,0,0:0:0:50:KicK.wav
402,192,228963,1,0,0:0:0:0:
329,192,229004,1,0,0:0:0:50:KicK.wav
36,192,229045,1,0,0:0:0:50:KicK.wav
109,192,229085,1,0,0:0:0:50:KicK.wav
475,192,229126,1,0,0:0:0:50:KicK.wav
329,192,229126,1,0,0:0:0:0:
402,192,229126,1,0,0:0:0:30:Crash-L.wav
182,192,229126,1,0,0:0:0:0:
36,192,229453,1,0,0:0:0:0:
109,192,229453,1,0,0:0:0:0:
402,192,229453,1,0,0:0:0:30:Crash-S.wav
256,192,229453,1,0,0:0:0:50:KicK.wav
36,192,229617,1,0,0:0:0:0:
402,192,229617,1,0,0:0:0:30:Crash-S.wav
109,192,229617,1,0,0:0:0:50:KicK.wav
256,192,229617,1,0,0:0:0:0:
182,192,229780,1,0,0:0:0:50:KicK.wav
475,192,229780,1,0,0:0:0:0:
329,192,229780,1,0,0:0:0:0:
109,192,229862,1,0,0:0:0:0:
36,192,229944,1,0,0:0:0:0:
402,192,229944,1,0,0:0:0:0:
329,192,230026,1,0,0:0:0:0:
109,192,230107,1,0,0:0:0:0:
256,192,230107,1,0,0:0:0:0:
182,192,230107,1,0,0:0:0:30:Crash-S.wav
475,192,230107,1,0,0:0:0:50:KicK.wav
475,192,230271,1,0,0:0:0:50:KicK.wav
256,192,230271,1,0,0:0:0:0:
109,192,230271,1,0,0:0:0:30:Crash-S.wav
182,192,230271,1,0,0:0:0:0:
329,192,230434,5,0,0:0:0:50:KicK.wav
402,192,230434,1,0,0:0:0:0:
36,192,230434,1,0,0:0:0:0:
109,192,230516,1,0,0:0:0:0:
402,192,230598,1,0,0:0:0:50:KicK.wav
182,192,230598,1,0,0:0:0:0:
475,192,230598,1,0,0:0:0:0:
256,192,230679,1,0,0:0:0:0:
109,192,230761,1,0,0:0:0:0:
329,192,230761,1,0,0:0:0:0:
36,192,230761,1,0,0:0:0:50:KicK.wav
475,192,230761,1,0,0:0:0:30:Crash-S.wav
109,192,230925,1,0,0:0:0:0:
475,192,230925,1,0,0:0:0:30:Crash-S.wav
36,192,230925,1,0,0:0:0:50:KicK.wav
329,192,230925,1,0,0:0:0:0:
256,192,231006,1,0,0:0:0:50:KicK.wav
402,192,231088,1,0,0:0:0:0:
182,192,231088,1,0,0:0:0:50:KicK.wav
109,192,231170,1,0,0:0:0:50:KicK.wav
329,192,231170,1,0,0:0:0:0:
475,192,231252,1,0,0:0:0:0:
182,192,231252,1,0,0:0:0:50:KicK.wav
402,192,231333,1,0,0:0:0:0:
256,192,231333,1,0,0:0:0:50:KicK.wav
182,192,231415,1,0,0:0:0:0:
329,192,231415,1,0,0:0:0:50:KicK.wav
36,192,231415,1,0,0:0:0:30:Crash-L.wav
109,192,231415,1,0,0:0:0:0:
475,192,231579,5,0,0:0:0:50:KicK.wav
182,192,231579,1,0,0:0:0:0:
329,192,231579,1,0,0:0:0:0:
256,192,231742,1,0,0:0:0:30:Crash-L.wav
36,192,231742,1,0,0:0:0:0:
402,192,231742,1,0,0:0:0:0:
109,192,231742,1,0,0:0:0:50:KicK.wav
182,192,231906,1,0,0:0:0:50:KicK.wav
329,192,231906,1,0,0:0:0:0:
256,192,231947,1,0,0:0:0:50:KicK.wav
475,192,231987,1,0,0:0:0:50:KicK.wav
402,192,232028,1,0,0:0:0:50:KicK.wav
329,192,232069,1,0,0:0:0:0:
36,192,232069,1,0,0:0:0:30:Crash-S.wav
109,192,232069,1,0,0:0:0:50:KicK.wav
182,192,232069,1,0,0:0:0:0:
36,192,232233,1,0,0:0:0:0:
329,192,232233,1,0,0:0:0:30:Crash-S.wav
182,192,232233,1,0,0:0:0:50:KicK.wav
109,192,232233,1,0,0:0:0:0:
256,192,232396,1,0,0:0:0:0:
36,192,232396,1,0,0:0:0:50:KicK.wav
475,192,232396,1,0,0:0:0:0:
402,192,232478,1,0,0:0:0:0:
182,192,232478,1,0,0:0:0:50:KicK.wav
329,192,232560,1,0,0:0:0:0:
109,192,232560,1,0,0:0:0:50:KicK.wav
256,192,232641,1,0,0:0:0:50:KicK.wav
36,192,232641,1,0,0:0:0:0:
402,192,232723,1,0,0:0:0:50:KicK.wav
329,192,232723,1,0,0:0:0:0:
109,192,232723,1,0,0:0:0:0:
182,192,232723,1,0,0:0:0:30:Crash-S.wav
329,192,232887,1,0,0:0:0:0:
182,192,232887,1,0,0:0:0:30:Crash-S.wav
109,192,232887,1,0,0:0:0:50:KicK.wav
402,192,232887,1,0,0:0:0:0:
36,192,233050,1,0,0:0:0:0:
475,192,233050,1,0,0:0:0:50:KicK.wav
256,192,233050,1,0,0:0:0:0:
329,192,233132,1,0,0:0:0:0:
109,192,233132,1,0,0:0:0:50:KicK.wav
182,192,233214,1,0,0:0:0:0:
402,192,233214,1,0,0:0:0:50:KicK.wav
475,192,233295,1,0,0:0:0:0:
256,192,233295,1,0,0:0:0:50:KicK.wav
329,192,233377,1,0,0:0:0:0:
109,192,233377,1,0,0:0:0:0:
36,192,233377,1,0,0:0:0:50:KicK.wav
182,192,233377,1,0,0:0:0:30:Crash-S.wav
402,192,233459,1,0,0:0:0:50:KicK.wav
36,192,233541,1,0,0:0:0:0:
256,192,233541,1,0,0:0:0:0:
475,192,233541,1,0,0:0:0:50:KicK.wav
109,192,233541,1,0,0:0:0:30:Crash-S.wav
329,192,233581,1,0,0:0:0:50:KicK.wav
182,192,233622,1,0,0:0:0:50:KicK.wav
36,192,233663,1,0,0:0:0:50:KicK.wav
402,192,233704,1,0,0:0:0:50:KicK.wav
475,192,233704,1,0,0:0:0:0:
256,192,233704,1,0,0:0:0:0:
36,192,233786,1,0,0:0:0:50:KicK.wav
109,192,233827,1,0,0:0:0:50:KicK.wav
329,192,233868,1,0,0:0:0:50:KicK.wav
182,192,233868,1,0,0:0:0:0:
402,192,233949,1,0,0:0:0:50:KicK.wav
329,192,233990,1,0,0:0:0:50:KicK.wav
475,192,234031,1,0,0:0:0:0:
36,192,234031,1,0,0:0:0:0:
109,192,234031,1,0,0:0:0:30:Crash-L.wav
256,192,234031,1,0,0:0:0:50:KicK.wav
182,192,234249,1,0,0:0:0:0:
475,192,234249,1,0,0:0:0:0:
109,192,234249,1,0,0:0:0:30:Crash-S.wav
329,192,234249,1,0,0:0:0:0:
475,192,234467,1,0,0:0:0:0:
402,192,234467,1,0,0:0:0:0:
182,192,234467,1,0,0:0:0:30:Crash-S.wav
256,192,234467,1,0,0:0:0:0:
36,192,234685,128,0,234930:0:0:0:50:KicK.wav
109,192,234685,128,0,234930:0:0:0:30:Crash-S.wav
329,192,235012,1,0,0:0:0:30:Crash-L.wav
475,192,235012,1,0,0:0:0:0:
182,192,235012,128,0,236756:0:0:0:0:
36,192,235012,128,0,236865:0:0:0:0:
109,192,235012,128,0,236810:0:0:0:0:
329,192,235175,1,0,0:0:0:0:
402,192,235339,1,0,0:0:0:0:
329,192,235432,1,0,0:0:0:0:
402,192,235526,1,0,0:0:0:0:
329,192,235584,1,0,0:0:0:0:
402,192,235639,1,0,0:0:0:0:
329,192,235720,1,0,0:0:0:0:
475,192,235797,1,0,0:0:0:0:
402,192,235862,1,0,0:0:0:0:
329,192,235927,1,0,0:0:0:0:
256,192,235993,128,0,236701:0:0:0:0:
475,192,235993,1,0,0:0:0:0:
475,192,236647,1,0,0:0:0:0:
402,192,236701,1,0,0:0:0:0:
329,192,236756,1,0,0:0:0:0:
256,192,236810,1,0,0:0:0:0:
182,192,236865,1,0,0:0:0:0:
109,192,236919,1,0,0:0:0:0:
402,192,236974,1,0,0:0:0:0:
329,192,237028,1,0,0:0:0:0:
256,192,237083,1,0,0:0:0:0:
182,192,237137,1,0,0:0:0:0:
109,192,237192,1,0,0:0:0:0:
36,192,237246,1,0,0:0:0:0:
475,192,237301,128,0,238363:0:0:0:0:
402,192,237301,128,0,238200:0:0:0:50:KicK.wav
256,192,237301,1,0,0:0:0:0:
36,192,237955,128,0,238527:0:0:0:0:
256,192,237955,128,0,238036:0:0:0:0:
182,192,238036,128,0,238118:0:0:0:0:
329,192,238118,128,0,238200:0:0:0:0:
256,192,238200,128,0,238282:0:0:0:0:
109,192,238282,128,0,238527:0:0:0:30:Clap.wav
402,192,238282,128,0,238363:0:0:0:0:
329,192,238363,128,0,238445:0:0:0:0:
475,192,238445,128,0,238527:0:0:0:0:
402,192,238527,128,0,238609:0:0:0:0:
329,192,238609,1,0,0:0:0:0:
109,192,238609,1,0,0:0:0:0:
182,192,238609,1,0,0:0:0:50:KicK.wav
36,192,238609,1,0,0:0:0:30:Crash-L.wav
329,192,238772,128,0,238854:0:0:0:0:
109,192,238772,128,0,238854:0:0:0:0:
475,192,238772,128,0,238854:0:0:0:0:
182,192,238772,128,0,238854:0:0:0:0:
402,192,238936,1,0,0:0:0:0:
36,192,238936,1,0,0:0:0:0:
256,192,238936,1,0,0:0:0:50:KicK.wav
109,192,239017,1,0,0:0:0:0:
182,192,239099,1,0,0:0:0:0:
475,192,239099,1,0,0:0:0:0:
402,192,239181,1,0,0:0:0:0:
329,192,239263,1,0,0:0:0:0:
36,192,239263,1,0,0:0:0:0:
182,192,239263,1,0,0:0:0:50:KicK.wav
109,192,239426,1,0,0:0:0:0:
329,192,239426,1,0,0:0:0:0:
256,192,239508,1,0,0:0:0:0:
182,192,239590,1,0,0:0:0:0:
475,192,239590,1,0,0:0:0:0:
402,192,239590,1,0,0:0:0:50:KicK.wav
109,192,239671,1,0,0:0:0:0:
329,192,239753,1,0,0:0:0:0:
36,192,239753,1,0,0:0:0:0:
402,192,239835,1,0,0:0:0:0:
256,192,239917,1,0,0:0:0:0:
109,192,239917,1,0,0:0:0:0:
475,192,239917,1,0,0:0:0:50:KicK.wav
109,192,240080,128,0,240162:0:0:0:0:
36,192,240080,128,0,240162:0:0:0:0:
256,192,240080,128,0,240162:0:0:0:0:
402,192,240080,128,0,240162:0:0:0:0:
182,192,240244,1,0,0:0:0:0:
475,192,240244,1,0,0:0:0:0:
36,192,240244,1,0,0:0:0:50:KicK.wav
402,192,240325,1,0,0:0:0:0:
109,192,240407,1,0,0:0:0:0:
329,192,240407,1,0,0:0:0:0:
256,192,240489,1,0,0:0:0:0:
182,192,240570,1,0,0:0:0:0:
475,192,240570,1,0,0:0:0:0:
36,192,240570,1,0,0:0:0:50:KicK.wav
475,192,240734,1,0,0:0:0:0:
182,192,240734,1,0,0:0:0:0:
329,192,240734,1,0,0:0:0:0:
256,192,240897,1,0,0:0:0:0:
36,192,240897,1,0,0:0:0:0:
402,192,240897,1,0,0:0:0:50:KicK.wav
182,192,240979,1,0,0:0:0:0:
329,192,241061,1,0,0:0:0:0:
109,192,241061,1,0,0:0:0:0:
256,192,241143,1,0,0:0:0:0:
182,192,241224,1,0,0:0:0:0:
475,192,241224,1,0,0:0:0:0:
402,192,241224,1,0,0:0:0:50:KicK.wav
475,192,241388,128,0,241470:0:0:0:0:
329,192,241388,128,0,241470:0:0:0:0:
182,192,241388,128,0,241470:0:0:0:0:
36,192,241388,128,0,241470:0:0:0:0:
36,192,241551,1,0,0:0:0:0:
402,192,241551,1,0,0:0:0:0:
256,192,241551,1,0,0:0:0:50:KicK.wav
329,192,241660,1,0,0:0:0:0:
109,192,241660,1,0,0:0:0:0:
182,192,241769,1,0,0:0:0:0:
402,192,241769,1,0,0:0:0:0:
475,192,241878,1,0,0:0:0:0:
36,192,241878,1,0,0:0:0:0:
256,192,241878,1,0,0:0:0:50:KicK.wav
329,192,241960,1,0,0:0:0:0:
182,192,242042,1,0,0:0:0:0:
402,192,242096,128,0,242205:0:0:0:0:
475,192,242096,128,0,242205:0:0:0:0:
36,192,242205,1,0,0:0:0:50:KicK.wav
256,192,242205,1,0,0:0:0:0:
109,192,242287,1,0,0:0:0:0:
402,192,242314,128,0,242423:0:0:0:0:
475,192,242314,128,0,242423:0:0:0:0:
182,192,242369,1,0,0:0:0:0:
475,192,242532,1,0,0:0:0:50:KicK.wav
36,192,242532,1,0,0:0:0:0:
256,192,242532,1,0,0:0:0:0:
402,192,242532,1,0,0:0:0:30:Crash-L.wav
109,192,242696,1,0,0:0:0:0:
329,192,242696,1,0,0:0:0:0:
182,192,242778,1,0,0:0:0:0:
475,192,242859,1,0,0:0:0:0:
36,192,242859,1,0,0:0:0:0:
256,192,242859,1,0,0:0:0:50:KicK.wav
402,192,242941,1,0,0:0:0:0:
329,192,243023,1,0,0:0:0:0:
109,192,243023,1,0,0:0:0:0:
256,192,243105,1,0,0:0:0:0:
475,192,243186,1,0,0:0:0:50:KicK.wav
182,192,243186,1,0,0:0:0:0:
402,192,243186,1,0,0:0:0:0:
36,192,243186,1,0,0:0:0:30:Crash-L.wav
182,192,243350,1,0,0:0:0:0:
402,192,243350,1,0,0:0:0:0:
256,192,243404,1,0,0:0:0:0:
329,192,243459,1,0,0:0:0:0:
36,192,243513,1,0,0:0:0:0:
475,192,243513,1,0,0:0:0:0:
109,192,243513,1,0,0:0:0:30:Crash-L.wav
182,192,243513,1,0,0:0:0:50:KicK.wav
402,192,243677,1,0,0:0:0:0:
256,192,243677,1,0,0:0:0:0:
475,192,243677,1,0,0:0:0:50:KicK.wav
36,192,243840,1,0,0:0:0:0:
256,192,243840,1,0,0:0:0:0:
402,192,243840,1,0,0:0:0:50:KicK.wav
109,192,243840,1,0,0:0:0:30:Crash-L.wav
109,192,244004,1,0,0:0:0:0:
182,192,244167,1,0,0:0:0:0:
475,192,244167,1,0,0:0:0:0:
36,192,244167,1,0,0:0:0:50:KicK.wav
402,192,244249,1,0,0:0:0:0:
329,192,244331,1,0,0:0:0:0:
182,192,244331,1,0,0:0:0:0:
475,192,244412,1,0,0:0:0:0:
256,192,244494,1,0,0:0:0:0:
109,192,244494,1,0,0:0:0:0:
402,192,244494,1,0,0:0:0:50:KicK.wav
256,192,244658,1,0,0:0:0:0:
36,192,244821,1,0,0:0:0:0:
475,192,244821,1,0,0:0:0:0:
329,192,244821,1,0,0:0:0:50:KicK.wav
182,192,244903,1,0,0:0:0:0:
329,192,244985,1,0,0:0:0:0:
36,192,244985,1,0,0:0:0:0:
256,192,245066,1,0,0:0:0:0:
402,192,245148,1,0,0:0:0:0:
182,192,245148,1,0,0:0:0:0:
475,192,245148,1,0,0:0:0:50:KicK.wav
182,192,245312,1,0,0:0:0:0:
402,192,245475,1,0,0:0:0:0:
36,192,245475,1,0,0:0:0:0:
256,192,245475,1,0,0:0:0:50:KicK.wav
109,192,245557,1,0,0:0:0:0:
402,192,245639,1,0,0:0:0:0:
182,192,245639,1,0,0:0:0:0:
329,192,245802,1,0,0:0:0:0:
109,192,245802,1,0,0:0:0:0:
475,192,245802,1,0,0:0:0:50:KicK.wav
256,192,245884,1,0,0:0:0:0:
182,192,245966,1,0,0:0:0:0:
475,192,245966,1,0,0:0:0:0:
36,192,246129,1,0,0:0:0:0:
329,192,246129,1,0,0:0:0:0:
402,192,246129,1,0,0:0:0:50:KicK.wav
109,192,246211,1,0,0:0:0:0:
182,192,246293,1,0,0:0:0:0:
329,192,246293,1,0,0:0:0:0:
402,192,246293,1,0,0:0:0:50:KicK.wav
475,192,246456,1,0,0:0:0:30:Crash-L.wav
36,192,246456,1,0,0:0:0:0:
256,192,246456,1,0,0:0:0:0:
109,192,246456,1,0,0:0:0:50:KicK.wav
256,192,246620,1,0,0:0:0:0:
109,192,246620,1,0,0:0:0:50:KicK.wav
36,192,246620,1,0,0:0:0:0:
475,192,246783,1,0,0:0:0:0:
182,192,246783,1,0,0:0:0:0:
402,192,246783,1,0,0:0:0:50:KicK.wav
329,192,246865,1,0,0:0:0:0:
475,192,246947,1,0,0:0:0:0:
402,192,246947,1,0,0:0:0:50:KicK.wav
182,192,246947,1,0,0:0:0:0:
256,192,247028,1,0,0:0:0:0:
475,192,247110,1,0,0:0:0:0:
109,192,247110,1,0,0:0:0:0:
329,192,247110,1,0,0:0:0:30:Crash-L.wav
36,192,247110,1,0,0:0:0:50:KicK.wav
329,192,247273,1,0,0:0:0:0:
182,192,247273,1,0,0:0:0:50:KicK.wav
109,192,247273,1,0,0:0:0:0:
182,192,247437,1,0,0:0:0:30:Crash-L.wav
256,192,247437,1,0,0:0:0:0:
475,192,247437,1,0,0:0:0:0:
36,192,247437,1,0,0:0:0:50:KicK.wav
109,192,247600,1,0,0:0:0:50:KicK.wav
402,192,247600,1,0,0:0:0:0:
182,192,247682,1,0,0:0:0:50:KicK.wav
329,192,247682,1,0,0:0:0:0:
36,192,247764,1,0,0:0:0:50:KicK.wav
475,192,247764,1,0,0:0:0:30:Crash-L.wav
256,192,247764,1,0,0:0:0:0:
402,192,247846,1,0,0:0:0:0:
329,192,247846,1,0,0:0:0:50:KicK.wav
109,192,247927,1,0,0:0:0:0:
182,192,247927,1,0,0:0:0:50:KicK.wav
329,192,248009,1,0,0:0:0:0:
402,192,248009,1,0,0:0:0:50:KicK.wav
475,192,248091,1,0,0:0:0:30:Crash-L.wav
256,192,248091,1,0,0:0:0:50:KicK.wav
36,192,248091,1,0,0:0:0:0:
182,192,248173,1,0,0:0:0:0:
109,192,248173,1,0,0:0:0:50:KicK.wav
402,192,248254,1,0,0:0:0:0:
329,192,248254,1,0,0:0:0:50:KicK.wav
109,192,248336,1,0,0:0:0:0:
182,192,248336,1,0,0:0:0:50:KicK.wav
475,192,248418,1,0,0:0:0:30:Crash-L.wav
36,192,248418,1,0,0:0:0:50:KicK.wav
256,192,248418,1,0,0:0:0:0:
402,192,248459,1,0,0:0:0:50:KicK.wav
329,192,248500,1,0,0:0:0:50:KicK.wav
256,192,248541,1,0,0:0:0:50:KicK.wav
182,192,248581,1,0,0:0:0:50:KicK.wav
36,192,248663,1,0,0:0:0:50:KicK.wav
402,192,248663,1,0,0:0:0:0:
475,192,248663,1,0,0:0:0:0:
109,192,248704,1,0,0:0:0:50:KicK.wav
182,192,248745,1,0,0:0:0:50:KicK.wav
256,192,248786,1,0,0:0:0:50:KicK.wav
329,192,248827,1,0,0:0:0:50:KicK.wav
475,192,248908,1,0,0:0:0:0:
182,192,248908,1,0,0:0:0:50:KicK.wav
402,192,248908,1,0,0:0:0:0:
109,192,248949,1,0,0:0:0:50:KicK.wav
36,192,248990,1,0,0:0:0:50:KicK.wav
109,192,249072,1,0,0:0:0:30:Crash-L.wav
475,192,249072,1,0,0:0:0:0:
256,192,249072,1,0,0:0:0:0:
402,192,249072,1,0,0:0:0:50:KicK.wav
36,192,249235,128,0,249317:0:0:0:0:
182,192,249235,128,0,249317:0:0:0:0:
329,192,249235,128,0,249317:0:0:0:0:
402,192,249235,128,0,249317:0:0:0:0:
475,192,249399,1,0,0:0:0:0:
109,192,249399,1,0,0:0:0:0:
256,192,249399,1,0,0:0:0:50:KicK.wav
329,192,249481,1,0,0:0:0:0:
182,192,249562,1,0,0:0:0:0:
402,192,249562,1,0,0:0:0:0:
109,192,249644,1,0,0:0:0:0:
256,192,249726,1,0,0:0:0:0:
36,192,249726,1,0,0:0:0:0:
475,192,249726,1,0,0:0:0:50:KicK.wav
109,192,249889,1,0,0:0:0:0:
329,192,249889,1,0,0:0:0:0:
402,192,249971,1,0,0:0:0:0:
475,192,250053,1,0,0:0:0:0:
36,192,250053,1,0,0:0:0:0:
182,192,250053,1,0,0:0:0:50:KicK.wav
402,192,250135,1,0,0:0:0:0:
109,192,250216,1,0,0:0:0:0:
329,192,250216,1,0,0:0:0:0:
256,192,250298,1,0,0:0:0:0:
182,192,250380,1,0,0:0:0:0:
475,192,250380,1,0,0:0:0:0:
402,192,250380,1,0,0:0:0:50:KicK.wav
402,192,250543,128,0,250625:0:0:0:0:
256,192,250543,128,0,250625:0:0:0:0:
109,192,250543,128,0,250625:0:0:0:0:
36,192,250543,128,0,250625:0:0:0:0:
256,192,250707,1,0,0:0:0:0:
36,192,250707,1,0,0:0:0:0:
475,192,250707,1,0,0:0:0:50:KicK.wav
109,192,250788,1,0,0:0:0:0:
182,192,250870,1,0,0:0:0:0:
402,192,250870,1,0,0:0:0:0:
329,192,250952,1,0,0:0:0:0:
475,192,251034,1,0,0:0:0:0:
36,192,251034,1,0,0:0:0:0:
256,192,251034,1,0,0:0:0:50:KicK.wav
402,192,251197,1,0,0:0:0:0:
182,192,251197,1,0,0:0:0:0:
109,192,251197,1,0,0:0:0:0:
329,192,251361,1,0,0:0:0:0:
475,192,251361,1,0,0:0:0:0:
36,192,251361,1,0,0:0:0:50:KicK.wav
256,192,251442,1,0,0:0:0:0:
182,192,251524,1,0,0:0:0:0:
402,192,251524,1,0,0:0:0:0:
109,192,251606,1,0,0:0:0:0:
475,192,251688,1,0,0:0:0:0:
36,192,251688,1,0,0:0:0:0:
256,192,251688,1,0,0:0:0:50:KicK.wav
402,192,251851,128,0,251933:0:0:0:0:
329,192,251851,128,0,251933:0:0:0:0:
182,192,251851,128,0,251933:0:0:0:0:
109,192,251851,128,0,251933:0:0:0:0:
36,192,252015,1,0,0:0:0:0:
256,192,252015,1,0,0:0:0:0:
475,192,252015,1,0,0:0:0:50:KicK.wav
329,192,252124,1,0,0:0:0:0:
109,192,252124,1,0,0:0:0:0:
402,192,252233,1,0,0:0:0:0:
182,192,252233,1,0,0:0:0:0:
36,192,252342,1,0,0:0:0:0:
256,192,252342,1,0,0:0:0:0:
475,192,252342,1,0,0:0:0:50:KicK.wav
402,192,252423,1,0,0:0:0:0:
329,192,252505,1,0,0:0:0:0:
36,192,252560,128,0,252669:0:0:0:0:
182,192,252560,128,0,252669:0:0:0:0:
475,192,252669,1,0,0:0:0:50:KicK.wav
256,192,252669,1,0,0:0:0:0:
329,192,252750,1,0,0:0:0:0:
36,192,252778,128,0,252887:0:0:0:0:
182,192,252778,128,0,252887:0:0:0:0:
402,192,252832,1,0,0:0:0:0:
402,192,252996,1,0,0:0:0:30:Crash-L.wav
256,192,252996,1,0,0:0:0:0:
475,192,252996,1,0,0:0:0:0:
109,192,252996,1,0,0:0:0:50:KicK.wav
36,192,253159,1,0,0:0:0:0:
329,192,253159,1,0,0:0:0:0:
109,192,253241,1,0,0:0:0:0:
475,192,253323,1,0,0:0:0:0:
402,192,253323,1,0,0:0:0:0:
182,192,253323,1,0,0:0:0:50:KicK.wav
256,192,253404,1,0,0:0:0:0:
109,192,253486,1,0,0:0:0:0:
329,192,253486,1,0,0:0:0:0:
402,192,253568,1,0,0:0:0:0:
329,192,253650,1,0,0:0:0:30:Crash-L.wav
182,192,253650,1,0,0:0:0:0:
475,192,253650,1,0,0:0:0:0:
36,192,253650,1,0,0:0:0:50:KicK.wav
402,192,253813,1,0,0:0:0:0:
182,192,253813,1,0,0:0:0:0:
329,192,253868,1,0,0:0:0:0:
256,192,253922,1,0,0:0:0:0:
109,192,253976,1,0,0:0:0:50:KicK.wav
475,192,253976,1,0,0:0:0:0:
36,192,253976,1,0,0:0:0:0:
402,192,253976,1,0,0:0:0:30:Crash-L.wav
402,192,254140,1,0,0:0:0:0:
256,192,254140,1,0,0:0:0:0:
109,192,254140,1,0,0:0:0:50:KicK.wav
36,192,254303,1,0,0:0:0:30:Crash-L.wav
182,192,254303,1,0,0:0:0:0:
329,192,254303,1,0,0:0:0:0:
475,192,254303,1,0,0:0:0:50:KicK.wav
475,192,254467,1,0,0:0:0:0:
402,192,254630,1,0,0:0:0:0:
36,192,254630,1,0,0:0:0:0:
256,192,254630,1,0,0:0:0:50:KicK.wav
109,192,254712,1,0,0:0:0:0:
402,192,254794,1,0,0:0:0:0:
36,192,254794,1,0,0:0:0:0:
329,192,254876,1,0,0:0:0:0:
475,192,254957,1,0,0:0:0:0:
109,192,254957,1,0,0:0:0:0:
256,192,254957,1,0,0:0:0:50:KicK.wav
109,192,255121,1,0,0:0:0:0:
182,192,255284,1,0,0:0:0:0:
402,192,255284,1,0,0:0:0:0:
36,192,255284,1,0,0:0:0:50:KicK.wav
329,192,255366,1,0,0:0:0:0:
402,192,255448,1,0,0:0:0:0:
182,192,255448,1,0,0:0:0:0:
256,192,255530,1,0,0:0:0:0:
109,192,255611,1,0,0:0:0:0:
475,192,255611,1,0,0:0:0:0:
329,192,255611,1,0,0:0:0:50:KicK.wav
475,192,255775,1,0,0:0:0:0:
36,192,255938,1,0,0:0:0:0:
402,192,255938,1,0,0:0:0:0:
182,192,255938,1,0,0:0:0:50:KicK.wav
256,192,256020,1,0,0:0:0:0:
329,192,256102,1,0,0:0:0:0:
36,192,256102,1,0,0:0:0:0:
256,192,256265,1,0,0:0:0:0:
109,192,256265,1,0,0:0:0:0:
475,192,256265,1,0,0:0:0:50:KicK.wav
329,192,256347,1,0,0:0:0:0:
402,192,256429,1,0,0:0:0:0:
109,192,256429,1,0,0:0:0:0:
475,192,256592,1,0,0:0:0:0:
36,192,256592,1,0,0:0:0:50:KicK.wav
182,192,256592,1,0,0:0:0:0:
402,192,256674,1,0,0:0:0:0:
36,192,256756,1,0,0:0:0:0:
329,192,256756,1,0,0:0:0:50:KicK.wav
182,192,256756,1,0,0:0:0:0:
402,192,256919,1,0,0:0:0:30:Crash-L.wav
256,192,256919,1,0,0:0:0:0:
109,192,256919,1,0,0:0:0:0:
475,192,256919,1,0,0:0:0:50:KicK.wav
402,192,257083,1,0,0:0:0:0:
109,192,257083,1,0,0:0:0:0:
256,192,257083,1,0,0:0:0:50:KicK.wav
36,192,257246,1,0,0:0:0:0:
475,192,257246,1,0,0:0:0:50:KicK.wav
182,192,257246,1,0,0:0:0:0:
402,192,257355,1,0,0:0:0:0:
182,192,257410,1,0,0:0:0:50:KicK.wav
36,192,257410,1,0,0:0:0:0:
329,192,257464,1,0,0:0:0:0:
402,192,257573,1,0,0:0:0:0:
109,192,257573,1,0,0:0:0:30:Crash-L.wav
256,192,257573,1,0,0:0:0:50:KicK.wav
475,192,257573,1,0,0:0:0:0:
182,192,257682,1,0,0:0:0:0:
402,192,257737,1,0,0:0:0:50:KicK.wav
475,192,257737,1,0,0:0:0:0:
109,192,257791,1,0,0:0:0:0:
475,192,257900,1,0,0:0:0:0:
36,192,257900,1,0,0:0:0:30:Crash-L.wav
402,192,257900,1,0,0:0:0:50:KicK.wav
256,192,257900,1,0,0:0:0:0:
329,192,258009,1,0,0:0:0:0:
109,192,258064,1,0,0:0:0:50:KicK.wav
402,192,258118,1,0,0:0:0:0:
182,192,258145,1,0,0:0:0:50:KicK.wav
475,192,258227,1,0,0:0:0:30:Crash-L.wav
256,192,258227,1,0,0:0:0:0:
36,192,258227,1,0,0:0:0:50:KicK.wav
182,192,258309,1,0,0:0:0:50:KicK.wav
402,192,258336,1,0,0:0:0:0:
36,192,258391,1,0,0:0:0:50:KicK.wav
109,192,258432,1,0,0:0:0:50:KicK.wav
329,192,258445,1,0,0:0:0:0:
182,192,258472,1,0,0:0:0:50:KicK.wav
475,192,258513,1,0,0:0:0:50:KicK.wav
36,192,258554,1,0,0:0:0:30:Crash-L.wav
256,192,258554,1,0,0:0:0:50:KicK.wav
402,192,258554,1,0,0:0:0:0:
109,192,258636,1,0,0:0:0:50:KicK.wav
329,192,258663,1,0,0:0:0:0:
182,192,258718,1,0,0:0:0:50:KicK.wav
402,192,258772,1,0,0:0:0:0:
256,192,258799,1,0,0:0:0:50:KicK.wav
182,192,258881,1,4,0:0:0:30:Crash-L.wav
475,192,258881,1,0,0:0:0:50:KicK.wav
36,192,258881,1,0,0:0:0:0:
329,192,258963,1,0,0:0:0:50:KicK.wav
109,192,258990,1,0,0:0:0:0:
256,192,259045,1,0,0:0:0:50:KicK.wav
475,192,259085,1,0,0:0:0:50:KicK.wav
182,192,259099,1,0,0:0:0:0:
402,192,259126,1,0,0:0:0:50:KicK.wav
329,192,259167,1,0,0:0:0:50:KicK.wav
36,192,259208,1,0,0:0:0:50:KicK.wav
256,192,259208,1,0,0:0:0:0:
109,192,259208,1,0,0:0:0:0:
329,192,259317,1,0,0:0:0:0:
182,192,259372,1,0,0:0:0:0:
109,192,259372,1,0,0:0:0:50:KicK.wav
402,192,259426,1,0,0:0:0:0:
256,192,259535,1,0,0:0:0:50:KicK.wav
475,192,259535,1,0,0:0:0:0:
182,192,259535,1,0,0:0:0:30:Crash-L.wav
36,192,259535,1,0,0:0:0:0:
475,192,259862,1,0,0:0:0:50:KicK.wav
36,192,259862,1,0,0:0:0:0:
256,192,259862,1,0,0:0:0:0:
402,192,259944,1,0,0:0:0:0:
329,192,259944,1,0,0:0:0:50:KicK.wav
109,192,260026,1,0,0:0:0:50:KicK.wav
182,192,260026,1,0,0:0:0:0:
256,192,260107,1,0,0:0:0:0:
329,192,260107,1,0,0:0:0:50:KicK.wav
36,192,260189,1,0,0:0:0:0:
109,192,260189,1,0,0:0:0:30:Crash-L.wav
475,192,260189,1,0,0:0:0:50:KicK.wav
402,192,260189,1,0,0:0:0:0:
36,192,260516,1,0,0:0:0:0:
329,192,260516,1,0,0:0:0:50:KicK.wav
182,192,260516,1,0,0:0:0:0:
402,192,260598,1,0,0:0:0:0:
475,192,260598,1,0,0:0:0:50:KicK.wav
256,192,260679,1,0,0:0:0:0:
109,192,260679,1,0,0:0:0:50:KicK.wav
329,192,260761,1,0,0:0:0:0:
402,192,260761,1,0,0:0:0:50:KicK.wav
475,192,260843,1,0,0:0:0:0:
256,192,260843,1,0,0:0:0:30:Crash-L.wav
36,192,260843,1,0,0:0:0:50:KicK.wav
109,192,260843,1,0,0:0:0:0:
109,192,261006,1,0,0:0:0:0:
402,192,261006,1,0,0:0:0:50:KicK.wav
182,192,261088,1,0,0:0:0:0:
329,192,261088,1,0,0:0:0:50:KicK.wav
36,192,261170,1,0,0:0:0:0:
402,192,261170,1,0,0:0:0:30:Crash-L.wav
475,192,261170,1,0,0:0:0:50:KicK.wav
109,192,261170,1,0,0:0:0:0:
256,192,261333,1,0,0:0:0:50:KicK.wav
182,192,261374,1,0,0:0:0:50:KicK.wav
109,192,261415,1,0,0:0:0:50:KicK.wav
36,192,261456,1,0,0:0:0:50:KicK.wav
475,192,261497,1,0,0:0:0:30:Crash-L.wav
329,192,261497,1,0,0:0:0:50:KicK.wav
402,192,261497,1,0,0:0:0:0:
256,192,261579,1,0,0:0:0:0:
182,192,261579,1,0,0:0:0:50:KicK.wav
109,192,261660,1,0,0:0:0:50:KicK.wav
36,192,261660,1,0,0:0:0:0:
475,192,261701,1,0,0:0:0:50:KicK.wav
402,192,261742,1,0,0:0:0:50:KicK.wav
329,192,261783,1,0,0:0:0:50:KicK.wav
109,192,261824,1,0,0:0:0:30:Crash-L.wav
36,192,261824,1,0,0:0:0:50:KicK.wav
256,192,261824,1,0,0:0:0:0:
475,192,261906,1,0,0:0:0:0:
402,192,261906,1,0,0:0:0:50:KicK.wav
109,192,261987,1,0,0:0:0:0:
329,192,261987,1,0,0:0:0:50:KicK.wav
182,192,262069,1,0,0:0:0:50:KicK.wav
402,192,262069,1,0,0:0:0:0:
109,192,262151,128,0,264767:0:0:0:0:
36,192,262151,128,0,264767:0:0:0:30:Crash-L.wav
256,192,262151,128,0,264767:0:0:0:0:
475,192,262151,128,0,264767:0:0:0:50:KicK.wav
