osu file format v14

[General]
AudioFilename: 7 ANIMA.mp3
AudioLeadIn: 0
PreviewTime: 44401
Countdown: 0
SampleSet: Soft
StackLeniency: 0.4
Mode: 0
LetterboxInBreaks: 0
WidescreenStoryboard: 0

[Editor]
DistanceSpacing: 0.5
BeatDivisor: 4
GridSize: 4
TimelineZoom: 2.2

[Metadata]
Title:ANiMA
TitleUnicode:ANiMA
Artist:xi
ArtistUnicode:xi
Creator:Kalindraz
Version:Hard
Source:Deemo
Tags:yusuke ishiwata piano rayark inc. soul alice masked lady deemo's collection vol. 2 World Fragments
BeatmapID:949232
BeatmapSetID:441271

[Difficulty]
HPDrainRate:5
CircleSize:4
OverallDifficulty:6
ApproachRate:7.5
SliderMultiplier:1.5
SliderTickRate:1

[Events]
//Background and Video events
0,0,"bg.jpg",0,0
//Break Periods
2,70839,75047
//Storyboard Layer 0 (Background)
//Storyboard Layer 1 (Fail)
//Storyboard Layer 2 (Pass)
//Storyboard Layer 3 (Foreground)
//Storyboard Sound Samples

[TimingPoints]
1322,326.975476839237,4,2,1,50,1,0
1322,-200,4,2,1,50,0,0
10477,-200,4,2,0,30,0,0
10804,-200,4,2,0,45,0,0
11131,-200,4,2,0,60,0,0
11458,-200,4,2,0,75,0,0
11785,-100,4,2,0,75,0,0
23556,-100,4,2,0,72,0,0
44482,-100,4,2,0,72,0,1
44727,-100,4,2,0,5,0,1
44809,-100,4,2,0,72,0,1
49632,-100,4,2,0,72,0,0
49714,-100,4,2,0,72,0,1
49959,-100,4,2,0,5,0,1
50041,-100,4,2,0,72,0,1
54864,-100,4,2,0,72,0,0
54945,-100,4,2,0,72,0,1
60095,-100,4,2,0,72,0,0
60177,-100,4,2,0,72,0,1
65409,-100,4,2,0,72,0,0
70640,-100,4,2,0,50,0,0
81104,-100,4,2,0,60,0,0
91567,-100,4,2,0,72,0,1
96798,-100,4,3,0,72,0,0
99087,-100,4,2,0,5,0,0
99414,-100,4,2,0,80,0,1
109877,-100,4,2,0,72,0,0
111267,-100,4,2,0,5,0,0

[Colours]
Combo1 : 253,65,2
Combo2 : 213,201,172
Combo3 : 155,192,230
Combo4 : 241,143,177
Combo5 : 203,222,163
Combo6 : 171,167,218
Combo7 : 183,202,190
Combo8 : 251,0,0

[HitObjects]
240,144,1322,5,2,0:0:0:0:
222,229,2629,1,2,0:0:0:0:
305,202,3937,1,2,0:0:0:0:
305,202,5572,2,0,L|377:226,2,75,2|2|2,0:0|0:0|0:0,0:0:0:0:
256,136,6553,5,2,0:0:0:0:
360,88,7861,1,2,0:0:0:0:
352,200,8515,1,2,0:0:0:0:
256,136,9169,6,0,P|176:120|104:144,1,150,2|2,0:0|0:0,0:0:0:0:
64,216,10477,2,0,L|48:304,1,75,2|2,0:0|0:0,0:0:0:0:
112,352,11131,2,0,P|152:360|192:352,1,75,2|2,0:0|0:0,0:0:0:0:
264,312,11785,6,0,B|336:280|336:280|424:280,1,150,6|2,1:2|0:0,0:0:0:0:
480,240,12275,1,0,0:0:0:0:
480,240,12439,2,0,P|456:168|480:96,1,150,2|0,0:0|0:0,0:0:0:0:
430,27,12929,1,0,0:0:0:0:
430,27,13093,6,0,L|350:43,1,75,2|0,0:0|0:0,0:0:0:0:
320,136,13420,2,0,L|240:152,1,75,2|0,0:0|0:0,0:0:0:0:
152,176,13747,2,0,B|120:104|120:104|160:32,1,150,2|2,0:0|0:0,0:0:0:0:
256,16,14237,1,0,0:0:0:0:
357,41,14401,6,0,B|392:104|392:104|360:176,1,150,6|2,1:2|0:0,0:0:0:0:
320,272,14891,1,0,0:0:0:0:
320,272,15054,2,0,P|248:296|176:272,1,150,2|2,0:0|0:0,0:0:0:0:
112,208,15545,1,0,0:0:0:0:
112,208,15708,38,0,B|96:112|96:112|144:136,1,150,6|2,1:2|0:0,0:0:0:0:
224,160,16199,1,0,0:0:0:0:
304,128,16362,6,0,B|320:32|320:32|272:56,1,150,6|2,1:2|0:0,0:0:0:0:
196,76,16853,1,0,0:0:0:0:
128,32,17016,6,0,P|56:28|12:88,1,150,6|2,1:2|0:0,0:0:0:0:
16,176,17507,1,0,0:0:0:0:
16,176,17670,2,0,L|24:264,1,75,2|0,0:0|0:0,0:0:0:0:
120,232,17997,2,0,L|128:320,1,75,2|0,0:0|0:0,0:0:0:0:
208,344,18324,6,0,B|256:360|256:360|360:344,1,150,6|2,1:2|0:0,0:0:0:0:
424,288,18815,1,0,0:0:0:0:
424,288,18978,2,0,P|432:240|424:208,1,75,2|0,0:0|0:0,0:0:0:0:
360,152,19305,2,0,P|352:104|360:72,1,75,2|0,0:0|0:0,0:0:0:0:
432,32,19632,6,0,B|456:24|472:8|472:8|448:64|472:128,1,150,6|2,1:2|0:0,0:0:0:0:
440,208,20123,1,0,0:0:0:0:
360,152,20286,2,0,P|280:176|208:152,1,150,6|0,1:2|0:0,0:0:0:0:
136,208,20777,1,0,0:0:0:0:
86,116,20940,6,0,B|104:72|80:16|80:16|96:32|120:40,1,150,6|2,1:2|1:2,0:0:0:0:
200,72,21430,1,0,0:0:0:0:
288,80,21594,2,0,L|368:56,3,75,6|6|6|6,1:2|0:0|1:2|0:0,0:0:0:0:
448,48,22248,53,2,1:2:0:0:
448,48,22575,1,2,0:0:0:0:
448,48,22902,1,2,0:0:0:0:
448,48,23229,1,2,0:0:0:0:
448,48,23556,6,0,L|440:216,1,150,6|2,1:2|1:2,0:0:0:0:
424,280,24046,1,0,0:0:0:0:
360,344,24210,2,0,P|320:360|272:352,1,75,2|0,1:2|0:0,0:0:0:0:
184,340,24537,1,2,1:2:0:0:
184,340,24700,1,0,0:0:0:0:
224,252,24864,6,0,L|312:236,1,75,2|0,1:2|0:0,0:0:0:0:
336,148,25191,2,0,P|336:100|316:60,1,75,2|0,1:2|0:0,0:0:0:0:
244,24,25518,2,0,B|168:16|168:16|96:40,1,150,6|6,1:2|1:2,0:0:0:0:
24,132,26008,1,0,0:0:0:0:
24,132,26090,1,0,0:0:0:0:
24,132,26172,6,0,B|24:220|24:220|56:284,1,150,6|2,1:2|1:2,0:0:0:0:
120,352,26662,1,0,0:0:0:0:
216,328,26826,2,0,P|264:320|304:336,1,75,2|0,1:2|0:0,0:0:0:0:
384,344,27153,2,0,P|408:272|376:192,1,150,6|2,1:2|1:2,0:0:0:0:
312,136,27643,5,4,0:0:0:0:
238,204,27807,2,0,L|230:284,1,75,6|0,1:2|0:0,0:0:0:0:
393,278,28133,2,0,L|385:203,1,75,6|0,1:2|0:0,0:0:0:0:
432,120,28460,2,0,P|472:112|512:120,1,75,6|0,1:2|0:0,0:0:0:0:
385,203,28787,54,0,B|313:219|313:219|233:203,1,150,6|2,1:2|1:2,0:0:0:0:
146,165,29278,2,0,L|139:88,1,75,0|2,0:0|1:2,0:0:0:0:
223,54,29605,1,0,0:0:0:0:
223,54,29768,2,0,L|239:214,1,150,2|0,1:2|1:2,0:0:0:0:
256,304,30259,5,0,0:0:0:0:
335,247,30422,2,0,L|350:174,1,75,2|0,1:2|0:0,0:0:0:0:
400,104,30749,2,0,P|440:96|480:104,1,75,6|0,1:2|0:0,0:0:0:0:
512,184,31076,2,0,P|472:192|432:184,1,75,6|0,1:2|0:0,0:0:0:0:
350,173,31403,6,0,P|325:140|319:107,2,75,6|0|0,1:2|0:0|1:2,0:0:0:0:
352,256,31894,2,0,P|312:246|286:225,2,75,6|0|0,1:2|1:2|0:0,0:0:0:0:
408,320,32384,2,0,P|371:338|338:338,2,75,6|0|0,1:2|0:0|1:0,0:0:0:0:
472,248,32875,5,6,0:0:0:0:
472,248,33038,2,0,P|480:208|472:168,1,75,6|0,1:2|0:0,0:0:0:0:
448,80,33365,2,0,P|408:72|352:88,1,75,2|0,1:2|0:0,0:0:0:0:
304,136,33692,2,0,P|264:144|208:128,1,75,2|0,1:2|0:0,0:0:0:0:
160,72,34019,6,0,B|112:64|112:64|72:104|104:168,1,150,6|2,1:2|0:0,0:0:0:0:
176,208,34510,1,0,0:0:0:0:
107,266,34673,2,0,B|80:320|120:360|120:360|168:352,1,150,6|2,1:2|0:0,0:0:0:0:
256,336,35163,1,0,0:0:0:0:
344,352,35327,38,0,P|384:360|416:352,1,75,6|0,1:2|0:0,0:0:0:0:
488,264,35654,2,0,P|448:256|416:264,1,75,2|0,1:2|0:0,0:0:0:0:
320,272,35981,2,0,L|312:192,1,75,2|0,1:2|0:0,0:0:0:0:
392,160,36308,2,0,L|384:80,1,75,2|0,1:2|0:0,0:0:0:0:
320,24,36635,6,0,B|240:8|240:8|168:40,1,150,6|2,1:2|1:2,0:0:0:0:
112,104,37125,1,0,0:0:0:0:
112,104,37289,2,0,L|96:192,1,75,6|0,1:2|0:0,0:0:0:0:
184,192,37616,2,0,L|184:288,1,75,6|0,1:2|0:0,0:0:0:0:
280,320,37943,6,0,B|384:312|384:312|344:272,1,150,6|2,1:2|1:2,0:0:0:0:
296,192,38433,1,0,0:0:0:0:
392,160,38597,2,0,B|432:164|432:164|468:156,1,75,2|0,1:2|0:0,0:0:0:0:
504,56,38924,2,0,B|464:52|464:52|428:60,1,75,2|0,1:2|1:0,0:0:0:0:
336,80,39251,38,0,P|328:48|336:8,1,75,6|0,1:2|0:0,0:0:0:0:
296,152,39578,2,0,P|269:132|249:96,1,75,6|0,1:2|0:0,0:0:0:0:
320,232,39905,2,0,P|287:234|249:219,1,75,6|0,1:2|0:0,0:0:0:0:
148,164,40232,1,2,1:2:0:0:
148,164,40313,1,0,0:0:0:0:
148,164,40395,1,0,1:0:0:0:
72,256,40560,54,0,P|70:289|85:327,1,75,6|0,1:2|0:0,0:0:0:0:
152,280,40886,2,0,P|172:307|208:327,1,75,6|0,1:2|0:0,0:0:0:0:
224,240,41213,2,0,P|256:248|296:240,1,75,6|0,1:2|0:0,0:0:0:0:
384,208,41539,2,0,P|424:200|464:208,1,75,6|0,1:2|0:0,0:0:0:0:
392,296,41866,6,0,L|376:144,1,150,6|0,1:2|1:2,0:0:0:0:
368,48,42357,1,0,1:0:0:0:
440,120,42520,2,0,B|376:144|376:144|272:136,1,150,6|2,1:2|1:2,0:0:0:0:
192,104,43011,1,0,1:0:0:0:
192,104,43093,1,0,1:0:0:0:
192,104,43174,6,0,P|152:104|112:120,1,75,6|0,1:2|0:0,0:0:0:0:
160,184,43501,2,0,P|125:204|98:237,1,75,2|0,1:2|0:0,0:0:0:0:
176,264,43828,2,0,P|162:301|163:344,1,75,2|0,1:2|0:0,0:0:0:0:
240,320,44155,2,0,P|253:357|282:389,1,75,2|0,1:2|0:0,0:0:0:0:
328,320,44482,6,0,L|336:200,1,112.5,6|0,1:2|0:0,0:0:0:0:
368,128,44809,22,0,P|396:124|420:128,2,50,2|2|2,1:2|0:0|0:0,0:0:0:0:
272,96,45136,2,0,P|244:92|220:96,2,50,2|2|2,1:2|0:0|0:0,0:0:0:0:
352,40,45463,2,0,P|380:36|404:40,2,50,2|2|2,1:2|0:0|0:0,0:0:0:0:
248,16,45790,38,0,L|168:24,1,75,2|0,1:2|0:0,0:0:0:0:
48,120,46117,2,0,L|122:112,1,75,2|0,1:2|0:0,0:0:0:0:
256,192,46444,2,0,L|176:200,1,75,2|0,1:2|0:0,0:0:0:0:
72,304,46771,2,0,L|146:296,1,75,2|0,1:2|0:0,0:0:0:0:
256,328,47098,6,0,L|344:320,1,75,6|0,1:2|0:0,0:0:0:0:
416,296,47425,1,2,1:2:0:0:
416,296,47589,1,0,0:0:0:0:
480,232,47752,2,0,L|488:152,1,75,2|0,1:2|0:0,0:0:0:0:
440,80,48079,1,2,1:2:0:0:
336,32,48242,1,2,0:0:0:0:
240,96,48406,6,0,P|200:104|168:96,1,75,6|0,1:2|0:0,0:0:0:0:
76,148,48733,1,0,1:2:0:0:
172,196,48896,1,0,0:0:0:0:
280,176,49060,6,0,P|328:184|360:176,1,75,2|0,1:2|0:0,0:0:0:0:
432,136,49387,1,6,1:2:0:0:
416,288,49550,1,4,1:2:0:0:
344,344,49714,6,0,L|224:336,1,112.5,6|0,1:2|0:0,0:0:0:0:
152,280,50041,22,0,P|124:276|100:280,2,50,2|2|2,1:2|0:0|0:0,0:0:0:0:
248,248,50368,2,0,P|276:244|300:248,2,50,2|2|2,1:2|0:0|0:0,0:0:0:0:
168,192,50695,2,0,P|140:188|116:192,2,50,2|2|2,1:2|0:0|0:0,0:0:0:0:
264,160,51022,6,0,L|280:80,1,75,6|0,1:2|0:0,0:0:0:0:
352,32,51349,2,0,P|392:24|432:32,1,75,2|0,1:2|0:0,0:0:0:0:
488,96,51676,2,0,L|472:176,1,75,2|0,1:2|0:0,0:0:0:0:
400,224,52003,2,0,P|360:232|320:224,1,75,2|0,1:2|0:0,0:0:0:0:
240,176,52330,6,0,P|168:160|88:184,1,150,6|2,1:2|1:2,0:0:0:0:
24,264,52820,1,0,1:0:0:0:
96,344,52984,6,0,P|167:363|240:347,1,150,6|2,1:2|1:2,0:0:0:0:
328,296,53474,1,0,1:0:0:0:
416,232,53638,6,0,P|424:192|416:152,1,75,6|0,1:2|0:0,0:0:0:0:
380,60,53965,1,2,1:2:0:0:
380,60,54046,1,0,0:0:0:0:
380,60,54128,1,0,0:0:0:0:
472,8,54292,2,0,B|480:48|480:48|472:88,1,75,6|0,1:2|0:0,0:0:0:0:
328,156,54619,2,0,B|288:164|288:164|248:156,1,75,6|0,1:2|0:0,0:0:0:0:
92,132,54945,6,0,B|40:168|40:168|36:256,1,150,6|0,1:2|1:2,0:0:0:0:
80,352,55436,1,0,0:0:0:0:
176,384,55599,2,0,L|192:232,1,150,2|0,1:2|1:2,0:0:0:0:
200,144,56090,1,0,0:0:0:0:
224,48,56253,6,0,L|304:56,1,75,6|0,1:2|0:0,0:0:0:0:
392,144,56580,2,0,L|317:136,1,75,6|0,1:2|0:0,0:0:0:0:
320,232,56907,2,0,L|400:240,1,75,6|0,1:2|0:0,0:0:0:0:
488,328,57234,2,0,L|413:320,1,75,6|0,1:2|0:0,0:0:0:0:
328,344,57561,70,0,B|256:360|256:360|152:336,1,150,6|2,1:2|1:2,0:0:0:0:
112,288,58052,1,0,0:0:0:0:
40,232,58215,2,0,P|112:200|184:232,1,150,6|2,1:2|1:2,0:0:0:0:
256,280,58706,1,0,0:0:0:0:
336,224,58869,6,0,L|328:144,1,75,6|0,1:2|0:0,0:0:0:0:
248,104,59196,2,0,P|208:96|152:120,1,75,6|0,1:2|0:0,0:0:0:0:
328,149,59523,2,0,P|364:157|401:149,1,75,6|0,1:2|1:0,0:0:0:0:
464,88,59850,2,0,L|471:13,1,75,6|0,1:2|1:0,0:0:0:0:
368,16,60177,6,0,B|320:32|320:32|208:24,1,150,6|2,1:2|1:2,0:0:0:0:
132,56,60668,1,0,0:0:0:0:
44,24,60831,2,0,B|20:0|20:0|36:128,1,150,6|2,1:2|1:2,0:0:0:0:
40,208,61321,1,0,0:0:0:0:
0,288,61485,6,0,P|32:296|80:288,1,75,6|0,1:2|0:0,0:0:0:0:
152,228,61812,2,0,P|184:220|232:228,1,75,6|0,1:2|0:0,0:0:0:0:
272,312,62139,2,0,P|304:320|352:312,1,75,6|0,1:2|0:0,0:0:0:0:
424,252,62466,2,0,P|456:244|504:252,1,75,6|0,1:2|0:0,0:0:0:0:
426,325,62793,38,0,P|418:285|426:245,1,75,2|0,1:2|0:0,0:0:0:0:
452,160,63120,1,2,1:2:0:0:
420,48,63283,1,0,0:0:0:0:
356,112,63447,6,0,L|276:120,1,75,6|0,1:2|0:0,0:0:0:0:
196,80,63774,1,0,1:2:0:0:
228,232,63937,1,0,0:0:0:0:
300,264,64101,6,0,P|308:224|292:184,1,75,6|0,1:2|0:0,0:0:0:0:
220,152,64428,1,0,1:2:0:0:
84,216,64591,1,0,0:0:0:0:
28,160,64755,2,0,L|52:88,1,75,6|0,1:2|0:0,0:0:0:0:
132,32,65082,5,0,1:2:0:0:
132,32,65409,70,0,B|196:56|196:56|276:40,1,150,6|2,1:2|1:2,0:0:0:0:
364,56,65899,1,0,0:0:0:0:
436,112,66063,2,0,P|444:152|436:192,1,75,2|0,1:2|0:0,0:0:0:0:
380,248,66390,2,0,P|372:288|380:328,1,75,2|0,1:2|0:0,0:0:0:0:
452,336,66717,6,0,P|372:320|300:336,1,150,6|2,1:2|1:2,0:0:0:0:
228,368,67207,1,2,0:0:0:0:
172,304,67371,2,0,L|92:296,1,75,2|0,1:2|0:0,0:0:0:0:
17,192,67698,2,0,L|92:200,1,75,2|0,1:2|0:0,0:0:0:0:
180,208,68024,6,0,P|212:144|188:64,1,150,6|2,1:2|1:2,0:0:0:0:
260,0,68515,1,0,0:0:0:0:
324,72,68678,2,0,P|305:142|337:208,1,150,6|2,1:2|1:2,0:0:0:0:
412,264,69169,1,0,0:0:0:0:
484,200,69332,5,6,1:2:0:0:
404,144,69496,1,0,0:0:0:0:
404,144,69578,1,0,1:2:0:0:
404,144,69659,2,0,B|396:104|396:104|404:64,1,75,6|0,1:2|0:0,0:0:0:0:
309,6,69986,2,0,B|316:40|316:40|308:80,1,75,6|0,1:2|0:0,0:0:0:0:
276,208,70313,2,0,L|116:232,1,150,6|6,1:2|1:2,0:0:0:0:
80,312,75872,6,0,P|64:232|80:160,1,150,2|2,0:0|0:0,0:0:0:0:
112,80,76362,1,0,0:0:0:0:
188,124,76526,6,0,B|256:160|256:160|316:120,1,150,6|2,0:0|0:0,0:0:0:0:
388,76,77016,1,2,0:0:0:0:
472,88,77180,2,0,B|464:144|416:168|416:168|416:224,1,150,2|2,0:0|0:0,0:0:0:0:
400,312,77670,1,0,0:0:0:0:
320,256,77834,54,0,B|280:224|280:224|256:232|256:232|232:224|232:224|192:256,1,150,6|2,0:0|0:0,0:0:0:0:
112,312,78324,1,0,0:0:0:0:
96,216,78488,2,0,B|96:168|96:168|48:144|40:88,1,150,2|2,0:0|0:0,0:0:0:0:
128,80,78978,1,0,0:0:0:0:
216,40,79142,6,0,B|256:32|256:32|296:40,1,75,6|0,0:0|0:0,0:0:0:0:
374,133,79469,2,0,B|340:139|340:139|300:131,1,75,6|0,0:0|0:0,0:0:0:0:
208,136,79796,6,0,L|216:224,1,75,6|0,0:0|0:0,0:0:0:0:
368,208,80123,2,0,L|374:133,1,75,6|0,0:0|0:0,0:0:0:0:
296,264,80450,2,0,L|304:352,1,75,6|0,0:0|0:0,0:0:0:0:
456,336,80777,2,0,L|462:261,1,75,6|0,0:0|0:0,0:0:0:0:
472,176,81104,6,0,B|488:136|472:104|472:104|384:80,1,150,6|0,1:2|3:0,0:0:0:0:
300,92,81594,1,0,0:0:0:0:
208,136,81757,2,0,P|200:104|208:56,2,75,2|0|2,3:2|0:0|3:2,0:0:0:0:
68,208,82411,54,0,P|37:234|23:278,1,75,2|0,3:0|0:0,0:0:0:0:
102,277,82738,2,0,P|95:316|112:359,1,75,2|0,3:0|0:0,0:0:0:0:
173,307,83065,2,0,P|193:341|233:362,1,75,2|0,3:0|0:0,0:0:0:0:
316,320,83392,1,2,3:0:0:0:
299,220,83556,1,0,0:0:0:0:
299,220,83638,1,0,0:0:0:0:
299,220,83719,6,0,B|292:156|292:156|324:72,1,150,6|0,1:2|3:0,0:0:0:0:
396,16,84210,1,0,0:0:0:0:
440,96,84373,2,0,P|472:104|512:96,2,75,2|0|2,3:2|0:0|3:2,0:0:0:0:
373,202,85027,6,0,P|373:242|349:282,1,75,2|0,3:0|0:0,0:0:0:0:
299,220,85354,2,0,P|273:250|229:265,1,75,2|0,3:0|0:0,0:0:0:0:
229,186,85681,2,0,P|189:192|146:176,1,75,2|0,3:0|0:0,0:0:0:0:
197,114,86008,2,0,P|162:94|139:53,1,75,2|0,1:2|1:0,0:0:0:0:
276,104,86335,38,0,P|260:160|164:184,1,150,6|2,1:2|1:2,0:0:0:0:
56,192,86826,1,2,1:2:0:0:
56,192,86907,1,0,1:0:0:0:
56,192,86989,2,0,P|34:226|24:274,1,75,6|2,1:2|0:0,0:0:0:0:
69,346,87316,2,0,P|109:354|157:338,1,75,2|0,1:2|0:0,0:0:0:0:
229,322,87643,70,0,P|309:306|381:322,1,150,6|2,1:2|1:2,0:0:0:0:
496,320,88133,1,2,1:2:0:0:
496,320,88214,1,0,1:0:0:0:
496,320,88296,2,0,P|505:280|500:231,1,75,6|2,1:2|0:0,0:0:0:0:
472,140,88624,2,0,L|392:116,1,75,2|0,1:2|0:0,0:0:0:0:
296,88,88951,6,0,P|256:80|216:88,1,75,6|0,1:2|0:0,0:0:0:0:
140,160,89278,1,0,1:2:0:0:
256,184,89441,1,2,1:2:0:0:
256,184,89522,1,0,1:0:0:0:
256,184,89604,2,0,B|264:224|248:264,1,75,6|2,1:2|0:0,0:0:0:0:
140,264,89932,2,0,P|103:258|66:266,1,75,6|0,1:2|0:0,0:0:0:0:
72,376,90259,6,0,P|108:383|145:378,1,75,6|0,1:2|0:0,0:0:0:0:
208,312,90586,2,0,L|256:248,1,75,6|0,1:2|0:0,0:0:0:0:
312,176,90913,2,0,P|348:168|385:173,1,75,6|0,1:2|0:0,0:0:0:0:
440,256,91240,2,0,L|448:344,1,75,6|0,1:2|0:0,0:0:0:0:
376,368,91567,5,6,1:2:0:0:
259,326,91730,1,4,1:2:0:0:
259,326,91894,2,0,L|251:238,1,75,2|0,1:2|0:0,0:0:0:0:
248,152,92221,37,6,1:2:0:0:
168,56,92384,1,4,1:2:0:0:
168,56,92548,2,0,P|136:48|96:56,1,75,2|0,1:2|0:0,0:0:0:0:
32,120,92875,53,6,1:2:0:0:
175,152,93038,1,4,1:2:0:0:
175,152,93202,2,0,P|215:160|247:152,1,75,2|0,1:2|0:0,0:0:0:0:
336,120,93529,6,0,L|408:96,1,75,6|0,1:2|0:0,0:0:0:0:
504,192,93856,2,0,L|432:216,1,75,6|0,0:0|0:0,0:0:0:0:
352,248,94183,53,6,1:2:0:0:
256,344,94346,1,4,1:2:0:0:
256,344,94510,2,0,B|219:353|219:353|176:344,1,75,2|0,1:2|0:0,0:0:0:0:
104,312,94836,5,6,1:2:0:0:
224,240,95000,1,4,1:2:0:0:
224,240,95163,2,0,L|232:160,1,75,2|0,1:2|0:0,0:0:0:0:
264,88,95490,5,6,1:2:0:0:
400,48,95654,1,4,1:2:0:0:
400,48,95817,2,0,P|408:88|400:128,1,75,2|0,1:2|0:0,0:0:0:0:
384,200,96144,70,0,L|368:280,1,75,6|0,1:2|0:0,0:0:0:0:
494,273,96471,2,0,L|480:200,1,75,6|0,1:2|0:0,0:0:0:0:
464,120,96798,37,6,1:2:0:0:
256,192,96880,12,0,99087,0:0:0:0:
296,224,99414,6,0,P|376:240|448:216,1,150,6|2,1:2|1:2,0:0:0:0:
496,152,99905,1,0,0:0:0:0:
440,76,100068,2,0,L|360:68,1,75,2|0,1:2|0:0,0:0:0:0:
296,128,100395,2,0,L|216:136,1,75,2|0,1:2|0:0,0:0:0:0:
92,80,100722,54,0,B|76:32|76:32|116:-8|172:0,1,150,6|0,1:2|1:2,0:0:0:0:
256,36,101213,1,0,0:0:0:0:
296,128,101376,2,0,P|304:168|288:216,1,75,2|0,1:2|0:0,0:0:0:0:
216,296,101703,1,2,1:2:0:0:
216,296,101785,1,0,0:0:0:0:
216,296,101866,1,0,0:0:0:0:
96,280,102030,2,0,L|88:200,1,75,6|0,1:2|0:0,0:0:0:0:
92,80,102357,86,0,L|84:16,2,50,2|2|0,0:0|0:0|0:0,0:0:0:0:
100,128,102684,2,0,L|-12:112,2,100,6|6|6,1:2|1:2|1:2,0:0:0:0:
190,153,103338,38,0,B|166:225|166:225|190:305,1,150,6|2,1:2|1:2,0:0:0:0:
280,260,103828,1,0,0:0:0:0:
368,360,103992,2,0,B|389:289|389:289|365:217,1,150,6|6,1:2|1:2,0:0:0:0:
280,108,104482,1,0,0:0:0:0:
328,8,104646,6,0,B|376:32|376:32|480:24,1,150,6|2,1:2|1:2,0:0:0:0:
512,104,105136,1,0,0:0:0:0:
480,188,105300,2,0,B|383:180|383:180|335:204,1,150,2|2,1:2|1:2,0:0:0:0:
272,276,105790,1,0,0:0:0:0:
204,352,105954,6,0,P|132:376|68:344,1,150,6|2,1:2|1:2,0:0:0:0:
20,272,106444,1,0,0:0:0:0:
20,272,106608,2,0,P|12:232|28:184,1,75,6|0,1:2|0:0,0:0:0:0:
120,144,106935,2,0,P|128:104|112:56,1,75,6|0,1:2|0:0,0:0:0:0:
48,48,107262,6,0,B|112:72|112:72|200:56,1,150,6|0,1:2|1:2,0:0:0:0:
256,120,107752,1,0,0:0:0:0:
319,57,107916,2,0,B|400:72|400:72|464:48,1,150,6|0,1:2|1:2,0:0:0:0:
400,144,108406,1,0,0:0:0:0:
319,57,108569,54,0,P|279:57|239:81,1,75,6|0,1:2|0:0,0:0:0:0:
301,131,108896,2,0,P|270:156|255:200,1,75,6|0,1:2|0:0,0:0:0:0:
335,201,109223,2,0,P|328:240|344:283,1,75,6|0,1:2|0:0,0:0:0:0:
407,233,109550,2,0,P|427:267|467:290,1,75,6|0,1:2|0:0,0:0:0:0:
488,216,109877,5,6,1:2:0:0:
384,344,110204,6,0,L|392:384,4,37.5,2|0|0|0|6,1:2|1:0|1:0|1:0|1:2,1:0:0:0:
256,187,110858,2,0,L|248:147,4,37.5,2|0|0|0|6,1:2|1:0|1:0|1:0|1:2,1:0:0:0:
256,192,111267,12,0,113801,0:0:0:0:
