osu file format v14

[General]
AudioFilename: 7 ANIMA.mp3
AudioLeadIn: 0
PreviewTime: 44401
Countdown: 0
SampleSet: Soft
StackLeniency: 0.7
Mode: 0
LetterboxInBreaks: 0
WidescreenStoryboard: 0

[Editor]
Bookmarks: 11785,23556
DistanceSpacing: 0.6
BeatDivisor: 4
GridSize: 4
TimelineZoom: 3.399999

[Metadata]
Title:ANiMA
TitleUnicode:ANiMA
Artist:xi
ArtistUnicode:xi
Creator:Kalindraz
Version:Extra
Source:Deemo
Tags:yusuke ishiwata piano rayark inc. soul alice masked lady deemo's collection vol. 2 World Fragments
BeatmapID:958819
BeatmapSetID:441271

[Difficulty]
HPDrainRate:6
CircleSize:4
OverallDifficulty:7.5
ApproachRate:9.2
SliderMultiplier:1.8
SliderTickRate:1

[Events]
//Background and Video events
0,0,"bg.jpg",0,0
//Break Periods
2,70840,75302
//Storyboard Layer 0 (Background)
//Storyboard Layer 1 (Fail)
//Storyboard Layer 2 (Pass)
//Storyboard Layer 3 (Foreground)
//Storyboard Sound Samples

[TimingPoints]
1322,326.975476839237,4,2,1,50,1,0
1322,-500,4,2,1,50,0,0
10477,-133.333333333333,4,2,0,30,0,0
10804,-133.333333333333,4,2,0,45,0,0
11131,-133.333333333333,4,2,0,60,0,0
11458,-133.333333333333,4,2,0,75,0,0
11785,-100,4,2,0,75,0,0
23556,-100,4,2,0,72,0,0
44482,-100,4,2,0,72,0,1
44727,-100,4,2,0,5,0,1
44809,-100,4,2,0,72,0,1
49632,-100,4,2,0,72,0,0
49714,-100,4,2,0,72,0,1
49959,-100,4,2,0,5,0,1
50041,-100,4,2,0,72,0,1
54864,-100,4,2,0,72,0,0
54945,-100,4,2,0,72,0,1
55191,-100,4,2,0,5,0,1
55272,-100,4,2,0,72,0,1
60095,-100,4,2,0,72,0,0
60177,-100,4,2,0,72,0,1
65409,-100,4,2,0,72,0,0
70313,-133.333333333333,4,2,0,72,0,0
70640,-100,4,2,0,50,0,0
81104,-100,4,2,0,60,0,0
91567,-100,4,2,0,72,0,1
96798,-100,4,3,0,72,0,0
97044,-100,4,2,0,5,0,0
97125,-133.333333333333,4,2,0,72,0,0
97452,-100,4,2,0,72,0,0
99414,-100,4,2,0,80,0,1
109877,-100,4,2,0,72,0,0
111267,-100,4,2,0,5,0,0

[Colours]
Combo1 : 253,65,2
Combo2 : 213,201,172
Combo3 : 155,192,230
Combo4 : 241,143,177
Combo5 : 203,222,163
Combo6 : 171,167,218
Combo7 : 183,202,190
Combo8 : 251,0,0

[HitObjects]
88,72,1322,6,0,B|160:84|160:44|232:60,2,144,2|2|2,0:0|0:0|0:0,0:0:0:0:
28,260,5572,2,0,L|36:300,2,36,2|2|2,0:0|0:0|0:0,0:0:0:0:
204,360,6553,6,0,L|248:216,1,144,2|2,0:0|0:0,0:0:0:0:
376,208,8515,1,2,0:0:0:0:
421,313,9169,2,0,P|386:323|351:319,1,72,2|2,0:0|0:0,0:0:0:0:
352,320,10477,5,2,0:0:0:0:
352,320,10559,1,0,0:0:0:0:
352,320,10640,2,0,L|296:304,1,33.7500012874604
312,232,10804,5,2,0:0:0:0:
312,232,10886,1,0,0:0:0:0:
312,232,10967,2,0,L|255:246,1,33.7500012874604
248,160,11131,5,2,0:0:0:0:
248,160,11213,1,0,0:0:0:0:
248,160,11294,2,0,L|206:200,1,33.7500012874604
160,120,11458,5,2,0:0:0:0:
160,120,11540,1,0,0:0:0:0:
160,120,11621,2,0,L|144:175,1,33.7500012874604
76,252,11785,38,0,L|64:352,1,90,6|0,1:2|0:0,0:0:0:0:
208,344,12112,2,0,L|197:254,1,90,2|0,0:0|0:0,0:0:0:0:
188,84,12439,1,2,0:0:0:0:
140,172,12602,1,0,0:0:0:0:
296,56,12766,1,2,0:0:0:0:
296,56,12847,1,0,0:0:0:0:
296,56,12929,1,0,0:0:0:0:
188,84,13093,6,0,L|88:72,1,90,2|0,0:0|0:0,0:0:0:0:
76,252,13420,2,0,L|165:262,1,90,2|0,0:0|0:0,0:0:0:0:
308,228,13747,1,2,0:0:0:0:
308,228,13828,1,0,0:0:0:0:
308,228,13910,1,0,0:0:0:0:
276,132,14074,1,2,0:0:0:0:
244,340,14237,1,0,0:0:0:0:
344,320,14401,6,0,L|440:312,1,90,6|0,1:2|0:0,0:0:0:0:
492,216,14727,1,2,0:0:0:0:
444,124,14891,1,0,0:0:0:0:
404,218,15054,6,0,P|452:226|500:210,1,90,2|0,0:0|0:0,0:0:0:0:
316,60,15381,2,0,P|268:52|220:68,1,90,2|0,0:0|0:0,0:0:0:0:
156,112,15708,6,0,L|144:208,1,90,6|0,1:2|0:0,0:0:0:0:
220,296,16035,1,0,0:0:0:0:
244,192,16199,1,0,0:0:0:0:
56,156,16362,2,0,L|44:252,1,90,6|0,1:2|0:0,0:0:0:0:
120,305,16689,1,2,0:0:0:0:
144,201,16853,1,0,0:0:0:0:
60,364,17016,6,0,P|128:384|188:352,1,135,6|0,1:2|0:0,0:0:0:0:
220,280,17343,2,0,L|232:228,1,45,2|0,0:0|0:0,0:0:0:0:
284,120,17507,2,0,L|272:172,1,45
264,285,17670,2,0,L|248:233,1,45,2|0,0:0|0:0,0:0:0:0:
239,114,17834,2,0,L|254:165,1,45
305,267,17997,2,0,L|265:230,1,45,2|0,0:0|0:0,0:0:0:0:
198,132,18161,2,0,L|237:168,1,45
340,244,18324,38,0,P|400:256|472:236,1,135,6|0,1:2|0:0,0:0:0:0:
512,156,18651,2,0,L|467:154,1,45,2|0,0:0|0:0,0:0:0:0:
330,132,18815,2,0,L|374:133,1,45
512,92,18978,2,0,L|468:105,1,45,2|0,0:0|0:0,0:0:0:0:
330,132,19142,2,0,L|372:117,1,45
444,32,19305,5,2,0:0:0:0:
432,28,19387,1,0,0:0:0:0:
420,24,19469,1,0,0:0:0:0:
408,20,19550,1,0,0:0:0:0:
396,16,19632,6,0,B|336:36|336:36|248:28,1,135,6|0,1:2|0:0,0:0:0:0:
232,24,19959,1,2,0:0:0:0:
156,196,20123,1,0,0:0:0:0:
152,56,20286,38,0,P|200:100|280:92,1,135,6|0,1:2|0:0,0:0:0:0:
288,88,20613,1,2,0:0:0:0:
336,260,20777,1,0,0:0:0:0:
136,316,20940,53,6,1:2:0:0:
336,260,21267,1,6,1:2:0:0:
136,316,21594,5,6,1:2:0:0:
376,332,21757,1,4,1:2:0:0:
104,244,21921,1,6,1:2:0:0:
336,260,22084,1,4,1:2:0:0:
76,168,22248,5,6,1:2:0:0:
304,184,22575,1,2,0:0:0:0:
64,48,22902,6,0,L|24:44,14,22.5,2|0|0|0|0|0|0|0|0|0|0|0|0|0|0,0:0|0:0|0:0|0:0|0:0|0:0|0:0|0:0|0:0|0:0|0:0|0:0|0:0|0:0|0:0,0:0:0:0:
88,60,23556,6,0,L|104:156,1,90,6|0,1:2|0:0,0:0:0:0:
200,180,23883,1,0,1:2:0:0:
112,140,24046,54,0,L|96:236,1,90,6|0,0:0|1:2,0:0:0:0:
0,260,24373,1,0,0:0:0:0:
88,220,24537,6,0,L|104:316,1,90,6|0,1:2|0:0,0:0:0:0:
200,340,24864,1,2,1:2:0:0:
288,288,25027,6,0,P|292:264|288:240,1,45,6|0,0:0|0:0,0:0:0:0:
364,216,25191,2,0,P|355:193|340:174,1,45,6|0,1:2|0:0,0:0:0:0:
396,120,25354,2,0,P|377:104|354:96,1,45,6|0,0:0|0:0,0:0:0:0:
200,72,25518,5,6,1:2:0:0:
380,256,25681,1,0,0:0:0:0:
372,236,25763,1,0,0:0:0:0:
364,216,25845,1,6,1:2:0:0:
320,16,26008,1,0,0:0:0:0:
396,120,26172,6,0,L|288:112,1,90,6|0,1:2|0:0,0:0:0:0:
184,64,26499,1,0,1:0:0:0:
16,184,26662,38,0,L|124:176,1,90,6|0,0:0|1:2,0:0:0:0:
228,128,26989,1,0,0:0:0:0:
16,184,27153,5,0,1:2:0:0:
20,212,27234,1,0,0:0:0:0:
24,240,27316,1,0,0:0:0:0:
28,268,27398,1,0,0:0:0:0:
32,296,27480,6,0,L|120:281,1,90,2|6,1:2|1:2,0:0:0:0:
144,148,27807,1,6,1:2:0:0:
236,224,27970,1,0,0:0:0:0:
184,64,28133,6,0,P|136:56|88:68,1,90,6|0,1:2|0:0,0:0:0:0:
196,320,28460,2,0,P|244:328|292:316,1,90,6|0,1:2|0:0,0:0:0:0:
408,292,28787,5,6,1:2:0:0:
488,224,28951,2,0,L|496:128,1,90,0|0,0:0|1:2,0:0:0:0:
368,8,29278,5,6,0:0:0:0:
288,104,29442,2,0,L|280:200,1,90,0|0,1:2|0:0,0:0:0:0:
196,320,29768,37,6,1:2:0:0:
120,208,29932,2,0,L|112:112,1,90,0|0,0:0|1:2,0:0:0:0:
48,48,30259,6,0,P|24:40|0:40,1,45,6|0,0:0|0:0,0:0:0:0:
184,120,30422,2,0,P|208:128|232:128,1,45,6|0,1:2|0:0,0:0:0:0:
48,192,30586,2,0,P|24:184|0:184,1,45,6|0,0:0|0:0,0:0:0:0:
8,272,30749,6,0,P|56:280|104:264,1,90,6|0,1:2|0:0,0:0:0:0:
224,48,31076,2,0,P|176:40|128:56,1,90,6|0,1:2|0:0,0:0:0:0:
84,120,31403,5,6,1:2:0:0:
184,220,31567,2,0,B|232:228|232:228|272:220,1,90,0|0,0:0|1:2,0:0:0:0:
504,160,31894,5,6,1:2:0:0:
376,64,32058,2,0,B|328:56|328:56|288:64,1,90,0|0,1:2|0:0,0:0:0:0:
64,280,32384,5,6,1:2:0:0:
240,368,32548,2,0,B|288:376|288:376|328:368,1,90,0|0,0:0|1:0,0:0:0:0:
480,304,32875,38,0,L|504:320,2,22.5,6|0|0,0:0|0:0|0:0,0:0:0:0:
424,248,33038,2,0,L|408:152,1,90,6|0,1:2|0:0,0:0:0:0:
388,76,33365,5,2,1:2:0:0:
364,68,33447,1,0,0:0:0:0:
336,64,33529,1,0,0:0:0:0:
308,64,33610,1,0,0:0:0:0:
284,72,33692,1,6,0:0:0:0:
260,84,33774,1,0,0:0:0:0:
232,92,33856,1,0,0:0:0:0:
204,92,33937,1,0,0:0:0:0:
176,84,34019,5,6,1:2:0:0:
196,116,34101,1,0,0:0:0:0:
196,152,34183,1,0,0:0:0:0:
176,180,34264,1,0,0:0:0:0:
144,196,34346,1,2,0:0:0:0:
108,192,34428,1,0,0:0:0:0:
76,172,34510,2,0,L|64:116,1,45
156,4,34673,5,6,1:2:0:0:
192,0,34755,1,0,0:0:0:0:
224,12,34836,1,0,0:0:0:0:
248,40,34918,1,0,0:0:0:0:
256,76,35000,1,2,0:0:0:0:
244,108,35082,1,0,0:0:0:0:
228,140,35163,2,0,P|224:164|232:188,1,45
240,296,35327,6,0,L|228:352,3,45,6|0|0|0,1:2|0:0|0:0|0:0,0:0:0:0:
336,212,35654,2,0,L|345:167,3,45,2|0|0|0,1:2|0:0|0:0|0:0,0:0:0:0:
392,332,35981,2,0,L|380:388,3,45,2|0|0|0,1:2|0:0|0:0|0:0,0:0:0:0:
484,232,36308,5,2,1:2:0:0:
468,184,36390,1,0,0:0:0:0:
452,136,36471,1,0,0:0:0:0:
436,88,36553,1,0,0:0:0:0:
420,40,36635,38,0,L|376:40,3,45,6|0|0|0,1:2|0:0|0:0|0:0,0:0:0:0:
312,96,36962,5,2,1:2:0:0:
272,124,37044,1,0,0:0:0:0:
224,136,37125,1,0,0:0:0:0:
176,124,37207,1,0,0:0:0:0:
136,92,37289,6,0,L|140:48,3,45,6|0|0|0,1:2|0:0|0:0|0:0,0:0:0:0:
56,192,37616,2,0,L|52:236,3,45,6|0|0|0,1:2|0:0|0:0|0:0,0:0:0:0:
152,208,37943,5,6,1:2:0:0:
141,251,38024,1,0,0:0:0:0:
152,294,38106,1,0,0:0:0:0:
184,326,38188,1,0,0:0:0:0:
227,333,38270,1,2,1:2:0:0:
270,326,38351,1,0,0:0:0:0:
302,294,38433,1,0,0:0:0:0:
313,251,38515,1,0,0:0:0:0:
308,208,38597,6,0,L|296:160,1,45,2|0,1:2|0:0,0:0:0:0:
365,60,38760,2,0,L|376:104,1,45,0|0,1:2|0:0,0:0:0:0:
381,227,38924,5,2,1:2:0:0:
349,243,39005,1,0,1:0:0:0:
313,251,39087,1,0,1:0:0:0:
277,247,39169,1,0,1:0:0:0:
240,232,39251,37,6,1:2:0:0:
200,72,39414,2,0,L|188:120,1,45
124,172,39578,5,6,1:2:0:0:
84,12,39741,2,0,L|72:60,1,45
8,112,39905,2,0,L|16:212,1,90,6|0,1:2|0:0,0:0:0:0:
0,292,40232,6,0,L|8:340,1,45,2|0,1:2|0:0,0:0:0:0:
148,348,40395,2,0,L|140:303,1,45,2|0,1:2|0:0,0:0:0:0:
124,172,40559,85,6,1:2:0:0:
236,120,40722,2,0,L|244:171,1,45
256,241,40886,5,6,1:2:0:0:
353,116,41049,2,0,L|361:167,1,45
373,237,41213,5,6,1:2:0:0:
484,168,41376,1,0,0:0:0:0:
490,188,41458,1,0,0:0:0:0:
496,208,41539,6,0,L|492:256,1,45,6|0,1:2|0:0,0:0:0:0:
360,161,41703,2,0,L|364:113,1,45,6|0,1:2|0:0,0:0:0:0:
264,40,41866,6,0,P|208:36|164:64,1,90,6|0,1:2|0:0,0:0:0:0:
44,212,42193,1,2,1:2:0:0:
28,244,42275,1,0,1:0:0:0:
24,280,42357,1,0,1:0:0:0:
36,312,42439,1,0,1:0:0:0:
56,340,42520,54,0,L|152:328,1,90,6|0,1:2|0:0,0:0:0:0:
488,272,42847,1,2,1:2:0:0:
504,240,42929,1,0,1:0:0:0:
508,204,43011,1,0,1:0:0:0:
496,172,43093,1,0,1:0:0:0:
476,144,43174,2,0,L|380:156,1,90,6|0,1:2|0:0,0:0:0:0:
262,132,43501,6,0,P|238:128|214:132,1,45,2|0,1:2|0:0,0:0:0:0:
387,155,43665,2,0,P|402:136|411:113,1,45,2|0,0:0|0:0,0:0:0:0:
304,252,43828,2,0,P|312:274|328:293,1,45,2|0,1:2|0:0,0:0:0:0:
331,107,43992,6,0,P|322:84|307:65,1,45,2|0,0:0|0:0,0:0:0:0:
374,228,44156,2,0,P|398:232|422:228,1,45,2|0,1:2|0:0,0:0:0:0:
248,204,44319,2,0,P|232:222|223:245,1,45,2|0,0:0|0:0,0:0:0:0:
244,356,44482,6,0,B|296:368|296:368|392:360,1,135,6|0,1:2|0:0,0:0:0:0:
472,308,44809,38,0,L|480:248,2,60,2|2|2,1:2|0:0|0:0,0:0:0:0:
387,155,45136,2,0,L|379:215,2,60,2|2|2,1:2|0:0|0:0,0:0:0:0:
500,112,45463,2,0,L|508:52,2,60,2|2|2,1:2|0:0|0:0,0:0:0:0:
392,68,45790,54,0,P|348:72|300:112,1,90,2|0,1:2|0:0,0:0:0:0:
264,256,46117,2,0,L|160:272,1,90,2|0,1:2|0:0,0:0:0:0:
8,292,46444,6,0,P|12:248|52:200,1,90,2|0,1:2|0:0,0:0:0:0:
221,110,46771,2,0,L|309:96,1,90,2|0,1:2|0:0,0:0:0:0:
424,88,47098,5,6,1:2:0:0:
448,112,47180,1,0,0:0:0:0:
460,148,47262,1,0,0:0:0:0:
452,184,47343,1,0,0:0:0:0:
428,212,47425,1,2,1:2:0:0:
408,244,47507,1,0,0:0:0:0:
404,280,47589,1,0,0:0:0:0:
424,312,47670,1,0,0:0:0:0:
452,336,47752,5,2,1:2:0:0:
416,324,47834,1,0,0:0:0:0:
380,320,47916,1,0,0:0:0:0:
344,324,47997,1,0,0:0:0:0:
308,336,48079,1,2,1:2:0:0:
272,348,48161,1,0,0:0:0:0:
236,356,48242,2,0,P|212:356|192:348,1,45
88,208,48406,37,6,1:2:0:0:
112,180,48488,1,0,0:0:0:0:
144,168,48569,1,0,0:0:0:0:
180,164,48651,1,0,0:0:0:0:
216,176,48733,1,2,1:2:0:0:
244,200,48815,1,0,0:0:0:0:
260,232,48896,1,0,0:0:0:0:
256,268,48978,1,0,0:0:0:0:
228,244,49060,5,2,1:2:0:0:
220,208,49142,1,0,0:0:0:0:
224,172,49223,1,0,0:0:0:0:
236,140,49305,1,0,0:0:0:0:
260,112,49387,2,0,P|288:104|312:104,1,45,6|0,1:2|0:0,0:0:0:0:
404,208,49550,2,0,P|376:216|352:216,1,45,6|0,1:2|0:0,0:0:0:0:
228,244,49714,6,0,B|188:216|184:180|184:180|188:116,1,135,6|0,1:2|0:0,0:0:0:0:
200,20,50041,54,0,L|260:36,2,60,2|2|2,1:2|0:0|0:0,0:0:0:0:
120,68,50368,2,0,L|60:84,2,60,2|2|2,1:2|0:0|0:0,0:0:0:0:
187,125,50695,2,0,L|247:141,2,60,2|2|2,1:2|0:0|0:0,0:0:0:0:
136,188,51022,38,0,L|148:284,1,90,2|0,1:2|0:0,0:0:0:0:
312,284,51349,2,0,L|323:194,1,90,2|0,1:2|0:0,0:0:0:0:
191,117,51676,2,0,P|139:101|95:109,1,90,2|0,1:2|0:0,0:0:0:0:
260,348,52003,2,0,P|312:364|356:356,1,90,2|0,1:2|0:0,0:0:0:0:
456,308,52330,5,6,1:2:0:0:
464,272,52411,1,0,0:0:0:0:
472,236,52493,1,0,0:0:0:0:
480,200,52575,1,0,0:0:0:0:
488,164,52657,2,0,L|396:148,1,90,2|0,1:2|1:0,0:0:0:0:
140,128,52984,5,6,1:2:0:0:
116,100,53065,1,0,0:0:0:0:
112,64,53147,1,0,0:0:0:0:
124,28,53229,1,0,0:0:0:0:
152,4,53311,2,0,L|248:0,1,90,2|0,1:2|1:0,0:0:0:0:
332,52,53638,6,0,L|340:104,3,45,6|0|0|0,1:2|0:0|0:0|0:0,0:0:0:0:
448,136,53965,2,0,L|456:188,3,45,6|0|0|0,1:2|0:0|0:0|0:0,0:0:0:0:
352,248,54292,6,0,L|356:280,6,22.5,6|0|0|0|0|0|0,1:2|0:0|0:0|0:0|0:0|0:0|0:0,0:0:0:0:
324,344,54619,53,6,1:2:0:0:
280,332,54700,1,0,0:0:0:0:
236,320,54782,1,0,1:2:0:0:
192,308,54864,1,0,0:0:0:0:
148,296,54945,6,0,P|132:224|172:160,1,135,6|0,1:2|0:0,0:0:0:0:
281,145,55272,53,2,1:2:0:0:
321,148,55381,1,2,0:0:0:0:
362,152,55490,1,2,0:0:0:0:
402,156,55599,37,2,1:2:0:0:
344,248,55763,1,0,0:0:0:0:
404,64,55926,2,0,L|296:48,1,90,2|0,1:2|0:0,0:0:0:0:
244,76,56172,1,0,0:0:0:0:
228,84,56253,5,6,1:2:0:0:
216,184,56417,5,0,0:0:0:0:
187,179,56499,1,0,0:0:0:0:
162,163,56581,1,6,1:2:0:0:
256,264,56744,5,0,0:0:0:0:
228,274,56826,1,0,0:0:0:0:
198,272,56908,1,6,1:2:0:0:
328,312,57071,53,0,0:0:0:0:
308,334,57153,1,0,0:0:0:0:
281,347,57235,1,6,1:2:0:0:
420,352,57398,5,0,0:0:0:0:
420,352,57480,1,0,0:0:0:0:
420,352,57561,6,0,P|424:304|412:244,1,90,6|0,1:2|0:0,0:0:0:0:
416,164,57888,53,2,1:2:0:0:
424,124,57997,1,2,0:0:0:0:
432,84,58106,1,2,0:0:0:0:
440,44,58215,38,0,P|413:50|373:46,1,45,2|0,1:2|0:0,0:0:0:0:
280,88,58379,2,0,P|257:87|235:81,1,45
80,120,58542,6,0,P|107:126|147:122,1,45,2|0,1:2|0:0,0:0:0:0:
239,178,58706,2,0,P|261:177|283:171,1,45
424,124,58869,6,0,L|420:172,1,45,6|0,1:2|0:0,0:0:0:0:
243,270,59033,1,0,0:0:0:0:
239,246,59114,1,0,0:0:0:0:
235,222,59196,6,0,L|239:174,1,45,6|0,1:2|0:0,0:0:0:0:
284,56,59360,1,0,0:0:0:0:
284,56,59441,1,0,0:0:0:0:
284,56,59523,54,0,P|308:52|332:56,1,45,6|0,1:2|0:0,0:0:0:0:
148,140,59687,2,0,P|124:144|100:140,1,45,6|0,1:2|0:0,0:0:0:0:
268,40,59850,6,0,P|292:36|316:40,1,45,6|0,1:2|0:0,0:0:0:0:
132,124,60014,2,0,P|108:128|84:124,1,45,6|0,1:2|0:0,0:0:0:0:
60,32,60177,6,0,P|108:20|172:28,1,90,6|0,1:2|0:0,0:0:0:0:
248,133,60504,53,2,1:2:0:0:
245,173,60613,1,2,0:0:0:0:
241,214,60722,1,2,0:0:0:0:
237,254,60831,37,2,1:2:0:0:
268,268,60913,1,0,0:0:0:0:
300,276,60995,1,0,0:0:0:0:
336,268,61076,1,0,0:0:0:0:
368,252,61158,2,0,L|376:204,1,45,2|0,1:2|0:0,0:0:0:0:
512,104,61321,2,0,L|504:148,1,45,2|0,0:0|0:0,0:0:0:0:
484,244,61485,5,6,1:2:0:0:
360,212,61648,85,0,0:0:0:0:
364,232,61730,1,0,0:0:0:0:
368,252,61811,1,6,1:2:0:0:
228,172,61975,5,0,0:0:0:0:
232,192,62057,1,0,0:0:0:0:
236,212,62138,1,6,1:2:0:0:
104,140,62302,5,0,0:0:0:0:
108,160,62384,1,0,0:0:0:0:
112,180,62465,1,6,1:2:0:0:
56,332,62629,5,0,0:0:0:0:
56,332,62711,1,0,0:0:0:0:
56,332,62793,5,6,1:2:0:0:
232,192,62956,1,0,1:0:0:0:
164,360,63120,1,2,1:2:0:0:
12,228,63283,1,0,1:0:0:0:
268,304,63447,5,6,1:2:0:0:
112,188,63610,1,0,1:0:0:0:
324,80,63774,53,2,1:2:0:0:
96,84,63937,1,0,1:0:0:0:
304,4,64101,5,2,1:2:0:0:
340,4,64183,1,0,1:0:0:0:
372,20,64265,1,0,1:0:0:0:
396,48,64346,1,0,1:0:0:0:
400,84,64428,1,6,1:2:0:0:
388,120,64510,1,0,1:0:0:0:
364,148,64592,1,0,1:0:0:0:
332,160,64673,1,0,1:0:0:0:
296,156,64755,6,0,L|260:164,6,22.5,6|0|0|0|0|0|0,1:2|0:0|0:0|0:0|0:0|0:0|0:0,0:0:0:0:
332,188,65082,2,0,L|348:328,1,135,2|0,0:0|0:0,0:0:0:0:
208,352,65409,6,0,P|187:342|170:327,1,45,6|0,1:2|0:0,0:0:0:0:
196,157,65572,2,0,P|198:179|194:201,1,45
34,265,65736,2,0,P|52:251|73:243,1,45,2|0,1:2|0:0,0:0:0:0:
257,250,65900,6,0,P|239:263|218:271,1,45
83,165,66063,2,0,P|103:173|121:188,1,45,2|0,1:2|0:0,0:0:0:0:
97,358,66227,2,0,P|94:335|98:313,1,45
194,201,66390,54,0,P|216:198|238:202,1,45,2|0,1:2|0:0,0:0:0:0:
315,266,66553,2,0,P|337:270|360:268,1,45
436,309,66717,38,0,P|439:331|437:353,1,45,6|0,1:2|0:0,0:0:0:0:
413,183,66881,2,0,P|430:168|451:159,1,45
315,266,67044,2,0,P|293:258|276:244,1,45,2|0,1:2|0:0,0:0:0:0:
461,239,67208,6,0,P|482:246|500:260,1,45
339,196,67372,2,0,P|335:173|337:151,1,45,2|0,1:2|0:0,0:0:0:0:
363,323,67535,2,0,P|346:338|325:347,1,45
160,320,67698,38,0,P|142:305|130:286,1,45,2|0,1:2|0:0,0:0:0:0:
100,180,67861,2,0,P|98:157|102:135,1,45,2|0,0:0|0:0,0:0:0:0:
185,10,68024,6,0,P|164:19|148:35,1,45,6|0,1:2|0:0,0:0:0:0:
173,206,68188,2,0,P|175:184|172:162,1,45
10,97,68351,2,0,P|28:111|50:119,1,45,2|0,1:2|0:0,0:0:0:0:
172,162,68515,2,0,P|194:164|216:160,1,45,0|0,1:2|0:0,0:0:0:0:
296,160,68678,6,0,P|318:163|340:161,1,45,6|0,1:2|0:0,0:0:0:0:
462,118,68842,2,0,P|483:110|501:96,1,45,2|0,0:0|0:0,0:0:0:0:
364,34,69005,2,0,P|347:18|326:9,1,45,2|0,1:2|0:0,0:0:0:0:
339,160,69169,2,0,P|335:182|337:204,1,45,2|0,1:2|0:0,0:0:0:0:
388,352,69332,6,0,L|416:364,6,22.5,6|0|0|0|0|0|0,1:2|0:0|0:0|0:0|0:0|0:0|0:0,0:0:0:0:
304,356,69659,70,0,L|160:336,1,135,6|0,1:2|0:0,0:0:0:0:
160,252,69986,2,0,L|216:260,1,45,6|0,1:2|0:0,0:0:0:0:
293,273,70150,2,0,L|349:281,1,45,6|0,1:2|0:0,0:0:0:0:
437,218,70313,6,0,L|321:202,1,101.250003862381,6|0,1:2|0:0,0:0:0:0:
292,200,70640,5,6,1:2:0:0:
420,140,75872,6,0,P|376:124|320:132,1,90,2|0,0:0|0:0,0:0:0:0:
228,248,76199,1,2,0:0:0:0:
212,280,76281,1,0,0:0:0:0:
196,312,76362,1,0,0:0:0:0:
180,344,76444,1,0,0:0:0:0:
164,376,76526,2,0,L|72:368,1,90,6|0,0:0|0:0,0:0:0:0:
14,216,76853,6,0,L|104:224,1,90,2|0,0:0|0:0,0:0:0:0:
272,244,77180,1,2,0:0:0:0:
308,248,77262,1,0,0:0:0:0:
344,252,77343,1,0,0:0:0:0:
380,256,77425,1,0,0:0:0:0:
416,260,77507,5,2,0:0:0:0:
404,228,77589,1,0,0:0:0:0:
400,192,77670,1,0,0:0:0:0:
412,160,77752,1,0,0:0:0:0:
432,128,77834,2,0,L|336:116,1,90,6|0,0:0|0:0,0:0:0:0:
260,48,78161,1,2,0:0:0:0:
260,48,78242,1,0,0:0:0:0:
260,48,78324,1,0,0:0:0:0:
176,144,78488,53,2,0:0:0:0:
140,152,78569,1,0,0:0:0:0:
104,156,78651,1,0,0:0:0:0:
68,152,78733,1,0,0:0:0:0:
36,136,78815,5,2,0:0:0:0:
48,180,78896,1,0,0:0:0:0:
60,224,78978,1,0,0:0:0:0:
72,268,79060,1,0,0:0:0:0:
84,312,79142,6,0,L|76:360,3,45,6|0|0|0,0:0|0:0|0:0|0:0,0:0:0:0:
147,196,79469,2,0,L|139:148,3,45,6|0|0|0,0:0|0:0|0:0|0:0,0:0:0:0:
224,300,79796,6,0,L|216:348,3,45,6|0|0|0,0:0|0:0|0:0|0:0,0:0:0:0:
287,184,80123,2,0,L|279:136,3,45,6|0|0|0,0:0|0:0|0:0|0:0,0:0:0:0:
360,280,80450,6,0,L|352:328,3,45,6|0|0|0,0:0|0:0|0:0|0:0,0:0:0:0:
423,164,80777,2,0,L|415:116,3,45,6|0|0|0,0:0|0:0|0:0|0:0,0:0:0:0:
512,268,81104,38,0,B|464:296|464:296|382:282,1,135,6|0,1:2|0:0,0:0:0:0:
360,280,81430,1,2,3:2:0:0:
238,214,81594,1,2,0:0:0:0:
264,376,81757,6,0,P|216:384|168:360,1,90,2|0,3:2|0:0,0:0:0:0:
202,133,82084,2,0,P|250:125|298:149,1,90,2|0,3:2|0:0,0:0:0:0:
360,280,82411,6,0,P|344:312|321:336,1,45,2|0,3:0|0:0,0:0:0:0:
288,140,82575,2,0,P|266:108|256:76,1,45,2|0,3:0|0:0,0:0:0:0:
441,148,82738,2,0,P|475:143|509:150,1,45,2|0,3:0|0:0,0:0:0:0:
282,230,82902,6,0,P|245:232|213:225,1,45,2|0,3:0|0:0,0:0:0:0:
367,98,83066,2,0,P|383:63|406:38,1,45,2|0,3:0|0:0,0:0:0:0:
437,235,83229,2,0,P|457:262|468:295,1,45,2|0,3:0|0:0,0:0:0:0:
467,351,83392,5,2,3:0:0:0:
435,343,83474,1,0,0:0:0:0:
403,335,83556,1,0,1:0:0:0:
371,327,83638,1,0,1:0:0:0:
339,319,83719,6,0,L|323:231,1,90,6|0,1:2|0:0,0:0:0:0:
256,48,84046,1,2,3:2:0:0:
192,184,84210,1,2,0:0:0:0:
359,91,84373,54,0,P|367:43|359:-5,1,90,2|0,3:2|0:0,0:0:0:0:
151,2,84700,2,0,P|146:46|154:91,1,90,2|0,3:2|0:0,0:0:0:0:
192,184,85027,6,0,P|212:193|234:197,1,45,2|0,3:0|0:0,0:0:0:0:
355,281,85190,2,0,P|352:258|345:237,1,45,2|0,3:0|0:0,0:0:0:0:
359,91,85354,2,0,P|340:103|325:120,1,45,2|0,3:0|0:0,0:0:0:0:
246,281,85518,6,0,P|264:268|278:250,1,45,2|0,3:0|0:0,0:0:0:0:
412,188,85681,2,0,P|391:178|369:173,1,45,2|0,1:2|0:0,0:0:0:0:
247,88,85845,2,0,P|249:110|256:131,1,45,0|0,1:0|1:0,0:0:0:0:
355,281,86008,5,2,1:2:0:0:
387,289,86090,1,0,0:0:0:0:
419,297,86172,1,0,3:0:0:0:
451,305,86253,1,0,3:0:0:0:
483,313,86335,6,0,L|475:217,1,90,6|0,1:2|0:0,0:0:0:0:
424,64,86662,1,2,1:2:0:0:
391,47,86744,1,0,0:0:0:0:
359,39,86826,1,0,1:0:0:0:
327,39,86907,1,0,0:0:0:0:
295,55,86989,70,0,L|280:104,1,45,2|0,1:2|0:0,0:0:0:0:
354,171,87153,2,0,L|368:128,1,45,0|0,1:0|0:0,0:0:0:0:
272,80,87316,6,0,L|257:129,1,45,2|0,1:2|0:0,0:0:0:0:
331,196,87480,2,0,L|344:152,1,45
296,56,87643,6,0,L|200:40,1,90,6|0,1:2|0:0,0:0:0:0:
64,24,87970,1,2,1:2:0:0:
72,56,88052,1,0,0:0:0:0:
80,88,88133,1,0,1:0:0:0:
88,120,88215,1,0,1:0:0:0:
96,152,88297,6,0,P|120:156|148:152,1,45,2|0,1:2|0:0,0:0:0:0:
264,104,88460,2,0,P|240:100|212:104,1,45,0|0,1:2|0:0,0:0:0:0:
188,220,88624,38,0,P|212:224|240:220,1,45,2|0,1:2|0:0,0:0:0:0:
356,172,88787,2,0,P|332:168|304:172,1,45
280,296,88951,6,0,L|176:312,1,90,6|0,1:2|0:0,0:0:0:0:
72,248,89278,1,2,1:2:0:0:
60,216,89360,1,0,0:0:0:0:
52,184,89441,1,0,1:0:0:0:
56,152,89523,1,0,1:0:0:0:
72,120,89605,6,0,L|160:104,1,90,6|0,1:2|0:0,0:0:0:0:
292,104,89932,2,0,L|380:120,1,90,6|0,1:2|0:0,0:0:0:0:
432,192,90259,6,0,P|440:240|432:280,1,90,6|0,1:2|0:0,0:0:0:0:
81,280,90586,2,0,P|73:232|81:192,1,90,6|0,1:2|0:0,0:0:0:0:
392,112,90913,6,0,L|480:96,1,90,6|0,1:2|0:0,0:0:0:0:
120,112,91240,2,0,L|32:96,1,90,6|0,1:2|1:2,1:2:0:0:
256,40,91567,5,6,1:2:0:0:
259,273,91730,1,4,1:2:0:0:
314,94,91894,1,2,1:2:0:0:
288,115,91975,1,0,0:0:0:0:
254,128,92057,1,0,0:0:0:0:
223,117,92139,1,0,0:0:0:0:
193,97,92221,37,6,1:2:0:0:
260,346,92384,1,4,1:2:0:0:
194,162,92548,1,2,1:2:0:0:
221,140,92629,1,0,0:0:0:0:
254,128,92711,1,0,0:0:0:0:
285,139,92793,1,0,0:0:0:0:
315,158,92875,5,6,1:2:0:0:
344,320,93038,1,4,1:2:0:0:
475,158,93202,1,2,1:2:0:0:
435,174,93283,1,0,0:0:0:0:
395,182,93365,1,0,1:0:0:0:
355,174,93447,1,0,1:0:0:0:
315,158,93529,5,6,1:2:0:0:
256,52,93692,1,0,1:2:0:0:
256,268,93856,1,6,1:2:0:0:
197,158,94019,1,0,0:0:0:0:
448,248,94183,5,6,1:2:0:0:
396,72,94346,1,4,1:2:0:0:
355,318,94510,1,2,1:2:0:0:
331,286,94592,1,0,0:0:0:0:
323,246,94674,1,0,0:0:0:0:
331,206,94755,1,0,0:0:0:0:
355,174,94836,5,6,1:2:0:0:
256,360,94999,1,4,1:2:0:0:
157,174,95163,1,2,1:2:0:0:
181,206,95245,1,0,0:0:0:0:
189,246,95326,1,0,0:0:0:0:
181,286,95408,1,0,0:0:0:0:
157,318,95490,53,6,1:2:0:0:
116,72,95654,1,4,1:2:0:0:
37,158,95817,5,2,1:2:0:0:
77,174,95899,1,0,1:0:0:0:
117,182,95981,1,0,1:0:0:0:
157,174,96063,1,0,1:0:0:0:
197,158,96144,5,4,1:2:0:0:
116,72,96308,1,4,1:2:0:0:
64,248,96471,1,4,1:2:0:0:
458,34,96798,6,0,B|402:56|402:56|322:42,1,135,12|0,0:0|0:0,0:0:0:0:
280,28,97125,6,0,P|288:104|288:104,1,67.5000025749208,2|0,0:0|0:0,0:0:0:0:
160,144,97452,1,2,0:0:0:0:
160,144,97534,1,0,0:0:0:0:
160,144,97616,2,0,L|210:140,1,45,2|0,0:0|0:0,0:0:0:0:
352,176,97779,2,0,L|307:179,1,45,2|0,0:0|0:0,0:0:0:0:
190,267,97943,22,0,L|168:292,2,30
109,225,98106,53,2,0:0:0:0:
88,259,98188,1,0,0:0:0:0:
85,297,98270,1,0,0:0:0:0:
100,336,98351,1,0,0:0:0:0:
132,360,98433,1,2,0:0:0:0:
172,368,98515,1,0,0:0:0:0:
212,360,98597,1,0,0:0:0:0:
242,337,98678,1,0,0:0:0:0:
268,308,98760,6,2,L|280:280,14,22.5
304,344,99414,6,0,L|416:336,1,90,6|0,1:2|0:0,0:0:0:0:
464,288,99659,1,0,0:0:0:0:
464,288,99741,2,0,P|480:240|464:192,1,90,2|0,1:2|0:0,0:0:0:0:
408,144,99986,1,0,0:0:0:0:
408,144,100068,2,0,L|304:136,1,90,2|0,1:2|0:0,0:0:0:0:
240,52,100313,1,0,0:0:0:0:
280,44,100395,5,2,1:2:0:0:
320,36,100477,1,0,0:0:0:0:
360,28,100559,1,0,0:0:0:0:
400,20,100640,1,0,0:0:0:0:
440,12,100722,2,0,L|424:60,1,45,6|0,1:2|0:0,0:0:0:0:
400,216,100886,37,0,0:0:0:0:
408,232,100967,1,0,0:0:0:0:
416,248,101049,1,2,1:2:0:0:
224,248,101213,5,0,0:0:0:0:
232,232,101294,1,0,0:0:0:0:
240,216,101376,1,2,1:2:0:0:
320,136,101539,1,0,0:0:0:0:
248,352,101703,5,2,1:2:0:0:
208,360,101785,1,0,0:0:0:0:
168,352,101866,1,0,0:0:0:0:
136,328,101948,1,0,0:0:0:0:
120,288,102030,6,0,L|16:280,1,90,0|0,1:2|0:0,0:0:0:0:
136,264,102357,37,2,1:2:0:0:
176,192,102466,1,2,0:0:0:0:
216,120,102575,1,2,0:0:0:0:
256,48,102684,6,0,B|318:52|318:52|384:32,2,120,6|6|6,1:2|1:2|1:2,0:0:0:0:
144,40,103338,5,6,1:2:0:0:
108,40,103420,1,0,0:0:0:0:
76,56,103502,1,0,0:0:0:0:
52,84,103583,1,0,0:0:0:0:
48,120,103665,1,2,1:2:0:0:
60,156,103747,1,0,0:0:0:0:
84,184,103829,1,0,0:0:0:0:
116,196,103910,1,0,0:0:0:0:
152,192,103992,1,6,1:2:0:0:
188,192,104074,1,0,0:0:0:0:
220,208,104156,1,0,0:0:0:0:
244,236,104237,1,0,0:0:0:0:
248,272,104319,1,6,1:2:0:0:
236,308,104401,1,0,0:0:0:0:
212,336,104483,1,0,0:0:0:0:
180,348,104564,1,0,0:0:0:0:
144,344,104646,6,0,B|128:296|128:296|136:256,1,90,6|0,1:2|0:0,0:0:0:0:
376,257,104973,2,0,B|383:295|383:295|367:343,1,90,2|0,1:2|0:0,0:0:0:0:
144,344,105300,2,0,L|48:320,1,90,2|0,1:2|0:0,0:0:0:0:
368,344,105627,2,0,L|464:320,1,90,2|0,1:2|0:0,0:0:0:0:
392,248,105954,5,2,1:2:0:0:
328,96,106117,1,0,0:0:0:0:
288,288,106281,5,6,1:2:0:0:
336,88,106444,1,0,0:0:0:0:
176,280,106608,5,6,1:2:0:0:
344,80,106771,1,0,0:0:0:0:
72,232,106935,5,6,1:2:0:0:
352,72,107098,1,0,0:0:0:0:
432,32,107262,37,6,1:2:0:0:
440,72,107343,1,0,0:0:0:0:
432,112,107425,1,0,0:0:0:0:
408,144,107507,1,0,0:0:0:0:
368,160,107589,1,0,1:2:0:0:
328,160,107670,1,0,0:0:0:0:
292,148,107752,2,0,P|268:144|240:148,1,45
92,248,107916,5,6,1:2:0:0:
92,248,107997,1,0,0:0:0:0:
92,248,108079,2,0,P|104:268|125:287,1,45
208,336,108243,5,6,1:2:0:0:
208,336,108324,1,0,0:0:0:0:
208,336,108406,2,0,P|232:340|260:336,1,45
352,300,108570,5,6,1:2:0:0:
352,300,108651,1,0,0:0:0:0:
352,300,108733,2,0,P|372:287|391:266,1,45
440,184,108897,5,6,1:2:0:0:
440,184,108978,1,0,0:0:0:0:
440,184,109060,2,0,P|448:161|449:132,1,45
444,44,109224,5,6,1:2:0:0:
444,44,109305,1,0,0:0:0:0:
444,44,109387,2,0,P|435:21|418:-1,1,45
216,12,109551,53,6,1:2:0:0:
216,12,109632,1,0,0:0:0:0:
216,12,109714,2,0,P|203:30|195:51,1,45
168,188,109878,5,6,1:2:0:0:
312,284,110204,1,2,1:2:0:0:
332,240,110286,1,0,1:0:0:0:
340,192,110367,1,0,1:0:0:0:
332,144,110449,1,0,1:0:0:0:
312,100,110531,1,6,1:2:0:0:
200,100,110858,5,2,1:2:0:0:
180,144,110940,1,0,1:0:0:0:
172,192,111022,1,0,1:0:0:0:
180,240,111103,1,0,1:0:0:0:
200,284,111185,1,6,1:2:0:0:
256,192,111267,12,0,113801,0:0:0:0:
