osu file format v14

[General]
AudioFilename: audio.mp3
AudioLeadIn: 0
PreviewTime: 90819
Countdown: 0
SampleSet: Soft
StackLeniency: 0.4
Mode: 0
LetterboxInBreaks: 0
WidescreenStoryboard: 0

[Editor]
Bookmarks: 43735,64661,90819,111746,124825,135287,166677,177140,203298,238611,262153
DistanceSpacing: 1
BeatDivisor: 3
GridSize: 4
TimelineZoom: 2.3

[Metadata]
Title:ANiMA
TitleUnicode:ANiMA
Artist:xi
ArtistUnicode:xi
Creator:FrenZ396
Version:Spirit
Source:Deemo
Tags:yusuke ishiwata piano rayark inc. soul alice masked lady deemo's collection vol. 2 world fragments video game instrumental rhythm dementation kkipalt shizuku- akareh icekalt lmt
BeatmapID:1989886
BeatmapSetID:953032

[Difficulty]
HPDrainRate:6
CircleSize:4
OverallDifficulty:9.4
ApproachRate:9.8
SliderMultiplier:1.8
SliderTickRate:1

[Events]
//Background and Video events
0,0,"deemo library.jpg",0,0
//Break Periods
2,125025,134307
//Storyboard Layer 0 (Background)
//Storyboard Layer 1 (Fail)
//Storyboard Layer 2 (Pass)
//Storyboard Layer 3 (Foreground)
//Storyboard Layer 4 (Overlay)
//Storyboard Sound Samples

[TimingPoints]
20846,326.975476839237,4,2,1,50,1,0
21501,326.975476839237,4,2,1,50,1,0
21501,-333.333333333333,4,2,1,50,0,0
25751,-250,4,2,1,50,0,0
26732,-200,4,2,1,50,0,0
30983,-250,4,2,1,50,0,0
31964,-166.666666666667,4,2,1,60,0,0
37195,-142.857142857143,4,2,1,60,0,0
43571,-83.3333333333333,4,2,1,60,0,0
43735,-83.3333333333333,4,2,1,65,0,0
54198,-83.3333333333333,4,2,1,65,0,1
59430,-66.6666666666667,4,2,1,70,0,1
59757,-66.6666666666667,4,2,1,75,0,1
60084,-66.6666666666667,4,2,1,80,0,1
60411,-66.6666666666667,4,2,1,70,0,1
60738,-57.1428571428571,4,2,1,75,0,1
61065,-57.1428571428571,4,2,1,80,0,1
61392,-57.1428571428571,4,2,1,85,0,1
61718,-57.1428571428571,4,2,1,75,0,1
62045,-57.1428571428571,4,2,1,80,0,1
63353,-71.4285714285714,4,2,1,65,0,1
64661,-83.3333333333333,4,2,1,65,0,0
75124,-83.3333333333333,4,2,1,75,0,0
75778,-250,4,2,1,75,0,0
76432,-83.3333333333333,4,2,1,75,0,1
77740,-166.666666666667,4,2,1,75,0,0
78394,-250,4,2,1,75,0,0
79048,-83.3333333333333,4,2,1,75,0,1
80356,-83.3333333333333,4,2,1,75,0,0
81010,-250,4,2,1,75,0,0
81664,-83.3333333333333,4,2,1,75,0,0
85588,-83.3333333333333,4,2,1,58,0,1
85915,-83.3333333333333,4,2,1,62,0,1
86242,-83.3333333333333,4,2,1,66,0,1
86569,-83.3333333333333,4,2,1,70,0,1
86896,-83.3333333333333,4,2,1,74,0,1
87223,-83.3333333333333,4,2,1,78,0,1
87550,-83.3333333333333,4,2,1,82,0,1
87877,-83.3333333333333,4,2,1,86,0,1
88203,-83.3333333333333,4,2,1,90,0,1
90819,-153.846153846154,4,2,1,60,0,0
101283,-125,4,2,1,70,0,0
111419,-100,4,2,1,70,0,0
111746,-100,4,2,1,90,0,1
116977,-100,4,2,1,90,0,0
117304,-100,4,2,1,90,0,0
117631,-105.263157894737,4,2,1,86,0,0
117958,-111.111111111111,4,2,1,82,0,0
118285,-117.647058823529,4,2,1,78,0,0
118612,-125,4,2,1,74,0,0
118939,-133.333333333333,4,2,1,70,0,0
119266,-142.857142857143,4,2,1,66,0,0
119593,-153.846153846154,4,2,1,62,0,0
119920,-166.666666666667,4,2,1,58,0,0
120247,-181.818181818182,4,2,1,54,0,0
120574,-200,4,2,1,50,0,0
120901,-222.222222222222,4,2,1,46,0,0
121228,-250,4,2,1,42,0,0
121555,-285.714285714286,4,2,1,38,0,0
121882,-333.333333333333,4,2,1,34,0,0
122209,-400,4,2,1,30,0,0
124825,-400,4,2,1,55,0,0
135288,-250,4,2,1,50,0,0
136596,-100,4,2,1,50,0,0
136719,-250,4,2,1,50,0,0
143135,-1000,4,2,1,50,0,0
145751,-200,4,2,1,60,0,0
156214,-166.666666666667,4,2,1,60,0,0
157522,-100,4,2,1,60,0,0
157604,-166.666666666667,4,2,1,60,0,0
161446,-142.857142857143,4,2,1,60,0,0
164062,-100,4,2,1,60,0,0
165370,-100,4,2,1,60,0,0
166678,-74.0740740740741,4,2,1,80,0,1
171909,-44.4444444444445,4,2,1,85,0,1
172236,-44.4444444444445,4,2,1,90,0,1
172563,-44.4444444444445,4,2,1,95,0,1
172890,-54.054054054054,4,2,1,80,0,1
173217,-25,4,2,1,90,0,1
173544,-25,4,2,1,95,0,1
173871,-22.5,4,2,1,100,0,1
174198,-55.5555555555556,4,2,1,85,0,1
177141,-66.6666666666667,4,2,1,75,0,0
187604,-66.6666666666667,4,2,1,85,0,0
188258,-250,4,2,1,85,0,0
188912,-66.6666666666667,4,2,1,85,0,1
190220,-66.6666666666667,4,2,1,85,0,0
190874,-250,4,2,1,85,0,0
191528,-66.6666666666667,4,2,1,85,0,1
192836,-66.6666666666667,4,2,1,85,0,0
193490,-250,4,2,1,85,0,0
193817,-66.6666666666667,4,2,1,85,0,0
198067,-66.6666666666667,4,2,1,58,0,1
198394,-66.6666666666667,4,2,1,62,0,1
198721,-66.6666666666667,4,2,1,66,0,1
199048,-66.6666666666667,4,2,1,70,0,1
199375,-66.6666666666667,4,2,1,74,0,1
199702,-66.6666666666667,4,2,1,78,0,1
200029,-66.6666666666667,4,2,1,82,0,1
200356,-66.6666666666667,4,2,1,86,0,1
200683,-66.6666666666667,4,2,1,90,0,1
203299,-133.333333333333,4,2,1,60,0,0
213762,-100,4,2,1,70,0,0
224225,-80,4,2,1,80,0,1
226841,-75.7575757575758,4,2,1,85,0,1
229457,-71.9424460431655,4,2,1,90,0,1
232073,-68.9655172413793,4,2,1,95,0,1
234035,-40,4,2,1,100,0,1
234689,-100,4,2,1,60,0,0
238612,-76.9230769230769,4,2,1,75,0,1
245479,-60.6060606060606,4,2,1,75,0,1
245806,-52.6315789473684,4,2,1,75,0,1
247768,-71.4285714285714,4,2,1,75,0,1
249075,-71.4285714285714,4,2,1,80,0,1
252345,-50,4,2,1,80,0,1
252563,-57.1428571428571,4,2,1,80,0,1
252781,-66.6666666666667,4,2,1,80,0,1
252999,-71.4285714285714,4,2,1,80,0,1
254307,-66.6666666666667,4,2,1,80,0,1
255942,-55.5555555555556,4,2,1,80,0,1
256269,-47.6190476190476,4,2,1,80,0,1
256923,-44.4444444444445,4,2,1,95,0,1
257250,-57.1428571428571,4,2,1,95,0,1
262154,-177.935943060498,4,2,1,95,0,0
262481,-177.935943060498,4,2,1,85,0,0
262808,-177.935943060498,4,2,1,75,0,0
263135,-177.935943060498,4,2,1,65,0,0
263462,-177.935943060498,4,2,1,55,0,0
263789,-177.935943060498,4,2,1,45,0,0
264116,-177.935943060498,4,2,1,35,0,0
264443,-177.935943060498,4,2,1,25,0,0
264770,-177.935943060498,4,2,1,15,0,0

[Colours]
Combo1 : 236,118,0
Combo2 : 12,167,35
Combo3 : 10,156,235
Combo4 : 240,40,61
Combo5 : 255,220,21

[HitObjects]
36,273,20846,5,0,0:0:0:0:
36,273,21172,1,0,0:0:0:0:
45,273,21254,1,0,0:0:0:0:
54,274,21336,1,0,0:0:0:0:
62,275,21418,1,0,0:0:0:0:
71,275,21501,6,0,L|56:83,1,188.999994232178,2|2,3:0|0:0,0:0:0:0:
24,7,22808,2,0,B|77:2|77:2|140:39|140:39|202:33,1,188.999994232178,2|0,0:0|0:0,0:0:0:0:
282,1,24116,2,0,B|296:163|296:163|262:119,1,215.999993408203,2|0,0:0|0:0,0:0:0:0:
499,8,25751,1,2,0:0:0:0:
424,15,26078,1,2,0:0:0:0:
380,78,26405,1,2,0:0:0:0:
465,160,26732,6,0,L|183:136,1,270,2|2,0:0|0:0,0:0:0:0:
118,218,28040,2,0,L|264:231,1,135,2|2,0:0|0:0,0:0:0:0:
237,346,28694,2,0,L|359:289,1,135,2|2,0:0|0:0,0:0:0:0:
429,360,29348,2,0,B|499:260|499:260|523:218|503:180|473:161|433:168|404:187|404:187|370:203|337:172,1,360,2|2,0:0|0:0,0:0:0:0:
346,22,30983,1,2,0:0:0:0:
427,28,31310,1,2,0:0:0:0:
509,35,31637,1,2,0:0:0:0:
465,160,31964,6,0,P|353:178|316:81,1,215.999993408203,14|0,0:0|0:0,0:0:0:0:
346,22,32781,1,2,0:0:0:0:
399,111,32945,1,2,0:0:0:0:
256,34,33108,1,2,0:0:0:0:
248,174,33272,5,2,0:0:0:0:
248,174,34089,1,2,0:0:0:0:
177,229,34253,1,2,0:0:0:0:
104,183,34416,1,2,0:0:0:0:
17,284,34580,6,0,L|35:68,1,215.999993408203,14|2,0:0|0:0,0:0:0:0:
17,284,35887,1,14,0:0:0:0:
17,284,36541,1,14,0:0:0:0:
17,284,37195,6,0,L|19:315,3,31.4999990386963,14|0|0|0,0:0|0:0|0:0|0:0,0:0:0:0:
99,301,37522,2,0,L|101:332,3,31.4999990386963,2|0|0|0,0:0|0:0|0:0|0:0,0:0:0:0:
184,317,37849,2,0,L|186:348,1,31.4999990386963,2|0,0:0|0:0,0:0:0:0:
271,329,38013,2,0,L|273:360,1,31.4999990386963,0|0,0:0|0:0,0:0:0:0:
367,364,38176,1,2,0:0:0:0:
397,358,38258,1,0,0:0:0:0:
420,337,38340,1,8,0:0:0:0:
428,307,38421,1,0,0:0:0:0:
419,277,38503,6,0,L|387:279,3,31.4999990386963,14|0|0|0,0:0|0:0|0:0|0:0,0:0:0:0:
477,198,38830,2,0,L|508:200,3,31.4999990386963,2|0|0|0,0:0|0:0|0:0|0:0,0:0:0:0:
406,122,39157,2,0,L|374:124,3,31.4999990386963,2|0|0|0,0:0|0:0|0:0|0:0,0:0:0:0:
474,15,39484,1,2,0:0:0:0:
497,54,39566,1,0,0:0:0:0:
488,99,39648,1,8,0:0:0:0:
451,126,39729,1,0,0:0:0:0:
406,122,39811,2,0,L|322:126,1,62.9999980773926,12|0,0:0|0:0,0:0:0:0:
244,123,40056,1,0,0:0:0:0:
226,97,40138,5,0,0:0:0:0:
232,70,40220,1,0,0:0:0:0:
193,100,40302,5,8,0:0:0:0:
199,73,40383,1,0,0:0:0:0:
161,101,40465,5,12,0:0:0:0:
167,74,40547,1,0,0:0:0:0:
128,104,40629,5,0,0:0:0:0:
134,77,40710,1,0,0:0:0:0:
98,106,40792,5,0,0:0:0:0:
104,79,40874,1,0,0:0:0:0:
65,109,40956,5,8,0:0:0:0:
71,82,41037,1,0,0:0:0:0:
37,83,41119,6,0,L|5:85,3,31.4999990386963,14|0|0|0,0:0|0:0|0:0|0:0,0:0:0:0:
40,192,41446,2,0,L|42:224,3,31.4999990386963,8|0|0|0,0:0|0:0|0:0|0:0,0:0:0:0:
176,190,41773,5,10,0:0:0:0:
181,261,41882,1,8,0:0:0:0:
133,315,41991,1,8,0:0:0:0:
61,321,42100,2,0,P|28:313|2:298,2,41.9999987182618,10|8|8,0:0|0:0|0:0,0:0:0:0:
247,349,42427,5,10,0:0:0:0:
262,350,42754,1,0,0:0:0:0:
278,351,43081,1,8,0:0:0:0:
322,336,43163,1,0,0:0:0:0:
350,299,43244,1,0,0:0:0:0:
352,253,43326,1,0,0:0:0:0:
327,213,43408,5,8,0:0:0:0:
327,274,43490,1,0,0:0:0:0:
374,314,43571,2,0,P|404:318|443:302,1,53.9999983520508,0|0,0:0|0:0,0:0:0:0:
479,228,43735,6,0,L|484:168,1,53.9999983520508,14|0,3:0|0:0,0:0:0:0:
406,45,43898,1,0,0:0:0:0:
404,72,43980,1,0,0:0:0:0:
402,99,44062,2,0,L|397:159,1,53.9999983520508,10|0,0:0|0:0,0:0:0:0:
327,213,44225,5,0,0:0:0:0:
288,223,44307,1,0,0:0:0:0:
249,214,44389,1,8,0:0:0:0:
219,188,44471,1,0,0:0:0:0:
205,150,44552,2,0,P|204:121|219:80,1,53.9999983520508,0|0,0:0|0:0,0:0:0:0:
334,11,44716,2,0,P|309:26|266:33,1,53.9999983520508,10|0,0:0|0:0,0:0:0:0:
178,0,44879,5,10,0:0:0:0:
168,2,44934,1,8,0:0:0:0:
158,4,44988,1,8,0:0:0:0:
146,6,45043,2,0,L|87:14,1,53.9999983520508,8|0,0:0|0:0,0:0:0:0:
3,47,45206,2,0,L|8:101,1,53.9999983520508
46,182,45370,1,10,0:0:0:0:
44,208,45451,1,0,0:0:0:0:
42,236,45533,2,0,L|37:304,1,53.9999983520508
60,375,45697,6,0,P|33:378|7:372,3,53.9999983520508,8|0|0|0,0:0|0:0|0:0|0:0,0:0:0:0:
133,300,46024,2,0,P|162:293|200:304,3,53.9999983520508,10|0|2|0,0:0|0:0|0:0|0:0,0:0:0:0:
284,354,46351,5,8,0:0:0:0:
323,364,46432,1,0,0:0:0:0:
362,355,46514,1,0,0:0:0:0:
392,329,46596,1,0,0:0:0:0:
406,291,46678,2,0,P|407:262|392:221,1,53.9999983520508,10|0,0:0|0:0,0:0:0:0:
346,381,46841,5,0,0:0:0:0:
384,370,46923,1,0,0:0:0:0:
414,342,47005,1,8,0:0:0:0:
427,305,47086,1,0,0:0:0:0:
420,265,47168,2,0,P|406:239|372:211,1,53.9999983520508,0|0,0:0|0:0,0:0:0:0:
279,202,47332,2,0,P|293:176|327:148,1,53.9999983520508,10|0,0:0|0:0,0:0:0:0:
378,55,47495,5,10,0:0:0:0:
388,57,47550,1,8,0:0:0:0:
398,59,47604,1,8,0:0:0:0:
409,61,47659,2,0,L|414:121,1,53.9999983520508,8|0,0:0|0:0,0:0:0:0:
486,199,47822,1,0,0:0:0:0:
245,46,47986,1,10,0:0:0:0:
245,46,48312,5,8,0:0:0:0:
209,149,48476,1,8,0:0:0:0:
195,148,48530,1,10,0:0:0:0:
180,146,48585,1,10,0:0:0:0:
166,145,48639,2,0,L|98:140,1,53.9999983520508,10|0,0:0|0:0,0:0:0:0:
18,7,48803,2,0,L|23:75,1,53.9999983520508,10|0,0:0|0:0,0:0:0:0:
51,260,48966,5,4,0:0:0:0:
90,270,49048,1,0,0:0:0:0:
129,261,49130,1,0,0:0:0:0:
159,235,49212,1,0,0:0:0:0:
172,198,49293,2,0,P|173:171|166:144,1,53.9999983520508,10|0,0:0|0:0,0:0:0:0:
113,287,49457,5,0,0:0:0:0:
151,276,49539,1,0,0:0:0:0:
181,248,49620,1,8,0:0:0:0:
194,211,49702,1,0,0:0:0:0:
187,172,49784,2,0,P|174:148|155:128,1,53.9999983520508,0|0,0:0|0:0,0:0:0:0:
46,135,49947,2,0,P|58:158|77:178,1,53.9999983520508,10|0,0:0|0:0,0:0:0:0:
234,324,50111,5,10,0:0:0:0:
232,334,50165,1,10,0:0:0:0:
230,344,50220,1,10,0:0:0:0:
228,355,50274,2,0,L|168:360,1,53.9999983520508,10|0,0:0|0:0,0:0:0:0:
113,287,50438,1,0,0:0:0:0:
113,287,50520,1,0,0:0:0:0:
113,287,50601,5,10,0:0:0:0:
151,276,50683,1,0,0:0:0:0:
181,248,50765,1,0,0:0:0:0:
194,211,50847,1,0,0:0:0:0:
187,172,50928,2,0,P|174:148|155:128,3,53.9999983520508,8|0|0|0,0:0|0:0|0:0|0:0,0:0:0:0:
345,213,51255,2,0,P|345:185|339:158,3,53.9999983520508,10|0|10|0,0:0|0:0|0:0|0:0,0:0:0:0:
234,324,51582,5,12,0:0:0:0:
267,327,51664,1,0,0:0:0:0:
301,329,51746,1,0,0:0:0:0:
334,332,51827,1,0,0:0:0:0:
369,334,51909,2,0,L|454:340,1,53.9999983520508,8|0,0:0|0:0,0:0:0:0:
509,173,52073,5,14,0:0:0:0:
467,169,52154,1,0,0:0:0:0:
425,166,52236,1,0,0:0:0:0:
384,163,52318,1,0,0:0:0:0:
340,160,52400,2,0,L|286:156,1,53.9999983520508,8|0,0:0|0:0,0:0:0:0:
494,371,52563,5,14,0:0:0:0:
505,234,52727,1,10,0:0:0:0:
507,214,52781,1,10,0:0:0:0:
508,193,52836,1,10,0:0:0:0:
509,173,52890,2,0,L|513:110,1,53.9999983520508,14|0,0:0|0:0,0:0:0:0:
327,33,53054,6,0,L|324:70,3,26.9999991760254,10|8|8|8,0:0|0:0|0:0|0:0,0:0:0:0:
305,79,53217,1,8,0:0:0:0:
121,36,53381,1,0,0:0:0:0:
191,268,53544,5,8,0:0:0:0:
139,251,53626,1,0,0:0:0:0:
139,197,53708,1,0,0:0:0:0:
191,180,53789,1,0,0:0:0:0:
222,224,53871,5,4,0:0:0:0:
216,146,53953,1,0,0:0:0:0:
150,106,54035,1,0,0:0:0:0:
78,137,54116,1,0,0:0:0:0:
64,214,54198,6,0,P|60:264|98:329,1,107.999996704102,14|0,0:0|0:0,0:0:0:0:
181,348,54443,1,2,0:0:0:0:
181,348,54525,2,0,P|136:318|83:314,1,107.999996704102,2|0,0:0|0:0,0:0:0:0:
6,384,54770,1,2,0:0:0:0:
6,384,54852,2,0,P|53:360|83:316,1,107.999996704102,2|0,0:0|0:0,0:0:0:0:
78,137,55179,1,0,0:0:0:0:
120,141,55261,1,0,0:0:0:0:
162,144,55342,1,0,0:0:0:0:
203,147,55424,1,0,0:0:0:0:
247,150,55506,6,0,B|326:157|326:157|291:184,1,107.999996704102,10|0,0:0|0:0,0:0:0:0:
257,319,55833,1,10,0:0:0:0:
263,328,55887,1,10,0:0:0:0:
270,337,55942,1,10,0:0:0:0:
276,346,55996,6,0,L|384:354,2,107.999996704102,2|8|0,0:0|0:0|0:0,0:0:0:0:
450,204,56487,5,0,0:0:0:0:
476,250,56569,1,0,0:0:0:0:
470,302,56650,1,0,0:0:0:0:
435,342,56732,1,0,0:0:0:0:
384,354,56814,2,0,L|276:346,1,107.999996704102,2|0,0:0|0:0,0:0:0:0:
105,168,57141,1,0,0:0:0:0:
151,142,57223,1,0,0:0:0:0:
203,147,57304,1,0,0:0:0:0:
243,182,57386,1,0,0:0:0:0:
255,234,57468,2,0,L|247:342,1,107.999996704102,2|0,0:0|0:0,0:0:0:0:
28,238,57795,2,0,L|20:130,1,107.999996704102,2|0,0:0|0:0,0:0:0:0:
307,103,58122,6,0,P|314:76|313:50,1,53.9999983520508,10|0,0:0|0:0,0:0:0:0:
422,105,58285,2,0,P|415:78|416:52,1,53.9999983520508,0|0,0:0|0:0,0:0:0:0:
285,151,58449,2,0,P|301:128|308:103,1,53.9999983520508,10|0,0:0|0:0,0:0:0:0:
445,153,58612,2,0,P|429:130|422:105,1,53.9999983520508,0|0,0:0|0:0,0:0:0:0:
242,182,58776,2,0,P|267:170|286:151,1,53.9999983520508,10|0,0:0|0:0,0:0:0:0:
489,184,58939,2,0,P|464:172|445:153,1,53.9999983520508,8|0,0:0|0:0,0:0:0:0:
334,330,59103,1,10,0:0:0:0:
386,347,59184,1,8,0:0:0:0:
417,303,59266,1,8,0:0:0:0:
386,259,59348,1,8,0:0:0:0:
334,276,59430,6,0,L|171:264,1,135.000005149842,12|0,0:0|0:0,0:0:0:0:
110,359,59648,1,10,0:0:0:0:
117,368,59702,1,10,0:0:0:0:
123,377,59757,2,0,L|198:265,1,135.000005149842,14|0,0:0|0:0,0:0:0:0:
140,143,60084,2,0,L|198:264,1,135.000005149842,12|0,0:0|0:0,0:0:0:0:
59,184,60411,1,2,0:0:0:0:
49,118,60492,1,2,0:0:0:0:
86,64,60574,1,2,0:0:0:0:
150,48,60656,1,2,0:0:0:0:
208,79,60738,6,0,P|275:121|365:96,1,157.500001502037,14|0,0:0|0:0,0:0:0:0:
451,24,60956,1,10,0:0:0:0:
447,12,61010,1,10,0:0:0:0:
443,0,61065,2,0,P|373:36|350:127,1,157.500001502037,14|0,0:0|0:0,0:0:0:0:
394,244,61392,2,0,P|396:165|329:100,1,157.500001502037,12|0,0:0|0:0,0:0:0:0:
490,348,61718,1,8,0:0:0:0:
432,344,61800,1,8,0:0:0:0:
373,340,61882,1,8,0:0:0:0:
314,337,61964,1,8,0:0:0:0:
255,333,62045,6,0,B|244:250|244:250|258:167,1,157.500001502037,12|0,0:0|0:0,0:0:0:0:
20,348,62372,1,8,0:0:0:0:
78,344,62454,1,8,0:0:0:0:
137,340,62536,1,8,0:0:0:0:
196,337,62618,1,8,0:0:0:0:
255,333,62699,6,0,B|266:250|266:250|255:168,1,157.500001502037,12|0,0:0|0:0,0:0:0:0:
82,42,63026,1,8,0:0:0:0:
32,70,63108,1,8,0:0:0:0:
27,127,63190,1,8,0:0:0:0:
70,164,63272,1,8,0:0:0:0:
125,151,63353,6,0,P|150:129|163:90,1,62.9999980773926,12|0,0:0|0:0,0:0:0:0:
234,20,63517,2,0,L|265:22,1,31.4999990386963,8|8,0:0|0:0,0:0:0:0:
241,34,63599,2,0,L|272:36,1,31.4999990386963,8|8,0:0|0:0,0:0:0:0:
247,50,63680,1,8,0:0:0:0:
299,80,63762,1,0,0:0:0:0:
358,61,63844,2,0,P|388:49|441:57,1,62.9999980773926,8|0,0:0|0:0,0:0:0:0:
481,138,64007,5,14,0:0:0:0:
477,176,64089,1,8,0:0:0:0:
474,215,64171,1,8,0:0:0:0:
472,255,64253,1,8,0:0:0:0:
435,282,64334,5,14,0:0:0:0:
436,295,64416,1,8,0:0:0:0:
437,308,64498,1,8,0:0:0:0:
438,322,64580,1,8,0:0:0:0:
498,376,64661,5,10,0:3:0:0:
58,180,64988,1,0,3:0:0:0:
128,147,65097,2,0,P|133:182|120:228,1,71.9999978027344,0|0,3:0|3:0,0:0:0:0:
70,339,65315,1,0,3:0:0:0:
4,295,65424,2,0,P|31:273|78:261,1,71.9999978027344,0|0,3:0|3:0,0:0:0:0:
205,255,65642,1,0,3:0:0:0:
196,332,65751,2,0,P|159:318|129:284,1,71.9999978027344,0|0,3:0|3:0,0:0:0:0:
174,65,65969,6,0,P|216:105|228:177,1,107.999996704102,8|0,3:2|0:0,0:0:0:0:
229,162,66187,1,10,0:0:0:0:
229,172,66242,1,10,0:0:0:0:
228,182,66296,2,0,L|335:189,1,107.999996704102,10|0,0:0|0:0,0:0:0:0:
404,356,66623,2,0,L|397:249,1,107.999996704102,10|0,0:0|0:0,0:0:0:0:
464,78,66950,2,0,L|457:185,1,107.999996704102,10|0,0:0|0:0,0:0:0:0:
201,346,67277,5,10,0:0:0:0:
189,340,67358,1,0,0:0:0:0:
171,318,67440,1,0,0:0:0:0:
165,284,67522,1,0,0:0:0:0:
177,254,67604,1,8,0:0:0:0:
209,226,67685,1,0,0:0:0:0:
228,182,67768,2,0,P|218:160|193:140,1,53.9999983520508
75,249,67931,5,10,0:0:0:0:
90,236,68012,1,0,0:0:0:0:
97,214,68094,1,0,0:0:0:0:
87,190,68176,1,0,0:0:0:0:
63,168,68258,1,8,0:0:0:0:
27,155,68339,1,0,0:0:0:0:
0,115,68421,1,2,0:0:0:0:
7,64,68503,1,0,0:0:0:0:
45,27,68585,6,0,L|99:23,3,53.9999983520508,10|0|0|0,0:0|0:0|0:0|0:0,0:0:0:0:
203,63,68912,1,8,0:0:0:0:
216,65,68994,1,0,0:0:0:0:
229,64,69075,1,2,0:0:0:0:
242,60,69157,1,0,0:0:0:0:
254,53,69239,2,0,L|250:-1,3,53.9999983520508,10|0|0|0,0:0|0:0|0:0|0:0,0:0:0:0:
346,33,69566,2,0,L|400:29,1,53.9999983520508,8|0,0:0|0:0,0:0:0:0:
418,116,69729,2,0,L|472:112,1,53.9999983520508,2|0,0:0|0:0,0:0:0:0:
279,163,69893,5,14,0:0:0:0:
457,333,70220,1,0,3:0:0:0:
367,377,70329,2,0,P|360:332|377:274,1,71.9999978027344,0|0,3:0|3:0,0:0:0:0:
428,147,70547,1,0,3:0:0:0:
512,201,70656,2,0,P|476:228|418:243,1,71.9999978027344,0|0,3:0|3:0,0:0:0:0:
274,265,70874,1,0,3:0:0:0:
279,163,70983,2,0,P|320:179|362:222,1,71.9999978027344,0|0,3:0|3:0,0:0:0:0:
277,360,71201,6,0,P|212:349|185:316,1,107.999996704102,8|0,3:2|0:0,0:0:0:0:
184,307,71419,1,10,0:0:0:0:
185,296,71473,1,10,0:0:0:0:
186,285,71528,2,0,L|79:278,1,107.999996704102,10|0,0:0|0:0,0:0:0:0:
78,53,71855,2,0,B|95:46|95:46|88:140,1,107.999996704102,10|0,0:0|0:0,0:0:0:0:
72,359,72182,1,10,0:0:0:0:
0,204,72345,1,8,0:0:0:0:
171,60,72509,5,14,0:0:0:0:
184,51,72590,1,0,0:0:0:0:
217,45,72672,1,0,0:0:0:0:
255,59,72754,1,0,0:0:0:0:
279,90,72836,1,8,0:0:0:0:
296,136,72917,1,0,0:0:0:0:
335,164,73000,2,0,P|362:166|391:153,1,53.9999983520508,10|0,0:0|0:0,0:0:0:0:
459,43,73163,5,14,0:0:0:0:
461,57,73244,1,0,0:0:0:0:
464,78,73326,1,0,0:0:0:0:
469,106,73408,1,0,0:0:0:0:
497,144,73490,1,8,0:0:0:0:
467,178,73571,1,0,0:0:0:0:
452,230,73653,1,10,0:0:0:0:
468,290,73735,1,0,0:0:0:0:
512,339,73817,6,0,P|497:366|472:384,3,53.9999983520508,14|0|0|0,0:0|0:0|0:0|0:0,0:0:0:0:
364,384,74144,2,0,L|368:330,1,53.9999983520508,8|0,0:0|0:0,0:0:0:0:
258,325,74307,2,0,L|254:271,1,53.9999983520508,2|0,0:0|0:0,0:0:0:0:
241,145,74471,1,14,0:0:0:0:
128,237,74634,2,0,L|101:235,1,26.9999991760254,8|8,0:0|0:0,0:0:0:0:
122,248,74716,2,0,L|95:246,1,26.9999991760254,8|8,0:0|0:0,0:0:0:0:
116,260,74798,2,0,L|120:314,1,53.9999983520508,8|8,0:0|0:0,0:0:0:0:
8,364,74961,2,0,L|12:310,1,53.9999983520508,8|8,0:0|0:0,0:0:0:0:
22,146,75124,5,14,0:0:0:0:
22,146,75451,5,0,3:0:0:0:
87,89,75560,1,0,3:0:0:0:
173,92,75669,1,0,3:0:0:0:
241,145,75778,6,0,B|278:147|278:147|317:139,1,72,8|10,3:2|0:0,0:0:0:0:
475,124,76269,1,0,0:0:0:0:
475,124,76351,1,0,0:0:0:0:
475,124,76432,6,0,P|491:65|467:9,1,107.999996704102,14|0,0:0|0:0,0:0:0:0:
402,252,76678,5,0,0:0:0:0:
402,252,76759,2,0,P|386:311|410:367,1,107.999996704102,12|0,0:0|0:0,0:0:0:0:
312,139,77005,5,0,0:0:0:0:
312,139,77086,2,0,P|328:80|304:24,1,107.999996704102,14|0,0:0|0:0,0:0:0:0:
232,263,77332,5,0,0:0:0:0:
232,263,77413,2,0,P|216:322|240:378,1,107.999996704102,14|0,0:0|0:0,0:0:0:0:
154,149,77659,5,0,0:0:0:0:
160,132,77740,6,0,P|168:102|162:73,1,53.9999983520508,12|0,0:0|0:0,0:0:0:0:
30,214,78067,5,0,3:0:0:0:
62,293,78176,1,0,3:0:0:0:
153,316,78285,1,0,3:0:0:0:
232,263,78394,6,0,B|269:258|269:258|316:274,1,72,8|10,3:2|0:0,0:0:0:0:
452,360,78885,1,0,0:0:0:0:
452,360,78966,1,0,0:0:0:0:
452,360,79048,6,0,L|344:352,1,107.999996704102,14|0,0:0|0:0,0:0:0:0:
233,178,79293,5,0,0:0:0:0:
233,178,79375,2,0,L|341:170,1,107.999996704102,12|0,0:0|0:0,0:0:0:0:
438,348,79620,5,0,0:0:0:0:
438,348,79702,2,0,L|384:344,1,53.9999983520508,12|0,0:0|0:0,0:0:0:0:
300,271,79866,2,0,L|246:267,1,53.9999983520508,12|0,0:0|0:0,0:0:0:0:
152,370,80029,2,0,L|148:316,1,53.9999983520508,12|0,0:0|0:0,0:0:0:0:
68,178,80193,2,0,L|72:232,1,53.9999983520508,12|0,0:0|0:0,0:0:0:0:
0,381,80356,1,12,0:0:0:0:
159,132,80683,5,0,3:0:0:0:
155,41,80792,1,0,3:0:0:0:
71,8,80901,1,0,3:0:0:0:
7,73,81010,6,0,B|1:89|1:89|66:85,1,72,12|14,3:2|0:0,0:0:0:0:
414,62,81500,1,0,0:0:0:0:
414,62,81582,1,0,0:0:0:0:
414,62,81664,5,12,0:0:0:0:
438,251,81827,1,0,0:0:0:0:
223,86,81991,1,14,0:0:0:0:
248,277,82154,1,0,0:0:0:0:
482,150,82318,5,12,0:0:0:0:
248,277,82481,1,2,0:0:0:0:
248,277,82563,1,2,0:0:0:0:
248,277,82645,1,14,0:0:0:0:
303,18,82808,1,10,0:0:0:0:
438,251,82972,6,0,L|434:305,1,53.9999983520508,14|0,0:0|0:0,0:0:0:0:
251,330,83135,2,0,L|247:276,1,53.9999983520508,10|0,0:0|0:0,0:0:0:0:
452,265,83299,2,0,L|438:317,1,53.9999983520508,14|0,0:0|0:0,0:0:0:0:
237,311,83462,2,0,L|242:257,1,53.9999983520508,10|0,0:0|0:0,0:0:0:0:
469,288,83626,6,0,L|446:337,1,53.9999983520508,14|0,0:0|0:0,0:0:0:0:
223,278,83789,2,0,L|237:225,1,53.9999983520508,10|2,0:0|0:0,0:0:0:0:
487,323,83953,2,0,L|456:367,1,53.9999983520508,14|0,0:0|0:0,0:0:0:0:
210,239,84116,2,0,L|233:190,1,53.9999983520508,10|0,0:0|0:0,0:0:0:0:
480,148,84280,5,12,0:0:0:0:
458,85,84362,1,8,0:0:0:0:
404,45,84443,1,12,0:0:0:0:
338,42,84525,1,8,0:0:0:0:
282,78,84607,1,14,0:0:0:0:
226,114,84689,1,8,0:0:0:0:
160,111,84770,1,12,0:0:0:0:
106,71,84852,1,8,0:0:0:0:
84,8,84934,5,14,0:0:0:0:
78,75,85015,1,8,0:0:0:0:
72,142,85097,1,12,0:0:0:0:
66,209,85179,1,8,0:0:0:0:
60,276,85261,2,0,L|54:344,5,35.9999989013672,14|0|0|0|0|0,0:0|0:0|0:0|0:0|0:0|0:0,0:0:0:0:
140,354,85588,5,14,0:0:0:0:
140,347,85669,1,0,0:0:0:0:
141,340,85751,1,0,0:0:0:0:
142,333,85833,1,0,0:0:0:0:
143,327,85915,5,10,0:0:0:0:
163,309,85996,1,0,0:0:0:0:
189,302,86078,1,0,0:0:0:0:
215,308,86160,1,0,0:0:0:0:
240,319,86242,5,10,0:0:0:0:
242,308,86323,1,0,0:0:0:0:
243,298,86405,1,0,0:0:0:0:
245,287,86487,1,0,0:0:0:0:
246,275,86569,5,10,0:0:0:0:
279,297,86650,1,0,0:0:0:0:
318,305,86732,1,0,0:0:0:0:
358,300,86814,1,0,0:0:0:0:
393,280,86896,5,10,0:0:0:0:
395,260,86977,1,0,0:0:0:0:
398,242,87059,1,0,0:0:0:0:
400,222,87141,1,0,0:0:0:0:
402,200,87223,5,10,0:0:0:0:
351,213,87304,1,0,0:0:0:0:
308,184,87386,1,0,0:0:0:0:
302,132,87468,1,0,0:0:0:0:
338,94,87550,5,10,0:0:0:0:
305,90,87631,1,0,0:0:0:0:
275,85,87713,1,0,0:0:0:0:
243,82,87795,1,0,0:0:0:0:
208,78,87877,5,10,0:0:0:0:
225,141,87958,1,0,0:0:0:0:
189,195,88040,1,0,0:0:0:0:
124,204,88122,1,0,0:0:0:0:
75,160,88203,6,0,P|65:127|68:99,1,53.9999983520508,14|0,0:0|0:0,0:0:0:0:
198,25,88367,1,0,0:0:0:0:
198,25,88449,1,0,0:0:0:0:
198,25,88530,2,0,P|208:58|205:86,1,53.9999983520508,10|0,0:0|0:0,0:0:0:0:
65,107,88694,2,0,P|65:134|75:160,1,53.9999983520508,8|0,0:0|0:0,0:0:0:0:
181,312,88857,6,0,L|257:319,1,53.9999983520508,14|0,0:0|0:0,0:0:0:0:
67,359,89021,1,0,0:0:0:0:
67,359,89103,1,0,0:0:0:0:
67,359,89184,2,0,L|72:305,1,53.9999983520508,10|0,0:0|0:0,0:0:0:0:
189,195,89348,2,0,L|265:202,1,53.9999983520508,8|0,0:0|0:0,0:0:0:0:
340,333,89511,5,14,0:0:0:0:
389,351,89593,1,0,0:0:0:0:
441,338,89675,2,0,L|421:306,1,26.9999991760254,8|8,0:0|0:0,0:0:0:0:
471,303,89757,2,0,L|437:285,1,26.9999991760254,8|8,0:0|0:0,0:0:0:0:
465,252,89838,2,0,L|411:247,1,53.9999983520508,10|0,0:0|0:0,0:0:0:0:
189,195,90002,2,0,L|265:202,1,53.9999983520508,8|0,0:0|0:0,0:0:0:0:
418,128,90165,5,14,0:0:0:0:
463,64,90247,1,8,0:0:0:0:
418,1,90329,1,10,0:0:0:0:
343,25,90411,1,8,0:0:0:0:
343,102,90492,2,0,L|338:156,1,53.9999983520508,14|0,0:0|0:0,0:0:0:0:
239,370,90656,2,0,L|234:316,1,53.9999983520508,0|0,0:0|0:0,0:0:0:0:
201,30,90819,6,0,P|221:69|219:122,1,87.749995983124,10|0,3:0|0:0,0:0:0:0:
221,112,91146,2,0,P|207:114|193:114,3,29.2499986610413,2|0|0|0,0:0|0:0|0:0|0:0,0:0:0:0:
98,126,91473,2,0,P|100:111|99:96,3,29.2499986610413,2|0|0|0,0:0|0:0|0:0|0:0,0:0:0:0:
6,83,91800,2,0,P|5:68|7:53,3,29.2499986610413,2|0|0|0,0:0|0:0|0:0|0:0,0:0:0:0:
12,175,92127,6,0,L|17:229,3,29.2499986610413,2|0|0|0,0:0|0:0|0:0|0:0,0:0:0:0:
94,263,92454,2,0,L|96:233,3,29.2499986610413,2|0|0|0,0:0|0:0|0:0|0:0,0:0:0:0:
13,332,92781,2,0,L|10:302,3,29.2499986610413,2|0|0|0,0:0|0:0|0:0|0:0,0:0:0:0:
108,383,93108,1,2,0:0:0:0:
128,381,93190,1,0,0:0:0:0:
149,378,93272,1,0,0:0:0:0:
170,376,93353,1,0,0:0:0:0:
207,350,93435,6,0,P|251:343|298:366,1,87.749995983124,10|0,0:0|0:0,0:0:0:0:
290,360,93762,2,0,L|292:330,3,29.2499986610413,2|0|0|0,0:0|0:0|0:0|0:0,0:0:0:0:
204,232,94089,2,0,L|206:202,3,29.2499986610413,2|0|0|0,0:0|0:0|0:0|0:0,0:0:0:0:
300,249,94416,2,0,L|302:219,3,29.2499986610413,2|0|0|0,0:0|0:0|0:0|0:0,0:0:0:0:
395,376,94743,6,0,P|392:361|393:346,3,29.2499986610413,2|0|0|0,0:0|0:0|0:0|0:0,0:0:0:0:
377,264,95070,2,0,P|392:261|407:262,3,29.2499986610413,2|0|0|0,0:0|0:0|0:0|0:0,0:0:0:0:
475,365,95397,2,0,P|490:366|505:364,3,29.2499986610413,2|0|0|0,0:0|0:0|0:0|0:0,0:0:0:0:
490,281,95724,2,0,P|490:267|488:253,3,29.2499986610413,2|0|0|0,0:0|0:0|0:0|0:0,0:0:0:0:
401,148,96051,5,10,0:0:0:0:
393,129,96133,1,0,0:0:0:0:
381,113,96214,1,0,0:0:0:0:
365,102,96296,1,0,0:0:0:0:
347,94,96378,1,2,0:0:0:0:
328,93,96460,1,0,0:0:0:0:
308,96,96541,1,0,0:0:0:0:
291,105,96623,1,0,0:0:0:0:
276,119,96705,2,0,P|264:140|263:159,7,29.2499986610413,2|0|0|0|0|0|0|0,0:0|0:0|0:0|0:0|0:0|0:0|0:0|0:0,0:0:0:0:
172,191,97359,5,10,0:0:0:0:
164,209,97441,1,0,0:0:0:0:
152,225,97522,1,0,0:0:0:0:
136,236,97604,1,0,0:0:0:0:
118,244,97686,1,2,0:0:0:0:
99,245,97768,1,0,0:0:0:0:
79,242,97849,1,0,0:0:0:0:
62,233,97931,1,0,0:0:0:0:
47,219,98013,2,0,P|35:197|34:178,7,29.2499986610413,2|0|0|0|0|0|0|0,0:0|0:0|0:0|0:0|0:0|0:0|0:0|0:0,0:0:0:0:
109,138,98667,5,10,0:0:0:0:
107,156,98748,1,0,0:0:0:0:
105,176,98830,1,0,0:0:0:0:
103,196,98912,1,0,0:0:0:0:
101,216,98994,1,2,0:0:0:0:
100,235,99075,1,0,0:0:0:0:
98,255,99157,1,0,0:0:0:0:
96,274,99239,1,0,0:0:0:0:
94,294,99321,2,0,L|89:337,3,29.2499986610413,2|0|0|0,0:0|0:0|0:0|0:0,0:0:0:0:
183,348,99648,2,0,L|178:396,3,29.2499986610413,2|0|0|0,0:0|0:0|0:0|0:0,0:0:0:0:
279,345,99975,5,10,0:0:0:0:
305,327,100056,1,0,0:0:0:0:
337,323,100138,1,0,0:0:0:0:
367,331,100220,1,0,0:0:0:0:
391,352,100302,1,2,0:0:0:0:
415,373,100383,1,0,0:0:0:0:
445,382,100465,1,0,0:0:0:0:
477,377,100547,1,0,0:0:0:0:
503,360,100629,2,0,P|505:334|503:317,3,29.2499986610413,2|0|0|0,0:0|0:0|0:0|0:0,0:0:0:0:
439,237,100956,2,0,P|420:223|405:217,3,29.2499986610413,2|0|0|0,0:0|0:0|0:0|0:0,0:0:0:0:
281,222,101283,6,0,L|284:185,3,36,14|0|0|0,0:0|0:0|0:0|0:0,0:0:0:0:
347,62,101609,2,0,L|350:98,1,36,2|0,0:0|0:0,0:0:0:0:
327,116,101773,2,0,L|323:79,1,36,2|0,0:0|0:0,0:0:0:0:
240,51,101936,2,0,L|236:14,3,36,2|0|0|0,0:0|0:0|0:0|0:0,0:0:0:0:
167,105,102263,2,0,L|163:141,3,36,2|0|0|0,0:0|0:0|0:0|0:0,0:0:0:0:
71,21,102590,6,0,L|74:57,1,36,10|0,0:0|0:0,0:0:0:0:
29,175,102754,2,0,L|25:138,1,36,0|0,0:0|0:0,0:0:0:0:
85,27,102917,2,0,L|82:63,1,36,2|0,0:0|0:0,0:0:0:0:
15,169,103081,2,0,L|17:132,1,36,0|0,0:0|0:0,0:0:0:0:
100,35,103244,2,0,L|91:70,1,36,10|0,0:0|0:0,0:0:0:0:
0,161,103408,2,0,L|8:125,1,36,0|0,0:0|0:0,0:0:0:0:
113,43,103571,2,0,L|98:76,1,36,2|0,0:0|0:0,0:0:0:0:
19,254,103735,1,10,0:0:0:0:
19,254,103817,1,10,0:0:0:0:
19,254,103898,6,0,P|42:260|68:253,3,36,14|0|0|0,0:0|0:0|0:0|0:0,0:0:0:0:
152,231,104225,2,0,P|175:225|201:232,1,36,2|0,0:0|0:0,0:0:0:0:
203,208,104389,2,0,P|185:207|168:212,1,36,2|0,0:0|0:0,0:0:0:0:
128,320,104552,2,0,P|124:337|126:355,3,36,2|0|0|0,0:0|0:0|0:0|0:0,0:0:0:0:
29,335,104879,2,0,P|25:352|27:370,3,36,2|0|0|0,0:0|0:0|0:0|0:0,0:0:0:0:
231,320,105206,6,0,P|254:314|280:321,1,36,10|0,0:0|0:0,0:0:0:0:
414,340,105370,2,0,P|391:346|365:339,1,36,0|0,0:0|0:0,0:0:0:0:
241,308,105533,2,0,P|264:306|289:317,1,36,2|0,0:0|0:0,0:0:0:0:
404,352,105697,2,0,P|380:353|355:342,1,36,0|0,0:0|0:0,0:0:0:0:
254,295,105860,2,0,P|277:297|299:312,1,36,10|0,0:0|0:0,0:0:0:0:
500,351,106024,1,8,0:0:0:0:
500,351,106105,1,8,0:0:0:0:
500,351,106187,2,0,P|497:327|482:305,1,36,10|0,0:0|0:0,0:0:0:0:
409,249,106351,2,0,P|412:225|427:203,1,36,0|0,0:0|0:0,0:0:0:0:
488,147,106514,5,10,0:0:0:0:
458,127,106596,1,0,0:0:0:0:
421,122,106678,1,0,0:0:0:0:
388,132,106759,1,0,0:0:0:0:
360,155,106841,1,8,0:0:0:0:
333,179,106923,1,0,0:0:0:0:
299,189,107005,1,8,0:0:0:0:
263,184,107086,1,8,0:0:0:0:
233,164,107168,2,0,P|230:135|233:115,3,36,10|0|0|0,0:0|0:0|0:0|0:0,0:0:0:0:
249,0,107495,2,0,P|249:17|246:35,1,36,8|0,0:0|0:0,0:0:0:0:
238,12,107659,2,0,P|238:29|235:47,1,36,8|0,0:0|0:0,0:0:0:0:
145,133,107822,5,10,0:0:0:0:
116,162,107904,1,0,0:0:0:0:
77,173,107986,1,0,0:0:0:0:
38,161,108067,1,0,0:0:0:0:
11,130,108149,1,8,0:0:0:0:
4,90,108231,1,0,0:0:0:0:
20,53,108312,1,8,0:0:0:0:
54,29,108394,1,8,0:0:0:0:
95,28,108476,2,0,P|120:32|147:49,3,36,10|0|0|0,0:0|0:0|0:0|0:0,0:0:0:0:
230,128,108803,1,8,0:0:0:0:
230,128,108885,1,0,0:0:0:0:
230,128,108966,2,0,L|227:164,1,36,8|0,0:0|0:0,0:0:0:0:
161,242,109130,5,10,0:0:0:0:
139,280,109212,1,0,0:0:0:0:
142,325,109293,1,8,0:0:0:0:
169,360,109375,1,8,0:0:0:0:
210,375,109457,5,8,0:0:0:0:
183,339,109539,1,0,0:0:0:0:
141,324,109620,1,8,0:0:0:0:
98,335,109702,1,0,0:0:0:0:
69,369,109784,2,0,L|72:333,3,36,10|0|0|0,0:0|0:0|0:0|0:0,0:0:0:0:
0,275,110111,2,0,L|3:239,3,36,10|0|0|0,0:0|0:0|0:0|0:0,0:0:0:0:
161,242,110438,5,8,0:0:0:0:
206,214,110520,1,8,0:0:0:0:
261,218,110601,1,8,0:0:0:0:
302,250,110683,1,8,0:0:0:0:
321,300,110765,5,10,0:0:0:0:
277,268,110847,1,8,0:0:0:0:
260,217,110928,1,8,0:0:0:0:
273,165,111010,1,8,0:0:0:0:
313,129,111092,2,0,L|355:124,3,36,10|0|8|0,0:0|0:0|0:0|0:0,0:0:0:0:
486,78,111419,2,0,P|514:148|500:208,1,135,14|0,0:0|0:0,0:0:0:0:
484,237,111746,5,10,3:0:0:0:
342,29,111909,1,10,0:0:0:0:
365,305,112073,1,0,0:0:0:0:
361,261,112154,1,0,0:0:0:0:
357,216,112236,1,0,0:0:0:0:
353,171,112318,1,0,0:0:0:0:
349,126,112400,5,10,0:0:0:0:
497,324,112563,1,10,0:0:0:0:
214,292,112727,1,0,0:0:0:0:
210,248,112808,1,0,0:0:0:0:
206,203,112890,1,0,0:0:0:0:
202,158,112972,1,0,0:0:0:0:
198,113,113054,5,10,0:0:0:0:
365,305,113217,1,10,0:0:0:0:
70,281,113381,1,0,0:0:0:0:
66,237,113462,1,0,0:0:0:0:
62,192,113544,1,8,0:0:0:0:
58,147,113626,1,8,0:0:0:0:
54,102,113708,5,10,0:0:0:0:
349,126,113871,5,10,0:0:0:0:
350,141,113926,1,10,0:0:0:0:
351,156,113980,1,10,0:0:0:0:
353,171,114035,2,0,L|361:260,1,90,10|0,0:0|0:0,0:0:0:0:
496,323,114362,5,10,0:0:0:0:
140,361,114525,1,10,0:0:0:0:
415,256,114689,1,0,0:0:0:0:
361,260,114770,1,0,0:0:0:0:
307,265,114852,1,0,0:0:0:0:
253,270,114934,1,0,0:0:0:0:
200,275,115015,5,10,0:0:0:0:
492,171,115179,1,10,0:0:0:0:
111,236,115342,1,0,0:0:0:0:
106,180,115424,1,0,0:0:0:0:
101,126,115506,1,0,0:0:0:0:
96,72,115588,1,0,0:0:0:0:
91,18,115669,5,10,0:0:0:0:
321,282,115833,1,10,0:0:0:0:
477,8,115996,1,8,0:0:0:0:
481,62,116078,1,8,0:0:0:0:
486,116,116160,1,8,0:0:0:0:
491,170,116242,1,8,0:0:0:0:
496,224,116323,6,0,L|501:296,1,45,10|8,0:0|0:0,0:0:0:0:
421,358,116487,2,0,L|422:380,1,22.5,8|8,0:0|0:0,0:0:0:0:
404,362,116569,2,0,L|405:384,1,22.5,8|8,0:0|0:0,0:0:0:0:
383,365,116650,2,0,B|361:354|361:354|323:373|278:351,1,90,2|0,0:0|0:0,0:0:0:0:
54,312,116977,1,10,0:0:0:0:
256,251,117304,6,0,L|256:299,3,45,2|0|0|0,0:0|0:0|0:0|0:0,0:0:0:0:
181,220,117631,2,0,L|147:253,3,42.7499988584519,2|0|0|0,0:0|0:0|0:0|0:0,0:0:0:0:
150,145,117958,2,0,L|101:145,3,40.4999987640381,2|0|0|0,0:0|0:0|0:0|0:0,0:0:0:0:
181,70,118285,2,0,L|147:36,3,38.2500007295609,2|0|0|0,0:0|0:0|0:0|0:0,0:0:0:0:
256,39,118612,2,0,L|255:-9,3,36,2|0|0|0,0:0|0:0|0:0|0:0,0:0:0:0:
331,70,118939,2,0,L|364:36,3,33.7500012874604,2|0|0|0,0:0|0:0|0:0|0:0,0:0:0:0:
361,145,119266,2,0,L|409:145,3,31.4999990386963,2|0|0|0,0:0|0:0|0:0|0:0,0:0:0:0:
331,220,119593,2,0,L|364:253,3,29.2499986610413,2|0|0|0,0:0|0:0|0:0|0:0,0:0:0:0:
256,251,119920,2,0,L|256:299,3,26.9999991760254,2|0|0|0,0:0|0:0|0:0|0:0,0:0:0:0:
181,220,120247,2,0,L|147:253,3,24.7500007553101,2|0|0|0,0:0|0:0|0:0|0:0,0:0:0:0:
150,145,120574,2,0,L|126:145,3,22.5,2|0|0|0,0:0|0:0|0:0|0:0,0:0:0:0:
181,70,120901,2,0,L|164:53,3,20.2499993820191,2|0|0|0,0:0|0:0|0:0|0:0,0:0:0:0:
256,39,121228,2,0,L|255:14,3,18,2|0|0|0,0:0|0:0|0:0|0:0,0:0:0:0:
331,70,121555,2,0,L|347:53,3,15.7499995193482,2|0|0|0,0:0|0:0|0:0|0:0,0:0:0:0:
361,145,121882,2,0,L|385:145,3,13.4999995880127,2|0|0|0,0:0|0:0|0:0|0:0,0:0:0:0:
331,220,122209,2,0,P|252:331|182:218,1,315,6|0,0:0|0:0,0:0:0:0:
256,144,124825,5,2,3:0:0:0:
465,42,135288,6,0,L|321:54,1,144,2|0,0:0|0:0,0:0:0:0:
241,19,136105,1,0,0:0:0:0:
241,19,136269,1,0,0:0:0:0:
153,64,136432,1,0,0:0:0:0:
131,168,136596,6,0,L|161:172,2,22.5,2|0|0,0:0|0:0|0:0,0:0:0:0:
131,168,137413,1,0,0:0:0:0:
60,111,137577,1,0,0:0:0:0:
0,183,137740,1,0,0:0:0:0:
72,241,137904,6,0,L|84:385,1,144,2|2,0:0|0:0,0:0:0:0:
304,316,139212,2,0,L|316:172,1,144,2|2,0:0|0:0,0:0:0:0:
304,316,140520,6,0,P|348:339|409:330,1,108,2|0,0:0|0:0,0:0:0:0:
491,373,141174,2,0,L|481:257,1,108,2|0,0:0|0:0,0:0:0:0:
473,173,141827,5,2,0:0:0:0:
473,173,142645,1,0,0:0:0:0:
392,222,142808,1,0,0:0:0:0:
318,142,142972,1,0,0:0:0:0:
224,223,143135,6,0,L|218:295,1,72,2|2,0:0|0:0,0:0:0:0:
159,356,145097,1,2,0:0:0:0:
76,351,145261,1,2,0:0:0:0:
21,285,145424,1,2,0:0:0:0:
21,276,145506,1,2,0:0:0:0:
22,267,145588,1,2,0:0:0:0:
23,258,145669,1,2,0:0:0:0:
23,247,145751,6,0,P|131:250|46:137,1,315,2|2,3:0|0:0,0:0:0:0:
79,201,147059,2,0,L|399:174,1,315,2|0,0:0|0:0,0:0:0:0:
448,221,148367,2,0,P|340:224|425:111,1,315,2|0,0:0|0:0,0:0:0:0:
490,154,149675,1,2,0:0:0:0:
490,377,150002,2,0,L|513:379,3,22.5,2|2|0|0,0:0|0:0|0:0|0:0,0:0:0:0:
430,315,150329,2,0,L|452:310,3,22.5,2|2|0|0,0:0|0:0|0:0|0:0,0:0:0:0:
345,284,150656,2,0,L|365:274,3,22.5,2|2|0|0,0:0|0:0|0:0|0:0,0:0:0:0:
264,297,150983,6,0,P|255:212|311:127,1,180,2|0,0:0|0:0,0:0:0:0:
403,123,151964,1,2,0:0:0:0:
487,236,152291,2,0,L|494:128,1,90,2|2,0:0|0:0,0:0:0:0:
462,43,152781,1,0,0:0:0:0:
462,43,152863,1,0,0:0:0:0:
462,43,152945,2,0,L|361:2,1,90,2|2,0:0|0:0,0:0:0:0:
280,36,153435,1,0,0:0:0:0:
280,36,153517,1,0,0:0:0:0:
280,36,153599,2,0,L|243:86,1,45,2|2,0:0|0:0,0:0:0:0:
172,78,153926,6,0,L|178:129,2,30,2|0|0,0:0|0:0|0:0,0:0:0:0:
85,117,154253,2,0,L|73:166,2,30,2|0|0,0:0|0:0|0:0,0:0:0:0:
83,236,154580,1,2,0:0:0:0:
112,239,154688,1,0,0:0:0:0:
145,267,154797,1,0,0:0:0:0:
187,259,154906,5,2,0:0:0:0:
16,379,155234,1,2,0:0:0:0:
6,366,155316,1,0,0:0:0:0:
0,351,155397,2,0,L|1:316,1,22.5
76,277,155560,1,2,0:0:0:0:
82,261,155642,1,0,0:0:0:0:
92,249,155724,2,0,L|122:232,1,22.5
170,147,155887,1,2,0:0:0:0:
186,144,155969,1,0,0:0:0:0:
202,146,156051,2,0,L|231:164,1,22.5
193,338,156214,6,0,P|223:229|159:140,1,215.999993408203,12|0,0:0|0:0,0:0:0:0:
81,105,157032,1,2,0:0:0:0:
22,194,157195,1,2,0:0:0:0:
114,243,157359,1,2,0:0:0:0:
76,79,157522,6,0,L|72:49,2,22.5,2|0|0,0:0|0:0|0:0,0:0:0:0:
22,194,157849,1,0,0:0:0:0:
20,212,158176,1,0,0:0:0:0:
76,79,158340,1,2,0:0:0:0:
165,71,158503,1,2,0:0:0:0:
254,64,158667,1,2,0:0:0:0:
345,57,158830,6,0,L|335:186,1,107.999996704102,12|2,0:0|0:0,0:0:0:0:
432,282,159321,1,0,0:0:0:0:
459,279,159402,1,0,0:0:0:0:
486,275,159484,2,0,L|477:167,1,107.999996704102,2|2,0:0|0:0,0:0:0:0:
426,50,159975,1,0,0:0:0:0:
386,53,160056,1,0,0:0:0:0:
345,57,160138,5,14,0:0:0:0:
256,164,160465,2,0,L|250:237,1,53.9999983520508,8|2,0:0|0:0,0:0:0:0:
345,57,160792,1,14,0:0:0:0:
489,327,161119,2,0,L|485:273,1,53.9999983520508,8|2,0:0|0:0,0:0:0:0:
326,272,161446,6,0,L|324:303,3,31.4999990386963,14|0|0|0,0:0|0:0|0:0|0:0,0:0:0:0:
244,291,161773,2,0,L|242:322,3,31.4999990386963,2|0|0|0,0:0|0:0|0:0|0:0,0:0:0:0:
164,313,162100,2,0,L|162:344,1,31.4999990386963,2|0,0:0|0:0,0:0:0:0:
82,330,162263,2,0,L|80:361,1,31.4999990386963,2|0,0:0|0:0,0:0:0:0:
25,259,162427,1,2,0:0:0:0:
31,229,162509,1,2,0:0:0:0:
52,206,162590,1,10,0:0:0:0:
82,198,162672,1,2,0:0:0:0:
112,207,162754,6,0,L|110:239,3,31.4999990386963,14|0|0|0,0:0|0:0|0:0|0:0,0:0:0:0:
201,147,163081,2,0,L|199:115,3,31.4999990386963,2|0|0|0,0:0|0:0|0:0|0:0,0:0:0:0:
103,60,163408,2,0,L|105:28,3,31.4999990386963,2|0|0|0,0:0|0:0|0:0|0:0,0:0:0:0:
220,20,163735,1,2,0:0:0:0:
266,11,163816,1,2,0:0:0:0:
311,23,163898,1,2,0:0:0:0:
346,55,163980,1,2,0:0:0:0:
363,98,164062,2,0,P|362:150|345:195,1,90,12|0,0:0|0:0,0:0:0:0:
242,343,164307,1,2,0:0:0:0:
237,310,164389,5,2,0:0:0:0:
230,273,164471,1,2,0:0:0:0:
266,229,164552,5,10,0:0:0:0:
271,264,164634,1,2,0:0:0:0:
322,298,164716,5,14,0:0:0:0:
315,264,164798,1,2,0:0:0:0:
355,217,164879,5,2,0:0:0:0:
362,253,164961,1,2,0:0:0:0:
408,293,165043,5,2,0:0:0:0:
401,259,165124,1,2,0:0:0:0:
443,211,165206,5,10,0:0:0:0:
447,248,165288,1,2,0:0:0:0:
491,285,165370,6,0,P|516:244|502:185,1,90,14|0,0:0|0:0,0:0:0:0:
397,18,165697,2,0,L|387:126,1,90,8|0,0:0|0:0,0:0:0:0:
475,370,166024,1,10,0:0:0:0:
475,370,166105,1,8,0:0:0:0:
475,370,166187,2,0,L|421:365,1,45,8|8,0:0|0:0,0:0:0:0:
322,298,166351,2,0,L|268:303,1,45,14|0,0:0|0:0,0:0:0:0:
141,353,166514,1,8,0:0:0:0:
88,359,166596,1,8,0:0:0:0:
35,366,166678,6,0,L|46:245,1,121.500000463486,10|0,3:0|0:0,0:0:0:0:
142,266,166923,1,2,0:0:0:0:
142,266,167005,2,0,L|131:145,1,121.500000463486,2|0,0:0|0:0,0:0:0:0:
30,159,167250,1,2,0:0:0:0:
30,159,167332,2,0,L|41:38,1,121.500000463486,2|0,0:0|0:0,0:0:0:0:
139,27,167577,1,0,0:0:0:0:
139,27,167659,1,0,0:0:0:0:
223,186,167822,1,0,0:0:0:0:
386,49,167986,6,0,P|427:96|431:166,1,121.500000463486,10|0,0:0|0:0,0:0:0:0:
366,278,168312,5,8,0:0:0:0:
353,274,168367,1,8,0:0:0:0:
343,269,168421,1,10,0:0:0:0:
334,261,168476,2,0,L|345:140,2,121.500000463486,2|8|2,0:0|0:0|0:0,0:0:0:0:
386,49,168966,1,0,0:0:0:0:
325,43,169048,1,0,0:0:0:0:
264,37,169130,1,0,0:0:0:0:
204,32,169212,1,0,0:0:0:0:
143,26,169293,6,0,L|154:147,1,121.500000463486,2|0,0:0|0:0,0:0:0:0:
443,371,169620,1,0,0:0:0:0:
449,310,169702,1,0,0:0:0:0:
454,249,169784,1,0,0:0:0:0:
460,189,169866,1,0,0:0:0:0:
466,128,169947,2,0,L|345:139,1,121.500000463486,2|0,0:0|0:0,0:0:0:0:
143,26,170274,2,0,L|154:147,1,121.500000463486,2|0,0:0|0:0,0:0:0:0:
98,370,170601,6,0,P|97:339|88:311,1,60.7500002317429,10|0,0:0|0:0,0:0:0:0:
283,367,170765,2,0,P|283:336|292:308,1,60.7500002317429,0|0,0:0|0:0,0:0:0:0:
88,311,170928,2,0,P|77:282|58:259,1,60.7500002317429,10|0,0:0|0:0,0:0:0:0:
293,308,171092,2,0,P|303:279|322:256,1,60.7500002317429,0|0,0:0|0:0,0:0:0:0:
58,259,171255,2,0,P|38:235|12:220,1,60.7500002317429,10|0,0:0|0:0,0:0:0:0:
323,256,171419,2,0,P|342:232|368:217,1,60.7500002317429,8|0,0:0|0:0,0:0:0:0:
145,102,171582,1,10,0:0:0:0:
145,175,171664,1,8,0:0:0:0:
215,198,171746,1,8,0:0:0:0:
257,139,171827,1,8,0:0:0:0:
215,80,171909,6,0,B|257:77|286:48|286:48|343:64|343:64|378:40|416:42,1,202.500007724762,12|0,0:0|0:0,0:0:0:0:
186,375,172236,2,0,B|162:340|122:329|122:329|108:272|108:272|69:253|59:231,1,202.500007724762,12|0,0:0|0:0,0:0:0:0:
512,205,172563,2,0,B|493:242|504:282|504:282|461:323|461:323|465:366|451:385,1,202.500007724762,12|0,0:0|0:0,0:0:0:0:
130,108,172890,1,2,0:0:0:0:
215,80,172972,1,2,0:0:0:0:
267,152,173054,1,2,0:0:0:0:
215,225,173135,1,2,0:0:0:0:
126,203,173217,6,0,B|123:143|-13:183|-81:32|44:-89|159:-32|127:62|127:62,1,360,14|0,0:0|0:0,0:0:0:0:
126,203,173544,2,0,B|128:143|265:183|333:32|208:-92|92:-32|128:59|128:59,1,360,12|0,0:0|0:0,0:0:0:0:
55,261,173871,2,0,B|117:304|97:430|-102:399|-49:166|135:204,1,400,12|0,0:0|0:0,0:0:0:0:
395,207,174198,1,8,0:0:0:0:
446,233,174280,1,8,0:0:0:0:
460,291,174362,1,8,0:0:0:0:
426,339,174443,1,8,0:0:0:0:
369,347,174525,6,0,P|331:302|374:337,1,161.999995056153,12|0,0:0|0:0,0:0:0:0:
394,170,174852,1,8,0:0:0:0:
469,210,174934,1,8,0:0:0:0:
490,294,175015,1,8,0:0:0:0:
440,366,175097,1,8,0:0:0:0:
355,377,175179,6,0,P|304:326|369:342,1,161.999995056153,12|0,0:0|0:0,0:0:0:0:
512,56,175506,1,8,0:0:0:0:
441,49,175588,1,8,0:0:0:0:
371,42,175669,1,8,0:0:0:0:
302,36,175751,1,8,0:0:0:0:
232,29,175833,6,0,L|145:21,1,80.9999975280763,12|0,0:0|0:0,0:0:0:0:
0,1,175996,2,0,L|3:44,1,40.4999987640381,8|8,0:0|0:0,0:0:0:0:
18,12,176078,2,0,L|21:55,1,40.4999987640381,8|8,0:0|0:0,0:0:0:0:
39,21,176160,1,8,0:0:0:0:
75,89,176242,1,0,0:0:0:0:
36,156,176323,2,0,P|19:198|26:238,1,80.9999975280763,8|0,0:0|0:0,0:0:0:0:
57,381,176487,5,14,0:0:0:0:
137,373,176569,1,8,0:0:0:0:
218,366,176650,1,8,0:0:0:0:
299,358,176732,1,8,0:0:0:0:
349,278,176814,5,14,0:0:0:0:
309,274,176896,1,8,0:0:0:0:
268,270,176977,1,8,0:0:0:0:
228,266,177059,1,8,0:0:0:0:
172,193,177141,5,10,0:3:0:0:
480,0,177468,5,0,3:0:0:0:
512,88,177577,1,0,3:0:0:0:
480,175,177686,1,0,3:0:0:0:
367,151,177795,5,0,3:0:0:0:
345,89,177904,1,0,3:0:0:0:
367,25,178013,1,0,3:0:0:0:
474,53,178122,5,0,3:0:0:0:
486,89,178231,1,0,3:0:0:0:
474,125,178340,1,0,3:0:0:0:
341,172,178449,6,0,P|342:229|410:282,1,135.000005149842,8|0,3:2|0:0,0:0:0:0:
415,276,178667,1,10,0:0:0:0:
433,268,178721,1,10,0:0:0:0:
450,248,178776,2,0,L|437:387,1,135.000005149842,10|0,0:0|0:0,0:0:0:0:
118,147,179103,2,0,L|257:134,1,135.000005149842,10|0,0:0|0:0,0:0:0:0:
155,364,179430,2,0,L|20:376,1,135.000005149842,10|0,0:0|0:0,0:0:0:0:
118,147,179757,5,10,0:0:0:0:
125,133,179838,1,0,0:0:0:0:
157,108,179920,1,0,0:0:0:0:
204,103,180002,1,0,0:0:0:0:
252,134,180084,1,8,0:0:0:0:
291,197,180165,1,0,0:0:0:0:
357,239,180247,1,2,0:0:0:0:
432,212,180329,1,0,0:0:0:0:
461,140,180411,5,10,0:0:0:0:
462,123,180492,1,0,0:0:0:0:
449,112,180574,1,0,0:0:0:0:
433,115,180656,1,0,0:0:0:0:
426,130,180738,1,8,0:0:0:0:
385,104,180819,1,0,0:0:0:0:
385,39,180901,1,2,0:0:0:0:
453,3,180983,1,0,0:0:0:0:
512,58,181065,6,0,L|504:145,3,67.5000025749208,10|0|0|0,0:0|0:0|0:0|0:0,0:0:0:0:
432,212,181392,1,8,0:0:0:0:
435,245,181473,1,0,0:0:0:0:
438,279,181555,2,0,L|446:366,1,67.5000025749208,2|0,0:0|0:0,0:0:0:0:
329,382,181718,2,0,L|322:314,3,67.5000025749208,10|0|0|0,0:0|0:0|0:0|0:0,0:0:0:0:
199,226,182045,2,0,L|192:294,1,67.5000025749208,8|0,0:0|0:0,0:0:0:0:
80,380,182209,2,0,L|73:312,1,67.5000025749208,2|0,0:0|0:0,0:0:0:0:
2,200,182372,5,14,0:0:0:0:
117,31,182699,5,0,3:0:0:0:
211,16,182808,1,0,3:0:0:0:
293,64,182917,1,0,3:0:0:0:
299,170,183026,5,0,3:0:0:0:
228,126,183135,1,0,3:0:0:0:
146,139,183244,1,0,3:0:0:0:
100,228,183353,5,0,3:0:0:0:
172,224,183462,1,0,3:0:0:0:
233,264,183571,1,0,3:0:0:0:
292,371,183680,6,0,B|261:384|261:384|148:375,1,135.000005149842,8|0,3:2|0:0,0:0:0:0:
135,371,183898,1,10,0:0:0:0:
112,367,183953,1,10,0:0:0:0:
89,363,184007,2,0,L|101:228,1,135.000005149842,10|0,0:0|0:0,0:0:0:0:
398,35,184334,2,0,L|410:170,1,135.000005149842,10|0,0:0|0:0,0:0:0:0:
292,371,184661,1,0,0:0:0:0:
100,228,184825,1,8,0:0:0:0:
279,12,184988,5,14,0:0:0:0:
293,19,185070,1,0,0:0:0:0:
318,51,185152,1,0,0:0:0:0:
323,98,185233,1,0,0:0:0:0:
292,146,185315,1,8,0:0:0:0:
218,163,185397,1,0,0:0:0:0:
176,229,185479,1,2,0:0:0:0:
203,304,185560,1,0,0:0:0:0:
275,333,185642,5,14,0:0:0:0:
275,324,185724,1,0,0:0:0:0:
276,316,185806,1,0,0:0:0:0:
277,307,185887,1,0,0:0:0:0:
277,299,185969,1,8,0:0:0:0:
291,276,186051,1,0,0:0:0:0:
337,259,186133,1,2,0:0:0:0:
398,296,186214,1,0,0:0:0:0:
387,368,186296,6,0,L|454:361,3,67.5000025749208,14|0|0|0,0:0|0:0|0:0|0:0,0:0:0:0:
512,279,186623,1,8,0:0:0:0:
507,246,186705,1,0,0:0:0:0:
502,212,186787,2,0,L|494:125,1,67.5000025749208,2|0,0:0|0:0,0:0:0:0:
467,11,186950,2,0,L|399:18,1,67.5000025749208,14|0,0:0|0:0,0:0:0:0:
272,53,187114,2,0,L|275:87,1,33.7500012874604,8|8,0:0|0:0,0:0:0:0:
254,67,187195,2,0,L|257:101,1,33.7500012874604,8|8,0:0|0:0,0:0:0:0:
231,83,187277,1,8,0:0:0:0:
238,138,187358,1,8,0:0:0:0:
282,173,187440,1,8,0:0:0:0:
338,169,187522,1,8,0:0:0:0:
377,128,187603,5,14,0:0:0:0:
55,92,187931,5,0,3:0:0:0:
87,8,188040,1,0,3:0:0:0:
142,78,188149,1,0,3:0:0:0:
34,98,188258,6,0,B|28:134|28:134|36:169,1,72,8|10,3:2|0:0,0:0:0:0:
148,320,188748,1,0,0:0:0:0:
148,320,188830,1,0,0:0:0:0:
148,320,188912,6,0,L|13:308,1,135.000005149842,14|0,0:0|0:0,0:0:0:0:
235,155,189157,5,0,0:0:0:0:
235,155,189239,2,0,L|370:143,1,135.000005149842,12|0,0:0|0:0,0:0:0:0:
135,354,189484,5,0,0:0:0:0:
135,354,189566,2,0,L|1:342,1,135.000005149842,14|0,0:0|0:0,0:0:0:0:
249,121,189811,5,0,0:0:0:0:
249,121,189893,2,0,L|383:109,1,135.000005149842,14|0,0:0|0:0,0:0:0:0:
479,234,190138,5,0,0:0:0:0:
479,234,190220,2,0,P|491:297|464:367,1,135.000005149842,12|0,0:0|0:0,0:0:0:0:
255,232,190547,5,0,3:0:0:0:
344,239,190656,1,0,3:0:0:0:
293,312,190765,1,0,3:0:0:0:
234,226,190874,6,0,B|228:190|228:190|236:155,1,72,8|10,3:2|0:0,0:0:0:0:
329,41,191364,1,0,0:0:0:0:
329,41,191446,1,0,0:0:0:0:
329,41,191528,6,0,P|394:24|461:47,1,135.000005149842,14|0,0:0|0:0,0:0:0:0:
235,155,191773,5,0,0:0:0:0:
235,155,191855,2,0,P|170:137|107:158,1,135.000005149842,12|0,0:0|0:0,0:0:0:0:
343,239,192100,5,0,0:0:0:0:
343,239,192182,2,0,P|381:234|419:245,1,67.5000025749208,12|0,0:0|0:0,0:0:0:0:
507,355,192345,2,0,P|469:360|430:344,1,67.5000025749208,12|0,0:0|0:0,0:0:0:0:
483,213,192509,2,0,P|488:251|477:289,1,67.5000025749208,12|0,0:0|0:0,0:0:0:0:
366,384,192672,2,0,P|361:346|373:308,1,67.5000025749208,12|0,0:0|0:0,0:0:0:0:
470,130,192836,2,0,L|335:142,1,135.000005149842,12|0,0:0|0:0,0:0:0:0:
0,291,193163,5,0,3:0:0:0:
88,282,193272,1,0,3:0:0:0:
50,362,193381,1,0,3:0:0:0:
34,214,193490,6,0,B|21:179|21:179|23:143,1,72,12|14,3:2|0:0,0:0:0:0:
147,30,193980,1,0,0:0:0:0:
199,26,194062,1,0,0:0:0:0:
252,23,194144,5,12,0:0:0:0:
394,261,194307,1,0,0:0:0:0:
137,152,194471,1,14,0:0:0:0:
409,89,194634,1,0,0:0:0:0:
218,302,194798,5,12,0:0:0:0:
342,32,194961,1,2,0:0:0:0:
342,32,195043,1,2,0:0:0:0:
342,32,195124,1,14,0:0:0:0:
115,157,195288,1,10,0:0:0:0:
428,86,195451,6,0,P|438:118|428:176,1,67.5000025749208,14|0,0:0|0:0,0:0:0:0:
302,381,195615,2,0,P|292:349|302:291,1,67.5000025749208,10|0,0:0|0:0,0:0:0:0:
454,98,195778,2,0,P|458:131|438:186,1,67.5000025749208,14|0,0:0|0:0,0:0:0:0:
276,369,195942,2,0,P|271:335|291:280,1,67.5000025749208,10|0,0:0|0:0,0:0:0:0:
483,124,196105,6,0,P|481:157|452:208,1,67.5000025749208,14|0,0:0|0:0,0:0:0:0:
247,343,196269,2,0,P|248:309|277:258,1,67.5000025749208,10|2,0:0|0:0,0:0:0:0:
512,165,196432,2,0,P|504:197|467:242,1,67.5000025749208,14|0,0:0|0:0,0:0:0:0:
218,302,196596,2,0,P|225:269|262:224,1,67.5000025749208,10|0,0:0|0:0,0:0:0:0:
498,314,196759,5,12,0:0:0:0:
427,332,196841,1,8,0:0:0:0:
359,305,196923,1,12,0:0:0:0:
323,241,197005,1,8,0:0:0:0:
333,169,197086,1,14,0:0:0:0:
343,98,197168,1,8,0:0:0:0:
306,35,197250,1,12,0:0:0:0:
239,8,197332,1,8,0:0:0:0:
167,27,197413,5,14,0:0:0:0:
200,92,197495,1,8,0:0:0:0:
176,159,197577,1,12,0:0:0:0:
109,187,197659,1,8,0:0:0:0:
43,157,197740,2,0,L|47:102,5,45.0000017166138,14|0|0|0|0|0,0:0|0:0|0:0|0:0|0:0|0:0,0:0:0:0:
28,235,198067,5,14,0:0:0:0:
35,235,198149,1,0,0:0:0:0:
42,236,198231,1,0,0:0:0:0:
49,237,198312,1,0,0:0:0:0:
56,237,198394,5,10,0:0:0:0:
60,270,198476,1,0,0:0:0:0:
79,297,198558,1,0,0:0:0:0:
108,314,198639,1,0,0:0:0:0:
142,316,198721,5,10,0:0:0:0:
142,305,198803,1,0,0:0:0:0:
144,294,198885,1,0,0:0:0:0:
146,283,198966,1,0,0:0:0:0:
147,272,199048,5,10,0:0:0:0:
189,247,199130,1,0,0:0:0:0:
236,262,199212,1,0,0:0:0:0:
258,306,199293,1,0,0:0:0:0:
240,352,199375,5,10,0:0:0:0:
260,352,199457,1,0,0:0:0:0:
281,355,199539,1,0,0:0:0:0:
301,359,199620,1,0,0:0:0:0:
324,359,199702,5,10,0:0:0:0:
337,294,199784,1,0,0:0:0:0:
389,254,199866,1,0,0:0:0:0:
455,258,199947,1,0,0:0:0:0:
502,304,200029,5,10,0:0:0:0:
503,271,200111,1,0,0:0:0:0:
506,240,200193,1,0,0:0:0:0:
508,209,200274,1,0,0:0:0:0:
510,179,200356,5,10,0:0:0:0:
430,181,200438,1,0,0:0:0:0:
386,113,200520,1,0,0:0:0:0:
420,41,200601,1,0,0:0:0:0:
501,34,200683,6,0,P|495:71|459:109,1,67.5000025749208,14|0,0:0|0:0,0:0:0:0:
270,171,200847,1,0,0:0:0:0:
270,171,200928,1,0,0:0:0:0:
270,171,201010,2,0,P|274:137|292:109,1,67.5000025749208,10|0,0:0|0:0,0:0:0:0:
501,34,201174,2,0,P|495:71|459:109,1,67.5000025749208,8|0,0:0|0:0,0:0:0:0:
389,254,201337,6,4,L|319:248,1,67.5000025749208,14|0,0:0|0:0,0:0:0:0:
163,131,201500,1,0,0:0:0:0:
163,131,201582,1,0,0:0:0:0:
163,131,201664,2,0,L|167:198,1,67.5000025749208,10|0,0:0|0:0,0:0:0:0:
209,366,201827,2,0,L|139:360,1,67.5000025749208,8|0,0:0|0:0,0:0:0:0:
6,235,201991,5,14,0:0:0:0:
0,169,202073,1,0,0:0:0:0:
39,115,202154,2,0,L|59:143,1,33.7500012874604,8|8,0:0|0:0,0:0:0:0:
103,100,202236,2,0,L|114:133,1,33.7500012874604,8|8,0:0|0:0,0:0:0:0:
163,131,202318,2,0,L|167:198,1,67.5000025749208,10|0,0:0|0:0,0:0:0:0:
209,366,202481,2,0,L|276:371,1,67.5000025749208,8|0,0:0|0:0,0:0:0:0:
458,157,202645,5,14,0:0:0:0:
486,75,202727,1,8,0:0:0:0:
421,22,202808,1,10,0:0:0:0:
348,68,202890,1,8,0:0:0:0:
370,150,202972,2,0,L|378:239,1,67.5000025749208,14|0,0:0|0:0,0:0:0:0:
512,384,203135,2,0,L|505:316,1,67.5000025749208,0|0,0:0|0:0,0:0:0:0:
250,156,203299,6,0,P|201:162|162:209,1,101.250003862381,10|0,3:0|0:0,0:0:0:0:
166,197,203626,2,0,L|170:241,1,33.7500012874604,2|0,0:0|0:0,0:0:0:0:
108,313,203789,2,0,L|104:279,1,33.7500012874604,0|0,0:0|0:0,0:0:0:0:
55,206,203953,1,2,0:0:0:0:
53,194,204035,1,0,0:0:0:0:
52,183,204116,1,0,0:0:0:0:
51,172,204198,1,0,0:0:0:0:
20,148,204280,2,0,L|24:114,3,33.7500012874604,2|0|0|0,0:0|0:0|0:0|0:0,0:0:0:0:
35,30,204607,6,0,L|79:34,1,33.7500012874604,2|0,0:0|0:0,0:0:0:0:
73,16,204770,2,0,L|109:41,1,33.7500012874604,0|0,0:0|0:0,0:0:0:0:
121,8,204934,2,0,L|139:48,1,33.7500012874604,2|0,0:0|0:0,0:0:0:0:
171,8,205097,2,0,L|167:52,1,33.7500012874604,0|0,0:0|0:0,0:0:0:0:
222,17,205261,2,0,L|196:53,1,33.7500012874604,2|0,0:0|0:0,0:0:0:0:
266,33,205424,2,0,L|225:51,1,33.7500012874604,0|0,0:0|0:0,0:0:0:0:
303,54,205588,2,0,L|258:49,1,33.7500012874604,2|0,0:0|0:0,0:0:0:0:
160,151,205751,1,0,0:0:0:0:
167,194,205833,1,0,0:0:0:0:
177,235,205915,6,0,P|229:244|280:223,1,101.250003862381,10|0,0:0|0:0,0:0:0:0:
273,227,206242,2,0,L|269:183,1,33.7500012874604,2|0,0:0|0:0,0:0:0:0:
342,126,206405,2,0,L|346:160,1,33.7500012874604,0|0,0:0|0:0,0:0:0:0:
360,253,206569,1,2,0:0:0:0:
372,251,206650,1,0,0:0:0:0:
383,250,206732,1,0,0:0:0:0:
394,249,206814,1,0,0:0:0:0:
418,218,206896,2,0,L|452:222,3,33.7500012874604,2|0|0|0,0:0|0:0|0:0|0:0,0:0:0:0:
490,351,207223,6,0,L|446:355,1,33.7500012874604,2|0,0:0|0:0,0:0:0:0:
452,337,207386,2,0,L|416:362,1,33.7500012874604,0|0,0:0|0:0,0:0:0:0:
404,329,207550,2,0,L|386:369,1,33.7500012874604,2|0,0:0|0:0,0:0:0:0:
354,329,207713,2,0,L|358:373,1,33.7500012874604,0|0,0:0|0:0,0:0:0:0:
303,338,207877,2,0,L|329:374,1,33.7500012874604,2|0,0:0|0:0,0:0:0:0:
259,354,208040,2,0,L|300:372,1,33.7500012874604,0|0,0:0|0:0,0:0:0:0:
222,375,208203,2,0,L|267:370,1,33.7500012874604,2|0,0:0|0:0,0:0:0:0:
354,329,208367,2,0,L|358:373,1,33.7500012874604,0|0,0:0|0:0,0:0:0:0:
143,383,208530,5,10,0:0:0:0:
135,361,208612,1,0,0:0:0:0:
134,338,208694,1,0,0:0:0:0:
141,317,208776,1,0,0:0:0:0:
180,295,208857,1,2,0:0:0:0:
183,284,208939,1,0,0:0:0:0:
182,272,209021,1,0,0:0:0:0:
178,262,209103,1,0,0:0:0:0:
140,238,209184,2,0,L|136:204,7,33.7500012874604,2|0|0|0|0|0|0|0,0:0|0:0|0:0|0:0|0:0|0:0|0:0|0:0,0:0:0:0:
53,185,209838,5,10,0:0:0:0:
50,163,209920,1,0,0:0:0:0:
47,141,210002,1,0,0:0:0:0:
45,118,210084,1,0,0:0:0:0:
20,81,210165,1,2,0:0:0:0:
31,79,210247,1,0,0:0:0:0:
42,78,210329,1,0,0:0:0:0:
53,77,210411,1,0,0:0:0:0:
84,49,210492,2,0,L|118:53,7,33.7500012874604,2|0|0|0|0|0|0|0,0:0|0:0|0:0|0:0|0:0|0:0|0:0|0:0,0:0:0:0:
208,106,211146,5,10,0:0:0:0:
236,124,211228,1,0,0:0:0:0:
269,129,211310,1,0,0:0:0:0:
301,120,211392,1,0,0:0:0:0:
322,89,211473,1,2,0:0:0:0:
339,74,211555,1,0,0:0:0:0:
360,68,211637,1,0,0:0:0:0:
382,71,211718,1,0,0:0:0:0:
400,83,211800,2,0,P|404:100|400:121,3,33.7500012874604,2|0|0|0,0:0|0:0|0:0|0:0,0:0:0:0:
461,246,212127,2,0,P|456:228|460:207,3,33.7500012874604,2|0|0|0,0:0|0:0|0:0|0:0,0:0:0:0:
487,356,212454,5,10,0:0:0:0:
454,351,212536,1,0,0:0:0:0:
420,347,212618,1,0,0:0:0:0:
386,344,212699,1,0,0:0:0:0:
359,309,212781,1,2,0:0:0:0:
337,305,212863,1,0,0:0:0:0:
314,303,212945,1,0,0:0:0:0:
292,301,213026,1,0,0:0:0:0:
254,329,213108,2,0,L|258:363,3,33.7500012874604,2|0|0|0,0:0|0:0|0:0|0:0,0:0:0:0:
164,241,213435,2,0,L|160:275,3,33.7500012874604,2|0|0|0,0:0|0:0|0:0|0:0,0:0:0:0:
273,52,213762,6,0,P|287:118|259:182,1,135,14|0,0:0|0:0,0:0:0:0:
262,179,214089,2,0,L|211:173,1,45,2|0,0:0|0:0,0:0:0:0:
190,97,214253,2,0,L|145:91,1,45,2|0,0:0|0:0,0:0:0:0:
71,191,214416,1,2,0:0:0:0:
67,218,214498,1,0,0:0:0:0:
65,245,214580,1,0,0:0:0:0:
62,272,214661,1,0,0:0:0:0:
32,306,214743,2,0,L|37:355,3,45,2|0|0|0,0:0|0:0|0:0|0:0,0:0:0:0:
160,274,215070,6,0,L|166:223,1,45,10|0,0:0|0:0,0:0:0:0:
184,52,215233,2,0,L|189:96,1,45,0|0,0:0|0:0,0:0:0:0:
147,256,215397,2,0,L|161:206,1,45,2|0,0:0|0:0,0:0:0:0:
204,44,215560,2,0,L|201:88,1,45,0|0,0:0|0:0,0:0:0:0:
137,236,215724,2,0,L|160:190,1,45,2|0,0:0|0:0,0:0:0:0:
225,41,215887,2,0,L|214:84,1,45,0|0,0:0|0:0,0:0:0:0:
131,215,216051,2,0,L|162:173,1,45,2|2,0:0|0:0,0:0:0:0:
315,39,216214,1,10,0:0:0:0:
366,43,216296,1,10,0:0:0:0:
418,47,216378,6,0,P|403:120|452:179,1,135,14|0,0:0|0:0,0:0:0:0:
433,167,216705,2,0,L|484:173,1,45,2|0,0:0|0:0,0:0:0:0:
482,282,216868,2,0,L|437:287,1,45,2|0,0:0|0:0,0:0:0:0:
325,323,217032,1,2,0:0:0:0:
321,296,217114,1,0,0:0:0:0:
319,269,217195,1,0,0:0:0:0:
316,242,217277,1,0,0:0:0:0:
286,208,217359,2,0,L|291:159,3,45,2|0|0|0,0:0|0:0|0:0|0:0,0:0:0:0:
225,41,217686,6,0,L|214:84,1,45,10|0,0:0|0:0,0:0:0:0:
137,236,217849,2,0,L|157:195,1,45,0|0,0:0|0:0,0:0:0:0:
204,44,218013,2,0,L|201:88,1,45,2|0,0:0|0:0,0:0:0:0:
147,256,218176,2,0,L|159:212,1,45,0|0,0:0|0:0,0:0:0:0:
184,52,218340,2,0,L|189:96,1,45,10|0,0:0|0:0,0:0:0:0:
239,330,218503,1,8,0:0:0:0:
239,330,218585,1,8,0:0:0:0:
239,330,218667,2,0,P|212:333|177:325,1,45,10|0,0:0|0:0,0:0:0:0:
64,368,218830,2,0,P|61:341|69:306,1,45,0|0,0:0|0:0,0:0:0:0:
156,195,218994,5,10,0:0:0:0:
175,155,219075,1,0,0:0:0:0:
171,111,219157,1,0,0:0:0:0:
145,75,219239,1,0,0:0:0:0:
104,58,219321,1,8,0:0:0:0:
60,64,219402,1,0,0:0:0:0:
26,92,219484,1,8,0:0:0:0:
11,134,219566,1,8,0:0:0:0:
19,178,219648,2,0,P|37:197|63:207,3,45,10|0|0|0,0:0|0:0|0:0|0:0,0:0:0:0:
156,195,219975,2,0,P|178:192|200:195,1,45,8|0,0:0|0:0,0:0:0:0:
168,212,220138,2,0,P|190:209|212:212,1,45,8|0,0:0|0:0,0:0:0:0:
361,207,220302,5,10,0:0:0:0:
401,226,220383,1,0,0:0:0:0:
445,222,220465,1,0,0:0:0:0:
481,196,220547,1,0,0:0:0:0:
498,155,220629,1,8,0:0:0:0:
492,111,220710,1,0,0:0:0:0:
464,77,220792,1,8,0:0:0:0:
422,62,220874,1,8,0:0:0:0:
378,70,220956,2,0,P|359:88|349:114,3,45,10|0|0|0,0:0|0:0|0:0|0:0,0:0:0:0:
288,195,221283,1,8,0:0:0:0:
288,195,221364,1,0,0:0:0:0:
288,195,221446,2,0,P|285:217|288:239,1,45,8|0,0:0|0:0,0:0:0:0:
297,344,221609,5,10,0:0:0:0:
239,343,221691,1,0,0:0:0:0:
188,309,221773,1,8,0:0:0:0:
165,254,221855,1,8,0:0:0:0:
171,194,221936,5,8,0:0:0:0:
196,249,222018,1,0,0:0:0:0:
188,309,222100,1,8,0:0:0:0:
145,352,222182,1,0,0:0:0:0:
87,366,222263,6,0,L|28:354,1,45,10|0,0:0|0:0,0:0:0:0:
76,287,222427,2,0,L|17:275,1,45,8|0,0:0|0:0,0:0:0:0:
65,208,222590,2,0,L|6:196,1,45,10|0,0:0|0:0,0:0:0:0:
54,129,222754,2,0,L|-5:117,1,45,8|0,0:0|0:0,0:0:0:0:
45,44,222917,5,8,0:0:0:0:
103,45,222999,1,8,0:0:0:0:
154,79,223081,1,8,0:0:0:0:
177,134,223163,1,8,0:0:0:0:
171,194,223244,5,10,0:0:0:0:
146,139,223326,1,8,0:0:0:0:
154,79,223408,1,8,0:0:0:0:
197,36,223490,1,8,0:0:0:0:
255,22,223571,6,0,P|268:48|265:87,1,45,10|0,0:0|0:0,0:0:0:0:
253,282,223735,2,0,P|240:256|243:217,1,45,8|0,0:0|0:0,0:0:0:0:
270,93,223898,2,0,P|325:129|388:104,1,135,14|0,0:0|0:0,0:0:0:0:
413,83,224225,5,10,3:0:0:0:
332,343,224389,1,10,0:0:0:0:
146,139,224552,1,0,0:0:0:0:
120,187,224634,1,0,0:0:0:0:
138,239,224716,1,0,0:0:0:0:
188,262,224798,1,0,0:0:0:0:
239,241,224879,5,10,0:0:0:0:
440,63,225043,1,10,0:0:0:0:
332,344,225206,1,0,0:0:0:0:
281,364,225288,1,0,0:0:0:0:
231,341,225370,1,0,0:0:0:0:
213,289,225451,1,0,0:0:0:0:
239,241,225533,5,10,0:0:0:0:
469,41,225697,1,10,0:0:0:0:
239,241,225860,1,0,0:0:0:0:
188,262,225942,1,0,0:0:0:0:
138,239,226024,1,8,0:0:0:0:
120,187,226105,1,8,0:0:0:0:
146,139,226187,5,14,0:0:0:0:
436,50,226351,5,10,0:0:0:0:
447,47,226405,1,8,0:0:0:0:
458,44,226460,1,8,0:0:0:0:
469,41,226514,2,0,L|461:154,1,112.5,14|0,0:0|0:0,0:0:0:0:
442,351,226841,5,14,0:0:0:0:
117,326,227005,1,10,0:0:0:0:
353,108,227168,1,0,0:0:0:0:
347,167,227250,1,0,0:0:0:0:
342,226,227332,1,0,0:0:0:0:
337,285,227413,1,0,0:0:0:0:
332,344,227495,5,10,0:0:0:0:
4,274,227659,1,10,0:0:0:0:
237,72,227822,1,0,0:0:0:0:
230,130,227904,1,0,0:0:0:0:
225,189,227986,1,0,0:0:0:0:
220,248,228067,1,0,0:0:0:0:
215,308,228149,5,10,0:0:0:0:
3,164,228312,1,10,0:0:0:0:
353,108,228476,1,8,0:0:0:0:
347,167,228558,1,8,0:0:0:0:
342,226,228639,1,8,0:0:0:0:
337,285,228721,1,8,0:0:0:0:
332,344,228803,5,14,0:0:0:0:
93,107,228966,2,0,L|95:77,1,29.6999999093628,8|8,0:0|0:0,0:0:0:0:
111,111,229048,2,0,L|113:81,1,29.6999999093628,8|8,0:0|0:0,0:0:0:0:
134,119,229130,2,0,P|149:175|129:251,1,118.799999637451,6|2,0:0|0:0,0:0:0:0:
30,384,229457,5,14,0:0:0:0:
332,344,229620,1,10,0:0:0:0:
138,234,229784,1,8,0:0:0:0:
76,232,229866,1,0,0:0:0:0:
26,268,229947,1,0,0:0:0:0:
9,326,230029,1,0,0:0:0:0:
30,384,230111,5,10,0:0:0:0:
342,226,230274,1,10,0:0:0:0:
134,118,230438,1,8,0:0:0:0:
72,116,230520,1,0,0:0:0:0:
22,152,230601,1,8,0:0:0:0:
5,210,230683,1,0,0:0:0:0:
26,268,230765,5,10,0:0:0:0:
353,108,230928,1,10,0:0:0:0:
130,2,231092,1,8,0:0:0:0:
68,0,231174,1,8,0:0:0:0:
18,36,231255,1,8,0:0:0:0:
1,94,231337,1,8,0:0:0:0:
22,152,231419,5,14,0:0:0:0:
365,0,231582,1,10,0:0:0:0:
332,344,231746,1,14,0:0:0:0:
55,169,231909,2,0,L|52:209,1,31.2750009544373,8|8,0:0|0:0,0:0:0:0:
38,161,231991,2,0,L|35:197,1,31.2750009544373,8|8,0:0|0:0,0:0:0:0:
22,152,232073,5,14,0:0:0:0:
365,0,232236,1,10,0:0:0:0:
332,344,232400,1,8,0:0:0:0:
269,360,232481,1,8,0:0:0:0:
210,335,232563,1,8,0:0:0:0:
181,278,232645,1,8,0:0:0:0:
194,216,232727,5,10,0:0:0:0:
466,24,232890,2,0,L|498:21,1,32.625000995636,10|8,0:0|0:0,0:0:0:0:
478,42,232972,2,0,L|523:39,1,32.625000995636,8|8,0:0|0:0,0:0:0:0:
499,66,233054,1,8,0:0:0:0:
511,128,233135,1,8,0:0:0:0:
482,185,233217,1,8,0:0:0:0:
423,210,233299,1,8,0:0:0:0:
361,194,233381,5,10,0:0:0:0:
78,45,233544,2,0,L|80:84,1,32.625000995636,10|8,0:0|0:0,0:0:0:0:
95,47,233626,2,0,L|89:85,1,32.625000995636,8|8,0:0|0:0,0:0:0:0:
111,48,233708,2,0,L|103:119,1,65.250001991272,8|8,0:0|0:0,0:0:0:0:
15,299,233871,2,0,L|60:302,1,32.625000995636,8|0,0:0|0:0,0:0:0:0:
16,317,233953,2,0,L|59:311,1,32.625000995636,8|0,0:0|0:0,0:0:0:0:
18,334,234035,6,0,P|91:350|152:312,1,150,14|0,0:0|0:0,0:0:0:0:
264,8,234253,6,0,P|213:63|216:135,1,150,12|0,0:0|0:0,0:0:0:0:
421,381,234471,6,0,P|398:309|335:275,1,150,12|0,0:0|0:0,0:0:0:0:
112,213,234689,5,8,0:0:0:0:
505,384,235015,2,0,L|495:278,1,90,8|0,0:0|0:0,0:0:0:0:
443,144,235342,5,2,0:0:0:0:
400,129,235424,1,0,0:0:0:0:
375,107,235506,5,2,0:0:0:0:
340,136,235588,1,0,0:0:0:0:
304,131,235669,5,2,0:0:0:0:
311,175,235751,1,0,0:0:0:0:
270,185,235833,6,0,L|237:182,2,30,2|0|0,0:0|0:0|0:0,0:0:0:0:
205,171,235996,5,8,0:0:0:0:
134,195,236078,1,0,0:0:0:0:
101,258,236160,1,0,0:0:0:0:
110,315,236242,1,0,0:0:0:0:
153,339,236323,1,0,0:0:0:0:
181,334,236405,1,0,0:0:0:0:
197,317,236487,1,0,0:0:0:0:
196,297,236569,1,0,0:0:0:0:
186,284,236650,6,0,L|182:254,1,22.5,2|0,0:0|0:0,0:0:0:0:
201,279,236732,2,0,L|205:249,1,22.5,0|0,0:0|0:0,0:0:0:0:
219,279,236814,2,0,L|231:251,1,22.5,0|0,0:0|0:0,0:0:0:0:
234,284,236896,2,0,L|252:260,1,22.5,0|0,0:0|0:0,0:0:0:0:
249,294,236977,2,0,L|273:276,1,22.5,0|0,0:0|0:0,0:0:0:0:
259,306,237059,2,0,L|287:295,1,22.5,0|0,0:0|0:0,0:0:0:0:
266,321,237141,2,0,L|295:317,1,22.5,0|0,0:0|0:0,0:0:0:0:
268,338,237223,2,0,L|297:342,1,22.5,0|0,0:0|0:0,0:0:0:0:
261,356,237304,5,10,0:0:0:0:
31,116,237958,5,2,0:0:0:0:
75,119,238040,1,0,0:0:0:0:
120,123,238122,1,0,0:0:0:0:
165,127,238203,1,0,0:0:0:0:
210,131,238285,5,6,0:0:0:0:
139,153,238367,1,0,0:0:0:0:
91,96,238449,2,0,P|108:55|119:44,1,45,0|0,0:0|0:0,0:0:0:0:
240,21,238612,5,10,3:0:0:0:
191,238,238776,1,0,0:0:0:0:
188,289,238857,1,0,0:0:0:0:
214,334,238939,1,8,0:0:0:0:
261,356,239021,1,0,0:0:0:0:
312,349,239103,1,0,0:0:0:0:
351,315,239184,1,0,0:0:0:0:
365,265,239266,6,0,P|369:237|361:203,1,58.4999973220826,2|0,0:0|0:0,0:0:0:0:
316,110,239430,2,0,P|346:102|377:106,1,58.4999973220826,2|0,0:0|0:0,0:0:0:0:
478,71,239593,2,0,P|485:101|481:132,1,58.4999973220826,10|0,0:0|0:0,0:0:0:0:
512,240,239757,2,0,P|481:247|450:243,1,58.4999973220826,2|0,0:0|0:0,0:0:0:0:
277,235,239920,5,10,0:0:0:0:
240,21,240084,1,0,0:0:0:0:
187,17,240165,1,0,0:0:0:0:
138,34,240247,1,8,0:0:0:0:
99,68,240329,1,0,0:0:0:0:
77,116,240411,1,0,0:0:0:0:
74,168,240492,1,0,0:0:0:0:
92,217,240574,6,0,L|163:210,1,58.4999973220826,10|0,0:0|0:0,0:0:0:0:
241,118,240738,2,0,L|169:124,1,58.4999973220826,2|0,0:0|0:0,0:0:0:0:
2,197,240901,1,10,0:0:0:0:
5,243,240983,1,2,0:0:0:0:
9,290,241065,1,2,0:0:0:0:
14,338,241146,1,2,0:0:0:0:
17,384,241228,5,10,0:0:0:0:
150,211,241392,1,0,0:0:0:0:
298,338,241555,5,8,3:2:0:0:
374,372,241664,1,0,3:0:0:0:
438,326,241773,1,0,3:0:0:0:
439,245,241882,6,0,P|408:217|356:212,1,77.9999964294435,8|0,3:2|0:0,0:0:0:0:
298,338,242100,2,0,P|337:325|368:282,1,77.9999964294435,0|0,3:0|0:0,0:0:0:0:
287,173,242318,2,0,P|278:213|299:261,1,77.9999964294435,0|0,3:0|0:0,0:0:0:0:
438,326,242536,5,12,3:2:0:0:
478,144,242699,1,0,0:0:0:0:
487,93,242781,1,0,0:0:0:0:
467,45,242863,1,8,0:0:0:0:
425,16,242945,1,0,0:0:0:0:
373,14,243026,1,0,0:0:0:0:
329,42,243108,1,0,0:0:0:0:
307,89,243190,6,0,L|235:83,1,58.4999973220826,12|0,0:0|0:0,0:0:0:0:
139,86,243353,1,2,0:0:0:0:
128,93,243408,1,10,0:0:0:0:
120,99,243462,1,10,0:0:0:0:
111,107,243517,2,0,L|117:179,1,58.4999973220826,14|0,0:0|0:0,0:0:0:0:
13,250,243680,2,0,L|19:178,1,58.4999973220826,12|0,0:0|0:0,0:0:0:0:
33,58,243844,6,0,P|95:56|154:121,1,116.999994644165,12|0,0:0|0:0,0:0:0:0:
223,260,244171,1,8,0:0:0:0:
307,89,244334,1,0,0:0:0:0:
456,240,244498,2,0,L|312:252,1,116.999994644165,8|0,0:0|0:0,0:0:0:0:
156,369,244825,1,10,0:0:0:0:
124,328,244906,1,0,0:0:0:0:
131,278,244988,1,2,0:0:0:0:
173,249,245070,1,2,0:0:0:0:
223,260,245152,6,0,L|367:248,1,116.999994644165,10|0,0:0|0:0,0:0:0:0:
397,34,245479,1,10,0:0:0:0:
497,235,245642,1,0,0:0:0:0:
170,159,245806,2,0,P|226:93|313:91,1,170.999995433807,10|0,0:0|0:0,0:0:0:0:
474,239,246133,1,10,0:0:0:0:
252,374,246296,1,0,0:0:0:0:
306,88,246460,5,14,0:0:0:0:
451,339,246623,1,8,0:0:0:0:
170,159,246787,1,8,0:0:0:0:
352,376,246950,1,8,0:0:0:0:
215,85,247114,1,14,0:0:0:0:
156,369,247277,1,8,0:0:0:0:
402,161,247441,1,14,0:0:0:0:
124,80,247604,1,8,0:0:0:0:
124,80,247686,1,0,0:0:0:0:
124,80,247768,6,0,P|94:109|87:143,1,62.9999980773926,14|8,0:0|0:0,0:0:0:0:
60,258,247931,2,0,L|94:254,1,31.4999990386963,8|0,0:0|0:0,0:0:0:0:
55,274,248013,2,0,L|89:270,1,31.4999990386963,8|0,0:0|0:0,0:0:0:0:
50,291,248095,2,0,L|122:285,1,62.9999980773926,8|8,0:0|0:0,0:0:0:0:
308,221,248258,1,8,0:0:0:0:
308,221,248340,1,8,0:0:0:0:
308,221,248421,2,0,L|304:255,4,31.4999990386963,10|8|8|8|8,0:0|0:0|0:0|0:0|0:0,0:0:0:0:
400,264,248667,2,0,L|396:298,4,31.4999990386963,10|8|8|8|8,0:0|0:0|0:0|0:0|0:0,0:0:0:0:
496,299,248912,2,0,L|492:329,2,31.4999990386963,10|8|8,0:0|0:0|0:0,0:0:0:0:
479,214,249075,5,12,0:0:0:0:
318,337,249239,1,0,0:0:0:0:
255,337,249321,1,0,0:0:0:0:
204,303,249402,1,8,0:0:0:0:
180,246,249484,1,0,0:0:0:0:
191,185,249566,1,0,0:0:0:0:
235,141,249648,1,0,0:0:0:0:
296,128,249729,6,0,P|333:137|362:174,1,62.9999980773926,2|0,0:0|0:0,0:0:0:0:
373,362,249893,2,0,P|336:353|307:316,1,62.9999980773926,2|0,0:0|0:0,0:0:0:0:
331,126,250056,2,0,P|365:141|388:182,1,62.9999980773926,10|0,0:0|0:0,0:0:0:0:
341,373,250220,2,0,P|306:357|283:316,1,62.9999980773926,2|0,0:0|0:0,0:0:0:0:
296,128,250383,5,10,0:0:0:0:
100,35,250547,1,0,0:0:0:0:
39,38,250629,1,0,0:0:0:0:
3,87,250710,1,8,0:0:0:0:
20,146,250792,1,0,0:0:0:0:
76,170,250874,1,0,0:0:0:0:
129,141,250956,1,0,0:0:0:0:
141,81,251037,6,0,P|117:49|96:33,1,62.9999980773926,10|0,0:0|0:0,0:0:0:0:
20,231,251201,2,0,P|44:263|65:279,1,62.9999980773926,2|0,0:0|0:0,0:0:0:0:
286,254,251364,1,10,0:0:0:0:
291,191,251446,1,2,0:0:0:0:
296,128,251528,1,2,0:0:0:0:
302,65,251609,1,2,0:0:0:0:
307,2,251691,5,10,0:0:0:0:
512,150,251855,1,0,0:0:0:0:
286,254,252018,5,8,3:2:0:0:
205,200,252127,1,0,3:0:0:0:
215,107,252236,1,0,3:0:0:0:
302,65,252345,6,0,P|354:74|406:139,1,120,8|0,3:2|0:0,0:0:0:0:
191,279,252563,2,0,P|173:230|182:179,1,105.000001001358,0|0,3:2|0:0,0:0:0:0:
433,263,252781,2,0,P|405:297|364:317,1,90.0000034332277,0|0,3:2|0:0,0:0:0:0:
481,55,252999,6,0,P|499:114|485:175,1,125.999996154785,12|0,3:2|0:0,0:0:0:0:
313,379,253326,1,8,0:0:0:0:
264,375,253408,1,0,0:0:0:0:
214,371,253490,1,0,0:0:0:0:
165,366,253571,1,0,0:0:0:0:
115,362,253653,6,0,L|110:300,1,62.9999980773926,12|0,0:0|0:0,0:0:0:0:
50,158,253817,1,10,0:0:0:0:
47,140,253871,1,10,0:0:0:0:
45,125,253926,1,10,0:0:0:0:
42,109,253980,2,0,L|110:114,1,62.9999980773926,14|0,0:0|0:0,0:0:0:0:
246,175,254144,2,0,L|178:180,1,62.9999980773926,12|0,0:0|0:0,0:0:0:0:
24,250,254307,6,0,L|36:400,1,135.000005149842,12|0,0:0|0:0,0:0:0:0:
221,258,254634,1,8,0:0:0:0:
50,158,254798,1,0,0:0:0:0:
213,37,254961,2,0,P|272:47|321:119,1,135.000005149842,8|0,0:0|0:0,0:0:0:0:
307,295,255288,1,10,0:0:0:0:
343,328,255370,1,0,0:0:0:0:
393,331,255451,1,2,0:0:0:0:
433,302,255533,1,2,0:0:0:0:
446,254,255615,6,0,L|456:119,1,135.000005149842,10|0,0:0|0:0,0:0:0:0:
213,37,255942,1,10,0:0:0:0:
307,295,256105,1,0,0:0:0:0:
93,92,256269,1,10,0:0:0:0:
408,182,256432,1,0,0:0:0:0:
79,224,256596,1,10,0:0:0:0:
411,23,256759,1,0,0:0:0:0:
31,293,256923,6,0,B|35:328|19:359|19:359|66:342|103:361|103:361|156:384|212:355|205:282,1,303.750011587143,14|0,0:0|0:0,0:0:0:0:
239,125,257250,5,14,3:2:0:0:
330,109,257359,1,0,3:2:0:0:
403,164,257468,1,0,3:2:0:0:
408,287,257577,5,14,3:2:0:0:
307,291,257686,1,0,3:2:0:0:
205,294,257795,1,0,3:2:0:0:
105,218,257904,5,14,3:2:0:0:
31,293,258013,1,0,3:2:0:0:
105,368,258122,1,0,3:2:0:0:
205,294,258231,5,14,3:2:0:0:
205,294,258312,1,8,0:0:0:0:
205,294,258394,2,0,L|209:242,3,39.3750003755093,8|8|8|8,0:0|0:0|0:0|0:0,0:0:0:0:
105,218,258558,1,14,0:0:0:0:
59,211,258639,1,8,0:0:0:0:
13,204,258721,2,0,P|11:158|22:125,1,78.7500007510185,8|8,0:0|0:0,0:0:0:0:
146,23,258885,5,14,3:2:0:0:
247,5,258994,1,0,3:2:0:0:
326,75,259103,1,0,3:2:0:0:
332,181,259212,5,14,3:2:0:0:
435,231,259321,1,0,3:2:0:0:
512,155,259430,1,0,3:2:0:0:
326,75,259539,5,14,3:2:0:0:
429,152,259866,1,8,0:0:0:0:
432,192,259947,1,8,0:0:0:0:
435,231,260029,1,8,0:0:0:0:
438,270,260111,1,8,0:0:0:0:
441,310,260193,2,0,L|499:305,5,52.500000500679,14|0|0|0|0|0,0:0|0:0|0:0|0:0|0:0|0:0,0:0:0:0:
348,370,260520,5,8,0:0:0:0:
345,330,260601,1,8,0:0:0:0:
342,291,260683,1,8,0:0:0:0:
339,252,260765,1,8,0:0:0:0:
336,212,260847,6,0,L|330:118,1,78.7500007510185,14|0,0:0|0:0,0:0:0:0:
192,16,261010,1,8,0:0:0:0:
186,94,261092,1,8,0:0:0:0:
181,173,261174,2,0,L|176:251,1,78.7500007510185,14|0,0:0|0:0,0:0:0:0:
16,357,261337,2,0,L|56:355,1,39.3750003755093,8|8,0:0|0:0,0:0:0:0:
20,335,261419,2,0,L|60:333,1,39.3750003755093,8|8,0:0|0:0,0:0:0:0:
21,316,261500,2,0,L|100:311,1,78.7500007510185,6|0,0:0|0:0,0:0:0:0:
257,252,261664,2,0,L|259:292,1,39.3750003755093,8|8,0:0|0:0,0:0:0:0:
277,273,261746,2,0,L|279:313,1,39.3750003755093,8|8,0:0|0:0,0:0:0:0:
304,291,261827,5,14,0:0:0:0:
364,334,261909,1,8,0:0:0:0:
425,293,261991,1,8,0:0:0:0:
408,220,262073,1,8,0:0:0:0:
336,212,262154,6,0,B|317:160|267:135|267:135|226:109|217:58|234:18|278:-7|342:38|342:38|387:-16|433:-13|468:22|476:68|461:119|412:128|416:184|416:184|424:244|471:257|511:237|517:203|508:174|482:165|456:184,1,809.279997530273,14|0,3:0|0:0,0:0:0:0:
