osu file format v14

[General]
AudioFilename: audio.mp3
AudioLeadIn: 0
PreviewTime: 90819
Countdown: 0
SampleSet: Soft
StackLeniency: 0.4
Mode: 0
LetterboxInBreaks: 0
WidescreenStoryboard: 1

[Editor]
Bookmarks: 21499,43735,54198,64661,85588,101283,111746,116977,122209,135287,145750,186622
DistanceSpacing: 1
BeatDivisor: 4
GridSize: 16
TimelineZoom: 2.7

[Metadata]
Title:ANiMA
TitleUnicode:ANiMA
Artist:xi
ArtistUnicode:xi
Creator:FrenZ396
Version:Icekalt & LMT's Extreme
Source:Deemo
Tags:yusuke ishiwata piano rayark inc. soul alice masked lady deemo's collection vol. 2 world fragments video game instrumental rhythm dementation kkipalt shizuku- akareh icekalt lmt
BeatmapID:1998195
BeatmapSetID:953032

[Difficulty]
HPDrainRate:6
CircleSize:3.8
OverallDifficulty:8.8
ApproachRate:9.6
SliderMultiplier:1.8
SliderTickRate:1

[Events]
//Background and Video events
0,0,"deemo library.jpg",0,0
//Break Periods
2,125025,134307
//Storyboard Layer 0 (Background)
//Storyboard Layer 1 (Fail)
//Storyboard Layer 2 (Pass)
//Storyboard Layer 3 (Foreground)
//Storyboard Layer 4 (Overlay)
//Storyboard Sound Samples

[TimingPoints]
20846,326.975476839237,4,2,1,50,1,0
21174,-250,4,2,1,50,0,0
21501,326.975476839237,4,2,1,50,1,0
21501,-133.333333333333,4,2,1,50,0,0
26732,-117.647058823529,4,2,1,50,0,0
31964,-105.263157894737,4,2,1,60,0,0
37195,-95.2380952380954,4,2,1,60,0,0
38503,-86.9565217391304,4,2,1,60,0,0
41119,-80,4,2,1,60,0,0
43735,-60.6060606060606,4,2,1,65,0,0
44225,-74.0740740740741,4,2,1,65,0,0
47822,-62.5,4,2,1,65,0,0
48966,-60.6060606060606,4,2,1,65,0,0
49457,-74.0740740740741,4,2,1,65,0,0
51582,-68.9655172413793,4,2,1,65,0,0
52563,-60.6060606060606,4,2,1,65,0,0
54198,-71.4285714285714,4,2,1,65,0,0
58122,-55.5555555555556,4,2,1,65,0,0
59430,-55.5555555555556,4,2,1,70,0,0
59757,-55.5555555555556,4,2,1,75,0,0
60084,-55.5555555555556,4,2,1,80,0,0
60411,-55.5555555555556,4,2,1,70,0,0
60738,-50,4,2,1,75,0,0
61065,-50,4,2,1,80,0,0
61392,-50,4,2,1,85,0,0
61718,-50,4,2,1,75,0,0
62045,-50,4,2,1,80,0,0
63353,-45.4545454545455,4,2,1,65,0,0
64661,-66.6666666666667,4,2,1,65,0,0
72509,-58.8235294117647,4,2,1,65,0,0
73817,-52.6315789473684,4,2,1,65,0,0
75124,-55.5555555555556,4,2,1,75,0,0
82972,-47.6190476190476,4,2,1,75,0,0
85261,-100,4,2,1,75,0,0
85588,-58.8235294117647,4,2,1,58,0,0
85915,-58.8235294117647,4,2,1,62,0,0
86242,-58.8235294117647,4,2,1,66,0,0
86569,-58.8235294117647,4,2,1,70,0,0
86896,-52.6315789473684,4,2,1,74,0,0
87223,-52.6315789473684,4,2,1,78,0,0
87550,-52.6315789473684,4,2,1,82,0,0
87877,-52.6315789473684,4,2,1,86,0,0
88203,-47.6190476190476,4,2,1,90,0,0
89511,-43.4782608695652,4,2,1,90,0,0
90492,-100,4,2,1,90,0,0
90819,-50,4,2,1,60,0,0
91146,-76.9230769230769,4,2,1,60,0,0
93435,-50,4,2,1,60,0,0
93535,-50,4,2,1,60,0,0
93762,-76.9230769230769,4,2,1,60,0,0
100629,-62.5,4,2,1,60,0,0
101283,-55.5555555555556,4,2,1,70,0,0
107168,-47.6190476190476,4,2,1,70,0,0
111746,-43.4782608695652,4,2,1,90,0,0
116650,-71.4285714285714,4,2,1,90,0,0
117631,-71.4285714285714,4,2,1,86,0,0
117958,-71.4285714285714,4,2,1,82,0,0
118285,-71.4285714285714,4,2,1,78,0,0
118612,-71.4285714285714,4,2,1,74,0,0
118939,-71.4285714285714,4,2,1,70,0,0
119266,-71.4285714285714,4,2,1,66,0,0
119593,-71.4285714285714,4,2,1,62,0,0
119920,-71.4285714285714,4,2,1,58,0,0
120247,-71.4285714285714,4,2,1,54,0,0
120574,-71.4285714285714,4,2,1,50,0,0
120901,-71.4285714285714,4,2,1,46,0,0
121228,-71.4285714285714,4,2,1,42,0,0
121555,-71.4285714285714,4,2,1,38,0,0
121882,-71.4285714285714,4,2,1,34,0,0
122209,-71.4285714285714,4,2,1,30,0,0
124825,-71.4285714285714,4,2,1,55,0,0
135288,-200,4,2,1,50,0,0
145751,-200,4,2,1,60,0,0
161446,-133.333333333333,4,2,1,60,0,0
164062,-111.111111111111,4,2,1,60,0,0
165370,-100,4,2,1,60,0,0
166678,-66.6666666666667,4,2,1,80,0,0
171909,-55.5555555555556,4,2,1,85,0,0
172236,-55.5555555555556,4,2,1,90,0,0
172563,-55.5555555555556,4,2,1,95,0,0
172890,-55.5555555555556,4,2,1,80,0,0
173217,-55.5555555555556,4,2,1,90,0,0
173544,-55.5555555555556,4,2,1,95,0,0
173871,-55.5555555555556,4,2,1,100,0,0
174198,-55.5555555555556,4,2,1,85,0,0
176160,-50,4,2,1,85,0,0
177141,-66.6666666666667,4,2,1,75,0,0
182045,-55.5555555555556,4,2,1,75,0,0
184988,-50,4,2,1,75,0,0
187604,-50,4,2,1,85,0,0
192836,-45.4545454545455,4,2,1,85,0,0
197740,-100,4,2,1,85,0,0
198067,-55.5555555555556,4,2,1,58,0,0
198394,-55.5555555555556,4,2,1,62,0,0
198721,-55.5555555555556,4,2,1,66,0,0
199048,-55.5555555555556,4,2,1,70,0,0
199375,-55.5555555555556,4,2,1,74,0,0
199702,-55.5555555555556,4,2,1,78,0,0
200029,-55.5555555555556,4,2,1,82,0,0
200356,-55.5555555555556,4,2,1,86,0,0
200683,-50,4,2,1,90,0,0
202972,-100,4,2,1,90,0,0
203299,-50,4,2,1,60,0,0
203626,-100,4,2,1,60,0,0
205915,-50,4,2,1,60,0,0
206242,-100,4,2,1,60,0,0
213762,-50,4,2,1,70,0,0
214089,-66.6666666666667,4,2,1,70,0,0
216378,-50,4,2,1,70,0,0
216705,-66.6666666666667,4,2,1,70,0,0
219648,-50,4,2,1,70,0,0
219975,-66.6666666666667,4,2,1,70,0,0
220956,-50,4,2,1,70,0,0
221283,-66.6666666666667,4,2,1,70,0,0
223898,-100,4,2,1,70,0,0
224225,-43.4782608695652,4,2,1,80,0,0
226841,-43.4782608695652,4,2,1,85,0,0
229130,-100,4,2,1,85,0,0
229457,-41.6666666666667,4,2,1,90,0,0
232073,-41.6666666666667,4,2,1,95,0,0
234035,-37.037037037037,4,2,1,100,0,0
234689,-37.037037037037,4,2,1,60,0,0
236650,-100,4,2,1,60,0,0
238612,-66.6666666666667,4,2,1,75,0,0
246460,-50,4,2,1,75,0,0
249075,-66.6666666666667,4,2,1,80,0,0
256923,-40,4,2,1,95,0,0
262481,-40,4,2,1,85,0,0
262808,-40,4,2,1,75,0,0
263135,-40,4,2,1,65,0,0
263462,-40,4,2,1,55,0,0
263789,-40,4,2,1,45,0,0
264116,-40,4,2,1,35,0,0
264443,-40,4,2,1,25,0,0
264770,-40,4,2,1,15,0,0

[Colours]
Combo1 : 236,118,0
Combo2 : 12,167,35
Combo3 : 10,156,235
Combo4 : 240,40,61
Combo5 : 255,220,21

[HitObjects]
248,176,21172,21,0,0:0:0:0:
270,174,21254,1,0,0:0:0:0:
291,165,21336,1,0,0:0:0:0:
309,152,21418,1,0,0:0:0:0:
332,77,21501,22,0,B|331:159|413:183|413:183|489:259|506:336|432:404|321:344|373:252,1,472.500018024445,2|2,3:0|0:0,0:0:0:0:
288,215,22808,2,0,B|155:205|62:337|62:337|40:230|129:146,1,472.500018024445,2|0,0:0|0:0,0:0:0:0:
194,38,24116,102,0,B|238:78|231:133|231:133|257:90|311:95|311:95|423:44|453:219|295:199|327:91|327:91|334:47|311:20,1,540.000020599366,2|0,0:0|0:0,0:0:0:0:
312,21,25751,5,2,0:0:0:0:
326,30,25833,1,0,0:0:0:0:
342,35,25915,1,0,0:0:0:0:
358,37,25996,1,0,0:0:0:0:
384,57,26078,101,2,0:0:0:0:
399,60,26160,1,0,0:0:0:0:
417,60,26242,1,0,0:0:0:0:
432,56,26323,1,0,0:0:0:0:
458,76,26405,5,2,0:0:0:0:
457,86,26487,1,0,0:0:0:0:
456,96,26569,1,0,0:0:0:0:
455,106,26650,1,0,0:0:0:0:
494,187,26732,102,0,B|485:143|431:137|400:163|400:163|435:270|338:307|338:307|264:226|329:147,1,459.00000875473,2|2,0:0|0:0,0:0:0:0:
143,74,28040,2,0,P|239:37|361:79,1,229.500004377365,2|2,0:0|0:0,0:0:0:0:
110,274,28694,2,0,P|150:169|248:111,1,229.500004377365,2|2,0:0|0:0,0:0:0:0:
232,369,29348,6,0,B|164:314|200:234|200:234|287:252|337:197|333:122|333:122|321:180|258:196,1,459.00000875473,2|0,0:0|0:0,0:0:0:0:
77,118,30656,1,2,0:0:0:0:
77,118,30983,101,2,0:0:0:0:
70,131,31065,1,0,0:0:0:0:
66,145,31146,1,0,0:0:0:0:
63,160,31228,1,0,0:0:0:0:
76,187,31310,5,2,0:0:0:0:
74,202,31392,1,0,0:0:0:0:
75,216,31473,1,0,0:0:0:0:
77,231,31555,1,0,0:0:0:0:
94,256,31637,101,2,0:0:0:0:
105,258,31718,1,0,0:0:0:0:
116,260,31800,1,0,0:0:0:0:
127,262,31882,1,0,0:0:0:0:
188,321,31964,6,0,B|134:176|219:59|219:59|283:118|272:204,1,427.499988584519,14|2,0:0|0:0,0:0:0:0:
410,314,32945,1,2,0:0:0:0:
280,337,33108,1,2,0:0:0:0:
423,307,33272,6,0,B|478:254|476:160|432:61|432:61|458:169|424:229,1,427.499988584519,2|2,0:0|0:0,0:0:0:0:
208,111,34253,1,2,0:0:0:0:
355,140,34416,1,2,0:0:0:0:
191,121,34580,102,0,B|152:198|201:280|201:280|115:245|113:319|29:281,1,341.999990867615,14|2,0:0|0:0,0:0:0:0:
196,365,35887,2,0,B|267:330|325:371|325:371|361:350|403:365|403:365|426:354|435:341,1,256.499993150711,14|0,0:0|0:0,0:0:0:0:
454,175,36541,2,0,B|402:241|434:342|434:342|424:305|443:264,1,256.499993150711,14|0,0:0|0:0,0:0:0:0:
409,78,37195,6,0,P|373:50|315:41,1,94.499997116089,14|0,0:0|0:0,0:0:0:0:
347,187,37522,2,0,P|300:188|259:210,1,94.499997116089,2|0,0:0|0:0,0:0:0:0:
109,78,37849,2,0,P|145:50|203:41,1,94.499997116089,2|0,0:0|0:0,0:0:0:0:
171,187,38095,1,0,0:0:0:0:
171,187,38176,2,0,P|216:188|266:219,1,94.499997116089,2|8,0:0|0:0,0:0:0:0:
173,359,38421,101,0,0:0:0:0:
100,332,38503,2,0,P|93:279|113:220,1,103.500001974106,14|0,0:0|0:0,0:0:0:0:
290,331,38830,2,0,P|297:278|277:219,1,103.500001974106,2|0,0:0|0:0,0:0:0:0:
194,60,39157,2,0,L|194:164,1,103.500001974106,2|0,0:0|0:0,0:0:0:0:
377,275,39484,85,2,0:0:0:0:
388,251,39566,1,0,0:0:0:0:
393,225,39648,1,8,0:0:0:0:
391,199,39729,1,0,0:0:0:0:
364,154,39811,22,0,P|418:162|471:140,1,103.500001974106,12|0,0:0|0:0,0:0:0:0:
310,226,40056,1,0,0:0:0:0:
297,235,40138,85,0,0:0:0:0:
264,219,40220,1,0,0:0:0:0:
231,203,40302,1,8,0:0:0:0:
198,187,40383,1,0,0:0:0:0:
152,187,40465,21,12,0:0:0:0:
119,171,40547,1,0,0:0:0:0:
86,155,40629,1,0,0:0:0:0:
53,139,40710,1,0,0:0:0:0:
25,101,40792,85,0,0:0:0:0:
52,63,40874,1,0,0:0:0:0:
97,78,40956,1,8,0:0:0:0:
97,124,41037,1,0,0:0:0:0:
53,139,41119,22,0,P|34:180|29:250,1,112.5,14|0,0:0|0:0,0:0:0:0:
247,125,41446,2,0,P|244:69|222:17,1,112.5,8|0,0:0|0:0,0:0:0:0:
176,226,41773,86,0,L|257:216,2,75,10|8|8,0:0|0:0|0:0,0:0:0:0:
120,288,42100,1,10,0:0:0:0:
130,320,42209,1,8,0:0:0:0:
143,333,42318,1,8,0:0:0:0:
155,337,42427,85,10,0:0:0:0:
169,334,42754,5,0,0:0:0:0:
183,331,43081,101,8,0:0:0:0:
197,328,43408,5,8,0:0:0:0:
293,164,43735,22,0,B|269:237|190:248|190:248|215:291|211:326,1,222.75000212431,14|0,3:0|0:0,0:0:0:0:
211,325,44062,1,10,0:0:0:0:
73,140,44225,2,0,P|133:151|193:143,1,121.500000463486,0|8,0:0|0:0,0:0:0:0:
444,100,44552,1,0,0:0:0:0:
395,202,44716,2,0,P|335:212|275:204,1,121.500000463486,10|10,0:0|0:0,0:0:0:0:
25,160,45043,1,8,0:0:0:0:
193,264,45206,2,0,P|133:272|73:261,1,121.500000463486,0|10,0:0|0:0,0:0:0:0:
253,148,45533,1,0,0:0:0:0:
358,348,45697,5,8,0:0:0:0:
371,314,45778,1,0,0:0:0:0:
372,277,45860,1,0,0:0:0:0:
360,242,45942,1,0,0:0:0:0:
345,192,46024,5,10,0:0:0:0:
367,220,46105,1,0,0:0:0:0:
399,239,46187,1,2,0:0:0:0:
435,246,46269,1,0,0:0:0:0:
471,239,46351,86,0,B|497:149|386:135|475:-3,1,243.000000926971,8|10,0:0|0:0,0:0:0:0:
222,65,46841,2,0,P|277:83|355:78,1,121.500000463486,0|8,0:0|0:0,0:0:0:0:
86,171,47168,1,0,0:0:0:0:
193,225,47332,2,0,P|249:213|314:169,1,121.500000463486,10|10,0:0|0:0,0:0:0:0:
154,372,47659,1,8,0:0:0:0:
435,299,47822,22,0,P|397:283|368:286,1,72,0|0,0:0|0:0,0:0:0:0:
260,377,47986,2,0,P|291:294|343:366,1,216,10|0,0:0|0:0,0:0:0:0:
393,179,48312,2,0,B|366:286|366:286|305:198,1,216,8|0,0:0|0:0,0:0:0:0:
311,72,48639,85,10,0:0:0:0:
260,78,48721,1,0,0:0:0:0:
209,84,48803,1,10,0:0:0:0:
158,90,48885,1,0,0:0:0:0:
125,135,48966,22,0,B|86:159|49:145|49:145|76:222|33:302,1,222.75000212431,4|0,0:0|0:0,0:0:0:0:
41,284,49293,1,10,0:0:0:0:
384,316,49457,2,0,P|327:337|248:337,1,121.500000463486,0|8,0:0|0:0,0:0:0:0:
49,146,49784,1,0,0:0:0:0:
107,243,49947,2,0,P|164:264|243:264,1,121.500000463486,10|10,0:0|0:0,0:0:0:0:
442,71,50274,1,10,0:0:0:0:
266,191,50438,2,0,P|327:188|384:168,1,121.500000463486,0|10,0:0|0:0,0:0:0:0:
187,33,50765,1,0,0:0:0:0:
165,266,50928,101,8,0:0:0:0:
158,230,51010,1,0,0:0:0:0:
139,198,51092,1,0,0:0:0:0:
114,171,51174,1,0,0:0:0:0:
68,170,51255,101,10,0:0:0:0:
43,197,51337,1,0,0:0:0:0:
24,229,51419,1,10,0:0:0:0:
17,265,51500,1,0,0:0:0:0:
21,298,51582,22,0,P|123:299|225:340,1,195.750005973816,12|0,0:0|0:0,0:0:0:0:
329,291,51909,1,8,0:0:0:0:
111,212,52073,2,0,P|213:211|315:170,1,195.750005973816,14|0,0:0|0:0,0:0:0:0:
419,205,52400,1,8,0:0:0:0:
313,19,52563,86,0,P|299:61|305:107,1,74.2500007081032,14|0,0:0|0:0,0:0:0:0:
212,99,52727,2,0,P|193:67|187:30,1,74.2500007081032,10|0,0:0|0:0,0:0:0:0:
100,121,52890,2,0,P|123:149|155:167,1,74.2500007081032,14|0,0:0|0:0,0:0:0:0:
266,200,53054,2,0,L|279:244,3,37.1250003540516,8|8|8|8,0:0|0:0|0:0|0:0,0:0:0:0:
221,297,53217,2,0,P|290:276|366:294,1,148.500001416206,8|0,0:0|0:0,0:0:0:0:
491,126,53544,5,8,0:0:0:0:
447,154,53626,1,0,0:0:0:0:
395,158,53708,1,0,0:0:0:0:
345,143,53789,1,0,0:0:0:0:
307,88,53871,85,4,0:0:0:0:
240,87,53953,1,0,0:0:0:0:
202,142,54035,1,0,0:0:0:0:
220,206,54116,1,0,0:0:0:0:
283,227,54198,22,0,P|237:266|216:328,1,125.999996154785,14|0,0:0|0:0,0:0:0:0:
366,238,54443,1,2,0:0:0:0:
366,238,54525,2,0,P|399:288|402:353,1,125.999996154785,2|0,0:0|0:0,0:0:0:0:
127,160,54852,2,0,P|80:191|42:269,1,125.999996154785,2|0,0:0|0:0,0:0:0:0:
208,135,55097,1,0,0:0:0:0:
208,135,55179,2,0,P|264:132|340:173,1,125.999996154785,0|0,0:0|0:0,0:0:0:0:
512,115,55506,86,0,P|456:118|380:77,1,125.999996154785,10|0,0:0|0:0,0:0:0:0:
509,207,55751,1,0,0:0:0:0:
509,207,55833,2,0,P|513:242|506:274,2,41.9999987182618,10|10|10,0:0|0:0|0:0,0:0:0:0:
488,337,55996,2,0,P|436:314|351:325,1,125.999996154785,2|8,0:0|0:0,0:0:0:0:
176,384,56323,1,0,0:0:0:0:
160,175,56487,1,0,0:0:0:0:
155,193,56569,1,0,0:0:0:0:
159,228,56650,1,0,0:0:0:0:
185,270,56732,1,0,0:0:0:0:
259,303,56814,22,0,P|323:289|373:210,1,125.999996154785,2|0,0:0|0:0,0:0:0:0:
403,51,57141,1,0,0:0:0:0:
330,83,57223,1,0,0:0:0:0:
304,125,57304,1,0,0:0:0:0:
300,160,57386,1,0,0:0:0:0:
305,178,57468,2,0,P|369:201|443:185,1,125.999996154785,2|0,0:0|0:0,0:0:0:0:
512,310,57713,1,0,0:0:0:0:
512,310,57795,2,0,P|448:333|374:317,1,125.999996154785,2|0,0:0|0:0,0:0:0:0:
168,167,58122,86,0,B|152:242|152:242|163:346,1,161.999995056153,10|0,0:0|0:0,0:0:0:0:
310,264,58449,1,10,0:0:0:0:
293,267,58530,1,0,0:0:0:0:
278,273,58612,1,0,0:0:0:0:
264,280,58694,1,0,0:0:0:0:
252,290,58776,21,10,0:0:0:0:
270,325,58857,1,0,0:0:0:0:
307,339,58939,1,8,0:0:0:0:
347,342,59021,1,0,0:0:0:0:
384,326,59103,85,10,0:0:0:0:
364,264,59184,1,8,0:0:0:0:
344,201,59266,1,8,0:0:0:0:
325,138,59348,1,8,0:0:0:0:
305,75,59430,22,0,P|239:109|60:22,1,242.999992584229,12|0,0:0|0:0,0:0:0:0:
135,137,59757,2,0,P|179:228|243:149,1,242.999992584229,14|0,0:0|0:0,0:0:0:0:
208,363,60084,2,0,B|175:245|175:245|115:362,1,242.999992584229,12|0,0:0|0:0,0:0:0:0:
309,344,60411,85,2,0:0:0:0:
353,289,60492,1,2,0:0:0:0:
399,236,60574,1,2,0:0:0:0:
446,183,60656,1,2,0:0:0:0:
494,131,60738,22,0,B|372:73|372:73|487:-3,1,270,14|0,0:0|0:0,0:0:0:0:
304,14,61065,2,0,P|215:85|317:136,1,270,14|0,0:0|0:0,0:0:0:0:
92,203,61392,2,0,B|128:144|141:49|141:49|133:116|166:162,1,270,12|0,0:0|0:0,0:0:0:0:
300,281,61718,85,8,0:0:0:0:
365,276,61800,1,8,0:0:0:0:
393,216,61882,1,8,0:0:0:0:
355,160,61964,1,8,0:0:0:0:
288,167,62045,2,0,B|259:230|180:235|180:235|211:266|202:315|202:315|180:292|180:258,1,270,12|0,0:0|0:0,0:0:0:0:
280,158,62372,21,8,0:0:0:0:
358,150,62454,1,8,0:0:0:0:
402,215,62536,1,8,0:0:0:0:
369,285,62618,1,8,0:0:0:0:
293,291,62699,2,0,B|190:269|120:331|120:331|113:285|75:256,1,270,12|0,0:0|0:0,0:0:0:0:
0,37,63026,85,8,0:0:0:0:
5,49,63108,1,8,0:0:0:0:
11,62,63190,1,8,0:0:0:0:
16,74,63272,1,8,0:0:0:0:
30,96,63353,22,0,L|128:102,1,99.0000030212403,12|0,0:0|0:0,0:0:0:0:
252,30,63517,2,0,P|252:57|245:86,3,49.5000015106202,8|8|8|8,0:0|0:0|0:0|0:0,0:0:0:0:
211,68,63680,86,0,P|239:108|282:131,1,99.0000030212403,8|0,0:0|0:0,0:0:0:0:
475,161,63844,2,0,P|428:176|377:167,1,99.0000030212403,8|0,0:0|0:0,0:0:0:0:
114,191,64007,22,0,P|161:203|211:192,1,99.0000030212403,14|8,0:0|0:0,0:0:0:0:
441,343,64171,2,0,P|406:308|390:259,1,99.0000030212403,8|8,0:0|0:0,0:0:0:0:
372,44,64334,101,14,0:0:0:0:
345,113,64416,1,8,0:0:0:0:
318,182,64498,1,8,0:0:0:0:
291,251,64580,1,8,0:0:0:0:
264,320,64661,6,0,B|207:374|117:376|117:376|160:363|174:338,1,202.500007724762,10|0,0:3|0:0,0:0:0:0:
12,276,64988,102,0,P|55:292|99:289,2,90.0000034332277,0|0|0,3:0|3:0|3:0,0:0:0:0:
233,206,65315,2,0,P|190:222|146:219,2,90.0000034332277,0|0|0,3:0|3:0|3:0,0:0:0:0:
59,111,65642,5,0,3:0:0:0:
151,117,65751,1,0,3:0:0:0:
72,133,65860,1,0,3:0:0:0:
208,33,65969,70,0,P|276:71|340:58,1,135.000005149842,8|0,3:2|0:0,0:0:0:0:
433,223,66214,1,0,0:0:0:0:
509,171,66296,2,0,P|441:133|377:146,1,135.000005149842,10|0,0:0|0:0,0:0:0:0:
245,307,66623,2,0,L|256:143,1,135.000005149842,10|0,0:0|0:0,0:0:0:0:
442,357,66950,2,0,L|431:193,1,135.000005149842,10|0,0:0|0:0,0:0:0:0:
240,350,67277,22,0,P|148:290|89:308,1,135.000005149842,10|0,0:0|0:0,0:0:0:0:
52,341,67522,1,0,0:0:0:0:
48,365,67604,1,8,0:0:0:0:
0,193,67768,1,0,0:0:0:0:
4,217,67849,1,0,0:0:0:0:
8,241,67931,1,10,0:0:0:0:
141,159,68095,1,0,0:0:0:0:
18,36,68258,1,8,0:0:0:0:
55,64,68340,1,0,0:0:0:0:
101,70,68421,1,2,0:0:0:0:
146,57,68503,1,0,0:0:0:0:
179,23,68585,86,0,P|231:66|322:77,1,135.000005149842,10|0,0:0|0:0,0:0:0:0:
455,50,68912,1,8,0:0:0:0:
418,230,69075,1,2,0:0:0:0:
414,206,69157,1,0,0:0:0:0:
410,182,69239,1,10,0:0:0:0:
224,251,69402,1,0,0:0:0:0:
422,369,69566,2,0,L|333:361,1,67.5000025749208,8|0,0:0|0:0,0:0:0:0:
195,349,69729,2,0,L|263:356,1,67.5000025749208,2|0,0:0|0:0,0:0:0:0:
323,148,69893,22,0,B|342:229|313:290|313:290|299:259|309:234,1,202.500007724762,14|0,0:0|0:0,0:0:0:0:
151,174,70220,102,0,L|246:174,2,90.0000034332277,0|0|0,3:0|3:0|3:0,0:0:0:0:
60,228,70547,5,0,3:0:0:0:
54,320,70656,1,0,3:0:0:0:
38,241,70765,1,0,3:0:0:0:
0,101,70874,5,0,3:0:0:0:
92,107,70983,1,0,3:0:0:0:
13,123,71092,1,0,3:0:0:0:
166,160,71201,70,0,P|212:134|296:147,1,135.000005149842,8|0,3:2|0:0,0:0:0:0:
475,228,71446,1,10,0:0:0:0:
487,221,71528,2,0,P|428:192|363:204,1,135.000005149842,10|0,0:0|0:0,0:0:0:0:
291,361,71855,2,0,L|273:211,1,135.000005149842,10|0,0:0|0:0,0:0:0:0:
403,134,72182,2,0,L|417:46,1,67.5000025749208,10|0,0:0|0:0,0:0:0:0:
293,96,72345,2,0,L|279:8,1,67.5000025749208,8|0,0:0|0:0,0:0:0:0:
168,164,72509,22,0,B|276:127|276:127|171:79,1,229.500004377365,14|0,0:0|0:0,0:0:0:0:
29,172,72836,1,8,0:0:0:0:
70,205,72917,1,0,0:0:0:0:
86,256,72999,1,10,0:0:0:0:
79,309,73081,1,0,0:0:0:0:
39,345,73163,2,0,P|118:338|185:377,1,153.000002918243,14|0,0:0|0:0,0:0:0:0:
326,326,73408,1,0,0:0:0:0:
326,326,73490,2,0,P|276:324|244:309,1,76.5000014591217,8|0,0:0|0:0,0:0:0:0:
408,188,73653,2,0,P|395:223|371:253,1,76.5000014591217,10|0,0:0|0:0,0:0:0:0:
265,92,73817,86,0,B|350:134|449:97|449:97|378:73,1,256.499993150711,14|0,0:0|0:0,0:0:0:0:
182,109,74144,1,8,0:0:0:0:
175,166,74225,1,0,0:0:0:0:
203,217,74307,1,2,0:0:0:0:
249,253,74389,1,0,0:0:0:0:
309,253,74471,6,0,P|306:211|276:176,1,85.4999977169037,14|0,0:0|0:0,0:0:0:0:
186,354,74634,2,0,L|154:349,7,21.3749994292259,8|0|8|0|8|0|8|0,0:0|0:0|0:0|0:0|0:0|0:0|0:0|0:0,0:0:0:0:
205,343,74798,2,0,L|197:239,1,85.4999977169037,8|8,0:0|0:0,0:0:0:0:
104,143,74961,2,0,L|97:228,1,85.4999977169037,8|8,0:0|0:0,0:0:0:0:
154,53,75124,6,0,B|216:103|317:61|317:61|248:41,1,242.999992584229,14|0,0:0|0:0,0:0:0:0:
104,142,75451,2,0,P|52:155|0:145,2,107.999996704102,0|0|0,3:0|3:0|3:0,0:0:0:0:
213,328,75778,2,0,L|240:155,1,161.999995056153,8|0,3:2|0:0,0:0:0:0:
443,226,76105,2,0,L|357:234,1,80.9999975280763,10|0,0:0|0:0,0:0:0:0:
295,108,76269,1,0,0:0:0:0:
327,112,76351,1,0,0:0:0:0:
358,116,76432,6,0,P|418:85|464:0,1,161.999995056153,14|0,0:0|0:0,0:0:0:0:
362,233,76678,1,0,0:0:0:0:
443,226,76759,2,0,P|489:147|463:77,1,161.999995056153,12|0,0:0|0:0,0:0:0:0:
276,277,77005,1,0,0:0:0:0:
338,341,77086,2,0,B|409:303|409:303|488:327,1,161.999995056153,14|0,0:0|0:0,0:0:0:0:
254,364,77332,1,0,0:0:0:0:
191,299,77413,2,0,B|120:337|120:337|41:313,1,161.999995056153,14|0,0:0|0:0,0:0:0:0:
118,62,77740,102,0,B|65:143|110:225|110:225|137:177|126:140,1,242.999992584229,12|0,0:0|0:0,0:0:0:0:
301,104,78067,2,0,P|248:94|195:105,2,107.999996704102,0|0|0,3:0|3:0|3:0,0:0:0:0:
428,293,78394,2,0,L|443:124,1,161.999995056153,8|0,3:2|0:0,0:0:0:0:
297,311,78721,2,0,L|288:200,1,80.9999975280763,10|0,0:0|0:0,0:0:0:0:
210,133,78885,1,0,0:0:0:0:
187,126,78966,1,0,0:0:0:0:
166,119,79048,102,0,P|188:35|226:65,1,161.999995056153,14|0,0:0|0:0,0:0:0:0:
354,135,79293,1,0,0:0:0:0:
438,118,79375,2,0,P|416:34|378:64,1,161.999995056153,12|0,0:0|0:0,0:0:0:0:
286,208,79620,1,0,0:0:0:0:
284,189,79702,1,12,0:0:0:0:
482,239,79866,1,12,0:0:0:0:
255,314,80029,1,12,0:0:0:0:
300,67,80193,1,12,0:0:0:0:
46,116,80356,102,0,B|122:162|209:124|209:124|172:160|172:191,1,242.999992584229,12|0,0:0|0:0,0:0:0:0:
93,335,80683,2,0,P|80:282|91:226,2,107.999996704102,0|0|0,3:0|3:0|3:0,0:0:0:0:
345,315,81010,2,0,L|151:271,1,161.999995056153,12|0,3:2|0:0,0:0:0:0:
419,193,81337,2,0,L|333:201,1,80.9999975280763,14|0,0:0|0:0,0:0:0:0:
284,77,81500,1,0,0:0:0:0:
274,114,81582,1,0,0:0:0:0:
264,154,81664,5,12,0:0:0:0:
27,318,81827,1,0,0:0:0:0:
273,272,81991,1,14,0:0:0:0:
129,214,82154,1,0,0:0:0:0:
277,144,82318,21,12,0:0:0:0:
13,327,82481,1,2,0:0:0:0:
291,279,82645,1,14,0:0:0:0:
110,206,82808,1,10,0:0:0:0:
387,202,82972,86,0,P|437:222|496:226,1,94.499997116089,14|0,0:0|0:0,0:0:0:0:
381,219,83135,2,0,P|431:239|490:243,1,94.499997116089,10|0,0:0|0:0,0:0:0:0:
288,119,83299,6,0,P|238:139|179:143,1,94.499997116089,14|0,0:0|0:0,0:0:0:0:
294,136,83462,2,0,P|244:156|185:160,1,94.499997116089,10|0,0:0|0:0,0:0:0:0:
0,217,83626,6,0,P|50:237|109:241,1,94.499997116089,14|0,0:0|0:0,0:0:0:0:
281,290,83789,2,0,P|231:310|172:314,1,94.499997116089,10|2,0:0|0:0,0:0:0:0:
1,352,83953,2,0,P|51:372|110:376,1,94.499997116089,14|0,0:0|0:0,0:0:0:0:
210,187,84116,1,10,0:0:0:0:
215,203,84198,1,0,0:0:0:0:
222,221,84280,85,12,0:0:0:0:
264,241,84362,1,8,0:0:0:0:
310,233,84443,1,12,0:0:0:0:
347,204,84525,1,8,0:0:0:0:
361,158,84607,5,14,0:0:0:0:
407,125,84689,1,8,0:0:0:0:
463,127,84770,1,12,0:0:0:0:
505,164,84852,1,8,0:0:0:0:
497,220,84934,5,14,0:0:0:0:
441,169,85015,1,8,0:0:0:0:
385,117,85097,1,12,0:0:0:0:
328,66,85179,1,8,0:0:0:0:
272,14,85261,70,0,P|248:19|223:15,4,30,14|0|0|0|0,0:0|0:0|0:0|0:0|0:0,0:0:0:0:
143,127,85588,22,0,P|131:84|133:47,1,76.5000014591217,14|0,0:0|0:0,0:0:0:0:
125,135,85751,2,0,P|113:98|114:60,1,76.5000014591217,0|0,0:0|0:0,0:0:0:0:
224,223,85915,2,0,P|236:180|234:143,1,76.5000014591217,10|0,0:0|0:0,0:0:0:0:
241,231,86078,2,0,P|253:194|252:156,1,76.5000014591217,0|0,0:0|0:0,0:0:0:0:
96,264,86242,102,0,L|1:255,1,76.5000014591217,10|0,0:0|0:0,0:0:0:0:
85,283,86405,2,0,L|8:275,1,76.5000014591217,0|0,0:0|0:0,0:0:0:0:
224,326,86569,2,0,L|319:317,1,76.5000014591217,10|0,0:0|0:0,0:0:0:0:
235,345,86732,2,0,L|311:337,1,76.5000014591217,0|0,0:0|0:0,0:0:0:0:
316,83,86896,6,0,P|309:125|317:166,1,85.4999977169037,10|0,0:0|0:0,0:0:0:0:
382,230,87059,2,0,P|416:243|474:242,1,85.4999977169037,0|0,0:0|0:0,0:0:0:0:
333,84,87223,2,0,P|332:126|316:166,1,85.4999977169037,10|0,0:0|0:0,0:0:0:0:
242,218,87386,2,0,P|200:225|158:218,1,85.4999977169037,0|0,0:0|0:0,0:0:0:0:
294,70,87550,102,0,P|287:112|295:153,1,85.4999977169037,10|0,0:0|0:0,0:0:0:0:
379,249,87713,2,0,P|413:262|471:261,1,85.4999977169037,0|0,0:0|0:0,0:0:0:0:
353,74,87877,2,0,P|352:116|336:156,1,85.4999977169037,10|0,0:0|0:0,0:0:0:0:
242,240,88040,2,2,P|206:247|148:236,1,85.4999977169037,0|0,0:0|0:0,0:0:0:0:
62,108,88203,6,0,L|131:24,1,94.499997116089,14|0,0:0|0:0,0:0:0:0:
133,68,88367,2,0,L|235:33,1,94.499997116089,0|0,0:0|0:0,0:0:0:0:
60,212,88530,2,0,L|85:317,1,94.499997116089,10|0,0:0|0:0,0:0:0:0:
106,279,88694,2,0,L|182:355,1,94.499997116089,8|0,0:0|0:0,0:0:0:0:
308,232,88857,102,0,L|403:242,1,94.499997116089,14|0,0:0|0:0,0:0:0:0:
219,104,89021,2,0,L|125:95,1,94.499997116089,0|0,0:0|0:0,0:0:0:0:
396,155,89184,2,0,L|302:146,1,94.499997116089,10|0,0:0|0:0,0:0:0:0:
131,181,89348,2,0,L|224:190,1,94.499997116089,8|0,0:0|0:0,0:0:0:0:
267,325,89511,6,0,P|301:266|307:214,1,103.500001974106,14|0,0:0|0:0,0:0:0:0:
68,293,89675,2,0,P|68:302|71:323,4,25.8750004935265,8|0|8|0|8,0:0|0:0|0:0|0:0|0:0,0:0:0:0:
41,341,89838,2,0,P|92:347|137:371,1,103.500001974106,10|0,0:0|0:0,0:0:0:0:
348,353,90002,2,0,P|297:360|252:384,1,103.500001974106,8|0,0:0|0:0,0:0:0:0:
499,377,90165,5,14,0:0:0:0:
481,306,90247,1,8,0:0:0:0:
463,235,90329,1,10,0:0:0:0:
445,164,90411,1,8,0:0:0:0:
429,94,90492,2,0,B|393:39|338:35|338:35|359:58|373:57,1,135,14|0,0:0|0:0,0:0:0:0:
241,218,90819,70,0,B|210:135|271:99|271:99|345:114|332:228,1,270,10|0,3:0|0:0,0:0:0:0:
305,286,91146,1,2,0:0:0:0:
287,289,91228,1,0,0:0:0:0:
269,292,91310,1,0,0:0:0:0:
251,295,91392,1,0,0:0:0:0:
231,308,91473,21,2,0:0:0:0:
213,305,91555,1,0,0:0:0:0:
195,302,91637,1,0,0:0:0:0:
177,299,91718,1,0,0:0:0:0:
156,309,91800,2,0,P|127:320|80:319,3,58.4999973220826,2|0|0|0,0:0|0:0|0:0|0:0,0:0:0:0:
7,252,92127,85,2,0:0:0:0:
9,234,92209,1,0,0:0:0:0:
14,217,92291,1,0,0:0:0:0:
24,202,92372,1,0,0:0:0:0:
40,185,92454,21,2,0:0:0:0:
38,167,92536,1,0,0:0:0:0:
33,150,92618,1,0,0:0:0:0:
23,135,92699,1,0,0:0:0:0:
28,112,92781,2,0,P|58:99|98:99,3,58.4999973220826,2|0|0|0,0:0|0:0|0:0|0:0,0:0:0:0:
233,117,93108,85,2,0:0:0:0:
279,119,93190,1,0,0:0:0:0:
325,121,93272,1,0,0:0:0:0:
371,122,93353,1,0,0:0:0:0:
417,124,93435,22,0,B|480:86|495:17|495:17|481:87|516:155,1,270,10|0,0:0|0:0,0:0:0:0:
491,241,93762,1,2,0:0:0:0:
494,258,93844,1,0,0:0:0:0:
493,275,93926,1,0,0:0:0:0:
488,291,94007,1,0,0:0:0:0:
472,308,94089,85,2,0:0:0:0:
469,325,94171,1,0,0:0:0:0:
470,342,94253,1,0,0:0:0:0:
475,358,94334,1,0,0:0:0:0:
457,373,94416,2,0,P|417:362|394:344,3,58.4999973220826,2|0|0|0,0:0|0:0|0:0|0:0,0:0:0:0:
317,277,94743,21,2,0:0:0:0:
299,280,94825,1,0,0:0:0:0:
281,281,94906,1,0,0:0:0:0:
263,279,94988,1,0,0:0:0:0:
243,266,95070,85,2,0:0:0:0:
225,269,95152,1,0,0:0:0:0:
207,270,95233,1,0,0:0:0:0:
189,268,95315,1,0,0:0:0:0:
171,252,95397,21,2,0:0:0:0:
175,235,95479,1,0,0:0:0:0:
180,218,95560,1,0,0:0:0:0:
185,201,95642,1,0,0:0:0:0:
171,183,95724,85,2,0:0:0:0:
159,162,95806,1,0,0:0:0:0:
165,139,95887,1,0,0:0:0:0:
185,127,95969,1,0,0:0:0:0:
208,131,96051,22,0,P|221:101|222:67,3,58.4999973220826,10|0|0|0,0:0|0:0|0:0|0:0,0:0:0:0:
348,99,96378,2,0,P|350:127|362:154,3,58.4999973220826,2|0|0|0,0:0|0:0|0:0|0:0,0:0:0:0:
511,252,96705,2,0,B|448:256|391:230|391:230|399:248|399:248|351:235|311:274,1,233.999989288331,2|0,0:0|0:0,0:0:0:0:
314,270,97359,86,0,L|225:276,3,58.4999973220826,10|0|0|0,0:0|0:0|0:0|0:0,0:0:0:0:
64,306,97686,2,0,L|153:312,3,58.4999973220826,2|0|0|0,0:0|0:0|0:0|0:0,0:0:0:0:
193,93,98013,2,0,B|210:175|210:175|182:248|182:248|159:173,1,233.999989288331,2|0,0:0|0:0,0:0:0:0:
160,179,98667,22,0,P|139:144|135:114,3,58.4999973220826,10|0|0|0,0:0|0:0|0:0|0:0,0:0:0:0:
296,148,98994,2,0,P|310:109|309:79,3,58.4999973220826,2|0|0|0,0:0|0:0|0:0|0:0,0:0:0:0:
246,250,99321,2,0,B|323:292|323:292|430:248,1,175.499991966248,2|0,0:0|0:0,0:0:0:0:
308,337,99648,2,0,B|230:379|230:379|124:335,1,175.499991966248,2|0,0:0|0:0,0:0:0:0:
41,284,99975,85,10,0:0:0:0:
63,257,100056,1,0,0:0:0:0:
77,224,100138,1,0,0:0:0:0:
81,189,100220,1,0,0:0:0:0:
111,148,100302,21,2,0:0:0:0:
98,115,100383,1,0,0:0:0:0:
75,86,100465,1,0,0:0:0:0:
48,65,100547,1,0,0:0:0:0:
15,99,100629,86,0,L|243:115,1,216,2|0,0:0|0:0,0:0:0:0:
351,55,100956,2,0,B|279:135|279:135|262:28,1,216,2|0,0:0|0:0,0:0:0:0:
429,255,101283,6,0,B|455:176|425:135|425:135|370:146|345:223,1,242.999992584229,14|0,0:0|0:0,0:0:0:0:
221,296,101609,6,0,L|309:302,1,80.9999975280763,2|0,0:0|0:0,0:0:0:0:
311,322,101773,2,0,L|230:316,1,80.9999975280763,2|0,0:0|0:0,0:0:0:0:
134,366,101936,85,2,0:0:0:0:
130,341,102018,1,0,0:0:0:0:
126,316,102100,1,0,0:0:0:0:
122,291,102182,1,0,0:0:0:0:
140,253,102263,21,2,0:0:0:0:
135,224,102345,1,0,0:0:0:0:
130,195,102427,1,0,0:0:0:0:
126,166,102509,1,0,0:0:0:0:
145,119,102590,102,0,P|186:131|228:131,1,80.9999975280763,10|0,0:0|0:0,0:0:0:0:
229,113,102754,2,0,P|188:112|150:101,1,80.9999975280763,0|0,0:0|0:0,0:0:0:0:
338,209,102917,22,0,P|378:208|417:196,1,80.9999975280763,2|0,0:0|0:0,0:0:0:0:
411,177,103081,2,0,P|372:188|331:189,1,80.9999975280763,0|0,0:0|0:0,0:0:0:0:
262,33,103244,85,2,0:0:0:0:
282,270,103408,1,0,0:0:0:0:
398,82,103571,1,2,0:0:0:0:
159,141,103735,1,10,0:0:0:0:
159,141,103817,1,10,0:0:0:0:
159,141,103898,6,0,B|144:84|103:50|103:50|110:129|35:180,1,242.999992584229,14|0,0:0|0:0,0:0:0:0:
116,305,104225,86,0,L|129:203,1,80.9999975280763,2|0,0:0|0:0,0:0:0:0:
105,234,104389,2,0,L|94:314,1,80.9999975280763,2|0,0:0|0:0,0:0:0:0:
192,361,104552,21,2,0:0:0:0:
216,361,104634,1,0,0:0:0:0:
239,355,104716,1,0,0:0:0:0:
260,343,104798,1,0,0:0:0:0:
285,311,104879,85,2,0:0:0:0:
314,311,104961,1,0,0:0:0:0:
342,317,105043,1,0,0:0:0:0:
368,332,105124,1,0,0:0:0:0:
419,338,105206,6,0,P|429:287|424:249,1,80.9999975280763,10|0,0:0|0:0,0:0:0:0:
449,260,105370,2,0,P|451:300|441:339,1,80.9999975280763,0|0,0:0|0:0,0:0:0:0:
474,151,105533,22,0,P|476:110|466:71,1,80.9999975280763,2|0,0:0|0:0,0:0:0:0:
444,73,105697,2,0,P|453:112|451:152,1,80.9999975280763,0|0,0:0|0:0,0:0:0:0:
346,270,105860,85,10,0:0:0:0:
208,193,106024,1,8,0:0:0:0:
256,186,106105,1,8,0:0:0:0:
305,179,106187,1,10,0:0:0:0:
129,69,106351,1,0,0:0:0:0:
177,76,106432,1,0,0:0:0:0:
226,83,106514,21,10,0:0:0:0:
88,212,106678,1,0,0:0:0:0:
289,260,106841,1,8,0:0:0:0:
18,358,107005,1,8,0:0:0:0:
18,358,107086,1,8,0:0:0:0:
18,358,107168,86,0,B|66:273|51:139|51:139|90:221|76:301,1,377.999988464356,10|8,0:0|0:0,0:0:0:0:
77,287,107822,5,10,0:0:0:0:
114,290,107904,1,0,0:0:0:0:
151,293,107986,1,0,0:0:0:0:
188,297,108067,1,0,0:0:0:0:
221,328,108149,85,0,0:0:0:0:
258,331,108231,1,0,0:0:0:0:
294,321,108312,1,8,0:0:0:0:
319,292,108394,1,8,0:0:0:0:
362,265,108476,6,0,B|388:169|357:84|285:40|285:40|342:101|341:157,1,377.999988464356,10|8,0:0|0:0,0:0:0:0:
340,145,109130,5,10,0:0:0:0:
306,162,109212,1,0,0:0:0:0:
268,166,109293,1,8,0:0:0:0:
230,161,109375,1,8,0:0:0:0:
200,128,109457,85,8,0:0:0:0:
166,111,109539,1,0,0:0:0:0:
128,107,109620,1,8,0:0:0:0:
90,112,109702,1,0,0:0:0:0:
59,151,109784,6,0,B|78:232|40:319|40:319|105:293|125:238,1,283.499991348267,10|0,0:0|0:0,0:0:0:0:
318,221,110111,2,0,B|263:283|255:378|255:378|210:324|218:266,1,283.499991348267,10|0,0:0|0:0,0:0:0:0:
119,86,110438,21,8,0:0:0:0:
175,76,110520,1,8,0:0:0:0:
230,67,110601,1,8,0:0:0:0:
286,58,110683,1,8,0:0:0:0:
310,41,110765,101,10,0:0:0:0:
366,50,110847,1,8,0:0:0:0:
421,59,110928,1,8,0:0:0:0:
477,69,111010,1,8,0:0:0:0:
498,91,111092,102,0,P|511:176|339:237,1,283.499991348267,10|0,0:0|0:0,0:0:0:0:
149,204,111419,2,0,P|188:280|363:228,1,283.499991348267,14|0,0:0|0:0,0:0:0:0:
300,6,111746,6,0,L|279:107,1,103.500001974106,10|0,3:0|0:0,0:0:0:0:
256,200,111909,2,0,L|235:301,1,103.500001974106,10|0,0:0|0:0,0:0:0:0:
71,323,112073,5,0,0:0:0:0:
29,293,112154,1,0,0:0:0:0:
14,243,112236,1,0,0:0:0:0:
26,192,112318,1,0,0:0:0:0:
65,158,112400,70,0,L|167:142,1,103.500001974106,10|0,0:0|0:0,0:0:0:0:
266,123,112563,2,0,L|368:107,1,103.500001974106,10|0,0:0|0:0,0:0:0:0:
478,224,112727,5,0,0:0:0:0:
496,272,112808,1,0,0:0:0:0:
482,322,112890,1,0,0:0:0:0:
444,358,112972,1,0,0:0:0:0:
393,365,113054,6,0,L|298:322,1,103.500001974106,10|0,0:0|0:0,0:0:0:0:
205,285,113217,2,0,L|110:242,1,103.500001974106,10|0,0:0|0:0,0:0:0:0:
4,110,113381,5,0,0:0:0:0:
65,102,113462,1,0,0:0:0:0:
126,95,113544,1,8,0:0:0:0:
187,88,113626,1,8,0:0:0:0:
249,82,113708,70,0,P|299:160|433:164,1,207.000003948212,10|10,0:0|0:0,0:0:0:0:
414,384,113953,1,0,0:0:0:0:
490,336,114035,2,0,B|456:276|389:266|389:266|510:261|499:112,1,310.500005922318,10|0,0:0|0:0,0:0:0:0:
329,34,114362,6,0,L|239:112,1,103.500001974106,10|0,0:0|0:0,0:0:0:0:
106,230,114525,2,0,L|184:162,1,103.500001974106,10|0,0:0|0:0,0:0:0:0:
265,345,114689,5,0,0:0:0:0:
220,315,114770,1,0,0:0:0:0:
177,284,114852,1,0,0:0:0:0:
133,255,114934,1,0,0:0:0:0:
90,226,115015,6,0,L|168:158,1,103.500001974106,10|0,0:0|0:0,0:0:0:0:
313,30,115179,2,0,L|234:97,1,103.500001974106,10|0,0:0|0:0,0:0:0:0:
421,170,115342,69,0,0:0:0:0:
415,118,115424,1,0,0:0:0:0:
390,72,115506,1,0,0:0:0:0:
349,39,115588,1,0,0:0:0:0:
298,28,115669,6,0,L|219:95,1,103.500001974106,10|0,0:0|0:0,0:0:0:0:
75,224,115833,2,0,L|153:156,1,103.500001974106,10|0,0:0|0:0,0:0:0:0:
136,351,115996,5,8,0:0:0:0:
74,341,116078,1,8,0:0:0:0:
34,292,116160,1,8,0:0:0:0:
25,230,116242,1,8,0:0:0:0:
51,174,116323,6,0,P|74:122|70:63,1,103.500001974106,10|8,0:0|0:0,0:0:0:0:
229,9,116487,2,0,P|199:7|178:12,3,51.7500009870529,8|8|8|8,0:0|0:0|0:0|0:0,0:0:0:0:
147,21,116650,70,0,P|206:49|325:15,1,188.999994232178,2|0,0:0|0:0,0:0:0:0:
327,5,116977,1,10,0:0:0:0:
256,192,117059,12,6,122209,0:0:0:0:
256,192,124825,5,2,3:0:0:0:
256,328,135288,102,0,B|235:297|213:230|228:181|228:181|244:192|260:215|256:258,1,225,2|0,0:0|0:0,0:0:0:0:
180,272,136269,1,0,0:0:0:0:
93,241,136432,1,0,0:0:0:0:
61,166,136596,6,0,B|50:120|68:90|97:68|97:68|130:81|147:121|140:169,1,225,2|0,0:0|0:0,0:0:0:0:
136,60,137577,1,0,0:0:0:0:
225,24,137740,1,0,0:0:0:0:
306,90,137904,102,0,B|321:107|387:133|448:110|448:110|409:85,3,180,2|2|2|2,0:0|0:0|0:0|0:0,0:0:0:0:
358,266,140520,5,2,0:0:0:0:
365,280,141174,1,2,0:0:0:0:
172,302,141827,102,0,B|141:281|74:259|25:274|25:274|36:290|59:306|102:302,1,225,2|0,0:0|0:0,0:0:0:0:
128,230,142808,1,0,0:0:0:0:
118,138,142972,1,0,0:0:0:0:
40,74,143135,5,2,0:0:0:0:
366,324,144443,101,2,0:0:0:0:
364,305,145097,5,2,0:0:0:0:
352,295,145179,1,0,0:0:0:0:
339,288,145261,1,2,0:0:0:0:
325,284,145342,1,0,0:0:0:0:
310,260,145424,5,2,0:0:0:0:
295,257,145506,1,2,0:0:0:0:
280,257,145588,1,2,0:0:0:0:
265,261,145669,1,2,0:0:0:0:
222,325,145751,22,0,B|259:311|323:244|326:115|326:115|274:126|275:175,1,315,2|2,3:0|0:0,0:0:0:0:
396,289,147059,2,0,B|402:249|376:161|266:93|266:93|249:144|292:168,1,315,2|0,0:0|0:0,0:0:0:0:
449,120,148367,2,0,B|418:94|328:73|215:134|215:134|250:174|292:149,1,315,2|0,0:0|0:0,0:0:0:0:
331,14,149675,1,2,0:0:0:0:
87,137,150002,101,2,0:0:0:0:
80,224,150329,1,2,0:0:0:0:
85,178,150656,1,2,0:0:0:0:
320,281,150983,6,0,B|332:230|314:191|275:161|275:161|230:179|207:233|224:288,1,270,2|2,0:0|0:0,0:0:0:0:
74,55,152291,2,0,B|65:90|77:117|105:138|105:138|136:126|152:88|140:49,2,180,2|2|2,0:0|0:0|0:0,0:0:0:0:
76,44,154253,1,0,0:0:0:0:
81,27,154906,1,2,0:0:0:0:
305,49,155233,101,2,0:0:0:0:
309,63,155315,1,0,0:0:0:0:
307,77,155397,1,0,0:0:0:0:
298,89,155479,1,0,0:0:0:0:
313,104,155560,5,2,0:0:0:0:
309,119,155642,1,0,0:0:0:0:
300,130,155724,1,0,0:0:0:0:
286,136,155806,1,0,0:0:0:0:
288,159,155887,101,2,0:0:0:0:
278,169,155969,1,0,0:0:0:0:
264,174,156051,1,0,0:0:0:0:
249,173,156133,1,0,0:0:0:0:
195,117,156214,6,0,B|216:147|224:181|210:217|210:217|192:259|192:310|255:329,1,225,12|2,0:0|0:0,0:0:0:0:
129,309,157195,1,2,0:0:0:0:
124,296,157277,1,0,0:0:0:0:
119,284,157359,1,2,0:0:0:0:
118,272,157441,1,0,0:0:0:0:
90,244,157522,6,0,B|120:223|154:215|190:229|190:229|232:247|283:247|302:184,1,225,2|2,0:0|0:0,0:0:0:0:
333,297,158503,1,2,0:0:0:0:
342,286,158585,1,0,0:0:0:0:
353,275,158667,1,2,0:0:0:0:
363,262,158748,1,0,0:0:0:0:
444,274,158830,102,0,P|400:236|454:186,1,135,12|0,0:0|0:0,0:0:0:0:
286,108,159484,2,0,P|346:119|360:59,1,135,2|0,0:0|0:0,0:0:0:0:
288,277,160138,2,0,P|267:219|208:236,1,135,14|2,0:0|0:0,0:0:0:0:
141,111,160792,5,14,0:0:0:0:
128,103,160874,1,0,0:0:0:0:
117,111,160956,1,0,0:0:0:0:
119,124,161037,1,0,0:0:0:0:
123,140,161119,101,8,0:0:0:0:
101,133,161201,1,0,0:0:0:0:
79,132,161283,1,2,0:0:0:0:
57,138,161364,1,0,0:0:0:0:
14,68,161446,6,0,B|51:103|34:185|34:185|22:269|73:330,1,270.000010299683,14|2,0:0|0:0,0:0:0:0:
140,273,162263,1,2,0:0:0:0:
219,334,162427,1,2,0:0:0:0:
299,292,162590,1,10,0:0:0:0:
315,298,162672,1,2,0:0:0:0:
342,341,162754,102,0,L|356:202,1,135.000005149842,14|2,0:0|0:0,0:0:0:0:
217,152,163408,2,0,L|209:14,1,135.000005149842,2|2,0:0|0:0,0:0:0:0:
174,7,163817,1,2,0:0:0:0:
127,20,163898,1,2,0:0:0:0:
99,50,163980,1,2,0:0:0:0:
83,102,164062,86,0,P|70:144|70:209,1,80.9999975280763,12|0,0:0|0:0,0:0:0:0:
123,245,164307,1,2,0:0:0:0:
110,262,164389,21,2,0:0:0:0:
137,250,164471,1,2,0:0:0:0:
167,252,164552,1,10,0:0:0:0:
194,266,164634,1,2,0:0:0:0:
215,296,164716,85,14,0:0:0:0:
224,259,164798,1,2,0:0:0:0:
245,228,164879,1,2,0:0:0:0:
277,207,164961,1,2,0:0:0:0:
314,199,165043,1,2,0:0:0:0:
362,215,165124,1,2,0:0:0:0:
424,209,165206,1,10,0:0:0:0:
468,158,165288,1,2,0:0:0:0:
455,91,165370,6,0,P|427:57|362:27,1,90,14|0,0:0|0:0,0:0:0:0:
100,113,165697,2,0,P|139:68|187:40,1,90,8|0,0:0|0:0,0:0:0:0:
314,224,166024,5,10,0:0:0:0:
281,194,166105,1,8,0:0:0:0:
289,164,166187,1,8,0:0:0:0:
314,160,166269,1,8,0:0:0:0:
322,184,166351,85,14,0:0:0:0:
289,210,166432,1,0,0:0:0:0:
230,211,166514,1,8,0:0:0:0:
178,192,166596,1,8,0:0:0:0:
124,218,166678,54,0,P|109:237|97:284,3,67.5000025749208,10|0|0|2,3:0|0:0|0:0|0:0,0:0:0:0:
218,354,167005,2,0,P|217:334|202:289,3,67.5000025749208,2|0|0|2,0:0|0:0|0:0|0:0,0:0:0:0:
324,344,167332,1,2,0:0:0:0:
344,359,167413,1,0,0:0:0:0:
376,359,167495,1,0,0:0:0:0:
408,332,167577,1,0,0:0:0:0:
401,294,167659,1,0,0:0:0:0:
376,284,167740,1,0,0:0:0:0:
356,289,167822,1,0,0:0:0:0:
348,306,167904,1,0,0:0:0:0:
360,317,167986,54,0,P|339:302|282:289,3,67.5000025749208,10|0|0|0,0:0|0:0|0:0|0:0,0:0:0:0:
304,211,168312,69,8,0:0:0:0:
298,206,168367,1,8,0:0:0:0:
290,204,168421,1,10,0:0:0:0:
281,207,168476,1,2,0:0:0:0:
376,145,168639,2,0,P|392:162|406:209,3,67.5000025749208,8|0|2|0,0:0|0:0|0:0|0:0,0:0:0:0:
301,111,168966,101,0,0:0:0:0:
261,108,169048,1,0,0:0:0:0:
220,126,169130,1,0,0:0:0:0:
174,146,169212,1,0,0:0:0:0:
123,127,169293,54,0,P|99:105|75:60,3,67.5000025749208,2|0|0|0,0:0|0:0|0:0|0:0,0:0:0:0:
35,185,169620,1,0,0:0:0:0:
76,207,169702,1,0,0:0:0:0:
99,236,169784,1,0,0:0:0:0:
125,255,169866,1,0,0:0:0:0:
150,257,169947,54,0,P|177:251|212:229,3,67.5000025749208,2|0|0|0,0:0|0:0|0:0|0:0,0:0:0:0:
320,333,170274,2,0,P|281:313|241:313,3,67.5000025749208,2|0|0|0,0:0|0:0|0:0|0:0,0:0:0:0:
349,188,170601,2,0,P|321:204|287:246,3,67.5000025749208,10|0|0|0,0:0|0:0|0:0|0:0,0:0:0:0:
231,118,170928,53,10,0:0:0:0:
217,114,171010,1,0,0:0:0:0:
215,100,171092,1,0,0:0:0:0:
226,92,171174,1,0,0:0:0:0:
241,98,171255,53,10,0:0:0:0:
206,73,171337,1,0,0:0:0:0:
216,32,171419,1,8,0:0:0:0:
258,27,171500,1,0,0:0:0:0:
273,63,171582,53,10,0:0:0:0:
313,42,171664,1,8,0:0:0:0:
361,72,171746,1,8,0:0:0:0:
411,107,171827,1,8,0:0:0:0:
474,92,171909,54,0,B|430:127|419:179|462:250|462:250|482:214|489:149,1,242.999992584229,12|0,0:0|0:0,0:0:0:0:
411,328,172236,2,0,B|376:286|357:249|347:188|347:188|344:231|294:270,1,242.999992584229,12|0,0:0|0:0,0:0:0:0:
180,233,172563,2,0,P|160:150|252:212,1,242.999992584229,12|0,0:0|0:0,0:0:0:0:
231,316,172890,1,2,0:0:0:0:
197,309,172972,1,2,0:0:0:0:
160,321,173054,1,2,0:0:0:0:
116,339,173135,1,2,0:0:0:0:
64,327,173217,54,0,B|0:170|0:170|78:216,1,242.999992584229,14|0,0:0|0:0,0:0:0:0:
206,26,173544,2,0,B|65:100|65:100|144:148,1,242.999992584229,12|0,0:0|0:0,0:0:0:0:
294,253,173871,2,0,P|223:224|322:179,1,242.999992584229,12|0,0:0|0:0,0:0:0:0:
483,275,174198,1,8,0:0:0:0:
444,259,174280,1,8,0:0:0:0:
408,287,174362,1,8,0:0:0:0:
383,335,174443,1,8,0:0:0:0:
334,362,174525,54,0,P|251:360|96:261,1,242.999992584229,12|0,0:0|0:0,0:0:0:0:
46,198,174852,1,8,0:0:0:0:
94,185,174934,1,8,0:0:0:0:
150,204,175015,1,8,0:0:0:0:
202,244,175097,1,8,0:0:0:0:
265,242,175179,54,0,P|374:210|504:84,1,242.999992584229,12|0,0:0|0:0,0:0:0:0:
280,0,175506,1,8,0:0:0:0:
225,9,175588,1,8,0:0:0:0:
183,56,175669,1,8,0:0:0:0:
140,102,175751,1,8,0:0:0:0:
69,115,175833,54,0,P|43:106|-13:56,1,80.9999975280763,12|0,0:0|0:0,0:0:0:0:
247,131,175996,2,0,L|292:113,3,40.4999987640381,8|8|8|8,0:0|0:0|0:0|0:0,0:0:0:0:
235,143,176160,54,0,P|260:179|284:262,1,90,8|0,0:0|0:0,0:0:0:0:
58,322,176323,2,0,P|88:304|123:257,1,90,8|0,0:0|0:0,0:0:0:0:
245,355,176487,53,14,0:0:0:0:
267,319,176569,1,8,0:0:0:0:
320,307,176650,1,8,0:0:0:0:
365,326,176732,1,8,0:0:0:0:
424,322,176814,1,14,0:0:0:0:
471,276,176896,1,8,0:0:0:0:
471,207,176977,1,8,0:0:0:0:
434,146,177059,1,8,0:0:0:0:
364,126,177141,54,0,P|285:106|120:138,1,202.500007724762,10|0,0:3|0:0,0:0:0:0:
103,193,177468,6,0,L|16:168,2,90.0000034332277,0|0|0,3:0|3:0|3:0,0:0:0:0:
196,218,177795,5,0,3:0:0:0:
213,301,177904,1,0,3:0:0:0:
282,266,178013,1,0,3:0:0:0:
283,226,178122,5,0,3:0:0:0:
244,144,178231,1,0,3:0:0:0:
301,94,178340,1,0,3:0:0:0:
403,84,178449,6,0,P|427:122|452:212,1,135.000005149842,8|0,3:2|0:0,0:0:0:0:
447,337,178694,1,0,0:0:0:0:
433,339,178776,2,0,P|384:287|360:204,1,135.000005149842,10|0,0:0|0:0,0:0:0:0:
139,350,179103,2,0,P|204:322|296:318,1,135.000005149842,10|0,0:0|0:0,0:0:0:0:
37,134,179430,2,0,P|40:206|13:304,1,135.000005149842,10|0,0:0|0:0,0:0:0:0:
244,93,179757,85,10,0:0:0:0:
166,209,179920,1,0,0:0:0:0:
159,192,180002,1,0,0:0:0:0:
155,170,180084,1,8,0:0:0:0:
318,159,180247,1,2,0:0:0:0:
314,195,180329,1,0,0:0:0:0:
297,231,180411,1,10,0:0:0:0:
433,292,180574,1,0,0:0:0:0:
400,294,180656,1,0,0:0:0:0:
370,315,180738,1,8,0:0:0:0:
343,343,180819,1,0,0:0:0:0:
304,357,180901,1,2,0:0:0:0:
260,348,180983,1,0,0:0:0:0:
226,313,181065,85,10,0:0:0:0:
110,355,181228,1,0,0:0:0:0:
69,327,181310,1,0,0:0:0:0:
27,308,181392,1,8,0:0:0:0:
3,265,181473,1,0,0:0:0:0:
19,215,181555,1,2,0:0:0:0:
66,197,181637,1,0,0:0:0:0:
99,225,181718,2,0,P|151:233|256:183,1,135.000005149842,10|0,0:0|0:0,0:0:0:0:
215,20,182045,6,0,L|223:110,1,80.9999975280763,8|0,0:0|0:0,0:0:0:0:
386,104,182209,2,0,L|376:184,1,80.9999975280763,2|0,0:0|0:0,0:0:0:0:
479,327,182372,6,0,B|441:302|367:278|307:280|307:280|318:314|388:348,1,242.999992584229,14|0,0:0|0:0,0:0:0:0:
211,359,182699,101,0,3:0:0:0:
116,308,182808,1,0,3:0:0:0:
110,227,182917,1,0,3:0:0:0:
164,172,183026,5,0,3:0:0:0:
79,156,183135,1,0,3:0:0:0:
66,82,183244,1,0,3:0:0:0:
92,40,183353,5,0,3:0:0:0:
166,26,183462,1,0,3:0:0:0:
189,57,183571,1,0,3:0:0:0:
255,124,183680,22,0,P|299:100|418:80,1,161.999995056153,8|0,3:2|0:0,0:0:0:0:
419,96,183898,1,10,0:0:0:0:
426,108,183953,1,10,0:0:0:0:
431,121,184007,102,0,P|351:111|279:27,1,161.999995056153,10|0,0:0|0:0,0:0:0:0:
63,200,184334,2,0,P|140:238|201:338,1,161.999995056153,10|0,0:0|0:0,0:0:0:0:
446,318,184661,70,0,L|457:226,1,80.9999975280763,0|0,0:0|0:0,0:0:0:0:
315,290,184825,2,0,L|306:185,1,80.9999975280763,8|0,0:0|0:0,0:0:0:0:
485,16,184988,101,14,0:0:0:0:
356,93,185152,1,0,0:0:0:0:
333,98,185233,1,0,0:0:0:0:
310,90,185315,1,8,0:0:0:0:
169,25,185479,1,2,0:0:0:0:
110,14,185560,1,0,0:0:0:0:
52,28,185642,1,14,0:0:0:0:
177,200,185806,21,0,0:0:0:0:
167,185,185887,1,0,0:0:0:0:
166,165,185969,1,8,0:0:0:0:
264,377,186133,85,2,0:0:0:0:
230,337,186214,1,0,0:0:0:0:
217,280,186296,2,0,P|205:210|236:69,1,180,14|0,0:0|0:0,0:0:0:0:
475,213,186623,21,8,0:0:0:0:
497,179,186705,1,0,0:0:0:0:
488,138,186787,1,2,0:0:0:0:
466,98,186868,1,0,0:0:0:0:
479,37,186950,1,14,0:0:0:0:
350,223,187114,6,0,L|357:288,3,45,8|8|8|8,0:0|0:0|0:0|0:0,0:0:0:0:
332,202,187277,2,0,L|321:106,1,90,8|8,0:0|0:0,0:0:0:0:
175,96,187441,2,0,L|159:4,1,90,8|8,0:0|0:0,0:0:0:0:
16,341,187604,70,0,B|71:302|145:278|216:288|216:288|194:314|141:326,1,270,14|0,0:0|0:0,0:0:0:0:
41,193,187931,1,0,3:0:0:0:
133,166,188040,1,0,3:0:0:0:
202,196,188149,1,0,3:0:0:0:
291,143,188258,22,0,P|350:100|523:82,1,180,8|0,3:2|0:0,0:0:0:0:
510,334,188585,2,0,P|470:328|404:288,1,90,10|0,0:0|0:0,0:0:0:0:
290,291,188748,1,0,0:0:0:0:
257,293,188830,1,0,0:0:0:0:
228,310,188912,6,0,P|178:346|54:347,1,180,14|0,0:0|0:0,0:0:0:0:
202,145,189157,1,0,0:0:0:0:
217,190,189239,2,0,P|155:137|34:131,1,180,12|0,0:0|0:0,0:0:0:0:
295,76,189484,1,0,0:0:0:0:
300,112,189566,2,0,P|350:52|469:27,1,180,14|0,0:0|0:0,0:0:0:0:
331,212,189893,86,0,P|361:226|440:229,1,90,14|0,0:0|0:0,0:0:0:0:
369,332,190056,2,0,P|325:322|281:319,1,90,0|0,0:0|0:0,0:0:0:0:
155,96,190220,102,0,B|199:47|199:47|222:258,1,270,12|0,0:0|0:0,0:0:0:0:
0,232,190547,1,0,3:0:0:0:
57,296,190656,1,0,3:0:0:0:
131,310,190765,1,0,3:0:0:0:
133,216,190874,22,0,P|218:178|345:163,1,180,8|0,3:2|0:0,0:0:0:0:
507,287,191201,2,0,P|455:273|404:236,1,90,10|0,0:0|0:0,0:0:0:0:
448,123,191364,1,0,0:0:0:0:
473,98,191446,1,0,0:0:0:0:
505,107,191528,6,0,P|450:106|391:64,1,90,14|0,0:0|0:0,0:0:0:0:
249,5,191691,2,0,P|303:11|379:-25,1,90,0|0,0:0|0:0,0:0:0:0:
417,268,191855,2,0,P|404:220|402:164,1,90,12|0,0:0|0:0,0:0:0:0:
306,177,192018,2,0,P|320:150|324:73,1,90,0|0,0:0|0:0,0:0:0:0:
168,277,192182,85,12,0:0:0:0:
204,121,192345,1,12,0:0:0:0:
112,165,192509,1,12,0:0:0:0:
267,302,192672,1,12,0:0:0:0:
77,381,192836,102,0,B|28:337|28:337|290:302,1,297.000009063721,12|0,0:0|0:0,0:0:0:0:
364,261,193163,1,0,3:0:0:0:
313,187,193272,1,0,3:0:0:0:
363,125,193381,1,0,3:0:0:0:
233,106,193490,2,0,P|276:221|282:297,1,198.000006042481,12|0,3:2|0:0,0:0:0:0:
41,212,193817,2,0,P|49:155|70:104,1,99.0000030212403,14|0,0:0|0:0,0:0:0:0:
188,12,193980,1,0,0:0:0:0:
236,9,194062,1,0,0:0:0:0:
284,27,194144,5,12,0:0:0:0:
152,167,194307,1,0,0:0:0:0:
432,240,194471,1,14,0:0:0:0:
425,135,194634,1,0,0:0:0:0:
287,38,194798,21,12,0:0:0:0:
155,178,194961,1,2,0:0:0:0:
435,251,195124,1,14,0:0:0:0:
428,146,195288,1,10,0:0:0:0:
294,334,195451,86,0,P|344:354|406:358,1,99.0000030212403,14|0,0:0|0:0,0:0:0:0:
257,224,195615,2,0,P|263:285|289:338,1,99.0000030212403,10|0,0:0|0:0,0:0:0:0:
103,334,195778,6,0,P|53:354|-6:360,1,99.0000030212403,14|0,0:0|0:0,0:0:0:0:
140,229,195942,2,0,P|133:285|107:338,1,99.0000030212403,10|0,0:0|0:0,0:0:0:0:
9,123,196105,6,0,P|59:143|127:146,1,99.0000030212403,14|0,0:0|0:0,0:0:0:0:
356,110,196269,2,0,P|306:130|237:133,1,99.0000030212403,10|2,0:0|0:0,0:0:0:0:
34,22,196432,2,0,P|14:72|10:131,1,99.0000030212403,14|0,0:0|0:0,0:0:0:0:
334,4,196596,2,0,P|356:55|360:114,1,99.0000030212403,10|0,0:0|0:0,0:0:0:0:
183,63,196759,85,12,0:0:0:0:
173,100,196841,1,8,0:0:0:0:
184,143,196923,1,12,0:0:0:0:
173,188,197005,1,8,0:0:0:0:
136,221,197086,5,14,0:0:0:0:
179,225,197168,1,8,0:0:0:0:
206,269,197250,1,12,0:0:0:0:
244,302,197332,1,8,0:0:0:0:
304,313,197413,5,14,0:0:0:0:
373,276,197495,1,8,0:0:0:0:
398,204,197577,1,12,0:0:0:0:
370,132,197659,1,8,0:0:0:0:
290,115,197740,70,0,P|290:145|286:156,5,30,14|0|0|0|0|0,0:0|0:0|0:0|0:0|0:0|0:0,0:0:0:0:
281,95,198067,6,0,P|247:84|169:72,1,80.9999975280763,14|0,0:0|0:0,0:0:0:0:
208,95,198231,2,0,P|184:87|126:86,1,80.9999975280763,0|0,0:0|0:0,0:0:0:0:
32,202,198394,2,0,P|66:191|144:179,1,80.9999975280763,10|0,0:0|0:0,0:0:0:0:
105,202,198558,2,0,P|129:194|187:193,1,80.9999975280763,0|0,0:0|0:0,0:0:0:0:
278,239,198721,6,0,P|294:281|304:332,1,80.9999975280763,10|0,0:0|0:0,0:0:0:0:
340,341,198885,2,0,P|329:294|305:243,1,80.9999975280763,0|0,0:0|0:0,0:0:0:0:
187,280,199048,2,0,P|171:322|161:373,1,80.9999975280763,10|0,0:0|0:0,0:0:0:0:
125,382,199212,2,0,P|136:335|160:284,1,80.9999975280763,0|0,0:0|0:0,0:0:0:0:
350,173,199375,102,0,P|379:174|451:191,1,80.9999975280763,10|0,0:0|0:0,0:0:0:0:
409,273,199539,2,0,P|426:237|432:181,1,80.9999975280763,0|0,0:0|0:0,0:0:0:0:
329,78,199702,2,0,P|300:79|228:96,1,80.9999975280763,10|0,0:0|0:0,0:0:0:0:
256,177,199866,2,0,P|239:141|233:85,1,80.9999975280763,0|0,0:0|0:0,0:0:0:0:
512,197,200029,6,0,P|483:196|411:179,1,80.9999975280763,10|0,0:0|0:0,0:0:0:0:
383,266,200193,2,0,P|386:225|400:188,1,80.9999975280763,0|0,0:0|0:0,0:0:0:0:
151,102,200356,2,0,P|180:101|252:84,1,80.9999975280763,10|0,0:0|0:0,0:0:0:0:
277,177,200520,2,0,P|273:136|259:99,1,80.9999975280763,0|0,0:0|0:0,0:0:0:0:
165,251,200683,102,0,L|43:221,1,90,14|0,0:0|0:0,0:0:0:0:
90,272,200847,2,0,L|-9:245,1,90,0|0,0:0|0:0,0:0:0:0:
192,347,201010,2,0,L|314:317,1,90,10|0,0:0|0:0,0:0:0:0:
267,368,201174,2,0,L|366:341,1,90,8|0,0:0|0:0,0:0:0:0:
262,233,201337,6,4,L|270:117,1,90,14|0,0:0|0:0,0:0:0:0:
488,298,201500,2,0,L|497:198,1,90,0|0,0:0|0:0,0:0:0:0:
318,85,201664,2,0,L|307:222,1,90,10|0,0:0|0:0,0:0:0:0:
468,140,201827,2,0,L|455:260,1,90,8|0,0:0|0:0,0:0:0:0:
243,18,201991,6,0,P|199:20|107:45,1,90,14|0,0:0|0:0,0:0:0:0:
116,112,202154,2,0,P|138:115|169:131,3,45,8|8|8|8,0:0|0:0|0:0|0:0,0:0:0:0:
41,123,202318,2,0,P|81:132|153:151,1,90,10|0,0:0|0:0,0:0:0:0:
315,199,202481,2,0,P|243:221|208:250,1,90,8|0,0:0|0:0,0:0:0:0:
0,230,202645,1,14,0:0:0:0:
66,263,202727,1,8,0:0:0:0:
100,290,202808,1,10,0:0:0:0:
114,319,202890,1,8,0:0:0:0:
134,245,202972,86,0,P|99:284|59:379,1,135,14|0,0:0|0:0,0:0:0:0:
222,364,203299,6,0,B|255:307|339:292|393:323|393:323|340:359|292:337,1,270,10|0,3:0|0:0,0:0:0:0:
356,231,203626,85,2,0:0:0:0:
370,226,203708,1,0,0:0:0:0:
384,223,203789,1,0,0:0:0:0:
399,222,203871,1,0,0:0:0:0:
400,194,203953,21,2,0:0:0:0:
414,196,204035,1,0,0:0:0:0:
428,201,204116,1,0,0:0:0:0:
442,208,204198,1,0,0:0:0:0:
460,284,204280,86,0,P|490:271|507:255,3,45,2|0|0|0,0:0|0:0|0:0|0:0,0:0:0:0:
381,299,204607,21,2,0:0:0:0:
379,281,204689,1,0,0:0:0:0:
374,264,204770,1,0,0:0:0:0:
364,249,204852,1,0,0:0:0:0:
363,215,204934,85,2,0:0:0:0:
345,217,205015,1,0,0:0:0:0:
328,222,205097,1,0,0:0:0:0:
313,232,205179,1,0,0:0:0:0:
293,311,205261,22,0,P|263:298|228:294,1,45,2|0,0:0|0:0,0:0:0:0:
233,219,205424,2,0,P|215:223|178:251,1,45,0|0,0:0|0:0,0:0:0:0:
161,316,205588,2,0,P|134:296|113:268,1,45,2|0,0:0|0:0,0:0:0:0:
51,310,205751,2,0,P|45:292|51:246,1,45,0|0,0:0|0:0,0:0:0:0:
110,203,205915,86,0,B|53:170|38:86|69:32|69:32|105:85|83:133,1,270,10|0,0:0|0:0,0:0:0:0:
169,135,206242,21,2,0:0:0:0:
172,120,206323,1,0,0:0:0:0:
181,108,206405,1,0,0:0:0:0:
192,98,206487,1,0,0:0:0:0:
195,67,206569,85,2,0:0:0:0:
205,77,206650,1,0,0:0:0:0:
218,84,206732,1,0,0:0:0:0:
233,86,206814,1,0,0:0:0:0:
244,163,206896,22,0,P|273:176|312:186,3,45,2|0|0|0,0:0|0:0|0:0|0:0,0:0:0:0:
346,252,207223,85,2,0:0:0:0:
332,257,207304,1,0,0:0:0:0:
318,260,207386,1,0,0:0:0:0:
303,261,207468,1,0,0:0:0:0:
302,289,207550,21,2,0:0:0:0:
288,287,207631,1,0,0:0:0:0:
274,282,207713,1,0,0:0:0:0:
260,275,207795,1,0,0:0:0:0:
172,266,207877,86,0,P|172:278|185:321,1,45,2|0,0:0|0:0,0:0:0:0:
242,356,208040,2,0,P|267:367|307:376,1,45,0|0,0:0|0:0,0:0:0:0:
116,370,208203,2,0,P|102:339|93:309,1,45,2|0,0:0|0:0,0:0:0:0:
87,249,208367,2,0,P|97:211|108:186,1,45,0|0,0:0|0:0,0:0:0:0:
183,165,208530,21,10,0:0:0:0:
203,155,208612,1,0,0:0:0:0:
224,148,208694,1,0,0:0:0:0:
246,142,208776,1,0,0:0:0:0:
277,182,208857,85,2,0:0:0:0:
270,178,208939,1,2,0:0:0:0:
263,176,209021,1,2,0:0:0:0:
256,174,209103,1,2,0:0:0:0:
288,149,209184,22,0,B|302:155|344:152|364:132|364:132|382:151|426:164|486:143,1,180,2|0,0:0|0:0,0:0:0:0:
172,308,209838,85,10,0:0:0:0:
182,285,209920,1,0,0:0:0:0:
205,293,210002,1,0,0:0:0:0:
200,316,210084,1,0,0:0:0:0:
196,299,210165,21,2,0:0:0:0:
208,292,210247,1,2,0:0:0:0:
221,298,210329,1,2,0:0:0:0:
222,312,210411,1,2,0:0:0:0:
206,337,210492,86,0,B|192:343|150:340|130:320|130:320|112:339|68:352|8:331,1,180,2|0,0:0|0:0,0:0:0:0:
112,131,211146,21,10,0:0:0:0:
137,115,211228,1,0,0:0:0:0:
166,108,211310,1,0,0:0:0:0:
196,109,211392,1,0,0:0:0:0:
216,95,211473,85,2,0:0:0:0:
206,106,211555,1,2,0:0:0:0:
201,120,211637,1,2,0:0:0:0:
201,135,211718,1,2,0:0:0:0:
161,143,211800,22,0,P|160:86|113:0,1,135,2|0,0:0|0:0,0:0:0:0:
310,96,212127,2,0,P|284:154|268:262,1,135,2|0,0:0|0:0,0:0:0:0:
166,241,212454,85,10,0:0:0:0:
139,257,212536,1,0,0:0:0:0:
132,282,212618,1,0,0:0:0:0:
140,297,212699,1,0,0:0:0:0:
160,297,212781,21,2,0:0:0:0:
144,281,212863,1,2,0:0:0:0:
120,277,212945,1,2,0:0:0:0:
95,287,213026,1,2,0:0:0:0:
85,317,213108,85,2,0:0:0:0:
64,296,213190,1,0,0:0:0:0:
31,287,213272,1,0,0:0:0:0:
10,254,213353,1,0,0:0:0:0:
15,207,213435,21,2,0:0:0:0:
45,169,213517,1,0,0:0:0:0:
92,153,213599,1,0,0:0:0:0:
141,167,213680,1,0,0:0:0:0:
170,197,213762,86,0,B|199:230|269:240|297:224|297:224|295:168|255:140|201:128,1,270,14|0,0:0|0:0,0:0:0:0:
278,52,214089,22,0,P|315:76|355:116,1,67.5000025749208,2|0,0:0|0:0,0:0:0:0:
353,29,214253,2,0,P|369:76|364:125,1,67.5000025749208,2|0,0:0|0:0,0:0:0:0:
456,82,214416,85,2,0:0:0:0:
459,104,214498,1,0,0:0:0:0:
458,126,214580,1,0,0:0:0:0:
453,148,214661,1,0,0:0:0:0:
487,161,214743,21,2,0:0:0:0:
479,182,214825,1,0,0:0:0:0:
467,201,214906,1,0,0:0:0:0:
451,217,214988,1,0,0:0:0:0:
473,249,215070,6,0,P|430:259|359:250,1,67.5000025749208,10|0,0:0|0:0,0:0:0:0:
306,339,215233,2,0,P|288:303|281:257,1,67.5000025749208,0|0,0:0|0:0,0:0:0:0:
462,328,215397,2,0,P|424:307|390:265,1,67.5000025749208,2|0,0:0|0:0,0:0:0:0:
209,318,215560,2,0,P|231:282|274:253,1,67.5000025749208,0|0,0:0|0:0,0:0:0:0:
310,170,215724,85,2,0:0:0:0:
211,123,215887,1,0,0:0:0:0:
277,39,216051,1,2,0:0:0:0:
376,81,216214,1,10,0:0:0:0:
386,91,216296,1,10,0:0:0:0:
395,103,216378,6,0,B|424:136|494:146|522:130|522:130|520:74|480:46|426:34,1,270,14|0,0:0|0:0,0:0:0:0:
395,206,216705,86,0,P|429:215|498:225,1,67.5000025749208,2|0,0:0|0:0,0:0:0:0:
400,272,216868,2,0,P|439:266|487:239,1,67.5000025749208,2|0,0:0|0:0,0:0:0:0:
337,338,217032,21,2,0:0:0:0:
314,341,217114,1,0,0:0:0:0:
292,340,217195,1,0,0:0:0:0:
270,335,217277,1,0,0:0:0:0:
258,369,217359,85,2,0:0:0:0:
237,361,217441,1,0,0:0:0:0:
218,349,217522,1,0,0:0:0:0:
202,333,217604,1,0,0:0:0:0:
170,355,217686,38,0,P|160:312|169:241,1,67.5000025749208,10|0,0:0|0:0,0:0:0:0:
228,224,217849,2,0,P|260:232|290:247,1,67.5000025749208,0|0,0:0|0:0,0:0:0:0:
91,344,218013,2,0,P|112:306|154:272,1,67.5000025749208,2|0,0:0|0:0,0:0:0:0:
251,154,218176,2,0,P|286:176|315:219,1,67.5000025749208,0|0,0:0|0:0,0:0:0:0:
145,197,218340,85,10,0:0:0:0:
118,83,218503,1,8,0:0:0:0:
116,65,218585,1,8,0:0:0:0:
114,49,218667,1,10,0:0:0:0:
230,29,218830,1,0,0:0:0:0:
317,76,218994,5,10,0:0:0:0:
331,85,219075,1,0,0:0:0:0:
346,92,219157,1,0,0:0:0:0:
361,99,219239,1,0,0:0:0:0:
391,97,219321,85,8,0:0:0:0:
375,122,219402,1,0,0:0:0:0:
367,159,219484,1,8,0:0:0:0:
372,202,219566,1,8,0:0:0:0:
396,235,219648,6,0,B|417:196|418:157|374:115|374:115|318:135|300:164|304:227,1,270,10|0,0:0|0:0,0:0:0:0:
218,287,219975,2,0,P|197:227|199:187,1,67.5000025749208,8|0,0:0|0:0,0:0:0:0:
193,142,220138,2,0,P|201:105|226:64,1,67.5000025749208,8|0,0:0|0:0,0:0:0:0:
91,150,220302,5,10,0:0:0:0:
76,159,220383,1,0,0:0:0:0:
61,166,220465,1,0,0:0:0:0:
46,173,220547,1,0,0:0:0:0:
17,171,220629,85,8,0:0:0:0:
33,196,220710,1,0,0:0:0:0:
41,233,220792,1,8,0:0:0:0:
36,276,220874,1,8,0:0:0:0:
12,309,220956,38,0,B|-9:262|-10:231|34:189|34:189|94:209|111:245|106:301,1,270,10|0,0:0|0:0,0:0:0:0:
220,321,221283,1,8,0:0:0:0:
227,302,221364,1,0,0:0:0:0:
231,286,221446,2,0,P|223:249|198:208,1,67.5000025749208,8|0,0:0|0:0,0:0:0:0:
294,158,221609,69,10,0:0:0:0:
304,142,221691,1,0,0:0:0:0:
320,129,221773,1,8,0:0:0:0:
338,122,221855,1,8,0:0:0:0:
361,138,221936,21,8,0:0:0:0:
321,132,222018,1,0,0:0:0:0:
281,114,222100,1,8,0:0:0:0:
251,84,222182,1,0,0:0:0:0:
210,69,222263,102,0,P|159:63|100:74,1,67.5000025749208,10|0,0:0|0:0,0:0:0:0:
18,139,222427,2,0,P|44:106|78:85,1,67.5000025749208,8|0,0:0|0:0,0:0:0:0:
142,219,222590,2,0,P|144:184|134:126,1,67.5000025749208,10|0,0:0|0:0,0:0:0:0:
74,356,222754,2,0,P|109:319|126:283,1,67.5000025749208,8|0,0:0|0:0,0:0:0:0:
222,292,222917,21,8,0:0:0:0:
256,266,222999,1,8,0:0:0:0:
296,259,223081,1,8,0:0:0:0:
321,280,223163,1,8,0:0:0:0:
317,302,223244,101,10,0:0:0:0:
358,281,223326,1,8,0:0:0:0:
398,292,223408,1,8,0:0:0:0:
411,309,223490,1,8,0:0:0:0:
402,323,223571,6,0,P|379:266|379:216,1,67.5000025749208,10|0,0:0|0:0,0:0:0:0:
382,153,223735,2,0,P|393:113|424:72,1,67.5000025749208,8|0,0:0|0:0,0:0:0:0:
492,16,223898,86,0,L|347:0,1,135,14|0,0:0|0:0,0:0:0:0:
291,70,224225,6,0,L|190:49,1,103.500001974106,10|0,3:0|0:0,0:0:0:0:
107,31,224389,2,0,L|6:10,1,103.500001974106,10|0,0:0|0:0,0:0:0:0:
92,126,224552,5,0,0:0:0:0:
50,156,224634,1,0,0:0:0:0:
35,206,224716,1,0,0:0:0:0:
47,257,224798,1,0,0:0:0:0:
86,292,224879,70,0,L|188:308,1,103.500001974106,10|0,0:0|0:0,0:0:0:0:
271,321,225043,2,0,L|373:337,1,103.500001974106,10|0,0:0|0:0,0:0:0:0:
454,272,225206,5,0,0:0:0:0:
487,233,225288,1,0,0:0:0:0:
491,181,225370,1,0,0:0:0:0:
467,134,225451,1,0,0:0:0:0:
422,110,225533,6,0,L|318:117,1,103.500001974106,10|0,0:0|0:0,0:0:0:0:
218,121,225697,2,0,L|114:128,1,103.500001974106,10|0,0:0|0:0,0:0:0:0:
57,265,225860,5,0,0:0:0:0:
108,236,225942,1,0,0:0:0:0:
171,224,226024,1,8,0:0:0:0:
244,237,226105,1,8,0:0:0:0:
310,273,226187,70,0,P|360:351|494:355,1,207.000003948212,14|10,0:0|0:0,0:0:0:0:
320,136,226432,1,0,0:0:0:0:
379,191,226514,2,0,P|255:187|227:348,1,310.500005922318,14|0,0:0|0:0,0:0:0:0:
96,346,226841,6,0,L|104:227,1,103.500001974106,14|0,0:0|0:0,0:0:0:0:
115,49,227005,2,0,L|107:152,1,103.500001974106,10|0,0:0|0:0,0:0:0:0:
202,311,227168,5,0,0:0:0:0:
256,321,227250,1,0,0:0:0:0:
308,330,227332,1,0,0:0:0:0:
359,340,227413,1,0,0:0:0:0:
410,350,227495,6,0,L|402:246,1,103.500001974106,10|0,0:0|0:0,0:0:0:0:
391,54,227659,2,0,L|399:157,1,103.500001974106,10|0,0:0|0:0,0:0:0:0:
308,87,227822,69,0,0:0:0:0:
254,77,227904,1,0,0:0:0:0:
202,68,227986,1,0,0:0:0:0:
151,58,228067,1,0,0:0:0:0:
100,48,228149,6,0,L|107:151,1,103.500001974106,10|0,0:0|0:0,0:0:0:0:
119,344,228312,2,0,L|110:240,1,103.500001974106,10|0,0:0|0:0,0:0:0:0:
195,196,228476,5,8,0:0:0:0:
252,188,228558,1,8,0:0:0:0:
302,217,228639,1,8,0:0:0:0:
351,280,228721,1,8,0:0:0:0:
416,336,228803,2,0,P|468:356|530:348,1,103.500001974106,14|0,0:0|0:0,0:0:0:0:
451,148,228966,2,0,P|477:141|502:142,3,51.7500009870529,8|8|8|8,0:0|0:0|0:0|0:0,0:0:0:0:
466,111,229130,6,0,P|407:139|337:109,1,135,6|0,0:0|0:0,0:0:0:0:
335,25,229457,6,0,L|200:16,1,107.999996704102,14|0,0:0|0:0,0:0:0:0:
153,12,229620,2,0,L|11:5,1,107.999996704102,10|0,0:0|0:0,0:0:0:0:
9,109,229784,53,8,0:0:0:0:
44,115,229866,1,0,0:0:0:0:
88,142,229947,1,0,0:0:0:0:
117,194,230029,1,0,0:0:0:0:
164,240,230111,2,0,L|304:249,1,107.999996704102,10|0,0:0|0:0,0:0:0:0:
349,252,230274,2,0,L|491:261,1,107.999996704102,10|0,0:0|0:0,0:0:0:0:
506,175,230438,53,8,0:0:0:0:
471,169,230520,1,0,0:0:0:0:
427,142,230601,1,8,0:0:0:0:
398,90,230683,1,0,0:0:0:0:
351,44,230765,2,0,L|212:33,1,107.999996704102,10|0,0:0|0:0,0:0:0:0:
166,30,230928,2,0,L|23:19,1,107.999996704102,10|0,0:0|0:0,0:0:0:0:
12,190,231092,53,8,0:0:0:0:
57,159,231174,1,8,0:0:0:0:
119,153,231255,1,8,0:0:0:0:
194,180,231337,1,8,0:0:0:0:
247,250,231419,54,0,P|289:304|444:239,1,215.999993408203,14|10,0:0|0:0,0:0:0:0:
462,168,231664,1,0,0:0:0:0:
457,152,231746,2,0,P|443:136|347:124,1,107.999996704102,14|0,0:0|0:0,0:0:0:0:
281,42,231909,5,8,0:0:0:0:
282,51,231964,1,0,0:0:0:0:
284,60,232018,1,0,0:0:0:0:
285,68,232073,38,0,L|151:42,1,107.999996704102,14|0,0:0|0:0,0:0:0:0:
50,24,232236,2,0,L|115:135,1,107.999996704102,10|0,0:0|0:0,0:0:0:0:
55,215,232400,53,8,0:0:0:0:
97,222,232481,1,8,0:0:0:0:
150,254,232563,1,8,0:0:0:0:
185,317,232645,1,8,0:0:0:0:
241,372,232727,2,0,L|409:382,1,107.999996704102,10|0,0:0|0:0,0:0:0:0:
484,363,232890,2,0,L|410:278,1,107.999996704102,10|8,0:0|0:0,0:0:0:0:
427,133,233054,53,8,0:0:0:0:
383,140,233135,1,8,0:0:0:0:
328,174,233217,1,8,0:0:0:0:
292,239,233299,1,8,0:0:0:0:
233,296,233381,2,0,L|59:309,1,107.999996704102,10|0,0:0|0:0,0:0:0:0:
1,284,233544,2,0,L|109:168,1,107.999996704102,10|8,0:0|0:0,0:0:0:0:
17,82,233708,53,8,0:0:0:0:
70,44,233789,1,8,0:0:0:0:
145,37,233871,1,8,0:0:0:0:
222,61,233953,1,8,0:0:0:0:
288,129,234035,54,0,P|338:193|333:78,1,243.000000926971,14|0,0:0|0:0,0:0:0:0:
210,207,234253,2,0,P|162:247|174:143,1,243.000000926971,12|0,0:0|0:0,0:0:0:0:
277,271,234471,2,0,P|310:288|486:190,1,243.000000926971,12|0,0:0|0:0,0:0:0:0:
478,202,234689,1,8,0:0:0:0:
33,336,235015,21,8,0:0:0:0:
135,294,235179,1,0,0:0:0:0:
220,350,235342,21,2,0:0:0:0:
236,337,235424,1,0,0:0:0:0:
267,353,235506,85,2,0:0:0:0:
289,341,235588,1,0,0:0:0:0:
319,359,235669,21,2,0:0:0:0:
358,353,235751,1,0,0:0:0:0:
395,369,235833,5,2,0:0:0:0:
397,360,235887,1,0,0:0:0:0:
401,350,235942,1,0,0:0:0:0:
404,338,235996,101,8,0:0:0:0:
463,206,236160,1,0,0:0:0:0:
434,215,236242,1,0,0:0:0:0:
417,232,236323,1,0,0:0:0:0:
311,208,236487,1,0,0:0:0:0:
307,222,236569,1,0,0:0:0:0:
307,233,236650,54,0,L|303:257,16,22.5,2|0|0|0|0|0|0|0|0|0|0|0|0|0|0|0|10,0:0|0:0|0:0|0:0|0:0|0:0|0:0|0:0|0:0|0:0|0:0|0:0|0:0|0:0|0:0|0:0|0:0,0:0:0:0:
296,233,237958,53,2,0:0:0:0:
280,227,238040,1,0,0:0:0:0:
261,225,238122,1,0,0:0:0:0:
247,227,238203,1,0,0:0:0:0:
259,196,238285,53,6,0:0:0:0:
221,216,238367,1,0,0:0:0:0:
169,218,238449,1,0,0:0:0:0:
119,190,238530,1,0,0:0:0:0:
94,131,238612,21,10,3:0:0:0:
263,5,238776,2,0,P|274:43|296:85,1,67.5000025749208,0|0,0:0|0:0,0:0:0:0:
316,82,238939,1,8,0:0:0:0:
341,72,239021,1,0,0:0:0:0:
376,93,239103,1,0,0:0:0:0:
413,84,239184,1,0,0:0:0:0:
432,48,239266,22,0,P|404:69|382:170,1,135.000005149842,2|2,0:0|0:0,0:0:0:0:
384,292,239511,1,0,0:0:0:0:
388,277,239593,53,10,0:0:0:0:
355,250,239675,1,0,0:0:0:0:
305,244,239757,1,2,0:0:0:0:
273,266,239838,1,0,0:0:0:0:
272,277,239920,21,10,0:0:0:0:
136,259,240084,2,0,P|125:235|114:186,1,67.5000025749208,0|0,0:0|0:0,0:0:0:0:
151,164,240247,1,8,0:0:0:0:
178,139,240329,1,0,0:0:0:0:
220,144,240411,1,0,0:0:0:0:
263,141,240492,1,0,0:0:0:0:
290,107,240574,22,0,P|246:123|172:204,1,135.000005149842,10|2,0:0|0:0,0:0:0:0:
424,168,240901,1,10,0:0:0:0:
445,202,240983,1,2,0:0:0:0:
428,248,241065,1,2,0:0:0:0:
378,273,241146,1,2,0:0:0:0:
371,266,241228,53,10,0:0:0:0:
216,359,241392,2,0,P|206:340|189:285,1,67.5000025749208,0|0,0:0|0:0,0:0:0:0:
112,276,241555,21,8,3:2:0:0:
70,185,241664,1,0,3:0:0:0:
132,129,241773,1,0,3:0:0:0:
197,165,241882,22,0,L|345:131,1,135.000005149842,8|0,3:2|0:0,0:0:0:0:
337,147,242100,2,0,L|185:145,1,135.000005149842,0|0,3:0|0:0,0:0:0:0:
259,100,242318,2,0,L|288:258,1,135.000005149842,0|0,3:0|0:0,0:0:0:0:
295,240,242536,53,12,3:2:0:0:
401,366,242699,2,0,P|423:333|437:298,1,67.5000025749208,0|0,0:0|0:0,0:0:0:0:
476,306,242863,1,8,0:0:0:0:
501,269,242945,1,0,0:0:0:0:
498,224,243026,1,0,0:0:0:0:
455,194,243108,1,0,0:0:0:0:
402,213,243190,21,12,0:0:0:0:
428,108,243353,37,2,0:0:0:0:
430,100,243408,1,10,0:0:0:0:
431,93,243462,1,10,0:0:0:0:
431,85,243517,1,14,0:0:0:0:
348,20,243680,1,12,0:0:0:0:
262,118,243844,53,12,0:0:0:0:
237,103,243926,1,0,0:0:0:0:
208,99,244007,1,0,0:0:0:0:
181,108,244089,1,0,0:0:0:0:
160,127,244171,1,8,0:0:0:0:
148,153,244253,1,0,0:0:0:0:
148,182,244334,1,0,0:0:0:0:
160,208,244416,1,0,0:0:0:0:
183,228,244498,21,8,0:0:0:0:
212,244,244580,1,0,0:0:0:0:
245,249,244661,1,0,0:0:0:0:
278,243,244743,1,0,0:0:0:0:
306,225,244825,1,10,0:0:0:0:
328,199,244906,1,0,0:0:0:0:
356,182,244988,1,2,0:0:0:0:
389,176,245070,1,2,0:0:0:0:
423,182,245152,85,10,0:0:0:0:
393,198,245233,1,0,0:0:0:0:
360,203,245315,1,0,0:0:0:0:
327,197,245397,1,0,0:0:0:0:
303,176,245479,5,10,0:0:0:0:
270,137,245560,1,0,0:0:0:0:
228,111,245642,1,0,0:0:0:0:
178,102,245724,1,0,0:0:0:0:
127,111,245806,85,10,0:0:0:0:
86,140,245887,1,0,0:0:0:0:
71,187,245969,1,0,0:0:0:0:
86,234,246051,1,0,0:0:0:0:
127,263,246133,53,10,0:0:0:0:
192,273,246214,1,0,0:0:0:0:
252,244,246296,1,0,0:0:0:0:
283,185,246378,1,0,0:0:0:0:
331,137,246460,70,0,P|368:127|471:132,1,90,14|0,0:0|0:0,0:0:0:0:
489,187,246623,2,0,P|516:239|518:295,1,90,8|0,0:0|0:0,0:0:0:0:
454,350,246787,2,0,P|417:360|314:355,1,90,8|0,0:0|0:0,0:0:0:0:
296,300,246950,2,0,P|269:248|267:192,1,90,8|0,0:0|0:0,0:0:0:0:
230,26,247114,22,0,P|193:16|90:21,1,90,14|0,0:0|0:0,0:0:0:0:
52,75,247277,2,0,P|25:127|23:183,1,90,8|0,0:0|0:0,0:0:0:0:
89,262,247441,2,0,P|126:272|229:267,1,90,14|0,0:0|0:0,0:0:0:0:
273,195,247604,2,0,P|300:143|302:87,1,90,8|0,0:0|0:0,0:0:0:0:
331,19,247768,85,14,0:0:0:0:
371,7,247849,1,8,0:0:0:0:
415,26,247931,2,0,L|461:2,1,45,8|0,0:0|0:0,0:0:0:0:
425,65,248013,2,0,L|358:94,1,45,8|0,0:0|0:0,0:0:0:0:
407,108,248095,1,8,0:0:0:0:
376,152,248176,1,8,0:0:0:0:
367,202,248258,1,8,0:0:0:0:
372,249,248340,1,8,0:0:0:0:
399,287,248421,6,0,L|439:258,1,45,10|8,0:0|0:0,0:0:0:0:
403,330,248503,2,0,L|472:341,1,45,8|8,0:0|0:0,0:0:0:0:
374,356,248585,1,8,0:0:0:0:
326,341,248667,2,0,L|311:390,1,45,10|8,0:0|0:0,0:0:0:0:
301,305,248748,2,0,L|258:361,1,45,8|8,0:0|0:0,0:0:0:0:
255,290,248830,1,8,0:0:0:0:
204,300,248912,1,10,0:0:0:0:
171,338,248994,1,8,0:0:0:0:
174,349,249075,21,12,0:0:0:0:
89,232,249239,2,0,P|97:203|117:171,1,67.5000025749208,0|0,0:0|0:0,0:0:0:0:
141,169,249402,1,8,0:0:0:0:
173,181,249484,1,0,0:0:0:0:
201,158,249566,1,0,0:0:0:0:
248,167,249648,1,0,0:0:0:0:
276,196,249729,54,0,P|239:167|210:33,1,135.000005149842,2|2,0:0|0:0,0:0:0:0:
429,47,249975,1,0,0:0:0:0:
433,62,250056,21,10,0:0:0:0:
400,89,250138,1,0,0:0:0:0:
350,95,250220,1,2,0:0:0:0:
318,73,250302,1,0,0:0:0:0:
317,62,250383,21,10,0:0:0:0:
511,224,250547,2,0,P|487:238|471:274,1,67.5000025749208,0|0,0:0|0:0,0:0:0:0:
442,271,250710,1,8,0:0:0:0:
414,296,250792,1,0,0:0:0:0:
373,291,250874,1,0,0:0:0:0:
329,293,250956,1,0,0:0:0:0:
288,296,251037,54,0,P|332:280|406:199,1,135.000005149842,10|2,0:0|0:0,0:0:0:0:
155,347,251364,1,10,0:0:0:0:
133,314,251446,1,2,0:0:0:0:
150,268,251528,1,2,0:0:0:0:
200,243,251609,1,2,0:0:0:0:
207,250,251691,21,10,0:0:0:0:
44,283,251855,2,0,P|34:264|17:209,1,67.5000025749208,0|0,0:0|0:0,0:0:0:0:
82,156,252018,21,8,3:2:0:0:
2,94,252127,1,0,3:0:0:0:
30,17,252236,1,0,3:0:0:0:
134,36,252345,54,0,L|282:2,1,135.000005149842,8|0,3:2|0:0,0:0:0:0:
337,60,252563,2,0,L|195:40,1,135.000005149842,0|0,3:0|0:0,0:0:0:0:
254,14,252781,2,0,L|283:172,1,135.000005149842,0|0,3:0|0:0,0:0:0:0:
274,164,252999,21,12,3:2:0:0:
387,312,253163,2,0,P|409:279|423:244,1,67.5000025749208,0|0,0:0|0:0,0:0:0:0:
462,252,253326,1,8,0:0:0:0:
487,215,253408,1,0,0:0:0:0:
484,170,253490,1,0,0:0:0:0:
441,140,253571,1,0,0:0:0:0:
388,159,253653,21,12,0:0:0:0:
286,256,253817,5,10,0:0:0:0:
288,264,253871,1,10,0:0:0:0:
289,271,253926,1,10,0:0:0:0:
289,279,253980,1,14,0:0:0:0:
209,352,254144,1,12,0:0:0:0:
187,162,254307,53,12,0:0:0:0:
212,177,254389,1,0,0:0:0:0:
241,181,254471,1,0,0:0:0:0:
268,172,254552,1,0,0:0:0:0:
289,153,254634,1,8,0:0:0:0:
301,127,254716,1,0,0:0:0:0:
301,98,254798,1,0,0:0:0:0:
289,72,254879,1,0,0:0:0:0:
266,52,254961,21,8,0:0:0:0:
237,36,255043,1,0,0:0:0:0:
204,31,255124,1,0,0:0:0:0:
171,37,255206,1,0,0:0:0:0:
143,55,255288,1,10,0:0:0:0:
121,81,255370,1,0,0:0:0:0:
93,98,255451,1,2,0:0:0:0:
60,104,255533,1,2,0:0:0:0:
26,98,255615,85,10,0:0:0:0:
56,82,255697,1,0,0:0:0:0:
89,77,255778,1,0,0:0:0:0:
122,83,255860,1,0,0:0:0:0:
146,104,255942,5,10,0:0:0:0:
179,143,256024,1,0,0:0:0:0:
221,169,256105,1,0,0:0:0:0:
271,178,256187,1,0,0:0:0:0:
322,169,256269,85,10,0:0:0:0:
363,140,256351,1,0,0:0:0:0:
378,93,256432,1,0,0:0:0:0:
363,46,256514,1,0,0:0:0:0:
322,17,256596,53,10,0:0:0:0:
257,7,256678,1,0,0:0:0:0:
197,36,256759,1,0,0:0:0:0:
166,95,256841,1,0,0:0:0:0:
156,167,256923,70,0,L|146:303,1,112.5,14|0,0:0|0:0,0:0:0:0:
268,256,257086,2,0,L|260:372,1,112.5,8|0,0:0|0:0,0:0:0:0:
415,370,257250,6,0,B|422:313|422:313|338:221,2,150,14|0|0,3:2|3:2|3:2,0:0:0:0:
512,263,257577,85,14,3:2:0:0:
444,193,257686,1,0,3:2:0:0:
448,115,257795,1,0,3:2:0:0:
499,75,257904,53,14,3:2:0:0:
392,106,258013,1,0,3:2:0:0:
344,53,258122,1,0,3:2:0:0:
299,88,258231,102,0,L|165:49,1,112.5,14|8,3:2|0:0,0:0:0:0:
126,137,258394,2,0,L|57:117,2,56.25,8|8|8,0:0|0:0|0:0,0:0:0:0:
215,278,258558,2,0,L|95:238,1,112.5,14|8,0:0|0:0,0:0:0:0:
106,356,258721,2,0,L|17:328,2,56.25,8|0|8,0:0|0:0|0:0,0:0:0:0:
251,366,258885,5,14,3:2:0:0:
329,286,258994,1,0,3:2:0:0:
422,299,259103,1,0,3:2:0:0:
475,353,259212,85,14,3:2:0:0:
421,278,259321,1,0,3:2:0:0:
427,178,259430,1,0,3:2:0:0:
504,85,259539,85,14,3:2:0:0:
258,171,259866,53,8,0:0:0:0:
225,202,259947,1,8,0:0:0:0:
170,219,260029,1,8,0:0:0:0:
113,196,260111,1,8,0:0:0:0:
69,134,260193,1,14,0:0:0:0:
141,19,260356,5,0,0:0:0:0:
144,30,260411,1,0,0:0:0:0:
147,41,260465,1,0,0:0:0:0:
150,53,260520,54,0,L|183:182,1,112.5,8|8,0:0|0:0,0:0:0:0:
369,188,260683,2,0,L|327:326,1,112.5,8|8,0:0|0:0,0:0:0:0:
246,370,260847,5,14,0:0:0:0:
73,241,261010,1,8,0:0:0:0:
75,268,261092,1,8,0:0:0:0:
77,296,261174,1,14,0:0:0:0:
272,152,261337,2,0,L|264:80,3,56.25,8|8|8|8,0:0|0:0|0:0|0:0,0:0:0:0:
274,168,261500,1,6,0:0:0:0:
112,69,261664,2,0,L|120:-3,3,56.25,8|8|8|8,0:0|0:0|0:0|0:0,0:0:0:0:
109,109,261827,1,14,0:0:0:0:
403,26,261991,21,8,0:0:0:0:
412,102,262073,1,8,0:0:0:0:
420,176,262154,1,14,3:0:0:0:
256,192,262236,12,0,264770,0:0:0:0:
