osu file format v14

[General]
AudioFilename: xi - Anima.mp3
AudioLeadIn: 0
PreviewTime: 10327
Countdown: 0
SampleSet: Soft
StackLeniency: 0.7
Mode: 3
LetterboxInBreaks: 0
SpecialStyle: 0
WidescreenStoryboard: 0

[Editor]
Bookmarks: 113786
DistanceSpacing: 1
BeatDivisor: 16
GridSize: 32
TimelineZoom: 3.380001

[Metadata]
Title:ANiMA
TitleUnicode:ANiMA
Artist:xi
ArtistUnicode:xi
Creator:Chamelo_Th
Version:Insane
Source:
Tags:
BeatmapID:879246
BeatmapSetID:404383

[Difficulty]
HPDrainRate:8
CircleSize:7
OverallDifficulty:8
ApproachRate:5
SliderMultiplier:1.4
SliderTickRate:1

[Events]
//Background and Video events
0,0,"ANiMA.jpg",0,0
//Break Periods
//Storyboard Layer 0 (Background)
//Storyboard Layer 1 (Fail)
//Storyboard Layer 2 (Pass)
//Storyboard Layer 3 (Foreground)
//Storyboard Sound Samples
Sample,98766,0,"A6H.wav",80
Sample,98806,0,"F6H.wav",80
Sample,98847,0,"D6H.wav",80
Sample,98888,0,"B5H.wav",80
Sample,98929,0,"G5H.wav",80
Sample,98970,0,"E5H.wav",80
Sample,99011,0,"C5H.wav",80
Sample,99052,0,"A4H.wav",80
Sample,99093,0,"F4H.wav",80
Sample,99133,0,"D4H.wav",80
Sample,99174,0,"B3H.wav",80
Sample,99215,0,"G3H.wav",80

[TimingPoints]
1307,326.975476839237,4,2,0,15,1,0
44467,-100,4,2,0,15,0,1
65394,-100,4,2,0,15,0,0
99399,-100,4,2,0,15,0,1
111170,-100,4,2,0,15,0,0

[HitObjects]
36,192,1307,128,0,2614:0:0:0:30:C#3H_Db3H.wav
329,192,1307,128,0,2614:0:0:0:50:C4H.wav
475,192,1307,128,0,2614:0:0:0:50:Two_FAb4.wav
109,192,2614,128,0,3922:0:0:0:30:C3H.wav
256,192,2614,128,0,3922:0:0:0:50:A#3H_Bb3H.wav
402,192,2614,128,0,3922:0:0:0:50:Two_EbG4.wav
36,192,3922,128,0,5230:0:0:0:30:F3H.wav
182,192,3922,128,0,5230:0:0:0:50:C4H.wav
475,192,3922,128,0,5230:0:0:0:50:Two_FAb4.wav
402,192,5557,1,0,0:0:0:50:G#4H_Ab4H.wav
256,192,5884,1,0,0:0:0:50:G4H.wav
109,192,6211,1,0,0:0:0:50:D#4H_Eb4H.wav
36,192,6538,128,0,7846:0:0:0:30:C#3H_Db3H.wav
256,192,6538,128,0,7846:0:0:0:50:C4H.wav
402,192,6538,128,0,7846:0:0:0:50:Two_FAb4.wav
109,192,7846,128,0,9154:0:0:0:30:C3H.wav
182,192,7846,128,0,8500:0:0:0:50:A#3H_Bb3H.wav
329,192,7846,128,0,8500:0:0:0:50:Three_DFG4.wav
256,192,8500,128,0,9154:0:0:0:50:E4H.wav
36,192,8500,128,0,9154:0:0:0:30:C2H.wav
182,192,9154,128,0,10462:0:0:0:30:F2H.wav
402,192,9154,128,0,9808:0:0:0:50:C4H.wav
475,192,9154,128,0,10462:0:0:0:50:Two_FAb4.wav
329,192,9808,128,0,10462:0:0:0:50:G#3H_Ab3H.wav
36,192,10462,1,0,0:0:0:34:F1H.wav
182,192,10625,1,0,0:0:0:34:F2H.wav
36,192,10789,1,0,0:0:0:38:F1H.wav
475,192,10789,1,0,0:0:0:54:G#4H_Ab4H.wav
182,192,10952,1,0,0:0:0:38:F2H.wav
36,192,11116,1,0,0:0:0:44:F1H.wav
329,192,11116,1,0,0:0:0:58:G4H.wav
182,192,11279,1,0,0:0:0:44:F2H.wav
36,192,11443,1,0,0:0:0:47:F1H.wav
256,192,11443,1,0,0:0:0:54:D#4H_Eb4H.wav
182,192,11606,1,0,0:0:0:47:F2H.wav
256,192,11770,128,0,12587:0:0:0:50:A#2H_Bb2H.wav
402,192,11770,128,0,12587:0:0:0:70:C#4H_Db4H.wav
475,192,11770,128,0,12587:0:0:0:70:Two_FAb4.wav
36,192,11770,128,0,13078:0:0:0:50:A#1H_Bb1H.wav
182,192,12587,1,0,0:0:0:70:G#3H_Ab3H.wav
329,192,12751,1,0,0:0:0:70:C4H.wav
402,192,12914,1,0,0:0:0:70:F4H.wav
109,192,13078,128,0,14386:0:0:0:50:A#1H_Bb1H.wav
256,192,13078,128,0,13895:0:0:0:70:F4H.wav
402,192,13118,128,0,13895:0:0:0:70:G#4H_Ab4H.wav
475,192,13159,128,0,13895:0:0:0:70:C5H.wav
182,192,13895,1,0,0:0:0:70:G#3H_Ab3H.wav
256,192,14059,1,0,0:0:0:70:C4H.wav
475,192,14222,1,0,0:0:0:70:C5H.wav
329,192,14222,1,0,0:0:0:70:G#4H_Ab4H.wav
256,192,14386,1,0,0:0:0:70:E4H.wav
402,192,14386,1,0,0:0:0:70:Two_GBb4.wav
36,192,14386,128,0,15039:0:0:0:50:C2H.wav
182,192,14386,128,0,15039:0:0:0:50:C3H.wav
109,192,15039,1,0,0:0:0:50:C2H.wav
402,192,15039,1,0,0:0:0:70:C5H.wav
329,192,15039,128,0,15693:0:0:0:70:G4H.wav
475,192,15039,128,0,15693:0:0:0:70:D#5H_Eb5H.wav
36,192,15693,1,0,0:0:0:50:F2H.wav
182,192,15693,1,0,0:0:0:70:Two_FAb4.wav
109,192,15693,128,0,16347:0:0:0:50:F3H.wav
402,192,15693,128,0,16347:0:0:0:70:C5H.wav
36,192,16347,1,0,0:0:0:50:F2H.wav
475,192,16347,1,0,0:0:0:70:C5H.wav
182,192,16347,128,0,17001:0:0:0:70:Two_EbG4.wav
329,192,16347,128,0,17001:0:0:0:70:G#4H_Ab4H.wav
109,192,17001,1,0,0:0:0:50:D3H.wav
36,192,17001,128,0,18309:0:0:0:50:D2H.wav
475,192,17001,128,0,17492:0:0:0:70:C5H.wav
402,192,17001,1,0,0:0:0:70:Two_FAb4.wav
182,192,17492,1,0,0:0:0:70:C4H.wav
329,192,17655,1,0,0:0:0:70:F4H.wav
182,192,17819,1,0,0:0:0:70:C4H.wav
329,192,17982,1,0,0:0:0:70:F4H.wav
256,192,18064,1,0,0:0:0:70:C4H.wav
329,192,18146,1,0,0:0:0:70:F4H.wav
109,192,18146,1,0,0:0:0:50:D2H.wav
402,192,18227,1,0,0:0:0:70:G4H.wav
475,192,18309,1,0,0:0:0:70:G#4H_Ab4H.wav
109,192,18309,128,0,19617:0:0:0:50:D2H.wav
182,192,18309,128,0,18963:0:0:0:70:C4H.wav
329,192,18309,128,0,18636:0:0:0:70:F4H.wav
402,192,18636,128,0,18963:0:0:0:70:F5H.wav
475,192,18963,128,0,19290:0:0:0:70:G5H.wav
329,192,18963,128,0,19290:0:0:0:70:G4H.wav
256,192,19290,1,0,0:0:0:70:G5H.wav
36,192,19372,1,0,0:0:0:70:D#5H_Eb5H.wav
402,192,19454,1,0,0:0:0:70:F5H.wav
182,192,19454,1,0,0:0:0:50:D2H.wav
329,192,19535,1,0,0:0:0:70:G5H.wav
475,192,19617,1,0,0:0:0:70:G#5H_Ab5H.wav
36,192,19617,1,0,0:0:0:50:D#2H_Eb2H.wav
402,192,19617,128,0,20271:0:0:0:50:D#3H_Eb3H.wav
329,192,19862,1,0,0:0:0:70:A#5H_Bb5H.wav
182,192,19944,1,0,0:0:0:70:G#5H_Ab5H.wav
329,192,20026,1,0,0:0:0:70:A#5H_Bb5H.wav
182,192,20108,1,0,0:0:0:70:G#5H_Ab5H.wav
36,192,20108,1,0,0:0:0:50:D#2H_Eb2H.wav
329,192,20189,1,0,0:0:0:70:A#5H_Bb5H.wav
182,192,20271,1,0,0:0:0:70:G#5H_Ab5H.wav
475,192,20271,1,0,0:0:0:50:D#3H_Eb3H.wav
36,192,20271,128,0,20925:0:0:0:50:D#2H_Eb2H.wav
329,192,20353,1,0,0:0:0:70:A#5H_Bb5H.wav
182,192,20435,1,0,0:0:0:70:G#5H_Ab5H.wav
329,192,20516,1,0,0:0:0:70:A#5H_Bb5H.wav
182,192,20598,1,0,0:0:0:70:G#5H_Ab5H.wav
329,192,20680,1,0,0:0:0:70:A#5H_Bb5H.wav
182,192,20762,1,0,0:0:0:70:G#5H_Ab5H.wav
109,192,20762,1,0,0:0:0:50:D#2H_Eb2H.wav
329,192,20816,1,0,0:0:0:70:A#5H_Bb5H.wav
256,192,20871,1,0,0:0:0:70:G#5H_Ab5H.wav
182,192,20925,1,0,0:0:0:70:G5H.wav
475,192,20925,1,0,0:0:0:50:D#2H_Eb2H.wav
109,192,20925,128,0,21579:0:0:0:45:D#3H_Eb3H.wav
402,192,21252,1,0,0:0:0:40:D#2H_Eb2H.wav
329,192,21579,1,0,0:0:0:45:E2H.wav
256,192,21742,1,0,0:0:0:45:E2H.wav
475,192,21824,1,0,0:0:0:70:G4H.wav
182,192,21906,1,0,0:0:0:45:E2H.wav
402,192,21906,1,0,0:0:0:70:E4H.wav
329,192,21988,1,0,0:0:0:70:C4H.wav
109,192,22069,1,0,0:0:0:45:E2H.wav
256,192,22069,1,0,0:0:0:70:A#3H_Bb3H.wav
182,192,22151,1,0,0:0:0:70:G3H.wav
36,192,22233,1,0,0:0:0:45:E2H.wav
109,192,22560,128,0,23541:0:0:0:45:E3H.wav
182,192,22887,1,0,0:0:0:72:C4H.wav
36,192,22969,1,0,0:0:0:73:G3H.wav
182,192,23050,1,0,0:0:0:74:C4H.wav
329,192,23132,1,0,0:0:0:75:E4H.wav
402,192,23214,1,0,0:0:0:76:G4H.wav
256,192,23296,1,0,0:0:0:77:E4H.wav
402,192,23377,1,0,0:0:0:78:G4H.wav
475,192,23459,1,0,0:0:0:79:C5H.wav
329,192,23541,1,0,0:0:0:80:Two_FAb4.wav
182,192,23541,1,0,0:0:0:55:C4H.wav
36,192,23541,1,0,0:0:0:45:Two_F2F3.wav
36,192,23704,1,0,0:0:0:55:G#3H_Ab3H.wav
182,192,23786,1,0,0:0:0:55:C4H.wav
475,192,23868,1,0,0:0:0:55:G#4H_Ab4H.wav
329,192,23868,1,0,0:0:0:45:F2H.wav
109,192,24031,1,0,0:0:0:45:Two_Db2Db3.wav
256,192,24031,1,0,0:0:0:55:C#4H_Db4H.wav
402,192,24031,1,0,0:0:0:80:Two_FAb4.wav
475,192,24195,1,0,0:0:0:55:G#3H_Ab3H.wav
329,192,24277,1,0,0:0:0:55:C4H.wav
182,192,24358,1,0,0:0:0:55:G#4H_Ab4H.wav
36,192,24358,1,0,0:0:0:45:C#2H_Db2H.wav
182,192,24522,1,0,0:0:0:45:Two_Bb1Bb2.wav
329,192,24522,1,0,0:0:0:55:C#4H_Db4H.wav
475,192,24522,1,0,0:0:0:80:Two_FAb4.wav
109,192,24685,1,0,0:0:0:55:A#3H_Bb3H.wav
182,192,24740,1,0,0:0:0:55:C#4H_Db4H.wav
329,192,24794,1,0,0:0:0:55:F4H.wav
402,192,24849,1,0,0:0:0:55:G#4H_Ab4H.wav
109,192,24849,1,0,0:0:0:45:A#1H_Bb1H.wav
36,192,25012,1,0,0:0:0:45:Two_Eb2Eb3.wav
256,192,25012,1,0,0:0:0:55:A#3H_Bb3H.wav
475,192,25012,1,0,0:0:0:80:Two_EbAb4.wav
402,192,25176,1,0,0:0:0:55:A#3H_Bb3H.wav
256,192,25257,1,0,0:0:0:55:D#4H_Eb4H.wav
109,192,25339,1,0,0:0:0:55:G#4H_Ab4H.wav
36,192,25339,1,0,0:0:0:45:D#2H_Eb2H.wav
475,192,25503,1,0,0:0:0:80:Two_EAb4.wav
329,192,25503,1,0,0:0:0:55:C4H.wav
109,192,25503,1,0,0:0:0:45:Two_E2E3.wav
182,192,25584,1,0,0:0:0:55:C4H.wav
256,192,25666,1,0,0:0:0:55:F4H.wav
329,192,25748,1,0,0:0:0:55:G#4H_Ab4H.wav
36,192,25830,1,0,0:0:0:45:Two_E2E3.wav
182,192,25830,1,0,0:0:0:55:C4H.wav
402,192,25830,128,0,26157:0:0:0:80:Two_EG4.wav
36,192,26157,1,0,0:0:0:45:Two_F2F3.wav
109,192,26157,1,0,0:0:0:55:C4H.wav
256,192,26157,1,0,0:0:0:80:Two_FAb4.wav
182,192,26320,1,0,0:0:0:55:C4H.wav
475,192,26402,1,0,0:0:0:55:F4H.wav
36,192,26484,1,0,0:0:0:55:G#4H_Ab4H.wav
182,192,26484,1,0,0:0:0:45:F2H.wav
109,192,26647,1,0,0:0:0:45:Two_Db2Db3.wav
256,192,26647,1,0,0:0:0:80:Two_FAb4.wav
402,192,26647,1,0,0:0:0:55:C#4H_Db4H.wav
329,192,26811,1,0,0:0:0:55:C#4H_Db4H.wav
36,192,26892,1,0,0:0:0:55:F4H.wav
475,192,26974,1,0,0:0:0:55:G#4H_Ab4H.wav
329,192,26974,1,0,0:0:0:45:C#2H_Db2H.wav
109,192,27138,1,0,0:0:0:45:Two_Bb1Bb2.wav
256,192,27138,1,0,0:0:0:55:C#4H_Db4H.wav
402,192,27138,1,0,0:0:0:80:Two_FAb4.wav
36,192,27301,1,0,0:0:0:55:A#3H_Bb3H.wav
109,192,27356,1,0,0:0:0:55:C#4H_Db4H.wav
182,192,27410,1,0,0:0:0:55:F4H.wav
475,192,27465,1,0,0:0:0:80:G#4H_Ab4H.wav
329,192,27465,1,0,0:0:0:45:A#1H_Bb1H.wav
256,192,27628,1,0,0:0:0:55:D#4H_Eb4H.wav
109,192,27628,1,0,0:0:0:45:Two_Eb2Eb3.wav
402,192,27628,1,0,0:0:0:80:Two_GBb4.wav
109,192,27792,1,0,0:0:0:45:Two_Eb2Eb3.wav
402,192,27792,1,0,0:0:0:80:Two_GBb4.wav
256,192,27792,1,0,0:0:0:55:D#4H_Eb4H.wav
475,192,28118,1,0,0:0:0:80:C#5H_Db5H.wav
402,192,28118,1,0,0:0:0:80:Two_GBb4.wav
36,192,28118,1,0,0:0:0:45:Two_E2E3.wav
109,192,28200,1,0,0:0:0:55:E4H.wav
256,192,28282,1,0,0:0:0:55:G4H.wav
402,192,28364,1,0,0:0:0:55:C#5H_Db5H.wav
475,192,28445,1,0,0:0:0:80:C5H.wav
109,192,28445,1,0,0:0:0:55:Two_EbG4.wav
36,192,28445,128,0,28772:0:0:0:45:Two_E2E3.wav
182,192,28772,1,0,0:0:0:45:Two_F#2F#3.wav
329,192,28772,1,0,0:0:0:55:C#4H_Db4H.wav
475,192,28772,1,0,0:0:0:80:Two_F#A4.wav
475,192,28936,1,0,0:0:0:45:F#2H_Gb2H.wav
329,192,28936,1,0,0:0:0:55:C#4H_Db4H.wav
182,192,29018,1,0,0:0:0:55:F#4H_Gb4H.wav
475,192,29099,1,0,0:0:0:55:A4H.wav
329,192,29099,1,0,0:0:0:45:F#3H_Gb3H.wav
329,192,29263,1,0,0:0:0:80:Two_F#A4.wav
182,192,29263,1,0,0:0:0:55:D4H.wav
36,192,29263,1,0,0:0:0:45:Two_D2D3.wav
36,192,29426,1,0,0:0:0:55:D4H.wav
182,192,29426,1,0,0:0:0:45:D2H.wav
329,192,29508,1,0,0:0:0:55:F#4H_Gb4H.wav
182,192,29590,1,0,0:0:0:55:A4H.wav
36,192,29590,1,0,0:0:0:45:D3H.wav
475,192,29753,1,0,0:0:0:80:Two_F#A4.wav
329,192,29753,1,0,0:0:0:55:D4H.wav
182,192,29753,1,0,0:0:0:45:Two_B1B2.wav
36,192,29917,1,0,0:0:0:55:B3H.wav
475,192,29917,1,0,0:0:0:45:B1H.wav
182,192,29971,1,0,0:0:0:55:D4H.wav
329,192,30026,1,0,0:0:0:55:F#4H_Gb4H.wav
475,192,30080,1,0,0:0:0:55:A4H.wav
36,192,30080,1,0,0:0:0:45:B2H.wav
475,192,30244,1,0,0:0:0:80:Two_EA4.wav
329,192,30244,1,0,0:0:0:55:B3H.wav
36,192,30244,1,0,0:0:0:45:Two_E2E3.wav
475,192,30407,1,0,0:0:0:55:B3H.wav
329,192,30489,1,0,0:0:0:55:E4H.wav
182,192,30571,1,0,0:0:0:55:A4H.wav
36,192,30571,1,0,0:0:0:45:E2H.wav
36,192,30734,1,0,0:0:0:45:Two_F2F3.wav
329,192,30734,1,0,0:0:0:55:C#4H_Db4H.wav
475,192,30734,1,0,0:0:0:80:Two_FA4.wav
182,192,30816,1,0,0:0:0:55:C#4H_Db4H.wav
329,192,30898,1,0,0:0:0:55:F#4H_Gb4H.wav
475,192,30980,1,0,0:0:0:55:A4H.wav
36,192,31061,1,0,0:0:0:45:Two_F2F3.wav
182,192,31061,1,0,0:0:0:55:C#4H_Db4H.wav
329,192,31061,128,0,31388:0:0:0:80:Two_FG#4.wav
36,192,31388,1,0,0:0:0:45:Two_F#2F#3.wav
182,192,31388,1,0,0:0:0:55:C#4H_Db4H.wav
475,192,31388,1,0,0:0:0:80:Two_F#A4.wav
36,192,31552,1,0,0:0:0:55:C#4H_Db4H.wav
475,192,31552,1,0,0:0:0:45:F#2H_Gb2H.wav
182,192,31633,1,0,0:0:0:55:F#4H_Gb4H.wav
329,192,31715,1,0,0:0:0:55:A4H.wav
475,192,31715,1,0,0:0:0:45:F#3H_Gb3H.wav
36,192,31879,1,0,0:0:0:45:Two_D2D3.wav
182,192,31879,1,0,0:0:0:55:D4H.wav
329,192,31879,1,0,0:0:0:80:Two_F#A4.wav
329,192,32042,1,0,0:0:0:55:D4H.wav
475,192,32042,1,0,0:0:0:45:D2H.wav
182,192,32124,1,0,0:0:0:55:F#4H_Gb4H.wav
36,192,32206,1,0,0:0:0:55:A4H.wav
475,192,32206,1,0,0:0:0:45:D3H.wav
36,192,32369,1,0,0:0:0:45:Two_B1B2.wav
182,192,32369,1,0,0:0:0:55:D4H.wav
329,192,32369,1,0,0:0:0:80:Two_F#A4.wav
36,192,32533,1,0,0:0:0:55:B3H.wav
475,192,32533,1,0,0:0:0:45:B1H.wav
182,192,32587,1,0,0:0:0:55:D4H.wav
329,192,32642,1,0,0:0:0:55:F#4H_Gb4H.wav
475,192,32696,1,0,0:0:0:55:A4H.wav
36,192,32696,1,0,0:0:0:45:B2H.wav
182,192,32860,1,0,0:0:0:45:Two_E2E3.wav
329,192,32860,1,0,0:0:0:80:Two_EA4.wav
475,192,32860,1,0,0:0:0:55:B4H.wav
329,192,33023,1,0,0:0:0:80:Two_EG#4.wav
182,192,33023,1,0,0:0:0:45:Two_E2E3.wav
475,192,33023,128,0,33350:0:0:0:55:B4H.wav
109,192,33350,1,0,0:0:0:80:C#4H_Db4H.wav
36,192,33350,1,0,0:0:0:45:Two_F2F3.wav
182,192,33432,1,0,0:0:0:80:F4H.wav
256,192,33514,1,0,0:0:0:80:G#4H_Ab4H.wav
329,192,33595,1,0,0:0:0:80:B4H.wav
182,192,33677,1,0,0:0:0:80:C#5H_Db5H.wav
109,192,33677,1,0,0:0:0:45:Two_F1F2.wav
256,192,33759,1,0,0:0:0:80:F5H.wav
329,192,33841,1,0,0:0:0:80:G#5H_Ab5H.wav
402,192,33922,1,0,0:0:0:80:B5H.wav
109,192,34004,1,0,0:0:0:45:Two_F#2F#3.wav
329,192,34004,1,0,0:0:0:80:Two_C#E5.wav
475,192,34004,1,0,0:0:0:80:A5H.wav
256,192,34168,1,0,0:0:0:80:C#5H_Db5H.wav
475,192,34249,1,0,0:0:0:80:A5H.wav
36,192,34331,1,0,0:0:0:45:F#2H_Gb2H.wav
256,192,34331,1,0,0:0:0:80:Two_C#E5.wav
402,192,34331,1,0,0:0:0:80:G#5H_Ab5H.wav
182,192,34495,1,0,0:0:0:80:C#5H_Db5H.wav
402,192,34576,1,0,0:0:0:80:G#5H_Ab5H.wav
36,192,34658,1,0,0:0:0:45:Two_E1E2.wav
182,192,34658,1,0,0:0:0:80:Two_G#B4.wav
329,192,34658,1,0,0:0:0:80:E5H.wav
109,192,34821,1,0,0:0:0:80:F#4H_Gb4H.wav
182,192,34903,1,0,0:0:0:80:G#4H_Ab4H.wav
256,192,34985,1,0,0:0:0:45:E1H.wav
402,192,34985,1,0,0:0:0:80:B4H.wav
475,192,35067,1,0,0:0:0:80:E5H.wav
182,192,35148,1,0,0:0:0:80:F#4H_Gb4H.wav
329,192,35230,1,0,0:0:0:80:G#4H_Ab4H.wav
256,192,35312,1,0,0:0:0:80:Two_F#A4.wav
109,192,35312,1,0,0:0:0:45:Two_D#1D#2.wav
402,192,35312,1,0,0:0:0:80:C#5H_Db5H.wav
36,192,35475,1,0,0:0:0:80:F#4H_Gb4H.wav
109,192,35557,1,0,0:0:0:80:A4H.wav
182,192,35639,1,0,0:0:0:80:A#4H_Bb4H.wav
36,192,35639,1,0,0:0:0:45:D#1H_Eb1H.wav
256,192,35693,1,0,0:0:0:80:B4H.wav
329,192,35748,1,0,0:0:0:80:C5H.wav
475,192,35802,128,0,35966:0:0:0:80:C#5H_Db5H.wav
402,192,35802,128,0,35966:0:0:0:80:A4H.wav
256,192,35966,1,0,0:0:0:45:D#2H_Eb2H.wav
109,192,35966,128,0,36293:0:0:0:80:F#4H_Gb4H.wav
36,192,35966,128,0,36293:0:0:0:80:D#4H_Eb4H.wav
182,192,36293,1,0,0:0:0:80:F#4H_Gb4H.wav
329,192,36293,1,0,0:0:0:45:D#1H_Eb1H.wav
256,192,36375,1,0,0:0:0:80:G#4H_Ab4H.wav
329,192,36456,1,0,0:0:0:80:A4H.wav
402,192,36538,1,0,0:0:0:80:B4H.wav
329,192,36620,1,0,0:0:0:80:Two_DF#4.wav
182,192,36620,1,0,0:0:0:45:Two_B1B2.wav
475,192,36620,1,0,0:0:0:80:Two_A4C#5.wav
109,192,36783,1,0,0:0:0:80:B3H.wav
256,192,36865,1,0,0:0:0:80:F#4H_Gb4H.wav
475,192,36947,1,0,0:0:0:80:D4H.wav
402,192,36947,1,0,0:0:0:45:B1H.wav
329,192,37029,1,0,0:0:0:80:A4H.wav
256,192,37110,1,0,0:0:0:80:D5H.wav
182,192,37192,1,0,0:0:0:80:C#5H_Db5H.wav
109,192,37274,1,0,0:0:0:80:D#4H_Eb4H.wav
36,192,37274,1,0,0:0:0:45:Two_C2C3.wav
475,192,37274,128,0,37601:0:0:0:80:Two_G#B4.wav
182,192,37601,1,0,0:0:0:80:C#4H_Db4H.wav
329,192,37601,1,0,0:0:0:80:Two_FG#4.wav
109,192,37601,128,0,37928:0:0:0:45:Two_F2F3.wav
475,192,37928,1,0,0:0:0:80:Two_A3C#4.wav
182,192,37928,1,0,0:0:0:45:Two_F#2F#3.wav
329,192,37928,1,0,0:0:0:80:Two_EG#4.wav
329,192,38091,1,0,0:0:0:80:C#4H_Db4H.wav
182,192,38091,1,0,0:0:0:45:F#2H_Gb2H.wav
402,192,38173,1,0,0:0:0:80:F#4H_Gb4H.wav
109,192,38255,1,0,0:0:0:80:A4H.wav
475,192,38255,1,0,0:0:0:45:Two_E2E3.wav
256,192,38336,1,0,0:0:0:80:C#4H_Db4H.wav
329,192,38418,1,0,0:0:0:80:F#4H_Gb4H.wav
109,192,38418,1,0,0:0:0:45:E2H.wav
402,192,38500,1,0,0:0:0:80:A4H.wav
475,192,38582,1,0,0:0:0:80:C#5H_Db5H.wav
36,192,38582,1,0,0:0:0:45:Two_D2D3.wav
256,192,38663,1,0,0:0:0:80:F#4H_Gb4H.wav
329,192,38745,1,0,0:0:0:80:A4H.wav
36,192,38745,1,0,0:0:0:45:D2H.wav
475,192,38827,1,0,0:0:0:80:C#5H_Db5H.wav
402,192,38909,1,0,0:0:0:80:F#5H_Gb5H.wav
109,192,38909,1,0,0:0:0:45:Two_C#2C#3.wav
256,192,38990,1,0,0:0:0:80:A4H.wav
109,192,39072,1,0,0:0:0:45:C#2H_Db2H.wav
402,192,39072,1,0,0:0:0:80:C#5H_Db5H.wav
475,192,39154,1,0,0:0:0:80:F#5H_Gb5H.wav
36,192,39236,1,0,0:0:0:45:Two_B1B2.wav
256,192,39236,1,0,0:0:0:80:Two_A4D5.wav
329,192,39236,1,0,0:0:0:80:F#5H_Gb5H.wav
109,192,39440,1,0,0:0:0:80:A4H.wav
256,192,39481,1,0,0:0:0:80:D5H.wav
402,192,39522,1,0,0:0:0:80:F#5H_Gb5H.wav
36,192,39563,1,0,0:0:0:45:B1H.wav
182,192,39563,1,0,0:0:0:80:D5H.wav
475,192,39563,128,0,39890:0:0:0:80:A5H.wav
402,192,39890,1,0,0:0:0:80:G#5H_Ab5H.wav
109,192,39890,1,0,0:0:0:45:Two_E2E3.wav
256,192,39890,128,0,40217:0:0:0:80:Two_B4E5.wav
109,192,40053,1,0,0:0:0:45:E3H.wav
402,192,40217,1,0,0:0:0:80:G#5H_Ab5H.wav
36,192,40217,1,0,0:0:0:45:E2H.wav
329,192,40298,1,0,0:0:0:80:F#5H_Gb5H.wav
256,192,40380,1,0,0:0:0:80:F5H.wav
36,192,40380,1,0,0:0:0:45:D3H.wav
329,192,40462,1,0,0:0:0:80:F#5H_Gb5H.wav
256,192,40544,1,0,0:0:0:80:Two_C#F5.wav
109,192,40544,1,0,0:0:0:45:Two_C#2C#3.wav
402,192,40544,1,0,0:0:0:80:G#5H_Ab5H.wav
256,192,40748,1,0,0:0:0:80:C#5H_Db5H.wav
182,192,40789,1,0,0:0:0:80:E5H.wav
109,192,40830,1,0,0:0:0:80:G#5H_Ab5H.wav
329,192,40871,1,0,0:0:0:45:Two_F2F3.wav
36,192,40871,128,0,41198:0:0:0:80:B5H.wav
329,192,41198,1,0,0:0:0:80:Two_C#F#5.wav
475,192,41198,1,0,0:0:0:45:Two_F#2F#3.wav
182,192,41198,1,0,0:0:0:80:A5H.wav
256,192,41361,1,0,0:0:0:80:F#5H_Gb5H.wav
475,192,41361,1,0,0:0:0:45:F#3H_Gb3H.wav
182,192,41443,1,0,0:0:0:80:G#5H_Ab5H.wav
109,192,41524,1,0,0:0:0:80:A5H.wav
402,192,41524,1,0,0:0:0:45:E2H.wav
256,192,41606,1,0,0:0:0:80:G#5H_Ab5H.wav
182,192,41688,1,0,0:0:0:80:A5H.wav
402,192,41688,1,0,0:0:0:45:E3H.wav
109,192,41770,1,0,0:0:0:80:B5H.wav
182,192,41851,1,0,0:0:0:80:Two_D#F#5.wav
329,192,41851,1,0,0:0:0:45:Two_D#2D#3.wav
36,192,41851,1,0,0:0:0:80:Two_A5C#6.wav
182,192,42015,1,0,0:0:0:80:F#5H_Gb5H.wav
36,192,42015,1,0,0:0:0:45:D3H.wav
256,192,42097,1,0,0:0:0:80:G#5H_Ab5H.wav
109,192,42178,1,0,0:0:0:45:F#3H_Gb3H.wav
329,192,42178,1,0,0:0:0:80:A5H.wav
256,192,42260,1,0,0:0:0:80:G#5H_Ab5H.wav
182,192,42342,1,0,0:0:0:45:A3H.wav
329,192,42342,1,0,0:0:0:80:A5H.wav
402,192,42424,1,0,0:0:0:80:C#6H_Db6H.wav
256,192,42505,1,0,0:0:0:45:C#4H_Db4H.wav
475,192,42505,128,0,42832:0:0:0:80:F#6H_Gb6H.wav
182,192,42669,1,0,0:0:0:45:A3H.wav
109,192,42832,1,0,0:0:0:45:F#3H_Gb3H.wav
256,192,42832,1,0,0:0:0:80:G#5H_Ab5H.wav
402,192,42832,128,0,43159:0:0:0:80:G#6H_Ab6H.wav
36,192,42996,1,0,0:0:0:45:D3H.wav
329,192,43159,1,0,0:0:0:80:Two_DF#5.wav
109,192,43159,1,0,0:0:0:45:Two_B1B2.wav
475,192,43159,1,0,0:0:0:80:A5H.wav
402,192,43323,1,0,0:0:0:80:F#5H_Gb5H.wav
256,192,43405,1,0,0:0:0:80:G#5H_Ab5H.wav
109,192,43486,1,0,0:0:0:80:A5H.wav
36,192,43486,1,0,0:0:0:45:B1H.wav
402,192,43568,1,0,0:0:0:80:G#5H_Ab5H.wav
256,192,43650,1,0,0:0:0:80:A5H.wav
109,192,43732,1,0,0:0:0:80:B5H.wav
182,192,43813,1,0,0:0:0:80:Two_B4E5.wav
36,192,43813,1,0,0:0:0:45:Two_E2E3.wav
329,192,43813,128,0,44140:0:0:0:80:A5H.wav
109,192,44140,1,0,0:0:0:80:Two_B4E5.wav
36,192,44140,1,0,0:0:0:45:E2H.wav
256,192,44140,128,0,44467:0:0:0:80:G#5H_Ab5H.wav
109,192,44467,1,0,0:0:0:80:A3H.wav
182,192,44467,1,0,0:0:0:80:Two_DF#4.wav
36,192,44467,128,0,44794:0:0:0:60:Two_D2D3.wav
402,192,44794,1,0,0:0:0:80:Two_F#A4.wav
475,192,44794,1,0,0:0:0:80:D5H.wav
329,192,44794,1,0,0:0:0:60:Two_DA3.wav
182,192,44903,1,0,0:0:0:80:F#4H_Gb4H.wav
256,192,44903,1,0,0:0:0:80:A4H.wav
475,192,44903,1,0,0:0:0:80:D5H.wav
36,192,45012,1,0,0:0:0:80:F#4H_Gb4H.wav
109,192,45012,1,0,0:0:0:80:A4H.wav
475,192,45012,1,0,0:0:0:80:C#5H_Db5H.wav
329,192,45121,1,0,0:0:0:80:E4H.wav
402,192,45121,1,0,0:0:0:80:Two_A4C#5.wav
256,192,45121,1,0,0:0:0:60:Two_E2E3.wav
109,192,45230,1,0,0:0:0:80:E4H.wav
182,192,45230,1,0,0:0:0:80:A4H.wav
402,192,45230,1,0,0:0:0:80:B4H.wav
475,192,45339,1,0,0:0:0:80:E4H.wav
36,192,45339,1,0,0:0:0:80:A4H.wav
402,192,45339,1,0,0:0:0:80:B4H.wav
256,192,45448,1,0,0:0:0:80:Two_EG#4.wav
329,192,45448,1,0,0:0:0:80:B4H.wav
182,192,45448,1,0,0:0:0:60:D2H.wav
36,192,45557,1,0,0:0:0:80:E4H.wav
329,192,45557,1,0,0:0:0:80:G#4H_Ab4H.wav
109,192,45557,1,0,0:0:0:80:B4H.wav
402,192,45666,1,0,0:0:0:80:E4H.wav
475,192,45666,1,0,0:0:0:80:B4H.wav
329,192,45666,1,0,0:0:0:80:G#4H_Ab4H.wav
475,192,45775,1,0,0:0:0:80:Two_C#F4.wav
36,192,45775,1,0,0:0:0:60:Two_C#2C#3.wav
256,192,45775,128,0,46102:0:0:0:80:Two_G#B4.wav
36,192,45980,1,0,0:0:0:80:E4H.wav
182,192,46020,1,0,0:0:0:80:G#4H_Ab4H.wav
329,192,46061,1,0,0:0:0:80:B4H.wav
109,192,46102,1,0,0:0:0:60:C#2H_Db2H.wav
475,192,46102,128,0,46429:0:0:0:80:E5H.wav
256,192,46429,1,0,0:0:0:80:Two_F#A4.wav
402,192,46429,1,0,0:0:0:80:C#5H_Db5H.wav
109,192,46429,128,0,46756:0:0:0:60:Two_F#2F#3.wav
256,192,46756,1,0,0:0:0:80:Two_F#A4.wav
475,192,46756,1,0,0:0:0:80:C#5H_Db5H.wav
36,192,46756,128,0,47083:0:0:0:60:Two_E2E3.wav
329,192,47083,1,0,0:0:0:80:D#4H_Eb4H.wav
182,192,47083,1,0,0:0:0:60:Two_D#2D#3.wav
475,192,47083,1,0,0:0:0:80:Two_A4C#5.wav
256,192,47247,1,0,0:0:0:80:B3H.wav
36,192,47247,1,0,0:0:0:60:B2H.wav
329,192,47328,1,0,0:0:0:80:D#4H_Eb4H.wav
402,192,47410,1,0,0:0:0:80:F#4H_Gb4H.wav
109,192,47410,1,0,0:0:0:60:D#3H_Eb3H.wav
182,192,47492,1,0,0:0:0:80:D#4H_Eb4H.wav
256,192,47574,1,0,0:0:0:80:F#4H_Gb4H.wav
36,192,47574,1,0,0:0:0:60:E2H.wav
329,192,47655,1,0,0:0:0:80:A4H.wav
402,192,47737,1,0,0:0:0:80:D#4H_Eb4H.wav
182,192,47737,1,0,0:0:0:60:Two_B1B2.wav
475,192,47737,1,0,0:0:0:80:Two_A4C#5.wav
329,192,47901,1,0,0:0:0:80:D#4H_Eb4H.wav
36,192,47901,1,0,0:0:0:60:B1H.wav
256,192,47982,1,0,0:0:0:80:F#4H_Gb4H.wav
182,192,48064,1,0,0:0:0:80:A4H.wav
109,192,48064,1,0,0:0:0:60:B2H.wav
475,192,48146,1,0,0:0:0:80:F#4H_Gb4H.wav
402,192,48227,1,0,0:0:0:80:A4H.wav
36,192,48227,1,0,0:0:0:60:B1H.wav
329,192,48309,1,0,0:0:0:80:C#5H_Db5H.wav
256,192,48391,1,0,0:0:0:80:Two_EF#4.wav
109,192,48391,1,0,0:0:0:60:Two_E2E3.wav
402,192,48391,1,0,0:0:0:80:Two_A4C#5.wav
36,192,48554,1,0,0:0:0:80:B3H.wav
182,192,48636,1,0,0:0:0:80:E4H.wav
256,192,48718,1,0,0:0:0:80:A4H.wav
109,192,48718,1,0,0:0:0:60:B2H.wav
402,192,48800,1,0,0:0:0:80:C#5H_Db5H.wav
475,192,48881,1,0,0:0:0:80:D5H.wav
402,192,48963,1,0,0:0:0:80:C#5H_Db5H.wav
182,192,49045,1,0,0:0:0:80:Two_EG#4.wav
36,192,49045,1,0,0:0:0:60:Two_E2E3.wav
329,192,49045,128,0,49372:0:0:0:80:B4H.wav
109,192,49372,1,0,0:0:0:80:Two_DE4.wav
36,192,49372,1,0,0:0:0:60:D2H.wav
256,192,49372,128,0,49699:0:0:0:80:Two_G#B4.wav
109,192,49699,1,0,0:0:0:80:B3H.wav
36,192,49699,1,0,0:0:0:60:Two_E2E3.wav
182,192,49699,1,0,0:0:0:80:Two_EG#4.wav
182,192,50026,1,0,0:0:0:80:Two_G#B4.wav
36,192,50026,1,0,0:0:0:60:Two_B2B3.wav
329,192,50026,1,0,0:0:0:80:E5H.wav
36,192,50135,1,0,0:0:0:80:G#4H_Ab4H.wav
182,192,50135,1,0,0:0:0:80:B4H.wav
402,192,50135,1,0,0:0:0:80:E5H.wav
36,192,50244,1,0,0:0:0:80:G#4H_Ab4H.wav
475,192,50244,1,0,0:0:0:80:D#5H_Eb5H.wav
182,192,50244,1,0,0:0:0:80:B4H.wav
256,192,50353,1,0,0:0:0:80:F#4H_Gb4H.wav
109,192,50353,1,0,0:0:0:60:Two_F#1F#2.wav
402,192,50353,1,0,0:0:0:80:Two_B4D#5.wav
109,192,50462,1,0,0:0:0:80:F#4H_Gb4H.wav
256,192,50462,1,0,0:0:0:80:B4H.wav
329,192,50462,1,0,0:0:0:80:C#5H_Db5H.wav
109,192,50571,1,0,0:0:0:80:F#4H_Gb4H.wav
402,192,50571,1,0,0:0:0:80:C#5H_Db5H.wav
256,192,50571,1,0,0:0:0:80:B4H.wav
329,192,50680,1,0,0:0:0:80:Two_F#A#4.wav
36,192,50680,1,0,0:0:0:60:E1H.wav
475,192,50680,1,0,0:0:0:80:C#5H_Db5H.wav
36,192,50789,1,0,0:0:0:80:F#4H_Gb4H.wav
475,192,50789,1,0,0:0:0:80:C#5H_Db5H.wav
256,192,50789,1,0,0:0:0:80:A#4H_Bb4H.wav
36,192,50898,1,0,0:0:0:80:F#4H_Gb4H.wav
182,192,50898,1,0,0:0:0:80:A#4H_Bb4H.wav
475,192,50898,1,0,0:0:0:80:C#5H_Db5H.wav
109,192,51007,1,0,0:0:0:60:Two_D#1D#2.wav
402,192,51007,1,0,0:0:0:80:Two_A#4C#5.wav
256,192,51007,128,0,51334:0:0:0:80:Two_D#G4.wav
475,192,51211,1,0,0:0:0:80:F#4H_Gb4H.wav
329,192,51252,1,0,0:0:0:80:A#4H_Bb4H.wav
182,192,51293,1,0,0:0:0:80:C#5H_Db5H.wav
109,192,51334,1,0,0:0:0:80:F#5H_Gb5H.wav
36,192,51334,128,0,51661:0:0:0:60:D#1H_Eb1H.wav
329,192,51661,1,0,0:0:0:80:Two_G#B4.wav
475,192,51661,1,0,0:0:0:80:D#5H_Eb5H.wav
182,192,51661,128,0,51988:0:0:0:60:Two_G#1G#2.wav
402,192,51988,1,0,0:0:0:80:Two_G#B4.wav
256,192,51988,1,0,0:0:0:60:Two_F#1F#2.wav
475,192,51988,128,0,52315:0:0:0:80:D#5H_Eb5H.wav
36,192,52315,1,0,0:0:0:60:Two_Bb1Bb2.wav
256,192,52315,1,0,0:0:0:80:Two_Bb4Db5.wav
329,192,52315,1,0,0:0:0:80:F5H.wav
109,192,52478,1,0,0:0:0:80:F4H.wav
256,192,52560,1,0,0:0:0:80:A#4H_Bb4H.wav
402,192,52642,1,0,0:0:0:80:C#5H_Db5H.wav
36,192,52642,1,0,0:0:0:60:A#1H_Bb1H.wav
182,192,52723,1,0,0:0:0:80:A#4H_Bb4H.wav
329,192,52805,1,0,0:0:0:80:C#5H_Db5H.wav
256,192,52805,1,0,0:0:0:60:A#2H_Bb2H.wav
475,192,52887,1,0,0:0:0:80:D#5H_Eb5H.wav
182,192,52969,1,0,0:0:0:80:Two_AbB4.wav
36,192,52969,1,0,0:0:0:60:Two_D2D3.wav
402,192,52969,1,0,0:0:0:80:Two_DF5.wav
402,192,53132,1,0,0:0:0:80:F4H.wav
256,192,53214,1,0,0:0:0:80:A#4H_Bb4H.wav
475,192,53296,1,0,0:0:0:60:D2H.wav
109,192,53296,1,0,0:0:0:80:C#5H_Db5H.wav
329,192,53377,1,0,0:0:0:80:A#4H_Bb4H.wav
256,192,53459,1,0,0:0:0:60:D3H.wav
182,192,53459,1,0,0:0:0:80:C#5H_Db5H.wav
36,192,53541,1,0,0:0:0:80:G5H.wav
329,192,53623,1,0,0:0:0:80:Two_Bb4Eb5.wav
109,192,53623,1,0,0:0:0:60:Two_Eb2Eb3.wav
475,192,53623,1,0,0:0:0:80:G#5H_Ab5H.wav
36,192,53786,1,0,0:0:0:80:G4H.wav
109,192,53868,1,0,0:0:0:80:A#4H_Bb4H.wav
256,192,53950,1,0,0:0:0:80:D#5H_Eb5H.wav
182,192,53950,1,0,0:0:0:60:D#2H_Eb2H.wav
402,192,54031,1,0,0:0:0:80:G#5H_Ab5H.wav
475,192,54113,1,0,0:0:0:80:A#5H_Bb5H.wav
402,192,54195,1,0,0:0:0:80:G#5H_Ab5H.wav
36,192,54277,1,0,0:0:0:60:Two_G2G3.wav
329,192,54277,1,0,0:0:0:80:G5H.wav
109,192,54277,128,0,54930:0:0:0:80:Two_Bb4Eb5.wav
256,192,54440,1,0,0:0:0:60:F2H.wav
329,192,54604,1,0,0:0:0:60:D#2H_Eb2H.wav
475,192,54604,1,0,0:0:0:80:Two_DG5.wav
182,192,54604,128,0,54930:0:0:0:80:Two_GBb4.wav
36,192,54767,1,0,0:0:0:60:D2H.wav
402,192,54930,1,0,0:0:0:80:Two_Bb4C5.wav
256,192,54930,1,0,0:0:0:60:Two_C2C3.wav
475,192,54930,1,0,0:0:0:80:Two_EG5.wav
329,192,55094,1,0,0:0:0:60:D#3H_Eb3H.wav
256,192,55257,1,0,0:0:0:80:C5H.wav
36,192,55257,1,0,0:0:0:60:G3H.wav
329,192,55366,1,0,0:0:0:80:E5H.wav
109,192,55421,1,0,0:0:0:60:C4H.wav
402,192,55475,1,0,0:0:0:80:G5H.wav
475,192,55584,1,0,0:0:0:80:A#5H_Bb5H.wav
256,192,55584,128,0,55911:0:0:0:80:Two_CE5.wav
36,192,55584,128,0,55911:0:0:0:60:E4H.wav
182,192,55911,1,0,0:0:0:60:C2H.wav
475,192,56075,1,0,0:0:0:80:C6H.wav
402,192,56157,1,0,0:0:0:80:A#5H_Bb5H.wav
109,192,56238,1,0,0:0:0:80:Two_CF5.wav
36,192,56238,1,0,0:0:0:60:F2H.wav
329,192,56238,1,0,0:0:0:80:G#5H_Ab5H.wav
475,192,56402,1,0,0:0:0:80:G#4H_Ab4H.wav
36,192,56402,1,0,0:0:0:60:F3H.wav
329,192,56484,1,0,0:0:0:80:G#5H_Ab5H.wav
182,192,56565,1,0,0:0:0:80:Two_Bb4Eb5.wav
109,192,56565,1,0,0:0:0:60:D#2H_Eb2H.wav
475,192,56565,1,0,0:0:0:80:G5H.wav
329,192,56729,1,0,0:0:0:80:G4H.wav
109,192,56729,1,0,0:0:0:60:D#3H_Eb3H.wav
475,192,56811,1,0,0:0:0:80:G5H.wav
182,192,56892,1,0,0:0:0:80:Two_Ab4Db5.wav
36,192,56892,1,0,0:0:0:60:C#2H_Db2H.wav
329,192,56892,1,0,0:0:0:80:F5H.wav
402,192,57056,1,0,0:0:0:80:F4H.wav
182,192,57056,1,0,0:0:0:60:C#3H_Db3H.wav
329,192,57138,1,0,0:0:0:80:F5H.wav
182,192,57219,1,0,0:0:0:80:Two_G4C5.wav
36,192,57219,1,0,0:0:0:60:C2H.wav
402,192,57219,1,0,0:0:0:80:D#5H_Eb5H.wav
329,192,57383,1,0,0:0:0:80:D#4H_Eb4H.wav
36,192,57383,1,0,0:0:0:60:C3H.wav
402,192,57465,1,0,0:0:0:80:D#5H_Eb5H.wav
182,192,57546,1,0,0:0:0:80:Two_Ab4D5.wav
36,192,57546,1,0,0:0:0:60:Two_B1B2.wav
329,192,57546,1,0,0:0:0:80:F5H.wav
109,192,57710,1,0,0:0:0:60:D3H.wav
475,192,57873,1,0,0:0:0:80:A#4H_Bb4H.wav
182,192,57873,1,0,0:0:0:60:F3H.wav
402,192,57982,1,0,0:0:0:80:D5H.wav
109,192,58037,1,0,0:0:0:60:A#3H_Bb3H.wav
329,192,58091,1,0,0:0:0:80:F5H.wav
36,192,58200,1,0,0:0:0:60:D4H.wav
256,192,58200,128,0,58527:0:0:0:80:Two_Bb4D5.wav
475,192,58200,128,0,58527:0:0:0:80:G#5H_Ab5H.wav
182,192,58527,1,0,0:0:0:60:A#1H_Bb1H.wav
36,192,58691,1,0,0:0:0:80:A#5H_Bb5H.wav
109,192,58772,1,0,0:0:0:80:G#5H_Ab5H.wav
402,192,58854,1,0,0:0:0:80:Two_Bb4Eb5.wav
182,192,58854,1,0,0:0:0:60:D#2H_Eb2H.wav
475,192,58854,1,0,0:0:0:80:G5H.wav
402,192,59018,1,0,0:0:0:80:G4H.wav
36,192,59018,1,0,0:0:0:60:D#3H_Eb3H.wav
182,192,59099,1,0,0:0:0:80:G5H.wav
329,192,59181,1,0,0:0:0:80:Two_Bb4D5.wav
36,192,59181,1,0,0:0:0:60:A#1H_Bb1H.wav
402,192,59181,1,0,0:0:0:80:F5H.wav
329,192,59345,1,0,0:0:0:80:F4H.wav
182,192,59345,1,0,0:0:0:60:A#2H_Bb2H.wav
36,192,59426,1,0,0:0:0:80:F5H.wav
329,192,59508,1,0,0:0:0:80:G4H.wav
182,192,59508,1,0,0:0:0:60:D#2H_Eb2H.wav
475,192,59508,1,0,0:0:0:80:Two_Bb4Eb5.wav
475,192,59672,1,0,0:0:0:80:G4H.wav
36,192,59672,1,0,0:0:0:60:D#3H_Eb3H.wav
109,192,59753,1,0,0:0:0:80:D#5H_Eb5H.wav
256,192,59835,1,0,0:0:0:80:F4H.wav
36,192,59835,1,0,0:0:0:60:C#2H_Db2H.wav
402,192,59835,1,0,0:0:0:80:Two_Bb4Db5.wav
402,192,59999,1,0,0:0:0:80:C#4H_Db4H.wav
109,192,59999,1,0,0:0:0:60:C#3H_Db3H.wav
36,192,60080,1,0,0:0:0:80:C#5H_Db5H.wav
329,192,60162,1,0,0:0:0:80:Two_CF#5.wav
109,192,60162,1,0,0:0:0:60:Two_D2D3.wav
475,192,60162,1,0,0:0:0:80:A5H.wav
36,192,60326,1,0,0:0:0:60:D3H.wav
109,192,60489,1,0,0:0:0:60:F#3H_Gb3H.wav
256,192,60489,1,0,0:0:0:80:D5H.wav
329,192,60598,1,0,0:0:0:80:F#5H_Gb5H.wav
182,192,60653,1,0,0:0:0:60:A3H.wav
402,192,60707,1,0,0:0:0:80:A5H.wav
256,192,60816,1,0,0:0:0:60:D4H.wav
475,192,60816,128,0,61143:0:0:0:80:C6H.wav
329,192,60816,128,0,61143:0:0:0:80:Two_DF#5.wav
36,192,61143,1,0,0:0:0:60:D2H.wav
475,192,61306,1,0,0:0:0:80:D6H.wav
402,192,61388,1,0,0:0:0:80:C6H.wav
256,192,61470,1,0,0:0:0:80:Two_DG5.wav
182,192,61470,1,0,0:0:0:60:G2H.wav
329,192,61470,1,0,0:0:0:80:A#5H_Bb5H.wav
182,192,61633,1,0,0:0:0:80:A#4H_Bb4H.wav
36,192,61633,1,0,0:0:0:60:G3H.wav
402,192,61715,1,0,0:0:0:80:A#5H_Bb5H.wav
109,192,61797,1,0,0:0:0:80:Two_CF5.wav
36,192,61797,1,0,0:0:0:60:F2H.wav
182,192,61797,1,0,0:0:0:80:A5H.wav
475,192,61960,1,0,0:0:0:80:A4H.wav
329,192,61960,1,0,0:0:0:60:F3H.wav
109,192,62042,1,0,0:0:0:80:A5H.wav
402,192,62124,1,0,0:0:0:80:Two_EG5.wav
329,192,62124,1,0,0:0:0:60:E2H.wav
475,192,62124,1,0,0:0:0:80:C6H.wav
329,192,62287,1,0,0:0:0:80:E5H.wav
182,192,62287,1,0,0:0:0:60:E3H.wav
475,192,62369,1,0,0:0:0:80:C6H.wav
256,192,62451,1,0,0:0:0:80:Two_EG5.wav
109,192,62451,1,0,0:0:0:60:E1H.wav
402,192,62451,1,0,0:0:0:80:A#5H_Bb5H.wav
329,192,62614,1,0,0:0:0:80:A#4H_Bb4H.wav
36,192,62614,1,0,0:0:0:60:E2H.wav
402,192,62696,1,0,0:0:0:80:A#5H_Bb5H.wav
182,192,62778,1,0,0:0:0:80:G4H.wav
36,192,62778,1,0,0:0:0:60:D#2H_Eb2H.wav
329,192,62778,1,0,0:0:0:80:Two_CEb5.wav
475,192,62941,1,0,0:0:0:80:G4H.wav
182,192,62941,1,0,0:0:0:60:D#3H_Eb3H.wav
109,192,63023,1,0,0:0:0:80:D#5H_Eb5H.wav
329,192,63105,1,0,0:0:0:80:G4H.wav
182,192,63105,1,0,0:0:0:60:C#2H_Db2H.wav
475,192,63105,1,0,0:0:0:80:Two_Bb4Db5.wav
182,192,63268,1,0,0:0:0:80:G4H.wav
36,192,63268,1,0,0:0:0:60:C#3H_Db3H.wav
256,192,63350,1,0,0:0:0:80:C#5H_Db5H.wav
329,192,63432,1,0,0:0:0:80:G4H.wav
109,192,63432,1,0,0:0:0:60:D2H.wav
475,192,63432,1,0,0:0:0:80:Two_A4D5.wav
475,192,63595,1,0,0:0:0:80:G4H.wav
329,192,63595,1,0,0:0:0:60:D3H.wav
256,192,63677,1,0,0:0:0:80:D5H.wav
182,192,63759,1,0,0:0:0:80:A4H.wav
36,192,63759,1,0,0:0:0:60:D2H.wav
402,192,63759,1,0,0:0:0:80:Two_CF#5.wav
402,192,63922,1,0,0:0:0:80:D5H.wav
256,192,63922,1,0,0:0:0:60:D3H.wav
109,192,64004,1,0,0:0:0:80:F#5H_Gb5H.wav
329,192,64086,1,0,0:0:0:80:A4H.wav
182,192,64086,1,0,0:0:0:60:D2H.wav
475,192,64086,1,0,0:0:0:80:Two_DG5.wav
256,192,64249,1,0,0:0:0:80:A4H.wav
109,192,64249,1,0,0:0:0:60:D2H.wav
402,192,64331,1,0,0:0:0:80:G5H.wav
182,192,64413,1,0,0:0:0:80:A4H.wav
36,192,64413,1,0,0:0:0:60:Two_D2D3.wav
329,192,64413,1,0,0:0:0:80:Two_DF#5.wav
182,192,64576,1,0,0:0:0:80:D5H.wav
36,192,64576,1,0,0:0:0:60:Two_D2D3.wav
256,192,64658,1,0,0:0:0:80:F#5H_Gb5H.wav
329,192,64740,1,0,0:0:0:80:A4H.wav
36,192,64740,1,0,0:0:0:60:Two_D2D3.wav
475,192,64740,1,0,0:0:0:80:A5H.wav
329,192,64903,1,0,0:0:0:80:A4H.wav
36,192,64903,1,0,0:0:0:60:Two_D2D3.wav
475,192,64903,1,0,0:0:0:80:A5H.wav
475,192,65067,1,0,0:0:0:80:F#6H_Gb6H.wav
402,192,65121,1,0,0:0:0:80:D6H.wav
329,192,65176,1,0,0:0:0:80:F#5H_Gb5H.wav
256,192,65230,1,0,0:0:0:80:D5H.wav
182,192,65285,1,0,0:0:0:80:F#4H_Gb4H.wav
109,192,65339,1,0,0:0:0:80:D4H.wav
36,192,65394,1,0,0:0:0:60:G2H.wav
182,192,65394,1,0,0:0:0:80:Two_DG4.wav
256,192,65475,1,0,0:0:0:80:A#3H_Bb3H.wav
182,192,65557,128,0,65721:0:0:0:80:Two_DG4.wav
36,192,65557,128,0,65721:0:0:0:60:Two_DG3.wav
329,192,65721,1,0,0:0:0:80:Two_GBb4.wav
475,192,65721,1,0,0:0:0:60:G2H.wav
256,192,65802,1,0,0:0:0:80:D4H.wav
329,192,65884,128,0,66048:0:0:0:60:Two_DG3.wav
475,192,65884,128,0,66048:0:0:0:80:Two_GBb4.wav
109,192,66048,1,0,0:0:0:80:Two_F#A4.wav
36,192,66048,1,0,0:0:0:60:G2H.wav
182,192,66129,1,0,0:0:0:80:D4H.wav
109,192,66211,128,0,66375:0:0:0:80:Two_F#A4.wav
36,192,66211,128,0,66375:0:0:0:60:Two_DG3.wav
402,192,66375,1,0,0:0:0:60:G2H.wav
475,192,66375,1,0,0:0:0:80:Two_A4C5.wav
329,192,66456,1,0,0:0:0:80:D4H.wav
402,192,66538,128,0,66702:0:0:0:60:Two_DG3.wav
475,192,66538,128,0,66702:0:0:0:80:Two_A4C5.wav
182,192,66702,1,0,0:0:0:80:Two_GBb4.wav
109,192,66702,1,0,0:0:0:60:G2H.wav
256,192,66783,1,0,0:0:0:80:D4H.wav
182,192,66865,128,0,67029:0:0:0:80:Two_GBb4.wav
109,192,66865,128,0,67029:0:0:0:60:Two_DG3.wav
329,192,67029,1,0,0:0:0:60:G2H.wav
402,192,67029,1,0,0:0:0:80:Two_Bb4D5.wav
256,192,67110,1,0,0:0:0:80:G4H.wav
402,192,67192,128,0,67356:0:0:0:80:Two_Bb4D5.wav
329,192,67192,128,0,67356:0:0:0:60:Two_DG3.wav
182,192,67356,1,0,0:0:0:80:Two_A4C5.wav
36,192,67356,1,0,0:0:0:60:G2H.wav
109,192,67437,1,0,0:0:0:80:F#4H_Gb4H.wav
182,192,67519,128,0,67683:0:0:0:80:Two_A4C5.wav
36,192,67519,128,0,67683:0:0:0:60:Two_DG3.wav
475,192,67683,1,0,0:0:0:60:G2H.wav
329,192,67683,1,0,0:0:0:80:Two_CEb5.wav
402,192,67764,1,0,0:0:0:80:F#4H_Gb4H.wav
329,192,67846,128,0,68009:0:0:0:60:Two_DG3.wav
475,192,67846,128,0,68009:0:0:0:80:Two_CEb5.wav
109,192,68009,1,0,0:0:0:80:Two_Bb4D5.wav
36,192,68009,1,0,0:0:0:60:G2H.wav
182,192,68091,1,0,0:0:0:80:G4H.wav
256,192,68173,128,0,68336:0:0:0:80:Two_Bb4D5.wav
329,192,68173,128,0,68336:0:0:0:60:Two_DG3.wav
475,192,68336,1,0,0:0:0:60:G2H.wav
402,192,68336,1,0,0:0:0:80:Two_DG5.wav
182,192,68418,1,0,0:0:0:80:A#4H_Bb4H.wav
109,192,68500,128,0,68663:0:0:0:80:Two_DG5.wav
36,192,68500,128,0,68663:0:0:0:60:Two_DG3.wav
182,192,68663,1,0,0:0:0:80:Two_CF#5.wav
256,192,68663,1,0,0:0:0:60:G2H.wav
329,192,68745,1,0,0:0:0:80:F#4H_Gb4H.wav
402,192,68827,128,0,68990:0:0:0:60:Two_DG3.wav
475,192,68827,128,0,68990:0:0:0:80:Two_CF#5.wav
256,192,68990,1,0,0:0:0:60:G2H.wav
329,192,68990,1,0,0:0:0:80:Two_EbA5.wav
182,192,69072,1,0,0:0:0:80:A4H.wav
109,192,69154,128,0,69317:0:0:0:80:Two_EbA5.wav
36,192,69154,128,0,69317:0:0:0:60:Two_DG3.wav
329,192,69317,1,0,0:0:0:80:Two_A4D5.wav
402,192,69317,1,0,0:0:0:60:Two_D2D3.wav
182,192,69399,1,0,0:0:0:80:F#4H_Gb4H.wav
329,192,69481,1,0,0:0:0:60:Two_D2D3.wav
402,192,69481,1,0,0:0:0:80:Two_A4D5.wav
182,192,69563,1,0,0:0:0:80:F#4H_Gb4H.wav
109,192,69644,1,0,0:0:0:60:Two_C2C3.wav
36,192,69644,1,0,0:0:0:80:Two_DG5.wav
329,192,69726,1,0,0:0:0:80:A#4H_Bb4H.wav
109,192,69808,1,0,0:0:0:60:Two_C2C3.wav
36,192,69808,1,0,0:0:0:80:Two_DG5.wav
329,192,69890,1,0,0:0:0:80:A#4H_Bb4H.wav
256,192,69971,1,0,0:0:0:60:Two_Bb1Bb2.wav
475,192,69971,1,0,0:0:0:80:Two_DG5.wav
182,192,70053,1,0,0:0:0:80:A#4H_Bb4H.wav
36,192,70135,1,0,0:0:0:60:Two_Bb1Bb2.wav
256,192,70135,1,0,0:0:0:80:Two_DG5.wav
329,192,70217,1,0,0:0:0:80:A#4H_Bb4H.wav
475,192,70298,1,0,0:0:0:60:Two_A1A2.wav
256,192,70298,1,0,0:0:0:80:Two_CF#5.wav
182,192,70380,1,0,0:0:0:80:A4H.wav
36,192,70462,1,0,0:0:0:60:Two_A1A2.wav
256,192,70462,1,0,0:0:0:80:Two_CF#5.wav
329,192,70544,1,0,0:0:0:80:A4H.wav
475,192,70625,1,0,0:0:0:60:Two_G1G2.wav
182,192,70625,128,0,70952:0:0:0:80:Two_GBb4.wav
402,192,70625,128,0,70952:0:0:0:80:Two_DG5.wav
36,192,70952,1,0,0:0:0:60:G2H.wav
475,192,70952,1,0,0:0:0:80:G5H.wav
256,192,71034,1,0,0:0:0:65:D5H.wav
109,192,71116,1,0,0:0:0:55:A2H.wav
402,192,71116,1,0,0:0:0:80:A4H.wav
256,192,71198,1,0,0:0:0:65:D5H.wav
475,192,71279,1,0,0:0:0:80:G5H.wav
36,192,71279,1,0,0:0:0:55:B2H.wav
402,192,71361,1,0,0:0:0:65:D5H.wav
329,192,71443,1,0,0:0:0:65:B4H.wav
256,192,71524,1,0,0:0:0:65:G4H.wav
182,192,71606,1,0,0:0:0:55:D3H.wav
402,192,71606,1,0,0:0:0:80:F5H.wav
329,192,71688,1,0,0:0:0:65:D5H.wav
256,192,71770,1,0,0:0:0:65:B4H.wav
182,192,71851,1,0,0:0:0:65:G4H.wav
109,192,71933,1,0,0:0:0:55:C3H.wav
402,192,71933,1,0,0:0:0:80:F5H.wav
256,192,72015,1,0,0:0:0:65:C5H.wav
36,192,72097,1,0,0:0:0:55:A#2H_Bb2H.wav
329,192,72097,1,0,0:0:0:65:G4H.wav
402,192,72178,1,0,0:0:0:65:D#4H_Eb4H.wav
109,192,72260,1,0,0:0:0:55:C3H.wav
475,192,72260,1,0,0:0:0:80:D#5H_Eb5H.wav
256,192,72342,1,0,0:0:0:65:C5H.wav
182,192,72424,1,0,0:0:0:55:D3H.wav
329,192,72424,1,0,0:0:0:65:G4H.wav
402,192,72505,1,0,0:0:0:65:D#4H_Eb4H.wav
475,192,72587,1,0,0:0:0:80:D5H.wav
256,192,72587,1,0,0:0:0:55:D#3H_Eb3H.wav
402,192,72669,1,0,0:0:0:65:C5H.wav
182,192,72751,1,0,0:0:0:55:D3H.wav
329,192,72751,1,0,0:0:0:65:G4H.wav
256,192,72832,1,0,0:0:0:65:D#4H_Eb4H.wav
109,192,72914,1,0,0:0:0:55:C3H.wav
329,192,72914,1,0,0:0:0:80:D#5H_Eb5H.wav
256,192,72996,1,0,0:0:0:65:C5H.wav
36,192,73078,1,0,0:0:0:55:A#2H_Bb2H.wav
182,192,73078,1,0,0:0:0:65:G4H.wav
109,192,73159,1,0,0:0:0:65:D#4H_Eb4H.wav
475,192,73241,1,0,0:0:0:80:Two_CF5.wav
182,192,73241,128,0,73568:0:0:0:55:Two_F1F2.wav
329,192,73241,128,0,73568:0:0:0:80:Two_FA4.wav
475,192,73568,1,0,0:0:0:55:F2H.wav
36,192,73568,1,0,0:0:0:80:F5H.wav
109,192,73650,1,0,0:0:0:65:C5H.wav
329,192,73732,1,0,0:0:0:55:G2H.wav
182,192,73732,1,0,0:0:0:80:E5H.wav
109,192,73813,1,0,0:0:0:65:C5H.wav
475,192,73895,1,0,0:0:0:55:A2H.wav
36,192,73895,1,0,0:0:0:80:F5H.wav
109,192,73977,1,0,0:0:0:65:C5H.wav
182,192,74059,1,0,0:0:0:65:A4H.wav
256,192,74140,1,0,0:0:0:65:F4H.wav
402,192,74222,1,0,0:0:0:55:F2H.wav
109,192,74222,1,0,0:0:0:80:D#5H_Eb5H.wav
182,192,74304,1,0,0:0:0:65:C5H.wav
256,192,74386,1,0,0:0:0:65:A4H.wav
329,192,74467,1,0,0:0:0:65:F4H.wav
475,192,74549,1,0,0:0:0:55:A#2H_Bb2H.wav
109,192,74549,1,0,0:0:0:80:D#5H_Eb5H.wav
182,192,74631,1,0,0:0:0:65:A#4H_Bb4H.wav
402,192,74712,1,0,0:0:0:55:A2H.wav
256,192,74712,1,0,0:0:0:65:F4H.wav
329,192,74794,1,0,0:0:0:65:D4H.wav
475,192,74876,1,0,0:0:0:55:A#2H_Bb2H.wav
36,192,74876,1,0,0:0:0:80:D5H.wav
109,192,74958,1,0,0:0:0:65:A#4H_Bb4H.wav
402,192,75039,1,0,0:0:0:55:C3H.wav
182,192,75039,1,0,0:0:0:65:F4H.wav
256,192,75121,1,0,0:0:0:65:D4H.wav
329,192,75203,1,0,0:0:0:55:D3H.wav
182,192,75203,1,0,0:0:0:80:C#5H_Db5H.wav
256,192,75285,1,0,0:0:0:65:A#4H_Bb4H.wav
182,192,75366,1,0,0:0:0:55:C3H.wav
36,192,75366,1,0,0:0:0:65:F4H.wav
109,192,75448,1,0,0:0:0:65:D4H.wav
329,192,75530,1,0,0:0:0:55:A#2H_Bb2H.wav
182,192,75530,1,0,0:0:0:80:D5H.wav
256,192,75612,1,0,0:0:0:65:A#4H_Bb4H.wav
329,192,75693,1,0,0:0:0:55:A2H.wav
182,192,75693,1,0,0:0:0:65:F4H.wav
109,192,75775,1,0,0:0:0:65:D4H.wav
36,192,75857,1,0,0:0:0:55:G2H.wav
475,192,75857,1,0,0:0:0:80:D#5H_Eb5H.wav
402,192,75939,1,0,0:0:0:65:A#4H_Bb4H.wav
109,192,76020,1,0,0:0:0:55:F2H.wav
329,192,76020,1,0,0:0:0:65:G4H.wav
256,192,76102,1,0,0:0:0:65:D#4H_Eb4H.wav
182,192,76184,1,0,0:0:0:55:D#2H_Eb2H.wav
402,192,76184,1,0,0:0:0:80:A#4H_Bb4H.wav
329,192,76266,1,0,0:0:0:65:G4H.wav
256,192,76347,1,0,0:0:0:55:D2H.wav
182,192,76347,1,0,0:0:0:65:D#4H_Eb4H.wav
109,192,76429,1,0,0:0:0:65:A#3H_Bb3H.wav
475,192,76511,128,0,76838:0:0:0:80:Two_EbAb4.wav
256,192,76511,128,0,76838:0:0:0:80:C4H.wav
36,192,76511,128,0,76838:0:0:0:55:Two_C2C3.wav
402,192,76674,1,0,0:0:0:55:A#2H_Bb2H.wav
329,192,76838,1,0,0:0:0:55:G#2H_Ab2H.wav
109,192,77001,1,0,0:0:0:55:G2H.wav
36,192,77165,1,0,0:0:0:55:F#2H_Gb2H.wav
475,192,77165,1,0,0:0:0:80:D5H.wav
109,192,77247,1,0,0:0:0:65:A4H.wav
402,192,77328,1,0,0:0:0:55:E2H.wav
182,192,77328,1,0,0:0:0:65:F#4H_Gb4H.wav
256,192,77410,1,0,0:0:0:65:D4H.wav
109,192,77492,1,0,0:0:0:55:D2H.wav
329,192,77492,1,0,0:0:0:80:A4H.wav
182,192,77574,1,0,0:0:0:65:F#4H_Gb4H.wav
256,192,77655,1,0,0:0:0:55:C2H.wav
329,192,77655,1,0,0:0:0:65:D4H.wav
402,192,77737,1,0,0:0:0:65:A3H.wav
36,192,77819,128,0,78146:0:0:0:55:Two_B1B2.wav
256,192,77819,128,0,78146:0:0:0:80:B3H.wav
475,192,77819,128,0,78146:0:0:0:80:Two_DG4.wav
109,192,77982,1,0,0:0:0:55:A2H.wav
329,192,78146,1,0,0:0:0:55:G2H.wav
402,192,78309,1,0,0:0:0:55:F#2H_Gb2H.wav
109,192,78473,1,0,0:0:0:55:E2H.wav
475,192,78473,1,0,0:0:0:80:C5H.wav
329,192,78554,1,0,0:0:0:65:G4H.wav
402,192,78636,1,0,0:0:0:55:D2H.wav
182,192,78636,1,0,0:0:0:65:E4H.wav
109,192,78718,1,0,0:0:0:65:C4H.wav
36,192,78800,1,0,0:0:0:55:C2H.wav
475,192,78800,1,0,0:0:0:80:G4H.wav
109,192,78881,1,0,0:0:0:65:E4H.wav
402,192,78963,1,0,0:0:0:55:B1H.wav
182,192,78963,1,0,0:0:0:65:C4H.wav
329,192,79045,1,0,0:0:0:65:G3H.wav
475,192,79127,1,0,0:0:0:80:Two_FA4.wav
182,192,79127,128,0,79454:0:0:0:80:C4H.wav
109,192,79127,128,0,79454:0:0:0:55:Two_A1A2.wav
256,192,79290,1,0,0:0:0:55:G2H.wav
36,192,79454,1,0,0:0:0:55:F2H.wav
329,192,79454,128,0,79781:0:0:0:80:Two_FA4.wav
402,192,79454,128,0,79781:0:0:0:80:C5H.wav
256,192,79617,1,0,0:0:0:55:E2H.wav
36,192,79781,1,0,0:0:0:55:E2H.wav
475,192,79781,1,0,0:0:0:80:A4H.wav
182,192,79862,1,0,0:0:0:65:F#4H_Gb4H.wav
109,192,79944,1,0,0:0:0:55:E3H.wav
329,192,79944,1,0,0:0:0:65:D#4H_Eb4H.wav
402,192,80026,1,0,0:0:0:65:C4H.wav
36,192,80108,1,0,0:0:0:55:B1H.wav
475,192,80108,1,0,0:0:0:80:C5H.wav
402,192,80189,1,0,0:0:0:65:A4H.wav
109,192,80271,1,0,0:0:0:55:B2H.wav
329,192,80271,1,0,0:0:0:65:F#4H_Gb4H.wav
182,192,80353,1,0,0:0:0:65:D#4H_Eb4H.wav
36,192,80435,1,0,0:0:0:55:Two_E2E3.wav
475,192,80435,1,0,0:0:0:80:Two_Ab4C5.wav
329,192,80435,128,0,80762:0:0:0:80:Two_DE4.wav
182,192,80762,1,0,0:0:0:55:E2H.wav
475,192,80762,1,0,0:0:0:80:Two_AbB4.wav
36,192,80762,128,0,81089:0:0:0:80:Two_DE4.wav
475,192,81089,1,0,0:0:0:80:Two_A5D6.wav
329,192,81089,128,0,81415:0:0:0:80:Two_DF#5.wav
182,192,81089,128,0,81415:0:0:0:55:Two_D2D3.wav
36,192,81415,1,0,0:0:0:55:D2H.wav
475,192,81415,128,0,81579:0:0:0:80:D6H.wav
402,192,81497,1,0,0:0:0:65:A5H.wav
109,192,81579,1,0,0:0:0:55:E2H.wav
329,192,81579,128,0,81742:0:0:0:80:C#6H_Db6H.wav
402,192,81661,1,0,0:0:0:65:A5H.wav
182,192,81742,1,0,0:0:0:55:F#2H_Gb2H.wav
475,192,81742,128,0,82069:0:0:0:80:D6H.wav
402,192,81824,1,0,0:0:0:65:A5H.wav
329,192,81906,1,0,0:0:0:65:F#5H_Gb5H.wav
256,192,81988,1,0,0:0:0:65:D5H.wav
36,192,82069,1,0,0:0:0:55:D2H.wav
402,192,82069,128,0,82396:0:0:0:80:C6H.wav
329,192,82151,1,0,0:0:0:65:A5H.wav
256,192,82233,1,0,0:0:0:65:F#5H_Gb5H.wav
182,192,82315,1,0,0:0:0:65:D5H.wav
109,192,82396,1,0,0:0:0:55:G2H.wav
329,192,82396,128,0,82723:0:0:0:80:C6H.wav
256,192,82478,1,0,0:0:0:65:G5H.wav
36,192,82560,1,0,0:0:0:55:F2H.wav
182,192,82560,1,0,0:0:0:65:D5H.wav
109,192,82642,1,0,0:0:0:65:A#4H_Bb4H.wav
475,192,82723,1,0,0:0:0:55:G2H.wav
256,192,82723,128,0,83050:0:0:0:80:A#5H_Bb5H.wav
182,192,82805,1,0,0:0:0:65:G5H.wav
109,192,82887,1,0,0:0:0:55:A2H.wav
402,192,82887,1,0,0:0:0:65:D5H.wav
36,192,82969,1,0,0:0:0:65:A#4H_Bb4H.wav
329,192,83050,1,0,0:0:0:55:A#2H_Bb2H.wav
109,192,83050,128,0,83377:0:0:0:80:A5H.wav
182,192,83132,1,0,0:0:0:65:G5H.wav
402,192,83214,1,0,0:0:0:55:A2H.wav
256,192,83214,1,0,0:0:0:65:D5H.wav
329,192,83296,1,0,0:0:0:65:A#4H_Bb4H.wav
475,192,83377,1,0,0:0:0:55:G2H.wav
256,192,83377,128,0,83704:0:0:0:80:A#5H_Bb5H.wav
329,192,83459,1,0,0:0:0:65:G5H.wav
109,192,83541,1,0,0:0:0:55:F2H.wav
402,192,83541,1,0,0:0:0:65:D5H.wav
475,192,83623,1,0,0:0:0:65:A#4H_Bb4H.wav
36,192,83704,1,0,0:0:0:55:Two_C2C3.wav
182,192,83704,128,0,84031:0:0:0:80:Two_CE5.wav
329,192,83704,128,0,84031:0:0:0:80:Two_G5C6.wav
475,192,84031,1,0,0:0:0:55:C2H.wav
36,192,84031,128,0,84195:0:0:0:80:C6H.wav
109,192,84113,1,0,0:0:0:65:G5H.wav
329,192,84195,1,0,0:0:0:55:D2H.wav
182,192,84195,128,0,84358:0:0:0:80:B5H.wav
109,192,84277,1,0,0:0:0:65:G5H.wav
475,192,84358,1,0,0:0:0:55:E2H.wav
36,192,84358,128,0,84685:0:0:0:80:C6H.wav
109,192,84440,1,0,0:0:0:65:G5H.wav
182,192,84522,1,0,0:0:0:65:E5H.wav
256,192,84604,1,0,0:0:0:65:C5H.wav
182,192,84685,1,0,0:0:0:55:C2H.wav
109,192,84685,128,0,85012:0:0:0:80:A#5H_Bb5H.wav
256,192,84767,1,0,0:0:0:65:G5H.wav
329,192,84849,1,0,0:0:0:65:E5H.wav
402,192,84930,1,0,0:0:0:65:C5H.wav
475,192,85012,1,0,0:0:0:55:F2H.wav
182,192,85012,128,0,85339:0:0:0:80:A#5H_Bb5H.wav
256,192,85094,1,0,0:0:0:65:F5H.wav
36,192,85176,1,0,0:0:0:55:E2H.wav
329,192,85176,1,0,0:0:0:65:C5H.wav
402,192,85257,1,0,0:0:0:65:A4H.wav
109,192,85339,1,0,0:0:0:55:F2H.wav
256,192,85339,128,0,85666:0:0:0:80:A5H.wav
329,192,85421,1,0,0:0:0:65:F5H.wav
182,192,85503,1,0,0:0:0:55:G2H.wav
402,192,85503,1,0,0:0:0:65:C5H.wav
475,192,85584,1,0,0:0:0:65:A4H.wav
109,192,85666,1,0,0:0:0:55:A2H.wav
402,192,85666,128,0,85993:0:0:0:80:G#5H_Ab5H.wav
329,192,85748,1,0,0:0:0:65:F5H.wav
36,192,85830,1,0,0:0:0:55:G2H.wav
256,192,85830,1,0,0:0:0:65:C5H.wav
182,192,85911,1,0,0:0:0:65:A4H.wav
109,192,85993,1,0,0:0:0:55:F2H.wav
256,192,85993,128,0,86320:0:0:0:80:A5H.wav
182,192,86075,1,0,0:0:0:65:F5H.wav
329,192,86157,1,0,0:0:0:55:D#2H_Eb2H.wav
109,192,86157,1,0,0:0:0:65:C5H.wav
402,192,86238,1,0,0:0:0:65:A4H.wav
182,192,86320,1,0,0:0:0:55:D2H.wav
475,192,86320,128,0,86647:0:0:0:80:A#5H_Bb5H.wav
402,192,86402,1,0,0:0:0:65:F5H.wav
109,192,86484,1,0,0:0:0:55:C2H.wav
329,192,86484,1,0,0:0:0:65:D5H.wav
256,192,86565,1,0,0:0:0:65:A#4H_Bb4H.wav
36,192,86647,1,0,0:0:0:55:A#1H_Bb1H.wav
402,192,86647,128,0,86974:0:0:0:80:F5H.wav
329,192,86729,1,0,0:0:0:65:D5H.wav
36,192,86811,1,0,0:0:0:55:A1H.wav
256,192,86811,1,0,0:0:0:65:A#4H_Bb4H.wav
182,192,86892,1,0,0:0:0:65:F4H.wav
329,192,86974,1,0,0:0:0:55:Two_G1G2.wav
109,192,86974,1,0,0:0:0:80:Two_Bb4Eb5.wav
475,192,86974,128,0,87301:0:0:0:80:G5H.wav
256,192,87138,1,0,0:0:0:55:F2H.wav
182,192,87301,1,0,0:0:0:55:D#2H_Eb2H.wav
109,192,87465,1,0,0:0:0:55:D2H.wav
36,192,87628,1,0,0:0:0:55:C#2H_Db2H.wav
329,192,87628,128,0,87955:0:0:0:80:A5H.wav
256,192,87710,1,0,0:0:0:65:E5H.wav
475,192,87792,1,0,0:0:0:55:B1H.wav
182,192,87792,1,0,0:0:0:65:C#5H_Db5H.wav
109,192,87873,1,0,0:0:0:65:A4H.wav
402,192,87955,1,0,0:0:0:55:A1H.wav
256,192,87955,128,0,88282:0:0:0:80:E5H.wav
182,192,88037,1,0,0:0:0:65:C#5H_Db5H.wav
402,192,88118,1,0,0:0:0:55:G1H.wav
109,192,88118,1,0,0:0:0:65:A4H.wav
36,192,88200,1,0,0:0:0:65:E4H.wav
109,192,88282,1,0,0:0:0:55:Two_F#1F#2.wav
329,192,88282,1,0,0:0:0:80:Two_A4D5.wav
475,192,88282,128,0,88609:0:0:0:80:F#5H_Gb5H.wav
256,192,88445,1,0,0:0:0:55:E2H.wav
182,192,88609,1,0,0:0:0:55:D2H.wav
109,192,88772,1,0,0:0:0:55:C2H.wav
182,192,88936,1,0,0:0:0:55:B1H.wav
36,192,88936,128,0,89263:0:0:0:80:G5H.wav
109,192,89018,1,0,0:0:0:65:D5H.wav
329,192,89099,1,0,0:0:0:55:A1H.wav
182,192,89099,1,0,0:0:0:65:B4H.wav
256,192,89181,1,0,0:0:0:65:G4H.wav
402,192,89263,1,0,0:0:0:55:G1H.wav
182,192,89263,128,0,89590:0:0:0:80:D5H.wav
256,192,89345,1,0,0:0:0:65:B4H.wav
36,192,89426,1,0,0:0:0:55:F#1H_Gb1H.wav
329,192,89426,1,0,0:0:0:65:G4H.wav
402,192,89508,1,0,0:0:0:65:D4H.wav
475,192,89590,1,0,0:0:0:80:E5H.wav
329,192,89590,128,0,89917:0:0:0:80:Two_G4C5.wav
109,192,89590,128,0,89917:0:0:0:55:Two_E1E2.wav
36,192,89753,1,0,0:0:0:55:D2H.wav
475,192,89917,1,0,0:0:0:80:G5H.wav
402,192,89917,128,0,90244:0:0:0:80:Two_CE5.wav
256,192,89917,128,0,90244:0:0:0:55:C2H.wav
36,192,90080,1,0,0:0:0:55:B1H.wav
109,192,90244,1,0,0:0:0:55:A#1H_Bb1H.wav
475,192,90244,128,0,90571:0:0:0:80:E5H.wav
329,192,90326,1,0,0:0:0:65:C#5H_Db5H.wav
402,192,90407,1,0,0:0:0:55:A#2H_Bb2H.wav
182,192,90407,1,0,0:0:0:65:A#4H_Bb4H.wav
36,192,90489,1,0,0:0:0:65:E4H.wav
256,192,90571,1,0,0:0:0:55:F#1H_Gb1H.wav
402,192,90571,128,0,90898:0:0:0:80:G5H.wav
329,192,90653,1,0,0:0:0:65:E5H.wav
109,192,90734,1,0,0:0:0:55:F#2H_Gb2H.wav
182,192,90734,1,0,0:0:0:65:C#5H_Db5H.wav
36,192,90816,1,0,0:0:0:65:A#4H_Bb4H.wav
475,192,90898,1,0,0:0:0:80:Two_EbG5.wav
256,192,90898,128,0,91225:0:0:0:80:Two_AB4.wav
182,192,90898,128,0,91225:0:0:0:55:Two_B1B2.wav
475,192,91225,1,0,0:0:0:80:Two_EbF#5.wav
402,192,91225,128,0,91552:0:0:0:80:Two_AB4.wav
109,192,91225,128,0,91552:0:0:0:55:B1H.wav
36,192,91552,1,0,0:0:0:55:Two_E2E3.wav
329,192,91552,1,0,0:0:0:80:B4H.wav
475,192,91552,1,0,0:0:0:80:E5H.wav
182,192,91552,1,0,0:0:0:80:G4H.wav
475,192,91715,1,0,0:0:0:80:E5H.wav
329,192,91715,1,0,0:0:0:80:B4H.wav
36,192,91715,1,0,0:0:0:55:Two_E2E3.wav
182,192,91715,1,0,0:0:0:80:G4H.wav
36,192,91879,1,0,0:0:0:80:E4H.wav
182,192,91960,1,0,0:0:0:80:G4H.wav
329,192,92042,1,0,0:0:0:80:B4H.wav
475,192,92124,1,0,0:0:0:80:E5H.wav
36,192,92206,1,0,0:0:0:55:Two_C2C3.wav
256,192,92206,1,0,0:0:0:80:C5H.wav
109,192,92206,1,0,0:0:0:80:G4H.wav
329,192,92206,1,0,0:0:0:80:E5H.wav
329,192,92369,1,0,0:0:0:80:E5H.wav
256,192,92369,1,0,0:0:0:80:C5H.wav
109,192,92369,1,0,0:0:0:80:G4H.wav
36,192,92369,1,0,0:0:0:55:Two_C2C3.wav
475,192,92533,1,0,0:0:0:80:E4H.wav
329,192,92614,1,0,0:0:0:80:G4H.wav
182,192,92696,1,0,0:0:0:80:C5H.wav
36,192,92778,1,0,0:0:0:80:E5H.wav
182,192,92860,1,0,0:0:0:55:Two_A1A2.wav
256,192,92860,1,0,0:0:0:80:A4H.wav
402,192,92860,1,0,0:0:0:80:C5H.wav
475,192,92860,1,0,0:0:0:80:E5H.wav
475,192,93023,1,0,0:0:0:80:E5H.wav
402,192,93023,1,0,0:0:0:80:C5H.wav
256,192,93023,1,0,0:0:0:80:A4H.wav
182,192,93023,1,0,0:0:0:55:Two_A1A2.wav
36,192,93187,1,0,0:0:0:80:E4H.wav
109,192,93268,1,0,0:0:0:80:A4H.wav
329,192,93350,1,0,0:0:0:80:C5H.wav
475,192,93432,1,0,0:0:0:80:E5H.wav
329,192,93514,1,0,0:0:0:80:Two_GB4.wav
402,192,93514,1,0,0:0:0:80:Two_D#G5.wav
256,192,93514,128,0,93841:0:0:0:55:Two_B1B2.wav
475,192,93677,1,0,0:0:0:80:B4H.wav
402,192,93732,1,0,0:0:0:80:D#5H_Eb5H.wav
329,192,93786,1,0,0:0:0:80:G5H.wav
36,192,93841,1,0,0:0:0:55:B1H.wav
109,192,93841,1,0,0:0:0:80:Two_F#B4.wav
182,192,93841,128,0,94168:0:0:0:80:Two_D#F#5.wav
475,192,94168,1,0,0:0:0:55:Two_E2E3.wav
402,192,94168,1,0,0:0:0:80:G4H.wav
329,192,94168,1,0,0:0:0:80:B4H.wav
256,192,94168,1,0,0:0:0:80:E5H.wav
475,192,94331,1,0,0:0:0:55:Two_E2E3.wav
402,192,94331,1,0,0:0:0:80:G4H.wav
256,192,94331,1,0,0:0:0:80:E5H.wav
329,192,94331,1,0,0:0:0:80:B4H.wav
475,192,94495,1,0,0:0:0:80:E4H.wav
402,192,94576,1,0,0:0:0:80:G4H.wav
475,192,94658,1,0,0:0:0:80:B4H.wav
329,192,94740,1,0,0:0:0:80:E5H.wav
256,192,94821,1,0,0:0:0:55:Two_C2C3.wav
182,192,94821,1,0,0:0:0:80:G4H.wav
36,192,94821,1,0,0:0:0:80:E5H.wav
109,192,94821,1,0,0:0:0:80:C5H.wav
256,192,94985,1,0,0:0:0:55:Two_C2C3.wav
36,192,94985,1,0,0:0:0:80:E5H.wav
182,192,94985,1,0,0:0:0:80:G4H.wav
109,192,94985,1,0,0:0:0:80:C5H.wav
329,192,95148,1,0,0:0:0:80:E4H.wav
402,192,95230,1,0,0:0:0:80:G4H.wav
329,192,95312,1,0,0:0:0:80:C5H.wav
182,192,95394,1,0,0:0:0:80:E5H.wav
36,192,95475,1,0,0:0:0:55:Two_A1A2.wav
402,192,95475,1,0,0:0:0:80:C5H.wav
475,192,95475,1,0,0:0:0:80:E5H.wav
109,192,95475,1,0,0:0:0:80:A4H.wav
36,192,95639,1,0,0:0:0:55:Two_A1A2.wav
475,192,95639,1,0,0:0:0:80:E5H.wav
109,192,95639,1,0,0:0:0:80:A4H.wav
402,192,95639,1,0,0:0:0:80:C5H.wav
182,192,95802,1,0,0:0:0:80:E4H.wav
329,192,95884,1,0,0:0:0:80:A4H.wav
109,192,95966,1,0,0:0:0:80:C5H.wav
402,192,96048,1,0,0:0:0:80:E5H.wav
256,192,96129,1,0,0:0:0:80:Two_CE5.wav
329,192,96129,128,0,96456:0:0:0:80:Two_A5C6.wav
182,192,96129,128,0,96456:0:0:0:55:Two_B1B2.wav
475,192,96293,1,0,0:0:0:80:C6H.wav
256,192,96347,1,0,0:0:0:80:E5H.wav
36,192,96402,1,0,0:0:0:80:C6H.wav
109,192,96456,1,0,0:0:0:55:A#1H_Bb1H.wav
402,192,96456,1,0,0:0:0:80:Two_Bb4Bb5.wav
256,192,96456,128,0,96783:0:0:0:80:Two_EF#5.wav
109,192,96783,128,0,98091:0:0:0:55:B2H.wav
182,192,97110,1,0,0:0:0:80:E6H.wav
36,192,97110,128,0,98091:0:0:0:55:B1H.wav
475,192,97274,1,0,0:0:0:80:F#6H_Gb6H.wav
182,192,97437,1,0,0:0:0:80:E6H.wav
475,192,97519,1,0,0:0:0:80:F#6H_Gb6H.wav
256,192,97642,1,0,0:0:0:80:E6H.wav
402,192,97683,1,0,0:0:0:80:F#6H_Gb6H.wav
256,192,97744,1,0,0:0:0:80:E6H.wav
402,192,97826,1,0,0:0:0:80:F#6H_Gb6H.wav
256,192,97887,1,0,0:0:0:80:E6H.wav
402,192,97969,1,0,0:0:0:80:F#6H_Gb6H.wav
256,192,98050,1,0,0:0:0:80:E6H.wav
475,192,98091,1,0,0:0:0:80:D#6H_Eb6H.wav
182,192,98091,1,0,0:0:0:55:B1H.wav
329,192,98091,1,0,0:0:0:80:Two_F#B5.wav
36,192,98255,1,0,0:0:0:55:B2H.wav
475,192,98255,1,0,0:0:0:80:D6H.wav
402,192,98336,1,0,0:0:0:80:C#6H_Db6H.wav
182,192,98418,1,0,0:0:0:55:B1H.wav
329,192,98418,1,0,0:0:0:80:C6H.wav
256,192,98500,1,0,0:0:0:80:B5H.wav
36,192,98582,1,0,0:0:0:55:B2H.wav
182,192,98582,1,0,0:0:0:80:A#5H_Bb5H.wav
109,192,98663,1,0,0:0:0:80:A5H.wav
402,192,98745,1,0,0:0:0:55:B1H.wav
475,192,98745,1,0,0:0:0:80:B6H.wav
329,192,98786,1,0,0:0:0:80:G6H.wav
256,192,98827,1,0,0:0:0:80:E6H.wav
182,192,98868,1,0,0:0:0:80:C6H.wav
36,192,98909,1,0,0:0:0:55:B2H.wav
109,192,98909,1,0,0:0:0:80:A5H.wav
475,192,98950,1,0,0:0:0:80:F5H.wav
402,192,98990,1,0,0:0:0:80:D5H.wav
329,192,99031,1,0,0:0:0:80:B4H.wav
182,192,99072,1,0,0:0:0:55:B1H.wav
256,192,99072,1,0,0:0:0:80:G4H.wav
109,192,99113,1,0,0:0:0:80:E4H.wav
36,192,99154,1,0,0:0:0:80:C4H.wav
475,192,99195,1,0,0:0:0:80:A3H.wav
329,192,99236,1,0,0:0:0:55:B2H.wav
402,192,99236,1,0,0:0:0:80:F3H.wav
256,192,99399,1,0,0:0:0:55:A2H.wav
36,192,99563,1,0,0:0:0:55:E3H.wav
475,192,99563,1,0,0:0:0:80:G5H.wav
329,192,99563,1,0,0:0:0:80:Two_A4C5.wav
109,192,99726,1,0,0:0:0:55:A3H.wav
402,192,99726,1,0,0:0:0:80:A4H.wav
329,192,99808,1,0,0:0:0:80:C5H.wav
109,192,99890,1,0,0:0:0:55:C4H.wav
402,192,99890,1,0,0:0:0:80:E5H.wav
182,192,99971,1,0,0:0:0:80:G5H.wav
109,192,100053,1,0,0:0:0:55:D3H.wav
329,192,100053,1,0,0:0:0:80:F#5H_Gb5H.wav
475,192,100053,1,0,0:0:0:80:Two_A4D5.wav
36,192,100217,1,0,0:0:0:55:A3H.wav
182,192,100217,1,0,0:0:0:80:F#4H_Gb4H.wav
402,192,100298,1,0,0:0:0:80:A4H.wav
109,192,100380,1,0,0:0:0:55:C4H.wav
256,192,100380,1,0,0:0:0:80:F#4H_Gb4H.wav
402,192,100462,1,0,0:0:0:80:F#5H_Gb5H.wav
36,192,100544,1,0,0:0:0:55:A3H.wav
182,192,100544,1,0,0:0:0:80:A5H.wav
329,192,100625,1,0,0:0:0:80:F#5H_Gb5H.wav
109,192,100707,1,0,0:0:0:55:B2H.wav
36,192,100871,1,0,0:0:0:55:F#3H_Gb3H.wav
475,192,100871,1,0,0:0:0:80:F#5H_Gb5H.wav
182,192,100871,1,0,0:0:0:80:Two_A4D5.wav
109,192,101034,1,0,0:0:0:55:B3H.wav
329,192,101034,1,0,0:0:0:80:F#4H_Gb4H.wav
182,192,101116,1,0,0:0:0:80:A4H.wav
256,192,101198,1,0,0:0:0:55:F#3H_Gb3H.wav
475,192,101198,1,0,0:0:0:80:D5H.wav
329,192,101279,1,0,0:0:0:80:F#5H_Gb5H.wav
36,192,101361,1,0,0:0:0:55:E3H.wav
402,192,101361,1,0,0:0:0:80:Two_DG5.wav
182,192,101361,1,0,0:0:0:80:B4H.wav
109,192,101524,1,0,0:0:0:55:B3H.wav
329,192,101524,1,0,0:0:0:80:D5H.wav
182,192,101688,1,0,0:0:0:80:C5H.wav
475,192,101688,1,0,0:0:0:55:D4H.wav
256,192,101770,1,0,0:0:0:80:B4H.wav
475,192,101851,1,0,0:0:0:55:E3H.wav
182,192,101851,1,0,0:0:0:80:C5H.wav
402,192,101933,1,0,0:0:0:80:D5H.wav
329,192,102015,1,0,0:0:0:55:A2H.wav
109,192,102178,1,0,0:0:0:55:E3H.wav
475,192,102178,1,0,0:0:0:80:E5H.wav
256,192,102178,1,0,0:0:0:80:Two_A4C5.wav
109,192,102342,1,0,0:0:0:55:Two_A2A3.wav
402,192,102342,1,0,0:0:0:80:A4H.wav
256,192,102342,1,0,0:0:0:80:G4H.wav
36,192,102451,1,0,0:0:0:55:Two_C3C4.wav
329,192,102451,1,0,0:0:0:80:C5H.wav
182,192,102451,1,0,0:0:0:80:G4H.wav
109,192,102560,1,0,0:0:0:55:Two_D3D4.wav
402,192,102560,1,0,0:0:0:80:D5H.wav
256,192,102560,1,0,0:0:0:80:G4H.wav
329,192,102669,128,0,102887:0:0:0:80:Two_F#A4.wav
182,192,102669,1,0,0:0:0:55:Two_D3D4.wav
475,192,102669,128,0,102887:0:0:0:80:Two_CE5.wav
109,192,102887,1,0,0:0:0:55:Two_D2D3.wav
256,192,102887,128,0,103105:0:0:0:80:Two_F#A4.wav
402,192,102887,128,0,103105:0:0:0:80:Two_CD5.wav
36,192,103105,1,0,0:0:0:55:F#3H_Gb3H.wav
182,192,103105,128,0,103323:0:0:0:80:Two_DF#4.wav
329,192,103105,128,0,103323:0:0:0:80:Two_A5C6.wav
109,192,103323,1,0,0:0:0:55:G2H.wav
256,192,103323,1,0,0:0:0:80:Two_DF#4.wav
402,192,103323,1,0,0:0:0:80:Two_A5C6.wav
109,192,103486,1,0,0:0:0:55:D3H.wav
256,192,103486,1,0,0:0:0:80:D4H.wav
329,192,103568,1,0,0:0:0:80:F#4H_Gb4H.wav
36,192,103650,1,0,0:0:0:55:G1H.wav
402,192,103650,1,0,0:0:0:80:A4H.wav
182,192,103650,1,0,0:0:0:80:G4H.wav
256,192,103732,1,0,0:0:0:80:F#4H_Gb4H.wav
109,192,103813,1,0,0:0:0:55:G2H.wav
329,192,103813,1,0,0:0:0:80:A4H.wav
402,192,103895,1,0,0:0:0:80:C5H.wav
36,192,103977,1,0,0:0:0:55:Two_F#2F#3.wav
182,192,103977,1,0,0:0:0:80:D#4H_Eb4H.wav
329,192,103977,128,0,104304:0:0:0:80:Two_F#B4.wav
256,192,104140,1,0,0:0:0:80:C5H.wav
182,192,104222,1,0,0:0:0:80:B4H.wav
36,192,104304,1,0,0:0:0:55:Two_B1B2.wav
109,192,104304,1,0,0:0:0:80:Two_B3D#4.wav
256,192,104304,128,0,104631:0:0:0:80:Two_F#A4.wav
182,192,104631,1,0,0:0:0:80:Two_FAb4.wav
109,192,104631,1,0,0:0:0:80:C4H.wav
36,192,104631,128,0,105285:0:0:0:55:F2H.wav
109,192,104794,1,0,0:0:0:55:C3H.wav
256,192,104958,1,0,0:0:0:55:G#3H_Ab3H.wav
402,192,104958,1,0,0:0:0:80:G#4H_Ab4H.wav
182,192,105121,1,0,0:0:0:55:C3H.wav
329,192,105121,1,0,0:0:0:80:G4H.wav
475,192,105285,1,0,0:0:0:80:Two_FAb4.wav
402,192,105285,1,0,0:0:0:80:Two_CEb4.wav
109,192,105285,128,0,105939:0:0:0:55:D#2H_Eb2H.wav
182,192,105448,1,0,0:0:0:55:A#2H_Bb2H.wav
329,192,105448,1,0,0:0:0:80:G4H.wav
329,192,105612,1,0,0:0:0:55:D#3H_Eb3H.wav
475,192,105612,1,0,0:0:0:80:G#4H_Ab4H.wav
256,192,105693,1,0,0:0:0:80:G4H.wav
182,192,105775,1,0,0:0:0:55:D#2H_Eb2H.wav
329,192,105775,1,0,0:0:0:80:G#4H_Ab4H.wav
402,192,105857,1,0,0:0:0:80:A#4H_Bb4H.wav
475,192,105939,1,0,0:0:0:80:Two_FAb4.wav
36,192,105939,1,0,0:0:0:55:D2H.wav
329,192,105939,128,0,106593:0:0:0:80:D4H.wav
36,192,106102,1,0,0:0:0:55:A#2H_Bb2H.wav
475,192,106266,1,0,0:0:0:80:C5H.wav
182,192,106266,128,0,106920:0:0:0:55:F3H.wav
256,192,106266,128,0,106593:0:0:0:80:Two_FAb4.wav
109,192,106429,1,0,0:0:0:55:A#3H_Bb3H.wav
475,192,106593,1,0,0:0:0:80:Two_DF5.wav
402,192,106593,128,0,107247:0:0:0:80:Two_FBb4.wav
36,192,106593,128,0,106920:0:0:0:55:D4H.wav
475,192,106920,1,0,0:0:0:80:Two_DG5.wav
256,192,106920,128,0,107247:0:0:0:80:Two_GBb4.wav
109,192,106920,128,0,107247:0:0:0:55:D3H.wav
36,192,107247,1,0,0:0:0:55:Two_Bb1Bb2.wav
475,192,107247,1,0,0:0:0:80:Two_FAb5.wav
182,192,107247,1,0,0:0:0:80:Two_Bb4D5.wav
36,192,107574,1,0,0:0:0:55:Three_FBb3Db4.wav
475,192,107574,1,0,0:0:0:80:C#5H_Db5H.wav
182,192,107574,1,0,0:0:0:80:Two_FAb4.wav
329,192,107683,1,0,0:0:0:80:C#5H_Db5H.wav
36,192,107683,1,0,0:0:0:80:F4H.wav
182,192,107683,1,0,0:0:0:80:G#4H_Ab4H.wav
402,192,107792,1,0,0:0:0:80:C#5H_Db5H.wav
36,192,107792,1,0,0:0:0:80:F4H.wav
182,192,107792,1,0,0:0:0:80:G#4H_Ab4H.wav
109,192,107901,1,0,0:0:0:55:Two_B1B2.wav
475,192,107901,1,0,0:0:0:80:F5H.wav
329,192,107901,1,0,0:0:0:80:Two_Ab4Db5.wav
475,192,108009,1,0,0:0:0:80:F5H.wav
182,192,108009,1,0,0:0:0:80:G#4H_Ab4H.wav
329,192,108009,1,0,0:0:0:80:C#5H_Db5H.wav
475,192,108118,1,0,0:0:0:80:F5H.wav
36,192,108118,1,0,0:0:0:80:G#4H_Ab4H.wav
329,192,108118,1,0,0:0:0:80:C#5H_Db5H.wav
109,192,108227,1,0,0:0:0:55:Two_GB3.wav
182,192,108227,1,0,0:0:0:80:G5H.wav
402,192,108227,1,0,0:0:0:80:Two_Ab4D5.wav
402,192,108336,1,0,0:0:0:80:G5H.wav
256,192,108336,1,0,0:0:0:80:G#4H_Ab4H.wav
109,192,108336,1,0,0:0:0:80:D5H.wav
402,192,108445,1,0,0:0:0:80:G5H.wav
329,192,108445,1,0,0:0:0:80:G#4H_Ab4H.wav
109,192,108445,1,0,0:0:0:80:D5H.wav
36,192,108554,1,0,0:0:0:55:Two_C2C3.wav
475,192,108554,1,0,0:0:0:80:G#5H_Ab5H.wav
256,192,108554,1,0,0:0:0:80:Two_CE5.wav
475,192,108663,1,0,0:0:0:80:G#5H_Ab5H.wav
182,192,108663,1,0,0:0:0:80:C5H.wav
36,192,108663,1,0,0:0:0:80:E5H.wav
475,192,108772,1,0,0:0:0:80:G#5H_Ab5H.wav
329,192,108772,1,0,0:0:0:80:C5H.wav
36,192,108772,1,0,0:0:0:80:E5H.wav
109,192,108881,1,0,0:0:0:55:Three_CG3C4.wav
402,192,108881,1,0,0:0:0:80:A#5H_Bb5H.wav
256,192,108881,1,0,0:0:0:80:Two_CE5.wav
329,192,108990,1,0,0:0:0:80:A#5H_Bb5H.wav
182,192,108990,1,0,0:0:0:80:C5H.wav
256,192,108990,1,0,0:0:0:80:E5H.wav
402,192,109099,1,0,0:0:0:80:A#5H_Bb5H.wav
109,192,109099,1,0,0:0:0:80:C5H.wav
256,192,109099,1,0,0:0:0:80:E5H.wav
36,192,109208,1,0,0:0:0:55:Two_C1C2.wav
475,192,109208,1,0,0:0:0:80:F6H.wav
182,192,109208,1,0,0:0:0:80:Two_G5C6.wav
475,192,109317,1,0,0:0:0:80:F6H.wav
36,192,109317,1,0,0:0:0:80:G5H.wav
256,192,109317,1,0,0:0:0:80:C6H.wav
475,192,109426,1,0,0:0:0:80:F6H.wav
36,192,109426,1,0,0:0:0:80:G5H.wav
329,192,109426,1,0,0:0:0:80:C6H.wav
109,192,109535,1,0,0:0:0:55:C2H.wav
402,192,109535,1,0,0:0:0:80:Two_Bb5E6.wav
256,192,109535,1,0,0:0:0:80:Two_G5C6.wav
109,192,109644,1,0,0:0:0:55:C2H.wav
402,192,109644,1,0,0:0:0:80:Two_Bb5E6.wav
256,192,109644,1,0,0:0:0:80:Two_G5C6.wav
256,192,109753,1,0,0:0:0:80:Two_G5C6.wav
402,192,109753,1,0,0:0:0:80:Two_Bb5E6.wav
109,192,109753,1,0,0:0:0:55:C2H.wav
36,192,109862,1,0,0:0:0:55:Two_F1F2.wav
475,192,109862,1,0,0:0:0:80:F6H.wav
256,192,109862,1,0,0:0:0:80:Two_FAb5.wav
36,192,110189,1,0,0:0:0:55:F3H.wav
256,192,110189,1,0,0:0:0:80:F5H.wav
109,192,110271,1,0,0:0:0:55:G#3H_Ab3H.wav
329,192,110271,1,0,0:0:0:80:G#5H_Ab5H.wav
182,192,110353,1,0,0:0:0:55:C4H.wav
402,192,110353,1,0,0:0:0:80:C6H.wav
256,192,110435,1,0,0:0:0:55:F4H.wav
475,192,110435,1,0,0:0:0:80:F6H.wav
36,192,110516,1,0,0:0:0:55:Three_F2CF3.wav
402,192,110516,1,0,0:0:0:80:G#6H_Ab6H.wav
182,192,110516,1,0,0:0:0:80:Two_Ab5C6.wav
475,192,110680,1,0,0:0:0:80:G#6H_Ab6H.wav
329,192,110734,1,0,0:0:0:80:F6H.wav
182,192,110789,1,0,0:0:0:80:C6H.wav
36,192,110843,1,0,0:0:0:80:G#5H_Ab5H.wav
402,192,110898,1,0,0:0:0:80:G#4H_Ab4H.wav
256,192,110952,1,0,0:0:0:80:G#3H_Ab3H.wav
109,192,111007,1,0,0:0:0:80:F3H.wav
475,192,111061,1,0,0:0:0:80:C3H.wav
329,192,111116,1,0,0:0:0:80:G#2H_Ab2H.wav
36,192,111170,128,0,113786:0:0:0:55:F1H.wav
475,192,111170,128,0,113786:0:0:0:80:F4H.wav
402,192,111170,128,0,113786:0:0:0:80:C4H.wav
109,192,111170,128,0,113786:0:0:0:55:F2H.wav
256,192,111170,128,0,113786:0:0:0:80:G#3H_Ab3H.wav
