osu file format v14

[General]
AudioFilename: audio.mp3
AudioLeadIn: 0
PreviewTime: 22901
Countdown: 1
SampleSet: Normal
StackLeniency: 0.7
Mode: 0
LetterboxInBreaks: 0
WidescreenStoryboard: 0

[Editor]
Bookmarks: 17015,56252
DistanceSpacing: 1.6
BeatDivisor: 4
GridSize: 4
TimelineZoom: 1

[Metadata]
Title:ANiMA
TitleUnicode:ANiMA
Artist:xi
ArtistUnicode:xi
Creator:CeleriLord
Version:Advanced
Source:Deemo
Tags:
BeatmapID:917181
BeatmapSetID:424605

[Difficulty]
HPDrainRate:5.5
CircleSize:3.5
OverallDifficulty:5
ApproachRate:5.5
SliderMultiplier:1
SliderTickRate:1

[Events]
//Background and Video events
0,0,"ANiMA bg.jpg",0,0
//Break Periods
2,46643,48855
//Storyboard Layer 0 (Background)
//Storyboard Layer 1 (Fail)
//Storyboard Layer 2 (Pass)
//Storyboard Layer 3 (Foreground)
//Storyboard Sound Samples

[TimingPoints]
1321,326.975476839237,4,1,0,100,1,0
23555,-100,4,1,0,100,0,1
30748,-66.6666666666667,4,1,0,100,0,1
34018,-100,4,1,0,100,0,0
36634,-80,4,1,0,100,0,0
38923,-100,4,1,0,100,0,0
56252,-80,4,1,0,100,0,0
57233,-100,4,1,0,100,0,0

[HitObjects]
80,60,1321,6,0,B|100:168|312:104|312:104|332:240,1,400
140,292,3936,1,0,0:0:0:0:
128,308,5571,1,0,0:0:0:0:
240,276,5898,2,0,B|251:255|251:255|168:224,1,100
92,208,6552,5,0,0:0:0:0:
200,276,7860,2,0,L|224:252,1,25
80,240,8514,1,0,0:0:0:0:
160,192,9168,2,0,B|240:112|240:112|284:304|444:124,1,400,0|0,3:0|3:0,3:0:0:0:
480,256,10803,1,0,0:0:0:0:
340,312,11130,1,0,0:0:0:0:
256,192,11457,1,0,0:0:0:0:
256,192,11784,12,0,17015,0:0:0:0:
440,141,18160,5,0,0:0:0:0:
440,163,18323,1,0,0:0:0:0:
440,288,19631,1,0,0:0:0:0:
332,344,20285,2,0,P|240:320|200:224,1,200
100,239,21266,1,0,0:0:0:0:
164,129,21593,1,0,0:0:0:0:
285,129,21920,1,0,0:0:0:0:
168,172,23555,5,0,0:0:0:0:
360,216,24045,1,0,0:0:0:0:
240,80,24536,1,0,0:0:0:0:
120,72,24863,1,0,0:0:0:0:
120,88,25026,1,0,0:0:0:0:
120,280,25517,1,0,0:0:0:0:
256,192,25844,1,0,0:0:0:0:
452,192,26171,1,0,0:0:0:0:
452,208,26334,5,0,0:0:0:0:
360,312,26661,1,0,0:0:0:0:
264,188,27152,1,0,0:0:0:0:
124,184,27642,1,0,0:0:0:0:
124,200,27806,1,0,0:0:0:0:
402,294,28786,1,0,0:0:0:0:
284,293,29277,1,0,0:0:0:0:
206,213,29767,1,0,0:0:0:0:
210,66,30258,1,0,0:0:0:0:
116,36,30748,6,0,B|116:121|188:136|188:136|115:151|112:272,1,300.000011444092
204,320,31893,1,0,0:0:0:0:
304,192,32383,1,0,0:0:0:0:
132,140,32874,1,0,0:0:0:0:
132,196,33037,1,0,0:0:0:0:
388,160,34018,1,0,0:0:0:0:
316,192,34345,1,0,0:0:0:0:
240,220,34672,1,0,0:0:0:0:
108,276,35326,1,0,0:0:0:0:
108,200,35653,6,0,B|144:136|144:136|180:136,1,100
212,312,36634,2,0,B|256:264|352:272|352:272|365:250|336:156,1,250
416,88,37615,1,0,0:0:0:0:
272,32,37942,2,0,B|236:64|184:36|184:36|156:96|156:96|80:88|80:88|76:176|168:208,1,375
256,132,39250,1,0,0:0:0:0:
344,260,39577,1,0,0:0:0:0:
168,260,39904,1,0,0:0:0:0:
168,132,40558,5,0,0:0:0:0:
344,132,40885,1,0,0:0:0:0:
256,260,41212,1,0,0:0:0:0:
156,276,41865,5,0,0:0:0:0:
352,276,42519,1,0,0:0:0:0:
256,192,43173,1,0,0:0:0:0:
256,224,43337,5,0,0:0:0:0:
136,132,43827,1,0,0:0:0:0:
376,252,44154,1,0,0:0:0:0:
320,132,44808,1,0,0:0:0:0:
196,252,45135,1,0,0:0:0:0:
256,192,45462,1,0,0:0:0:0:
196,132,46116,1,0,0:0:0:0:
320,252,46443,1,0,0:0:0:0:
256,112,50040,5,0,0:0:0:0:
256,272,50367,1,0,0:0:0:0:
256,192,50694,1,0,0:0:0:0:
176,192,51348,1,0,0:0:0:0:
336,192,51675,1,0,0:0:0:0:
376,192,52329,2,0,P|352:96|256:64,1,200
112,96,53637,1,0,0:0:0:0:
204,192,54291,1,0,0:0:0:0:
304,192,54618,1,0,0:0:0:0:
256,124,54944,1,0,0:0:0:0:
256,192,55598,1,0,0:0:0:0:
428,260,56252,6,0,B|385:295|316:248|316:248|256:308|256:308|200:248|200:248|140:292|96:252,1,375
256,192,57560,1,0,0:0:0:0:
176,152,58868,1,0,0:0:0:0:
300,184,59195,1,0,0:0:0:0:
428,160,59522,1,0,0:0:0:0:
240,260,59849,1,0,0:0:0:0:
156,192,61484,1,0,0:0:0:0:
256,92,61811,1,0,0:0:0:0:
356,192,62138,1,0,0:0:0:0:
256,292,62465,1,0,0:0:0:0:
208,128,62792,6,0,P|256:116|304:128,1,100
336,268,63446,1,0,0:0:0:0:
172,264,63773,1,0,0:0:0:0:
264,304,64100,2,0,P|372:240|384:160,1,200
264,188,65081,2,0,B|228:168|204:220|276:240|272:196|260:188,1,100
216,280,65735,1,0,0:0:0:0:
304,280,66062,5,0,0:0:0:0:
392,280,66389,1,0,0:0:0:0:
464,204,66716,1,0,0:0:0:0:
416,124,67043,2,0,L|316:124,1,100
316,212,67697,2,0,L|216:212,1,100
256,124,68350,2,0,L|156:124,1,100
156,204,69004,2,0,L|260:204,1,100
336,204,69658,5,0,0:0:0:0:
336,128,69985,1,0,0:0:0:0:
256,112,70312,1,0,0:0:0:0:
256,96,70476,1,0,0:0:0:0:
256,80,70640,1,0,0:0:0:0:
372,92,70966,1,0,0:0:0:0:
308,188,71293,1,0,0:0:0:0:
224,252,71620,1,0,0:0:0:0:
112,280,71947,1,0,0:0:0:0:
160,152,72274,5,0,0:0:0:0:
208,152,72438,1,0,0:0:0:0:
256,152,72601,1,0,0:0:0:0:
280,228,72928,2,0,L|180:228,1,100
140,292,73582,1,0,0:0:0:0:
204,196,73909,1,0,0:0:0:0:
288,132,74236,1,0,0:0:0:0:
400,104,74563,1,0,0:0:0:0:
352,232,74890,5,0,0:0:0:0:
304,232,75054,1,0,0:0:0:0:
256,232,75217,1,0,0:0:0:0:
312,132,75544,1,0,0:0:0:0:
200,80,75871,1,0,0:0:0:0:
120,180,76198,2,0,B|148:240|148:240|120:260,1,100
248,252,77179,1,0,0:0:0:0:
296,188,77506,2,0,P|332:216|328:272,1,100
208,148,78487,1,0,0:0:0:0:
168,80,78814,6,0,P|132:112|136:164,1,100
276,112,79468,2,0,L|376:112,1,100
312,184,80122,2,0,L|208:184,1,100
276,256,80776,2,0,L|380:256,1,100
148,132,81429,1,0,0:0:0:0:
148,144,81593,1,0,0:0:0:0:
148,156,81756,1,0,0:0:0:0:
148,280,82083,1,0,0:0:0:0:
348,280,82410,1,0,0:0:0:0:
268,168,82737,1,0,0:0:0:0:
428,168,83064,1,0,0:0:0:0:
392,260,83391,6,0,B|344:312|344:312|320:288,1,100
196,108,84372,1,0,0:0:0:0:
196,212,84699,1,0,0:0:0:0:
344,184,85026,1,0,0:0:0:0:
424,184,85353,1,0,0:0:0:0:
384,100,85680,1,0,0:0:0:0:
312,160,86007,6,0,B|312:220|312:220|268:204,1,100
228,100,86661,1,0,0:0:0:0:
148,92,86988,2,0,P|117:92|97:156,1,100
88,300,87642,1,0,0:0:0:0:
208,300,87969,1,0,0:0:0:0:
176,160,88296,2,0,P|204:124|252:136,1,100
360,292,88950,1,0,0:0:0:0:
152,292,89277,1,0,0:0:0:0:
136,152,89604,6,0,P|168:104|132:72,1,100
376,152,90258,2,0,P|340:108|376:72,1,100
112,176,91566,1,0,0:0:0:0:
152,176,91729,1,0,0:0:0:0:
216,244,92220,1,0,0:0:0:0:
256,244,92383,1,0,0:0:0:0:
320,176,92874,1,0,0:0:0:0:
360,176,93037,1,0,0:0:0:0:
256,112,93528,5,0,0:0:0:0:
256,272,93855,1,0,0:0:0:0:
380,192,94182,1,0,0:0:0:0:
420,192,94345,1,0,0:0:0:0:
280,192,94835,1,0,0:0:0:0:
304,224,94998,1,0,0:0:0:0:
168,192,95489,1,0,0:0:0:0:
168,232,95653,1,0,0:0:0:0:
256,112,96143,5,0,0:0:0:0:
256,272,96470,1,0,0:0:0:0:
256,192,96797,12,0,99413,0:0:0:0:
116,192,100067,5,0,0:0:0:0:
116,208,100231,1,0,0:0:0:0:
252,144,100558,1,0,0:0:0:0:
396,192,100885,1,0,0:0:0:0:
396,208,101048,1,0,0:0:0:0:
344,292,101375,2,0,B|272:340|272:340|200:312,1,150
228,216,102192,5,0,0:0:0:0:
188,216,102356,1,0,0:0:0:0:
68,186,102683,1,0,0:0:0:0:
72,176,102846,1,0,0:0:0:0:
75,165,103010,1,0,0:0:0:0:
104,76,103337,2,0,P|188:68|256:124,1,175
264,144,103991,2,0,B|292:236|292:236|212:288,1,175
216,288,104645,5,0,0:0:0:0:
328,320,105299,1,0,0:0:0:0:
128,308,105953,1,0,0:0:0:0:
192,200,106280,2,0,P|220:244|260:244,1,75
280,248,106607,2,0,P|324:224|325:184,1,75,0|0,3:0|3:0,3:0:0:0:
332,176,106934,2,0,P|308:131|268:130,1,75,0|0,3:0|3:0,3:0:0:0:
260,128,107261,2,0,P|188:160|156:248,1,175
160,288,107915,5,0,0:0:0:0:
380,288,108241,1,0,0:0:0:0:
380,96,108568,1,0,0:0:0:0:
160,96,108895,1,0,0:0:0:0:
256,180,109222,1,0,0:0:0:0:
256,192,109549,1,0,0:0:0:0:
96,192,109876,5,0,0:0:0:0:
416,192,110530,1,0,0:0:0:0:
256,192,111184,12,0,113800,0:0:0:0:
