osu file format v14

[General]
AudioFilename: audio.mp3
AudioLeadIn: 0
PreviewTime: 91240
Countdown: 0
SampleSet: Soft
StackLeniency: 0.2
Mode: 0
LetterboxInBreaks: 0
WidescreenStoryboard: 1

[Editor]
DistanceSpacing: 1.1
BeatDivisor: 8
GridSize: 16
TimelineZoom: 3.299999

[Metadata]
Title:ANiMA
TitleUnicode:ANiMA
Artist:xi
ArtistUnicode:xi
Creator:AyanokoRin
Version:h
Source:Deemo
Tags:yusuke ishiwata piano rayark inc. soul alice masked lady deemo's collection vol. 2 World Fragments diffname
BeatmapID:1376065
BeatmapSetID:649447

[Difficulty]
HPDrainRate:5
CircleSize:4.6
OverallDifficulty:9.4
ApproachRate:10
SliderMultiplier:2.00000000596047
SliderTickRate:1

[Events]
//Background and Video events
0,0,"bg.jpg",0,0
//Break Periods
//Storyboard Layer 0 (Background)
//Storyboard Layer 1 (Fail)
//Storyboard Layer 2 (Pass)
//Storyboard Layer 3 (Foreground)
//Storyboard Sound Samples

[TimingPoints]
1322,326.975476839237,4,2,98,20,1,0
1322,-333.333333333333,4,2,98,20,0,0
2548,-333.333333333333,4,2,99,20,0,0
2629,-333.333333333333,4,2,97,20,0,0
3856,-333.333333333333,4,2,99,20,0,0
3937,-333.333333333333,4,2,98,20,0,0
5245,-333.333333333333,4,2,99,20,0,0
5572,-333.333333333333,4,2,98,20,0,0
5899,-333.333333333333,4,2,97,20,0,0
6226,-333.333333333333,4,2,96,20,0,0
6553,-333.333333333333,4,2,98,20,0,0
7779,-333.333333333333,4,2,99,20,0,0
7861,-333.333333333333,4,2,95,20,0,0
8515,-333.333333333333,4,2,94,20,0,0
9169,-333.333333333333,4,2,98,20,0,0
9823,-333.333333333333,4,2,93,20,0,0
10804,-333.333333333333,4,2,98,20,0,0
11131,-333.333333333333,4,2,97,20,0,0
11458,-333.333333333333,4,2,96,20,0,0
11785,-166.666666666667,4,2,92,40,0,0
12602,-166.666666666667,4,2,36,40,0,0
12766,-166.666666666667,4,2,40,40,0,0
12929,-166.666666666667,4,2,45,40,0,0
13093,-166.666666666667,4,2,91,40,0,0
13910,-166.666666666667,4,2,36,40,0,0
14074,-166.666666666667,4,2,40,40,0,0
14237,-166.666666666667,4,2,52,40,0,0
14401,-166.666666666667,4,2,95,50,0,0
15054,-166.666666666667,4,2,89,50,0,0
15708,-166.666666666667,4,2,91,50,0,0
17016,-125,4,2,91,70,0,1
17507,-125,4,2,36,70,0,1
17670,-125,4,2,45,70,0,1
17834,-125,4,2,40,70,0,1
17997,-125,4,2,45,70,0,1
18242,-125,4,2,47,70,0,1
18324,-100,4,2,48,70,0,1
18651,-100,4,2,57,70,0,1
18978,-100,4,2,59,70,0,1
19387,-100,4,2,55,70,0,1
19469,-100,4,2,57,70,0,1
19550,-100,4,2,59,70,0,1
19632,-83.3333333333333,4,2,60,70,0,1
19714,-83.3333333333333,4,2,62,70,0,1
19796,-83.3333333333333,4,2,60,70,0,1
19877,-83.3333333333333,4,2,62,70,0,1
19959,-83.3333333333333,4,2,60,70,0,1
20041,-83.3333333333333,4,2,62,70,0,1
20123,-83.3333333333333,4,2,60,70,0,1
20204,-83.3333333333333,4,2,62,70,0,1
20286,-83.3333333333333,4,2,60,70,0,1
20368,-83.3333333333333,4,2,62,70,0,1
20450,-83.3333333333333,4,2,60,70,0,1
20531,-83.3333333333333,4,2,62,70,0,1
20613,-83.3333333333333,4,2,60,70,0,1
20695,-83.3333333333333,4,2,62,70,0,1
20777,-83.3333333333333,4,2,60,70,0,1
20858,-83.3333333333333,4,2,62,70,0,1
20940,-83.3333333333333,4,2,59,70,0,1
21594,-83.3333333333333,4,2,52,70,0,1
21703,-83.3333333333333,4,2,50,70,0,1
21812,-83.3333333333333,4,2,47,70,0,1
21921,-83.3333333333333,4,2,44,70,0,1
22030,-83.3333333333333,4,2,40,70,0,1
22139,-83.3333333333333,4,2,38,70,0,1
22248,-111.111111111111,4,2,32,70,0,0
22902,-111.111111111111,4,2,40,70,0,0
22984,-111.111111111111,4,2,36,70,0,0
23065,-111.111111111111,4,2,40,70,0,0
23147,-111.111111111111,4,2,44,70,0,0
23229,-111.111111111111,4,2,47,70,0,0
23311,-111.111111111111,4,2,44,70,0,0
23392,-111.111111111111,4,2,47,70,0,0
23474,-111.111111111111,4,2,52,70,0,0
23556,-111.111111111111,4,2,60,70,0,0
23719,-111.111111111111,4,2,40,70,0,0
23801,-111.111111111111,4,2,45,70,0,0
23883,-111.111111111111,4,2,48,70,0,0
24046,-111.111111111111,4,2,41,70,0,0
24292,-111.111111111111,4,2,45,70,0,0
24373,-111.111111111111,4,2,48,70,0,0
24537,-111.111111111111,4,2,38,70,0,0
24755,-111.111111111111,4,2,41,70,0,0
24809,-111.111111111111,4,2,45,70,0,0
24864,-111.111111111111,4,2,48,70,0,0
25027,-111.111111111111,4,2,43,70,0,0
25191,-111.111111111111,4,2,38,70,0,0
25272,-111.111111111111,4,2,43,70,0,0
25354,-111.111111111111,4,2,48,70,0,0
25845,-111.111111111111,4,2,47,70,0,0
26175,-111.111111111111,4,2,45,70,0,0
26335,-111.111111111111,4,2,40,70,0,0
26417,-111.111111111111,4,2,45,70,0,0
26499,-111.111111111111,4,2,48,70,0,0
26662,-111.111111111111,4,2,41,70,0,0
26908,-111.111111111111,4,2,45,70,0,0
26989,-111.111111111111,4,2,48,70,0,0
27153,-111.111111111111,4,2,38,70,0,0
27371,-111.111111111111,4,2,41,70,0,0
27425,-111.111111111111,4,2,45,70,0,0
27480,-111.111111111111,4,2,48,70,0,0
27643,-111.111111111111,4,2,50,70,0,0
28133,-111.111111111111,4,2,53,70,0,0
28460,-111.111111111111,4,2,52,70,0,0
28787,-111.111111111111,4,2,46,70,0,0
28951,-111.111111111111,4,2,41,70,0,0
29033,-111.111111111111,4,2,46,70,0,0
29114,-111.111111111111,4,2,49,70,0,0
29278,-111.111111111111,4,2,42,70,0,0
29523,-111.111111111111,4,2,46,70,0,0
29605,-111.111111111111,4,2,49,70,0,0
29768,-111.111111111111,4,2,39,70,0,0
29986,-111.111111111111,4,2,42,70,0,0
30041,-111.111111111111,4,2,46,70,0,0
30095,-111.111111111111,4,2,49,70,0,0
30259,-111.111111111111,4,2,44,70,0,0
30422,-111.111111111111,4,2,39,70,0,0
30504,-111.111111111111,4,2,44,70,0,0
30586,-111.111111111111,4,2,49,70,0,0
30913,-111.111111111111,4,2,41,70,0,0
30967,-111.111111111111,4,2,45,70,0,0
31022,-111.111111111111,4,2,49,70,0,0
31076,-111.111111111111,4,2,48,70,0,0
31403,-100,4,2,49,70,0,0
31567,-100,4,2,41,70,0,0
31648,-100,4,2,46,70,0,0
31730,-100,4,2,49,70,0,0
31894,-100,4,2,42,70,0,0
32139,-100,4,2,46,70,0,0
32221,-100,4,2,49,70,0,0
32384,-100,4,2,51,70,0,0
32548,-100,4,2,39,70,0,0
32602,-100,4,2,42,70,0,0
32657,-100,4,2,46,70,0,0
32711,-100,4,2,49,70,0,0
32875,-100,4,2,51,70,0,0
33365,-100,4,2,41,70,0,0
33447,-100,4,2,45,70,0,0
33529,-100,4,2,48,70,0,0
33610,-100,4,2,51,70,0,0
33692,-100,4,2,53,70,0,0
33774,-100,4,2,57,70,0,0
33856,-100,4,2,60,70,0,0
33937,-100,4,2,63,70,0,0
34019,-100,4,2,61,70,0,0
34101,-100,4,2,49,70,0,0
34183,-100,4,2,56,70,0,0
34264,-100,4,2,61,70,0,0
34346,-100,4,2,60,70,0,0
34428,-100,4,2,49,70,0,0
34510,-100,4,2,56,70,0,0
34591,-100,4,2,60,70,0,0
34673,-100,4,2,56,70,0,0
34755,-100,4,2,44,70,0,0
34836,-100,4,2,46,70,0,0
34918,-100,4,2,48,70,0,0
35000,-100,4,2,51,70,0,0
35082,-100,4,2,56,70,0,0
35163,-100,4,2,51,70,0,0
35245,-100,4,2,48,70,0,0
35327,-100,4,2,53,70,0,0
35409,-100,4,2,46,70,0,0
35490,-100,4,2,43,70,0,0
35572,-100,4,2,46,70,0,0
35654,-100,4,2,49,70,0,0
35708,-100,4,2,50,70,0,0
35763,-100,4,2,51,70,0,0
35817,-100,4,2,53,70,0,0
35899,-100,4,2,43,70,0,0
35981,-100,4,2,46,70,0,0
36063,-100,4,2,43,70,0,0
36144,-100,4,2,39,70,0,0
36226,-100,4,2,43,70,0,0
36308,-100,4,2,46,70,0,0
36390,-100,4,2,48,70,0,0
36471,-100,4,2,49,70,0,0
36553,-100,4,2,51,70,0,0
36635,-100,4,2,53,70,0,0
36717,-100,4,2,42,70,0,0
36798,-100,4,2,39,70,0,0
36880,-100,4,2,44,70,0,0
36962,-100,4,2,42,70,0,0
37044,-100,4,2,49,70,0,0
37125,-100,4,2,54,70,0,0
37207,-100,4,2,53,70,0,0
37289,-100,4,2,51,70,0,0
37371,-100,4,2,39,70,0,0
37452,-100,4,2,36,70,0,0
37534,-100,4,2,39,70,0,0
37616,-100,4,2,48,70,0,0
37698,-100,4,2,41,70,0,0
37779,-100,4,2,36,70,0,0
37861,-100,4,2,41,70,0,0
38024,-100,4,2,37,70,0,0
38106,-100,4,2,41,70,0,0
38188,-100,4,2,46,70,0,0
38270,-100,4,2,49,70,0,0
38351,-100,4,2,41,70,0,0
38433,-100,4,2,46,70,0,0
38515,-100,4,2,49,70,0,0
38597,-100,4,2,53,70,0,0
38678,-100,4,2,46,70,0,0
38760,-100,4,2,49,70,0,0
38842,-100,4,2,53,70,0,0
38924,-100,4,2,58,70,0,0
39005,-100,4,2,49,70,0,0
39087,-100,4,2,53,70,0,0
39169,-100,4,2,58,70,0,0
39251,-83.3333333333333,4,2,58,70,0,0
39414,-83.3333333333333,4,2,51,70,0,0
39469,-83.3333333333333,4,2,54,70,0,0
39523,-83.3333333333333,4,2,58,70,0,0
39578,-83.3333333333333,4,2,61,70,0,0
39823,-83.3333333333333,4,2,99,70,0,0
39905,-83.3333333333333,4,2,60,70,0,0
40150,-83.3333333333333,4,2,56,70,0,0
40232,-83.3333333333333,4,2,60,70,0,0
40313,-83.3333333333333,4,2,58,70,0,0
40395,-83.3333333333333,4,2,57,70,0,0
40477,-83.3333333333333,4,2,58,70,0,0
40559,-83.3333333333333,4,2,60,70,0,0
40804,-83.3333333333333,4,2,99,70,0,0
40886,-83.3333333333333,4,2,63,70,0,0
41131,-83.3333333333333,4,2,99,70,0,0
41213,-83.3333333333333,4,2,61,70,0,0
41458,-83.3333333333333,4,2,60,70,0,0
41539,-100,4,2,61,70,0,0
41621,-100,4,2,60,70,0,0
41703,-100,4,2,61,70,0,0
41785,-100,4,2,63,70,0,0
41866,-100,4,2,65,70,0,0
42193,-100,4,2,61,70,0,0
42275,-100,4,2,58,70,0,0
42357,-100,4,2,61,70,0,0
42439,-100,4,2,65,70,0,0
42520,-100,4,2,70,70,0,0
42847,-100,4,2,72,70,0,0
43174,-100,4,2,61,70,0,0
43420,-100,4,2,60,70,0,0
43501,-100,4,2,61,70,0,0
43583,-100,4,2,60,70,0,0
43665,-100,4,2,61,70,0,0
43747,-100,4,2,63,70,0,0
43828,-100,4,2,61,70,0,0
44155,-100,4,2,60,70,0,0
44482,-100,4,2,42,70,0,0
45027,-100,4,2,41,70,0,0
45354,-100,4,2,39,70,0,0
45790,-100,4,2,36,70,0,0
45954,-100,4,2,45,70,0,0
46008,-100,4,2,48,70,0,0
46063,-100,4,2,51,70,0,0
46117,-100,4,2,56,70,0,0
46444,-100,4,2,53,70,0,0
47098,-100,4,2,43,70,0,0
47180,-100,4,2,46,70,0,0
47262,-100,4,2,39,70,0,0
47343,-100,4,2,43,70,0,0
47425,-100,4,2,46,70,0,0
47507,-100,4,2,43,70,0,0
47589,-100,4,2,46,70,0,0
47670,-100,4,2,49,70,0,0
47752,-100,4,2,53,70,0,0
47834,-100,4,2,46,70,0,0
47916,-100,4,2,43,70,0,0
47997,-100,4,2,46,70,0,0
48079,-100,4,2,49,70,0,0
48161,-100,4,2,51,70,0,0
48242,-100,4,2,49,70,0,0
48324,-100,4,2,53,70,0,0
48488,-100,4,2,44,70,0,0
48569,-100,4,2,39,70,0,0
48651,-100,4,2,44,70,0,0
48733,-100,4,2,49,70,0,0
48815,-100,4,2,53,70,0,0
48896,-100,4,2,54,70,0,0
48978,-100,4,2,53,70,0,0
49060,-100,4,2,51,70,0,0
49714,-100,4,2,44,70,0,0
50041,-90.9090909090909,4,2,44,70,0,0
50259,-90.9090909090909,4,2,43,70,0,0
50586,-90.9090909090909,4,2,41,70,0,0
51185,-90.9090909090909,4,2,47,70,0,0
51239,-90.9090909090909,4,2,50,70,0,0
51294,-90.9090909090909,4,2,53,70,0,0
51348,-90.9090909090909,4,2,58,70,0,0
51676,-90.9090909090909,4,2,55,70,0,0
52330,-83.3333333333333,4,2,57,70,0,0
52493,-83.3333333333333,4,2,45,70,0,0
52575,-83.3333333333333,4,2,50,70,0,0
52657,-83.3333333333333,4,2,53,70,0,0
52738,-83.3333333333333,4,2,50,70,0,0
52820,-83.3333333333333,4,2,53,70,0,0
52902,-83.3333333333333,4,2,55,70,0,0
52984,-83.3333333333333,4,2,57,70,0,0
53147,-83.3333333333333,4,2,45,70,0,0
53229,-83.3333333333333,4,2,50,70,0,0
53311,-83.3333333333333,4,2,54,70,0,0
53392,-83.3333333333333,4,2,50,70,0,0
53474,-83.3333333333333,4,2,54,70,0,0
53556,-83.3333333333333,4,2,59,70,0,0
53638,-83.3333333333333,4,2,60,70,0,0
53801,-83.3333333333333,4,2,43,70,0,0
53883,-83.3333333333333,4,2,50,70,0,0
53965,-83.3333333333333,4,2,55,70,0,0
54046,-83.3333333333333,4,2,60,70,0,0
54128,-83.3333333333333,4,2,62,70,0,0
54210,-83.3333333333333,4,2,60,70,0,0
54292,-83.3333333333333,4,2,59,70,0,0
54945,-90.9090909090909,4,2,59,70,0,1
55272,-90.9090909090909,4,2,52,70,0,1
55381,-90.9090909090909,4,2,56,70,0,1
55490,-90.9090909090909,4,2,59,70,0,1
55599,-90.9090909090909,4,2,62,70,0,1
56090,-90.9090909090909,4,2,64,70,0,1
56172,-90.9090909090909,4,2,62,70,0,1
56253,-90.9090909090909,4,2,60,70,0,1
56417,-90.9090909090909,4,2,52,70,0,1
56499,-90.9090909090909,4,2,60,70,0,1
56580,-90.9090909090909,4,2,59,70,0,1
56744,-90.9090909090909,4,2,50,70,0,1
56826,-90.9090909090909,4,2,59,70,0,1
56907,-90.9090909090909,4,2,57,70,0,1
57071,-90.9090909090909,4,2,48,70,0,1
57153,-90.9090909090909,4,2,57,70,0,1
57234,-90.9090909090909,4,2,55,70,0,1
57398,-90.9090909090909,4,2,48,70,0,1
57480,-90.9090909090909,4,2,55,70,0,1
57561,-90.9090909090909,4,2,57,70,0,1
57888,-90.9090909090909,4,2,50,70,0,1
57997,-90.9090909090909,4,2,54,70,0,1
58106,-90.9090909090909,4,2,57,70,0,1
58215,-90.9090909090909,4,2,60,70,0,1
58706,-90.9090909090909,4,2,62,70,0,1
58787,-90.9090909090909,4,2,60,70,0,1
58869,-90.9090909090909,4,2,59,70,0,1
59033,-90.9090909090909,4,2,50,70,0,1
59114,-90.9090909090909,4,2,59,70,0,1
59196,-90.9090909090909,4,2,57,70,0,1
59360,-90.9090909090909,4,2,50,70,0,1
59441,-90.9090909090909,4,2,57,70,0,1
59523,-90.9090909090909,4,2,55,70,0,1
59687,-90.9090909090909,4,2,47,70,0,1
59768,-90.9090909090909,4,2,55,70,0,1
59850,-90.9090909090909,4,2,53,70,0,1
60014,-90.9090909090909,4,2,45,70,0,1
60095,-90.9090909090909,4,2,53,70,0,1
60177,-90.9090909090909,4,2,61,70,0,1
60504,-90.9090909090909,4,2,54,70,0,1
60613,-90.9090909090909,4,2,58,70,0,1
60722,-90.9090909090909,4,2,61,70,0,1
60831,-90.9090909090909,4,2,64,70,0,1
61321,-90.9090909090909,4,2,66,70,0,1
61403,-90.9090909090909,4,2,64,70,0,1
61485,-90.9090909090909,4,2,62,70,0,1
61648,-90.9090909090909,4,2,54,70,0,1
61730,-90.9090909090909,4,2,62,70,0,1
61812,-90.9090909090909,4,2,61,70,0,1
61975,-90.9090909090909,4,2,52,70,0,1
62057,-90.9090909090909,4,2,61,70,0,1
62139,-90.9090909090909,4,2,64,70,0,1
62302,-90.9090909090909,4,2,56,70,0,1
62384,-90.9090909090909,4,2,64,70,0,1
62466,-90.9090909090909,4,2,62,70,0,1
62629,-90.9090909090909,4,2,56,70,0,1
62711,-90.9090909090909,4,2,62,70,0,1
62793,-90.9090909090909,4,2,55,70,0,1
62956,-90.9090909090909,4,2,50,70,0,1
63038,-90.9090909090909,4,2,55,70,0,1
63120,-90.9090909090909,4,2,53,70,0,1
63283,-90.9090909090909,4,2,49,70,0,1
63365,-90.9090909090909,4,2,53,70,0,1
63447,-90.9090909090909,4,2,54,70,0,1
63610,-90.9090909090909,4,2,49,70,0,1
63692,-90.9090909090909,4,2,54,70,0,1
63774,-90.9090909090909,4,2,58,70,0,1
63937,-90.9090909090909,4,2,49,70,0,1
64019,-90.9090909090909,4,2,58,70,0,1
64101,-83.3333333333333,4,2,59,70,0,1
64264,-83.3333333333333,4,2,49,70,0,1
64346,-83.3333333333333,4,2,59,70,0,1
64428,-83.3333333333333,4,2,58,70,0,1
64591,-83.3333333333333,4,2,49,70,0,1
64673,-83.3333333333333,4,2,58,70,0,1
64755,-83.3333333333333,4,2,61,70,0,1
65082,-83.3333333333333,4,2,70,70,0,1
65136,-83.3333333333333,4,2,66,70,0,1
65191,-83.3333333333333,4,2,58,70,0,1
65245,-83.3333333333333,4,2,54,70,0,1
65300,-83.3333333333333,4,2,46,70,0,1
65354,-83.3333333333333,4,2,42,70,0,1
65409,-125,4,2,35,70,0,0
65736,-125,4,2,38,70,0,0
66063,-125,4,2,37,70,0,0
66390,-125,4,2,40,70,0,0
66717,-111.111111111111,4,2,38,70,0,0
67044,-111.111111111111,4,2,42,70,0,0
67371,-111.111111111111,4,2,40,70,0,0
67698,-111.111111111111,4,2,43,70,0,0
68024,-100,4,2,54,70,0,1
68351,-100,4,2,59,70,0,0
68678,-100,4,2,58,70,0,1
69005,-100,4,2,61,70,0,0
69332,-100,4,2,54,70,0,1
69659,-100,4,2,59,70,0,1
70313,-100,4,2,58,70,0,1
70640,-133.333333333333,4,2,59,70,0,0
71049,-133.333333333333,4,2,54,70,0,0
71131,-133.333333333333,4,2,58,70,0,0
71213,-133.333333333333,4,2,54,70,0,0
71294,-133.333333333333,4,2,59,70,0,0
71376,-133.333333333333,4,2,54,70,0,0
71458,-133.333333333333,4,2,51,70,0,0
71539,-133.333333333333,4,2,47,70,0,0
71621,-133.333333333333,4,2,57,70,0,0
71703,-133.333333333333,4,2,54,70,0,0
71785,-133.333333333333,4,2,51,70,0,0
71866,-133.333333333333,4,2,47,70,0,0
71948,-133.333333333333,4,2,57,70,0,0
72030,-133.333333333333,4,2,52,70,0,0
72112,-133.333333333333,4,2,47,70,0,0
72193,-133.333333333333,4,2,43,70,0,0
72275,-133.333333333333,4,2,55,70,0,0
72357,-133.333333333333,4,2,52,70,0,0
72439,-133.333333333333,4,2,47,70,0,0
72520,-133.333333333333,4,2,43,70,0,0
72602,-133.333333333333,4,2,54,70,0,0
72684,-133.333333333333,4,2,52,70,0,0
72766,-133.333333333333,4,2,47,70,0,0
72847,-133.333333333333,4,2,43,70,0,0
72929,-133.333333333333,4,2,55,70,0,0
73011,-133.333333333333,4,2,52,70,0,0
73093,-133.333333333333,4,2,47,70,0,0
73174,-133.333333333333,4,2,43,70,0,0
73256,-133.333333333333,4,2,57,70,0,0
73665,-133.333333333333,4,2,52,70,0,0
73747,-133.333333333333,4,2,56,70,0,0
73828,-133.333333333333,4,2,52,70,0,0
73910,-133.333333333333,4,2,57,70,0,0
73992,-133.333333333333,4,2,52,70,0,0
74074,-133.333333333333,4,2,49,70,0,0
74155,-133.333333333333,4,2,45,70,0,0
74237,-133.333333333333,4,2,55,70,0,0
74319,-133.333333333333,4,2,52,70,0,0
74401,-133.333333333333,4,2,49,70,0,0
74482,-133.333333333333,4,2,45,70,0,0
74564,-133.333333333333,4,2,55,70,0,0
74646,-133.333333333333,4,2,50,70,0,0
74727,-133.333333333333,4,2,45,70,0,0
74809,-133.333333333333,4,2,42,70,0,0
74891,-133.333333333333,4,2,54,70,0,0
74973,-133.333333333333,4,2,50,70,0,0
75054,-133.333333333333,4,2,45,70,0,0
75136,-133.333333333333,4,2,42,70,0,0
75218,-133.333333333333,4,2,53,70,0,0
75300,-133.333333333333,4,2,50,70,0,0
75381,-133.333333333333,4,2,45,70,0,0
75463,-133.333333333333,4,2,42,70,0,0
75545,-133.333333333333,4,2,54,70,0,0
75627,-133.333333333333,4,2,50,70,0,0
75708,-133.333333333333,4,2,45,70,0,0
75790,-133.333333333333,4,2,42,70,0,0
75872,-133.333333333333,4,2,55,70,0,0
75954,-133.333333333333,4,2,50,70,0,0
76035,-133.333333333333,4,2,47,70,0,0
76117,-133.333333333333,4,2,43,70,0,0
76199,-133.333333333333,4,2,50,70,0,0
76280,-133.333333333333,4,2,47,70,0,0
76362,-133.333333333333,4,2,43,70,0,0
76444,-133.333333333333,4,2,38,70,0,0
76526,-200,4,2,40,70,0,0
77180,-133.333333333333,4,2,54,70,0,0
77262,-133.333333333333,4,2,49,70,0,0
77343,-133.333333333333,4,2,46,70,0,0
77425,-133.333333333333,4,2,42,70,0,0
77507,-133.333333333333,4,2,49,70,0,0
77588,-133.333333333333,4,2,46,70,0,0
77670,-133.333333333333,4,2,42,70,0,0
77752,-133.333333333333,4,2,37,70,0,0
77834,-200,4,2,39,70,0,0
78488,-133.333333333333,4,2,52,70,0,0
78570,-133.333333333333,4,2,47,70,0,0
78651,-133.333333333333,4,2,44,70,0,0
78733,-133.333333333333,4,2,40,70,0,0
78815,-133.333333333333,4,2,47,70,0,0
78896,-133.333333333333,4,2,44,70,0,0
78978,-133.333333333333,4,2,40,70,0,0
79060,-133.333333333333,4,2,35,70,0,0
79142,-133.333333333333,4,2,49,70,0,0
79469,-133.333333333333,4,2,52,70,0,0
79796,-133.333333333333,4,2,49,70,0,0
79877,-133.333333333333,4,2,46,70,0,0
79959,-133.333333333333,4,2,43,70,0,0
80041,-133.333333333333,4,2,37,70,0,0
80123,-133.333333333333,4,2,52,70,0,0
80204,-133.333333333333,4,2,49,70,0,0
80286,-133.333333333333,4,2,46,70,0,0
80368,-133.333333333333,4,2,43,70,0,0
80450,-133.333333333333,4,2,52,70,0,0
80777,-133.333333333333,4,2,51,70,0,0
81104,-125,4,2,66,70,0,0
81512,-125,4,2,61,70,0,0
81594,-125,4,2,65,70,0,0
81676,-125,4,2,61,70,0,0
81757,-125,4,2,66,70,0,0
81839,-125,4,2,61,70,0,0
81921,-125,4,2,58,70,0,0
82003,-125,4,2,54,70,0,0
82084,-125,4,2,64,70,0,0
82166,-125,4,2,61,70,0,0
82248,-125,4,2,58,70,0,0
82330,-125,4,2,54,70,0,0
82411,-125,4,2,64,70,0,0
82493,-125,4,2,59,70,0,0
82575,-125,4,2,54,70,0,0
82657,-125,4,2,50,70,0,0
82738,-125,4,2,62,70,0,0
82820,-125,4,2,59,70,0,0
82902,-125,4,2,50,70,0,0
82984,-125,4,2,47,70,0,0
83065,-125,4,2,61,70,0,0
83147,-125,4,2,59,70,0,0
83229,-125,4,2,54,70,0,0
83311,-125,4,2,50,70,0,0
83392,-125,4,2,62,70,0,0
83474,-125,4,2,59,70,0,0
83556,-125,4,2,54,70,0,0
83638,-125,4,2,50,70,0,0
83719,-125,4,2,64,70,0,0
84128,-125,4,2,59,70,0,0
84210,-125,4,2,63,70,0,0
84292,-125,4,2,59,70,0,0
84373,-125,4,2,64,70,0,0
84455,-125,4,2,59,70,0,0
84537,-125,4,2,56,70,0,0
84619,-125,4,2,52,70,0,0
84700,-125,4,2,62,70,0,0
84782,-125,4,2,59,70,0,0
84864,-125,4,2,56,70,0,0
84946,-125,4,2,52,70,0,0
85027,-125,4,2,62,70,0,0
85109,-125,4,2,57,70,0,0
85191,-125,4,2,52,70,0,0
85272,-125,4,2,49,70,0,0
85354,-125,4,2,61,70,0,0
85436,-125,4,2,57,70,0,0
85518,-125,4,2,52,70,0,0
85599,-125,4,2,49,70,0,0
85681,-125,4,2,60,70,0,0
85763,-125,4,2,57,70,0,0
85845,-125,4,2,52,70,0,0
85926,-125,4,2,49,70,0,0
86008,-125,4,2,61,70,0,0
86090,-125,4,2,57,70,0,0
86172,-125,4,2,52,70,0,0
86253,-125,4,2,49,70,0,0
86335,-111.111111111111,4,2,62,70,0,0
86417,-111.111111111111,4,2,57,70,0,0
86499,-111.111111111111,4,2,54,70,0,0
86580,-111.111111111111,4,2,50,70,0,0
86662,-111.111111111111,4,2,57,70,0,0
86744,-111.111111111111,4,2,54,70,0,0
86825,-111.111111111111,4,2,50,70,0,0
86907,-111.111111111111,4,2,45,70,0,0
86989,-111.111111111111,4,2,59,70,0,0
87643,-111.111111111111,4,2,61,70,0,0
87725,-111.111111111111,4,2,56,70,0,0
87807,-111.111111111111,4,2,53,70,0,0
87888,-111.111111111111,4,2,49,70,0,0
87970,-111.111111111111,4,2,56,70,0,0
88052,-111.111111111111,4,2,53,70,0,0
88133,-111.111111111111,4,2,49,70,0,0
88215,-111.111111111111,4,2,44,70,0,0
88297,-111.111111111111,4,2,58,70,0,0
88951,-111.111111111111,4,2,59,70,0,0
89033,-111.111111111111,4,2,54,70,0,0
89115,-111.111111111111,4,2,51,70,0,0
89196,-111.111111111111,4,2,47,70,0,0
89278,-111.111111111111,4,2,54,70,0,0
89360,-111.111111111111,4,2,51,70,0,0
89441,-111.111111111111,4,2,47,70,0,0
89523,-111.111111111111,4,2,42,70,0,0
89605,-111.111111111111,4,2,56,70,0,0
89932,-111.111111111111,4,2,59,70,0,0
90259,-90.9090909090909,4,2,56,70,0,0
90341,-90.9090909090909,4,2,53,70,0,0
90422,-90.9090909090909,4,2,50,70,0,0
90504,-90.9090909090909,4,2,44,70,0,0
90586,-90.9090909090909,4,2,59,70,0,0
90668,-90.9090909090909,4,2,56,70,0,0
90749,-90.9090909090909,4,2,53,70,0,0
90831,-90.9090909090909,4,2,50,70,0,0
90913,-90.9090909090909,4,2,59,70,0,0
91240,-76.9230769230769,4,2,58,70,0,0
91567,-83.3333333333333,4,2,2,70,0,1
91894,-83.3333333333333,4,2,44,70,0,1
91975,-83.3333333333333,4,2,47,70,0,1
92057,-83.3333333333333,4,2,51,70,0,1
92139,-83.3333333333333,4,2,56,70,0,1
92221,-83.3333333333333,4,2,3,70,0,1
92548,-83.3333333333333,4,2,44,70,0,1
92629,-83.3333333333333,4,2,47,70,0,1
92711,-83.3333333333333,4,2,52,70,0,1
92793,-83.3333333333333,4,2,56,70,0,1
92875,-83.3333333333333,4,2,4,70,0,1
93202,-83.3333333333333,4,2,44,70,0,1
93283,-83.3333333333333,4,2,49,70,0,1
93365,-83.3333333333333,4,2,52,70,0,1
93447,-83.3333333333333,4,2,56,70,0,1
93529,-83.3333333333333,4,2,11,70,0,1
93692,-83.3333333333333,4,2,51,70,0,1
93747,-83.3333333333333,4,2,55,70,0,1
93801,-83.3333333333333,4,2,59,70,0,1
93856,-83.3333333333333,4,2,12,70,0,1
94183,-83.3333333333333,4,2,2,70,0,1
94510,-83.3333333333333,4,2,44,70,0,1
94591,-83.3333333333333,4,2,47,70,0,1
94673,-83.3333333333333,4,2,51,70,0,1
94755,-83.3333333333333,4,2,56,70,0,1
94837,-83.3333333333333,4,2,3,70,0,1
95163,-83.3333333333333,4,2,44,70,0,1
95244,-83.3333333333333,4,2,47,70,0,1
95326,-83.3333333333333,4,2,52,70,0,1
95408,-83.3333333333333,4,2,56,70,0,1
95491,-83.3333333333333,4,2,4,70,0,1
95817,-83.3333333333333,4,2,49,70,0,1
95899,-83.3333333333333,4,2,52,70,0,1
95981,-83.3333333333333,4,2,56,70,0,1
96063,-83.3333333333333,4,2,61,70,0,1
96144,-71.4285714285714,4,2,13,70,0,1
96308,-83.3333333333333,4,2,52,70,0,1
96390,-83.3333333333333,4,2,64,70,0,1
96471,-83.3333333333333,4,2,62,70,0,1
96798,-100,4,2,1,70,0,0
97125,-133.333333333333,4,2,68,70,0,0
97289,-133.333333333333,4,2,70,70,0,0
97452,-133.333333333333,4,2,68,70,0,0
97534,-133.333333333333,4,2,70,70,0,0
97616,-133.333333333333,4,2,68,70,0,0
97698,-133.333333333333,4,2,70,70,0,0
97779,-133.333333333333,4,2,68,70,0,0
97861,-133.333333333333,4,2,70,70,0,0
97943,-133.333333333333,4,2,68,70,0,0
98024,-133.333333333333,4,2,70,70,0,0
98106,-133.333333333333,4,2,67,70,0,0
98270,-133.333333333333,4,2,66,70,0,0
98351,-133.333333333333,4,2,65,70,0,0
98433,-133.333333333333,4,2,64,70,0,0
98515,-133.333333333333,4,2,63,70,0,0
98597,-133.333333333333,4,2,62,70,0,0
98678,-133.333333333333,4,2,61,70,0,0
98760,-133.333333333333,4,2,75,70,0,0
98801,-133.333333333333,4,2,99,70,0,0
99414,-100,4,2,37,70,0,0
99578,-100,4,2,59,70,0,0
99741,-100,4,2,49,70,0,0
99823,-100,4,2,52,70,0,0
99905,-100,4,2,56,70,0,0
99986,-100,4,2,59,70,0,0
100068,-100,4,2,58,70,0,0
100232,-100,4,2,46,70,0,0
100313,-100,4,2,58,70,0,0
100395,-100,4,2,49,70,0,0
100477,-100,4,2,61,70,0,0
100559,-100,4,2,46,70,0,0
100640,-100,4,2,58,70,0,0
101049,-100,4,2,46,70,0,0
101131,-100,4,2,51,70,0,0
101213,-100,4,2,54,70,0,0
101294,-100,4,2,58,70,0,0
101376,-100,4,2,59,70,0,0
101539,-100,4,2,56,70,0,0
101703,-100,4,2,52,70,0,0
101785,-100,4,2,51,70,0,0
101866,-100,4,2,52,70,0,0
101948,-100,4,2,54,70,0,0
102193,-100,4,2,56,70,0,0
102357,-100,4,2,49,70,0,0
102466,-100,4,2,52,70,0,0
102575,-100,4,2,54,70,0,0
102684,-100,4,2,56,70,0,0
102902,-100,4,2,54,70,0,0
103120,-100,4,2,52,70,0,0
103501,-100,4,2,42,70,0,0
103583,-100,4,2,46,70,0,0
103665,-100,4,2,49,70,0,0
103747,-100,4,2,46,70,0,0
103828,-100,4,2,49,70,0,0
103910,-100,4,2,52,70,0,0
103992,-100,4,2,51,70,0,0
104155,-100,4,2,52,70,0,0
104210,-100,4,2,51,70,0,0
104264,-100,4,2,50,70,0,0
104319,-100,4,2,49,70,0,0
104646,-100,4,2,48,70,0,0
105136,-100,4,2,47,70,0,0
105300,-100,4,2,48,70,0,0
105463,-100,4,2,50,70,0,0
105627,-100,4,2,48,70,0,0
105872,-100,4,2,50,70,0,0
105954,-100,4,2,48,70,0,0
106281,-100,4,2,52,70,0,0
106608,-100,4,2,57,70,0,0
106935,-100,4,2,59,70,0,0
107262,-100,4,2,60,70,0,1
107589,-100,4,2,48,70,0,1
107916,-100,4,2,60,75,0,1
108242,-100,4,2,59,80,0,1
108569,-100,4,2,60,85,0,1
108896,-100,4,2,62,90,0,1
109223,-100,4,2,69,95,0,1
109550,-100,4,2,68,100,0,1
109877,-100,4,2,69,100,0,0
110204,-100,4,2,57,70,0,0
110286,-100,4,2,60,70,0,0
110368,-100,4,2,64,70,0,0
110450,-100,4,2,69,70,0,0
110531,-100,4,2,72,70,0,0
110749,-100,4,2,69,70,0,0
110804,-100,4,2,64,70,0,0
110858,-100,4,2,48,70,0,0
110940,-100,4,2,45,70,0,0
111022,-100,4,2,40,70,0,0
111104,-100,4,2,36,70,0,0
111185,-100,4,2,33,70,0,0

[Colours]
Combo1 : 65,183,207
Combo2 : 255,255,128
Combo3 : 255,128,128
Combo4 : 128,255,128

[HitObjects]
43,290,1322,6,0,P|97:247|227:308,1,224.999993804098,2|0,0:2|0:2,0:2:0:0:
230,314,2629,2,0,P|315:366|413:303,1,224.999993804098,2|0,0:2|0:2,0:2:0:0:
444,192,3937,6,0,B|384:162|325:192|325:192|265:221|206:192,1,239.999993391038,2|0,0:2|0:2,0:2:0:0:
281,58,5572,2,0,P|309:50|351:57,2,59.9999983477595,2|2|2,0:2|0:2|0:2,0:2:0:0:
84,205,6553,6,0,P|144:125|84:19,1,224.999993804098,2|0,0:2|0:2,0:2:0:0:
48,112,7861,2,0,P|104:122|161:96,1,119.999996695519,2|2,0:2|0:2,0:2:0:0:
281,58,9169,6,0,P|334:33|392:42,1,119.999996695519,2|2,0:2|0:2,0:2:0:0:
239,274,10477,1,0,0:2:0:0:
336,140,10804,1,2,0:2:0:0:
336,305,11131,1,2,0:2:0:0:
239,171,11458,1,2,0:2:0:0:
239,171,11785,5,6,1:2:0:0:
73,308,12602,2,0,P|38:307|15:296,2,59.9999983477595,2|2|2,0:2|0:2|0:2,0:2:0:0:
66,189,13093,5,2,0:2:0:0:
286,333,13910,2,0,P|320:332|343:321,2,59.9999983477595,2|2|2,0:2|0:2|0:2,0:2:0:0:
442,168,14401,5,6,1:2:0:0:
112,104,15054,1,2,0:2:0:0:
442,40,15708,6,0,P|382:28|304:51,1,119.999996695519,6|0,1:2|0:2,0:2:0:0:
112,104,16362,6,0,P|172:92|250:115,1,119.999996695519,6|0,1:2|0:2,0:2:0:0:
179,253,16853,1,0,0:2:0:0:
179,253,16935,1,0,0:2:0:0:
179,253,17016,6,0,L|184:193,3,40.0000001192094,6|0|0|0,1:2|0:2|0:2|0:2,0:2:0:0:
221,334,17343,2,0,L|226:393,3,40.0000001192094,0|0|2|0,0:2|0:2|0:2|0:2,0:2:0:0:
275,218,17670,6,0,L|282:140,1,40.0000001192094,2|0,0:2|0:2,0:2:0:0:
330,324,17834,2,0,L|337:402,1,40.0000001192094,2|0,0:2|0:2,0:2:0:0:
272,213,17997,2,0,L|279:135,1,40.0000001192094,2|0,0:2|0:2,0:2:0:0:
333,329,18161,2,0,L|339:406,1,40.0000001192094,2|2,1:2|0:2,0:2:0:0:
438,153,18324,6,0,L|488:149,3,50.0000001490117,6|0|0|0,1:2|0:2|0:2|0:2,0:2:0:0:
334,89,18651,2,0,L|285:85,3,50.0000001490117,2|0|0|0,0:2|0:2|0:2|0:2,0:2:0:0:
349,168,18978,6,0,L|354:218,1,50.0000001490117,2|0,0:2|0:2,0:2:0:0:
413,64,19142,2,0,L|418:15,1,50.0000001490117,0|0,0:2|0:2,0:2:0:0:
346,177,19305,2,0,L|351:227,1,50.0000001490117,2|2,0:2|0:2,0:2:0:0:
416,55,19469,2,0,L|420:5,1,50.0000001490117,2|2,1:2|0:2,0:2:0:0:
431,280,19632,5,6,1:2:0:0:
394,313,19713,1,2,0:2:0:0:
346,323,19796,1,2,0:2:0:0:
299,307,19877,1,2,0:2:0:0:
267,270,19958,1,2,0:2:0:0:
233,233,20041,1,2,0:2:0:0:
187,217,20123,1,2,1:2:0:0:
138,227,20205,1,2,0:2:0:0:
102,261,20286,5,6,1:2:0:0:
161,260,20367,1,2,0:2:0:0:
207,223,20449,1,2,0:2:0:0:
221,165,20531,1,2,0:2:0:0:
199,111,20612,1,2,0:2:0:0:
148,81,20694,1,2,0:2:0:0:
89,89,20776,1,2,1:2:0:0:
47,130,20858,1,2,0:2:0:0:
38,188,20940,6,0,L|42:259,1,59.9999983477595,6|0,1:2|0:2,0:2:0:0:
271,108,21104,2,0,L|267:47,1,59.9999983477595,0|0,0:2|0:2,0:2:0:0:
26,192,21267,6,0,L|30:270,1,59.9999983477595,4|0,1:2|0:2,0:2:0:0:
282,103,21431,2,0,L|279:44,1,59.9999983477595,0|0,0:2|0:2,0:2:0:0:
214,334,21594,6,0,B|178:292|178:292|179:255,2,79.9999977970126,6|2|2,1:2|0:2|0:2,0:2:0:0:
340,265,21921,6,0,B|376:223|376:223|375:186,2,79.9999977970126,6|2|2,1:2|0:2|0:2,0:2:0:0:
129,172,22248,5,6,1:2:0:0:
129,172,22575,1,0,0:2:0:0:
129,172,22902,6,0,L|179:163,1,44.9999987608196,6|2,0:2|0:2,0:2:0:0:
296,171,23065,1,2,0:2:0:0:
296,171,23147,1,2,0:2:0:0:
296,171,23229,6,0,L|346:162,1,44.9999987608196,6|2,0:2|0:2,0:2:0:0:
463,170,23392,1,2,0:2:0:0:
482,168,23474,1,2,0:2:0:0:
512,147,23556,5,6,1:2:0:0:
512,147,23638,1,0,0:2:0:0:
512,147,23719,2,0,L|516:94,1,44.9999987608196,2|2,0:2|0:2,0:2:0:0:
352,78,23883,2,0,L|356:25,1,44.9999987608196,2|0,1:2|0:2,0:2:0:0:
373,250,24046,5,2,0:2:0:0:
373,250,24128,1,0,0:2:0:0:
373,250,24210,2,0,L|368:302,1,44.9999987608196,2|2,1:2|0:2,0:2:0:0:
235,205,24373,2,0,L|230:257,1,44.9999987608196,2|0,0:2|0:2,0:2:0:0:
266,348,24537,5,2,1:2:0:0:
266,348,24619,1,0,0:2:0:0:
266,348,24700,6,0,L|268:318,2,29.9999991738797,2|2|2,0:2|0:2|0:2,0:2:0:0:
127,302,24864,2,0,L|130:257,1,44.9999987608196,2|0,1:2|0:2,0:2:0:0:
352,156,25027,6,0,L|307:152,1,44.9999987608196,2|0,0:2|0:2,0:2:0:0:
136,117,25191,2,0,L|180:113,1,44.9999987608196,2|2,1:2|0:2,0:2:0:0:
352,78,25354,2,0,L|307:74,1,44.9999987608196,2|0,0:2|0:2,0:2:0:0:
136,39,25518,5,2,1:2:0:0:
103,46,25599,1,0,0:2:0:0:
76,66,25681,1,0,0:2:0:0:
61,96,25763,1,0,0:2:0:0:
59,129,25845,6,0,L|62:173,1,44.9999987608196,2|0,1:2|0:2,0:2:0:0:
130,257,26008,2,0,L|127:302,1,44.9999987608196,0|0,0:2|0:2,0:2:0:0:
59,381,26172,5,2,1:2:0:0:
59,381,26253,1,0,0:2:0:0:
59,381,26335,2,0,L|127:374,1,44.9999987608196,2|2,0:2|0:2,0:2:0:0:
195,250,26499,2,0,L|263:243,1,44.9999987608196,2|0,1:2|0:2,0:2:0:0:
323,381,26662,5,2,0:2:0:0:
323,381,26744,1,0,0:2:0:0:
323,381,26826,2,0,L|278:384,1,44.9999987608196,2|2,1:2|0:2,0:2:0:0:
459,250,26989,2,0,L|414:253,1,44.9999987608196,2|0,0:2|0:2,0:2:0:0:
278,186,27153,5,2,1:2:0:0:
278,186,27234,1,0,0:2:0:0:
278,186,27316,6,0,L|307:183,2,29.9999991738797,2|2|2,0:2|0:2|0:2,0:2:0:0:
414,55,27480,2,0,L|458:51,1,44.9999987608196,2|0,1:2|0:2,0:2:0:0:
233,3,27643,6,0,L|229:47,1,44.9999987608196,2|0,0:2|0:2,0:2:0:0:
153,150,27807,2,0,L|149:194,1,44.9999987608196,2|0,1:2|0:2,0:2:0:0:
146,164,27970,2,0,L|142:208,1,44.9999987608196,0|0,0:2|0:2,0:2:0:0:
96,257,28133,5,2,1:2:0:0:
91,301,28215,1,0,0:2:0:0:
110,340,28297,1,0,0:2:0:0:
149,362,28379,1,0,0:2:0:0:
193,360,28460,6,0,L|254:354,1,44.9999987608196,6|0,1:2|0:2,0:2:0:0:
278,186,28624,2,0,L|339:192,1,44.9999987608196,0|0,1:2|0:2,0:2:0:0:
363,360,28787,5,6,1:2:0:0:
363,360,28869,1,0,0:2:0:0:
363,360,28951,2,0,L|356:298,1,44.9999987608196,2|2,0:2|0:2,0:2:0:0:
219,228,29114,2,0,L|212:166,1,44.9999987608196,2|0,1:2|0:2,0:2:0:0:
405,169,29278,5,2,0:2:0:0:
405,169,29360,1,0,0:2:0:0:
405,169,29441,2,0,L|410:213,1,44.9999987608196,2|2,1:2|0:2,0:2:0:0:
502,340,29605,2,0,L|507:384,1,44.9999987608196,2|0,0:2|0:2,0:2:0:0:
509,155,29768,5,2,1:2:0:0:
509,155,29850,1,0,0:2:0:0:
509,155,29932,6,0,L|507:125,2,29.9999991738797,2|2|2,0:2|0:2|0:2,0:2:0:0:
343,56,30095,2,0,L|336:-6,1,44.9999987608196,2|0,1:2|0:2,0:2:0:0:
297,253,30259,6,0,L|341:247,1,44.9999987608196,2|0,0:2|0:2,0:2:0:0:
109,206,30422,2,0,L|64:200,1,44.9999987608196,2|2,1:2|0:2,0:2:0:0:
297,159,30586,2,0,L|341:153,1,44.9999987608196,2|0,0:2|0:2,0:2:0:0:
109,112,30749,5,2,1:2:0:0:
109,112,30831,1,0,0:2:0:0:
109,112,30913,6,0,L|111:142,2,29.9999991738797,2|2|2,0:2|0:2|0:2,0:2:0:0:
234,218,31076,2,0,L|228:262,1,44.9999987608196,2|0,1:2|0:2,0:2:0:0:
109,324,31240,2,0,L|114:368,1,44.9999987608196,0|0,1:2|0:2,0:2:0:0:
360,341,31403,5,6,1:2:0:0:
360,341,31485,1,0,0:2:0:0:
360,341,31567,2,0,L|410:335,1,50.0000001490117,2|2,0:2|0:2,0:2:0:0:
512,199,31730,2,0,L|461:193,1,50.0000001490117,2|0,1:2|0:2,0:2:0:0:
297,159,31894,5,6,1:2:0:0:
297,159,31975,1,0,0:2:0:0:
297,159,32057,2,0,L|303:213,1,50.0000001490117,2|2,1:2|0:2,0:2:0:0:
206,374,32221,2,0,L|211:324,1,50.0000001490117,2|0,0:2|0:2,0:2:0:0:
115,159,32384,5,6,1:2:0:0:
115,159,32466,1,0,0:2:0:0:
115,159,32548,6,0,L|117:192,2,33.3333334326745,2|2|2,1:2|0:2|0:2,0:2:0:0:
24,374,32711,2,0,L|29:324,1,50.0000001490117,6|0,1:2|0:2,0:2:0:0:
229,172,32875,5,2,1:2:0:0:
223,179,32929,5,0,1:2:0:0:
218,187,32983,5,0,1:2:0:0:
211,195,33038,6,0,L|180:240,1,50.0000001490117,6|0,1:2|0:2,0:2:0:0:
206,374,33202,2,0,L|212:320,1,50.0000001490117,0|0,1:2|0:2,0:2:0:0:
297,159,33365,5,6,1:2:0:0:
299,134,33446,1,2,0:2:0:0:
302,109,33528,1,2,0:2:0:0:
305,84,33610,1,2,0:2:0:0:
308,59,33692,5,2,0:2:0:0:
326,96,33774,1,2,0:2:0:0:
369,121,33856,1,2,0:2:0:0:
427,115,33937,1,2,0:2:0:0:
473,63,34019,6,0,L|504:13,1,50.0000001490117,6|2,1:2|0:2,0:2:0:0:
308,59,34183,2,0,L|249:57,1,50.0000001490117,2|2,0:2|0:2,0:2:0:0:
388,204,34346,5,2,0:2:0:0:
399,226,34427,1,2,0:2:0:0:
411,248,34509,1,2,0:2:0:0:
423,270,34591,1,2,0:2:0:0:
435,292,34673,6,0,L|465:347,1,50.0000001490117,2|2,1:2|0:2,0:2:0:0:
269,234,34836,2,0,L|293:277,1,50.0000001490117,2|2,0:2|0:2,0:2:0:0:
132,359,35000,5,2,0:2:0:0:
156,363,35082,1,2,0:2:0:0:
181,366,35163,1,2,0:2:0:0:
207,369,35245,1,2,0:2:0:0:
231,372,35327,6,0,L|304:381,3,50.0000001490117,2|2|2|2,1:2|0:2|0:2|0:2,0:2:0:0:
180,214,35654,5,2,1:2:0:0:
175,204,35708,5,2,0:2:0:0:
170,195,35763,5,2,0:2:0:0:
165,185,35817,6,0,L|141:142,1,50.0000001490117,2|2,0:2|0:2,0:2:0:0:
33,46,35981,6,0,L|57:89,1,50.0000001490117,2|2,1:2|0:2,0:2:0:0:
77,230,36144,2,0,L|53:187,1,50.0000001490117,2|2,0:2|0:2,0:2:0:0:
145,44,36308,5,2,0:2:0:0:
179,30,36389,1,2,0:2:0:0:
216,34,36471,1,2,0:2:0:0:
247,54,36553,1,2,0:2:0:0:
264,87,36635,6,0,L|288:130,3,50.0000001490117,2|2|2|2,1:2|0:2|0:2|0:2,0:2:0:0:
370,210,36962,5,2,0:2:0:0:
404,224,37043,1,2,0:2:0:0:
441,220,37125,1,2,0:2:0:0:
472,200,37207,1,2,0:2:0:0:
488,167,37289,6,0,L|497:105,1,50.0000001490117,2|2,1:2|0:2,0:2:0:0:
405,335,37452,2,0,L|396:397,1,50.0000001490117,2|2,0:2|0:2,0:2:0:0:
414,145,37616,6,0,L|405:83,1,50.0000001490117,2|2,1:2|0:2,0:2:0:0:
497,313,37779,2,0,L|506:375,1,50.0000001490117,2|2,0:2|0:2,0:2:0:0:
296,258,37943,5,2,1:2:0:0:
258,254,38025,1,2,0:2:0:0:
223,266,38107,1,2,0:2:0:0:
195,291,38189,1,2,0:2:0:0:
179,323,38270,5,2,1:2:0:0:
214,289,38351,1,2,0:2:0:0:
226,242,38433,1,2,0:2:0:0:
212,193,38515,1,2,0:2:0:0:
172,164,38597,6,0,L|95:157,1,50.0000001490117,2|2,1:2|0:2,0:2:0:0:
179,323,38760,2,0,L|256:316,1,50.0000001490117,2|2,1:2|0:2,0:2:0:0:
12,102,38924,5,2,1:2:0:0:
23,171,39005,1,2,1:2:0:0:
38,241,39087,1,2,1:2:0:0:
53,310,39169,1,2,1:2:0:0:
67,381,39251,6,0,L|90:286,1,59.9999983477595,6|0,1:2|0:2,0:2:0:0:
122,159,39414,5,2,0:2:0:0:
125,147,39469,5,2,0:2:0:0:
128,135,39523,5,2,0:2:0:0:
131,123,39578,6,0,B|161:4|161:4|182:107,1,179.999995043278,6|0,1:2|0:2,0:2:0:0:
288,181,39905,2,0,B|299:237|299:237|329:118,1,179.999995043278,6|2,1:2|0:2,0:2:0:0:
385,28,40232,5,2,1:2:0:0:
423,12,40313,1,2,0:2:0:0:
464,18,40395,1,2,1:2:0:0:
496,44,40477,1,2,0:2:0:0:
512,83,40559,6,0,B|516:142|516:142|499:200|499:200|506:259,1,179.999995043278,6|0,1:2|0:2,0:2:0:0:
290,308,40886,2,0,B|350:297|350:297|457:349,1,179.999995043278,6|0,1:2|0:2,0:2:0:0:
235,365,41213,2,0,B|198:187|198:187,1,179.999995043278,6|2,1:2|0:2,0:2:0:0:
338,0,41539,5,2,1:2:0:0:
323,58,41621,1,2,1:2:0:0:
308,116,41703,1,2,1:2:0:0:
293,174,41785,1,2,1:2:0:0:
279,231,41866,5,6,1:2:0:0:
90,217,42193,1,2,1:2:0:0:
89,153,42275,1,2,1:2:0:0:
125,101,42356,1,2,1:2:0:0:
183,76,42438,1,2,1:2:0:0:
247,85,42519,5,6,1:2:0:0:
138,384,42847,1,2,1:2:0:0:
74,358,42929,1,0,1:2:0:0:
76,289,43011,1,0,1:2:0:0:
143,270,43093,1,0,1:2:0:0:
182,328,43174,5,6,1:2:0:0:
9,222,43338,2,0,L|37:232,1,25.0000000745059,0|2,1:2|1:2,0:2:0:0:
0,181,43420,2,0,L|19:203,1,25.0000000745059,0|2,1:2|1:2,0:2:0:0:
5,142,43501,1,6,1:2:0:0:
19,104,43583,1,2,0:2:0:0:
46,74,43665,2,0,L|96:50,1,50.0000001490117,2|2,1:2|1:2,0:2:0:0:
281,23,43828,6,0,L|331:19,1,50.0000001490117,6|0,1:2|1:2,0:2:0:0:
178,176,43992,2,0,L|129:172,1,50.0000001490117,2|0,1:2|1:2,0:2:0:0:
315,202,44155,6,0,L|310:152,1,50.0000001490117,6|0,1:2|1:2,0:2:0:0:
162,0,44319,2,0,L|157:49,1,50.0000001490117,2|0,1:2|1:2,0:2:0:0:
143,270,44482,5,6,1:2:0:0:
143,270,44809,6,0,B|107:312|107:312|70:316,2,66.666666865349,2|2|2,1:2|0:2|0:2,0:2:0:0:
241,307,45136,6,0,B|222:254|222:254|236:220,2,66.666666865349,2|2|2,1:2|0:2|0:2,0:2:0:0:
159,373,45463,5,2,1:2:0:0:
238,376,45572,5,2,0:2:0:0:
317,379,45681,5,2,0:2:0:0:
396,382,45790,6,0,L|481:384,1,50.0000001490117,2|0,1:2|0:2,0:2:0:0:
343,210,45954,5,2,0:2:0:0:
339,200,46008,5,2,0:2:0:0:
335,190,46063,5,2,0:2:0:0:
331,180,46117,6,0,L|304:111,3,50.0000001490117,2|0|0|0,1:2|0:2|0:2|0:2,0:2:0:0:
343,40,46444,5,2,1:2:0:0:
367,44,46525,1,0,0:2:0:0:
392,48,46607,1,0,0:2:0:0:
417,51,46689,1,0,0:2:0:0:
441,55,46771,2,0,L|513:65,3,50.0000001490117,2|0|0|0,1:2|0:2|0:2|0:2,0:2:0:0:
402,258,47098,5,2,1:2:0:0:
373,279,47180,1,2,0:2:0:0:
337,285,47262,1,2,0:2:0:0:
303,275,47343,1,2,0:2:0:0:
278,249,47425,1,2,1:2:0:0:
253,223,47507,1,2,0:2:0:0:
219,213,47588,1,2,0:2:0:0:
183,219,47670,1,2,0:2:0:0:
154,239,47752,6,0,L|112:303,1,50.0000001490117,2|2,1:2|0:2,0:2:0:0:
134,44,47916,2,0,L|162:3,1,50.0000001490117,2|2,0:2|0:2,0:2:0:0:
241,132,48079,2,0,L|283:160,1,50.0000001490117,2|2,1:2|0:2,0:2:0:0:
47,151,48242,2,0,L|6:124,1,50.0000001490117,2|2,0:2|0:2,0:2:0:0:
218,63,48406,5,2,1:2:0:0:
254,60,48488,1,2,0:2:0:0:
285,73,48569,1,2,0:2:0:0:
308,99,48651,1,2,0:2:0:0:
341,109,48733,1,2,1:2:0:0:
375,102,48815,1,2,0:2:0:0:
401,79,48896,1,2,0:2:0:0:
412,45,48978,1,2,0:2:0:0:
404,10,49060,6,0,L|341:-23,1,50.0000001490117,2|0,1:2|0:2,0:2:0:0:
254,156,49223,2,0,L|191:189,1,50.0000001490117,0|0,0:2|0:2,0:2:0:0:
457,212,49387,2,0,L|394:179,1,50.0000001490117,2|0,1:2|0:2,0:2:0:0:
254,268,49550,2,0,L|209:291,1,50.0000001490117,0|0,1:2|0:2,0:2:0:0:
456,370,49714,5,6,1:2:0:0:
456,370,50041,6,0,B|503:341|503:341|512:305,2,73.3333357898397,2|2|2,1:2|0:2|0:2,0:2:0:0:
381,321,50368,5,2,1:2:0:0:
293,319,50477,5,2,0:2:0:0:
219,367,50586,5,2,0:2:0:0:
134,341,50695,5,2,1:2:0:0:
101,259,50804,5,2,0:2:0:0:
139,179,50913,5,2,0:2:0:0:
224,159,51022,6,0,L|311:177,1,55.0000018423798,2|0,1:2|0:2,0:2:0:0:
465,206,51185,5,2,0:2:0:0:
458,197,51240,5,2,0:2:0:0:
451,188,51294,5,2,0:2:0:0:
444,179,51349,6,0,L|394:117,3,55.0000018423798,2|0|0|0,1:2|0:2|0:2|0:2,0:2:0:0:
297,47,51676,5,2,1:2:0:0:
271,57,51757,1,0,0:2:0:0:
245,67,51839,1,0,0:2:0:0:
219,77,51921,1,0,0:2:0:0:
193,87,52003,2,0,L|117:119,3,55.0000018423798,2|0|0|0,1:2|0:2|1:2|0:2,0:2:0:0:
297,248,52330,6,0,L|291:183,1,59.9999983477595,6|0,1:2|0:2,0:2:0:0:
81,202,52493,2,0,L|86:137,1,59.9999983477595,2|2,0:2|0:2,0:2:0:0:
235,303,52657,5,2,1:2:0:0:
269,326,52738,1,2,0:2:0:0:
310,329,52820,1,2,1:2:0:0:
348,313,52902,1,2,0:2:0:0:
374,278,52984,6,0,L|368:213,1,59.9999983477595,6|0,1:2|0:2,0:2:0:0:
156,355,53147,2,0,L|161:290,1,59.9999983477595,2|2,0:2|0:2,0:2:0:0:
420,375,53311,5,2,1:2:0:0:
432,316,53392,1,2,0:2:0:0:
444,257,53474,1,2,1:2:0:0:
457,198,53556,1,2,0:2:0:0:
470,139,53638,6,0,L|493:27,1,59.9999983477595,6|0,1:2|0:2,0:2:0:0:
297,248,53801,2,0,L|320:359,1,59.9999983477595,2|2,0:2|0:2,0:2:0:0:
365,46,53965,5,6,1:2:0:0:
305,72,54046,1,2,0:2:0:0:
244,99,54128,1,2,1:2:0:0:
183,126,54210,1,2,0:2:0:0:
122,153,54292,6,0,L|41:189,1,59.9999983477595,6|0,1:2|0:2,0:2:0:0:
331,154,54455,2,0,L|375:134,2,29.9999991738797,0|0|0,1:2|1:2|1:2,3:2:0:0:
113,152,54619,6,0,L|24:191,1,59.9999983477595,6|0,1:2|0:2,0:2:0:0:
340,155,54782,2,0,L|429:115,1,59.9999983477595,0|0,1:2|0:2,0:2:0:0:
122,50,54945,6,0,P|56:68|16:120,1,110.00000368476,6|0,1:2|0:2,0:2:0:0:
242,316,55272,5,2,1:2:0:0:
201,258,55381,5,2,0:2:0:0:
117,231,55490,5,2,0:2:0:0:
36,285,55599,6,0,P|94:324|156:323,1,110.00000368476,2|0,1:2|0:2,0:2:0:0:
359,292,55926,1,0,1:2:0:0:
220,95,56090,1,2,0:2:0:0:
220,95,56172,1,2,0:2:0:0:
220,95,56253,6,0,P|179:157|180:217,1,110.00000368476,6|2,1:2|0:2,0:2:0:0:
422,55,56499,1,2,0:0:0:0:
422,55,56580,2,0,P|462:117|461:177,1,110.00000368476,6|2,1:2|0:2,0:2:0:0:
208,87,56826,1,2,0:0:0:0:
208,87,56907,6,0,P|167:149|168:209,1,110.00000368476,6|2,1:2|0:2,0:2:0:0:
434,47,57153,1,2,0:0:0:0:
434,47,57234,2,0,L|429:109,1,55.0000018423798,6|0,1:2|0:0,0:0:0:0:
475,272,57398,2,0,L|471:327,1,55.0000018423798,2|2,1:2|0:0,0:0:0:0:
264,154,57561,6,0,P|294:108|342:81,1,110.00000368476,6|0,1:2|0:2,0:2:0:0:
429,218,57888,5,2,1:2:0:0:
408,272,57997,5,2,0:2:0:0:
352,307,58106,5,2,0:2:0:0:
272,296,58215,6,0,P|282:242|316:199,1,110.00000368476,2|0,1:2|0:2,0:2:0:0:
425,384,58542,1,0,1:2:0:0:
193,360,58706,1,2,0:2:0:0:
193,360,58787,1,2,0:2:0:0:
193,360,58869,6,0,P|175:308|183:254,1,110.00000368476,6|2,1:2|0:2,0:2:0:0:
42,132,59114,1,2,0:0:0:0:
42,132,59196,2,0,P|34:185|51:237,1,110.00000368476,6|2,1:2|0:2,0:2:0:0:
183,118,59441,1,2,0:0:0:0:
183,118,59523,6,0,L|117:162,1,55.0000018423798,6|0,1:2|0:0,0:0:0:0:
76,321,59687,2,0,L|11:364,1,55.0000018423798,6|2,1:2|0:0,0:0:0:0:
186,113,59850,6,0,L|116:159,1,55.0000018423798,6|0,1:2|0:0,0:0:0:0:
74,327,60014,2,0,L|4:373,1,55.0000018423798,6|2,1:2|0:0,0:0:0:0:
286,275,60177,6,0,P|304:223|298:169,1,110.00000368476,6|0,1:2|0:2,0:2:0:0:
140,143,60504,5,2,1:2:0:0:
205,182,60613,5,2,0:2:0:0:
299,170,60722,5,2,0:2:0:0:
373,88,60831,6,0,P|319:62|269:64,1,110.00000368476,6|0,1:2|0:2,0:2:0:0:
216,296,61158,1,4,1:2:0:0:
439,186,61321,1,2,0:2:0:0:
439,186,61403,1,2,0:2:0:0:
439,186,61485,6,0,P|457:128|448:79,1,110.00000368476,6|2,1:2|0:2,0:2:0:0:
205,182,61730,1,2,0:0:0:0:
205,182,61812,2,0,P|186:124|195:75,1,110.00000368476,6|2,1:2|0:2,0:2:0:0:
451,195,62057,1,2,0:0:0:0:
450,193,62139,6,0,P|468:135|459:86,1,110.00000368476,6|2,1:2|0:2,0:2:0:0:
196,191,62384,1,2,0:0:0:0:
194,189,62466,2,0,L|221:130,1,55.0000018423798,6|0,1:2|0:0,0:0:0:0:
366,11,62629,2,0,L|339:70,1,55.0000018423798,2|2,1:2|0:0,0:0:0:0:
376,245,62793,6,0,L|301:238,1,55.0000018423798,6|0,1:2|0:0,0:0:0:0:
139,184,62956,5,2,1:2:0:0:
139,184,63038,1,2,0:0:0:0:
139,184,63120,2,0,L|213:190,1,55.0000018423798,6|0,1:2|0:0,0:0:0:0:
226,333,63283,5,2,1:2:0:0:
226,333,63365,1,2,0:0:0:0:
227,333,63447,2,0,L|233:258,1,55.0000018423798,6|0,1:2|0:0,0:0:0:0:
288,96,63610,5,6,1:2:0:0:
288,96,63692,1,2,0:0:0:0:
288,96,63774,2,0,L|281:170,1,55.0000018423798,6|0,1:2|0:0,0:0:0:0:
98,358,63937,5,6,1:2:0:0:
98,358,64019,1,2,1:2:0:0:
98,358,64101,6,0,L|183:350,1,59.9999983477595,6|0,1:2|1:2,0:2:0:0:
283,150,64264,2,0,L|198:142,1,59.9999983477595,6|2,1:2|1:2,0:2:0:0:
102,304,64428,6,0,L|186:318,1,59.9999983477595,6|0,1:2|1:2,0:2:0:0:
288,96,64591,2,0,L|203:110,1,59.9999983477595,6|2,1:2|1:2,0:2:0:0:
106,250,64755,6,0,L|183:285,1,59.9999983477595,6|0,1:2|1:2,0:2:0:0:
293,42,64918,2,0,L|215:77,1,59.9999983477595,4|0,1:2|1:2,0:2:0:0:
339,271,65082,5,2,1:2:0:0:
338,294,65136,5,2,0:2:0:0:
320,304,65191,5,2,0:2:0:0:
300,293,65245,5,2,0:2:0:0:
300,271,65300,5,2,0:2:0:0:
321,260,65354,5,2,0:2:0:0:
320,284,65409,6,0,L|329:213,3,40.0000001192094,6|0|2|0,1:2|0:2|0:2|0:2,0:2:0:0:
463,213,65736,2,0,L|453:138,3,40.0000001192094,2|0|2|0,1:2|0:2|0:2|0:2,0:2:0:0:
397,66,66063,5,2,1:2:0:0:
373,57,66144,1,0,0:2:0:0:
347,57,66226,2,0,L|279:68,1,40.0000001192094,2|0,0:2|0:2,0:2:0:0:
245,225,66390,5,2,1:2:0:0:
265,209,66471,1,0,0:2:0:0:
278,186,66553,2,0,L|302:121,1,40.0000001192094,2|0,0:2|0:2,0:2:0:0:
183,13,66717,6,0,L|207:77,3,44.9999987608196,2|0|2|0,1:2|0:2|0:2|0:2,0:2:0:0:
24,168,67044,2,0,L|48:103,3,44.9999987608196,2|0|2|0,1:2|0:2|0:2|0:2,0:2:0:0:
183,323,67371,5,2,1:2:0:0:
217,333,67452,1,0,0:2:0:0:
252,329,67534,2,0,L|318:297,1,44.9999987608196,2|0,0:2|0:2,0:2:0:0:
432,234,67698,5,2,1:2:0:0:
398,224,67779,1,0,0:2:0:0:
363,228,67861,2,0,L|297:260,1,44.9999987608196,2|0,1:2|0:2,0:2:0:0:
504,366,68024,5,6,1:2:0:0:
501,315,68106,1,0,0:2:0:0:
498,264,68188,1,2,0:2:0:0:
495,213,68270,1,0,0:2:0:0:
493,163,68351,6,0,L|490:87,1,50.0000001490117,2|0,1:2|0:2,0:2:0:0:
355,335,68515,2,0,L|358:411,1,50.0000001490117,2|0,0:2|0:2,0:2:0:0:
296,137,68679,5,6,1:2:0:0:
253,83,68760,1,0,0:2:0:0:
186,66,68842,1,2,0:2:0:0:
123,94,68924,1,0,0:2:0:0:
90,154,69005,6,0,L|74:211,1,50.0000001490117,2|0,1:2|0:2,0:2:0:0:
203,381,69169,2,0,L|219:324,1,50.0000001490117,2|0,1:2|0:2,0:2:0:0:
196,175,69332,6,0,L|180:232,1,50.0000001490117,6|0,1:2|0:2,0:2:0:0:
58,348,69496,2,0,L|48:377,1,25.0000000745059,2|0,1:2|1:2,0:2:0:0:
82,325,69578,2,0,L|112:319,1,25.0000000745059,0|0,1:2|1:2,0:2:0:0:
50,316,69659,6,0,L|4:265,1,50.0000001490117,6|0,1:2|0:2,0:2:0:0:
157,142,69823,2,0,L|215:191,1,50.0000001490117,2|0,1:2|0:2,0:2:0:0:
300,305,69986,5,6,1:2:0:0:
354,357,70068,1,0,1:2:0:0:
420,322,70150,1,2,1:2:0:0:
406,248,70232,1,0,1:2:0:0:
333,237,70313,6,0,L|240:221,1,50.0000001490117,6|0,1:2|0:2,0:2:0:0:
505,384,70477,2,0,L|455:375,1,50.0000001490117,2|0,0:2|0:2,0:2:0:0:
510,155,70640,6,0,L|473:148,3,37.5000015422703,6|0|0|0,1:2|0:2|0:2|0:2,0:2:0:0:
492,116,70967,2,0,L|455:109,1,37.5000015422703,2|2,0:2|0:2,0:2:0:0:
405,157,71131,2,0,L|368:150,1,37.5000015422703,2|2,0:2|0:2,0:2:0:0:
474,77,71294,2,0,L|437:70,3,37.5000015422703,2|2|2|2,0:2|0:2|0:2|0:2,0:2:0:0:
354,88,71621,2,0,L|317:81,3,37.5000015422703,2|2|2|2,0:2|0:2|0:2|0:2,0:2:0:0:
261,25,71948,6,0,L|254:61,3,37.5000015422703,2|2|2|2,0:2|0:2|0:2|0:2,0:2:0:0:
171,32,72275,2,0,L|183:67,3,37.5000015422703,2|2|2|2,0:2|0:2|0:2|0:2,0:2:0:0:
96,83,72602,2,0,L|124:107,3,37.5000015422703,2|2|2|2,0:2|0:2|0:2|0:2,0:2:0:0:
56,164,72929,1,2,0:2:0:0:
47,180,73011,1,2,0:2:0:0:
38,196,73093,1,2,0:2:0:0:
30,212,73174,1,2,0:2:0:0:
22,229,73256,6,0,L|2:273,3,37.5000015422703,2|0|0|0,0:2|0:2|0:2|0:2,0:2:0:0:
20,264,73583,2,0,L|0:308,1,37.5000015422703,2|2,0:2|0:2,0:2:0:0:
101,246,73747,2,0,L|84:282,1,37.5000015422703,2|2,0:2|0:2,0:2:0:0:
18,299,73910,2,0,L|-1:343,3,37.5000015422703,2|2|2|2,0:2|0:2|0:2|0:2,0:2:0:0:
90,346,74237,2,0,L|70:390,3,37.5000015422703,2|2|2|2,0:2|0:2|0:2|0:2,0:2:0:0:
181,317,74564,6,0,L|225:337,3,37.5000015422703,2|2|2|2,0:2|0:2|0:2|0:2,0:2:0:0:
268,273,74891,2,0,L|296:312,3,37.5000015422703,2|2|2|2,0:2|0:2|0:2|0:2,0:2:0:0:
365,278,75218,2,0,L|369:326,3,37.5000015422703,2|2|2|2,0:2|0:2|0:2|0:2,0:2:0:0:
446,330,75545,2,0,L|426:374,3,37.5000015422703,2|2|2|2,0:2|0:2|0:2|0:2,0:2:0:0:
396,204,75872,6,0,L|427:183,3,37.5000015422703,2|2|2|2,0:2|0:2|0:2|0:2,0:2:0:0:
450,103,76199,1,2,0:2:0:0:
457,85,76281,1,2,0:2:0:0:
464,68,76362,1,2,0:2:0:0:
472,51,76444,1,2,0:2:0:0:
480,34,76526,6,0,L|498:-5,7,25.0000000745059,2|0|0|0|0|0|0|0,0:2|0:2|0:2|0:2|0:2|0:2|0:2|0:2,0:2:0:0:
378,40,77180,6,0,L|343:27,3,37.5000015422703,2|2|2|2,0:2|0:2|0:2|0:2,0:2:0:0:
263,52,77507,1,2,0:2:0:0:
244,56,77589,1,2,0:2:0:0:
226,60,77670,1,2,0:2:0:0:
208,63,77752,1,2,0:2:0:0:
189,66,77834,6,0,L|145:72,7,25.0000000745059,2|0|0|0|0|0|0|0,0:2|0:2|0:2|0:2|0:2|0:2|0:2|0:2,0:2:0:0:
293,144,78488,6,0,L|336:150,3,37.5000015422703,2|2|2|2,0:2|0:2|0:2|0:2,0:2:0:0:
189,222,78815,1,2,0:2:0:0:
170,224,78896,1,2,0:2:0:0:
151,227,78978,1,2,0:2:0:0:
133,230,79060,1,2,0:2:0:0:
114,232,79142,6,0,L|47:239,3,37.5000015422703,2|0|0|0,0:2|0:2|0:2|0:2,0:2:0:0:
206,147,79469,2,0,L|139:139,3,37.5000015422703,2|0|0|0,0:2|0:2|0:2|0:2,0:2:0:0:
298,232,79796,6,0,L|306:299,3,37.5000015422703,2|2|2|2,0:2|0:2|0:2|0:2,0:2:0:0:
408,318,80123,1,2,0:2:0:0:
425,324,80204,1,2,0:2:0:0:
442,330,80286,1,2,0:2:0:0:
459,336,80368,1,2,0:2:0:0:
476,343,80450,6,0,L|535:365,3,37.5000015422703,2|0|0|0,0:2|0:2|0:2|0:2,0:2:0:0:
411,228,80777,2,0,L|352:250,3,37.5000015422703,2|0|0|0,0:2|0:2|0:2|0:2,0:2:0:0:
476,113,81104,5,6,1:2:0:0:
481,93,81185,1,0,0:2:0:0:
486,73,81267,1,0,0:2:0:0:
491,53,81349,1,0,0:2:0:0:
496,34,81430,2,0,L|509:-19,1,40.0000001192094,2|2,0:2|0:2,0:2:0:0:
385,154,81594,2,0,L|372:101,1,40.0000001192094,2|2,0:2|0:2,0:2:0:0:
274,34,81757,6,0,L|287:-19,3,40.0000001192094,2|2|2|2,0:2|0:2|0:2|0:2,0:2:0:0:
181,158,82084,2,0,L|168:105,3,40.0000001192094,2|2|2|2,0:2|0:2|0:2|0:2,0:2:0:0:
88,34,82411,5,2,0:2:0:0:
83,53,82492,1,2,0:2:0:0:
78,72,82574,1,2,0:2:0:0:
73,92,82657,1,2,0:2:0:0:
69,112,82738,2,0,L|55:170,1,40.0000001192094,2|2,0:2|0:2,0:2:0:0:
0,208,82902,2,0,L|14:266,1,40.0000001192094,2|2,0:2|0:2,0:2:0:0:
69,304,83065,5,2,0:2:0:0:
89,306,83146,1,2,0:2:0:0:
108,309,83229,1,2,0:2:0:0:
129,312,83310,1,2,0:2:0:0:
148,314,83392,2,0,L|207:321,1,40.0000001192094,2|2,0:2|0:2,0:2:0:0:
251,373,83556,1,2,1:2:0:0:
251,373,83638,1,2,1:2:0:0:
251,373,83719,5,6,1:2:0:0:
253,353,83800,1,0,0:2:0:0:
256,334,83882,1,0,0:2:0:0:
259,313,83964,1,0,0:2:0:0:
261,294,84046,2,0,L|268:234,1,40.0000001192094,2|2,0:2|0:2,0:2:0:0:
311,159,84210,2,0,L|303:99,1,40.0000001192094,2|2,0:2|0:2,0:2:0:0:
361,294,84373,6,0,L|368:234,3,40.0000001192094,2|2|2|2,0:2|0:2|0:2|0:2,0:2:0:0:
416,158,84700,2,0,L|408:98,3,40.0000001192094,2|2|2|2,0:2|0:2|0:2|0:2,0:2:0:0:
464,296,85027,5,2,0:2:0:0:
466,276,85108,1,2,0:2:0:0:
469,256,85190,1,2,0:2:0:0:
471,236,85272,1,2,0:2:0:0:
474,216,85354,2,0,L|481:156,1,40.0000001192094,2|2,0:2|0:2,0:2:0:0:
311,159,85518,2,0,L|303:99,1,40.0000001192094,2|2,1:2|0:2,0:2:0:0:
491,65,85681,6,0,L|423:56,1,40.0000001192094,2|2,1:2|0:2,0:2:0:0:
295,40,85845,1,2,1:2:0:0:
295,40,85926,1,2,1:2:0:0:
295,40,86008,2,0,L|227:31,1,40.0000001192094,2|2,1:2|0:2,0:2:0:0:
372,124,86172,2,0,L|439:115,1,40.0000001192094,2|2,0:2|0:2,0:2:0:0:
188,115,86335,5,2,1:2:0:0:
165,112,86416,1,2,0:2:0:0:
143,109,86498,1,2,0:2:0:0:
121,106,86580,1,2,0:2:0:0:
98,103,86662,2,0,L|29:94,1,44.9999987608196,2|2,1:2|0:2,0:2:0:0:
217,212,86826,1,2,1:2:0:0:
217,212,86907,1,2,1:2:0:0:
217,212,86989,6,0,L|286:203,3,44.9999987608196,6|0|0|0,1:2|0:2|0:2|0:2,0:2:0:0:
71,258,87316,2,0,L|2:249,1,44.9999987608196,0|0,1:2|0:2,0:2:0:0:
217,304,87480,2,0,L|286:295,1,44.9999987608196,0|0,1:2|0:2,0:2:0:0:
71,350,87643,5,2,1:2:0:0:
93,352,87724,1,2,0:2:0:0:
115,355,87806,1,2,0:2:0:0:
137,358,87888,1,2,0:2:0:0:
160,361,87970,2,0,L|229:370,1,44.9999987608196,2|2,1:2|0:2,0:2:0:0:
217,212,88133,2,0,L|286:203,1,44.9999987608196,2|2,0:2|0:2,0:2:0:0:
274,361,88297,6,0,L|343:370,3,44.9999987608196,6|0|0|0,1:2|0:2|0:2|0:2,0:2:0:0:
342,212,88624,1,0,1:2:0:0:
342,212,88706,1,0,1:2:0:0:
342,212,88787,2,0,L|411:203,1,44.9999987608196,0|0,1:2|0:2,0:2:0:0:
410,361,88951,6,0,L|401:292,1,44.9999987608196,2|2,1:2|0:2,0:2:0:0:
507,253,89114,1,2,1:2:0:0:
507,253,89196,1,2,1:2:0:0:
507,253,89278,2,0,L|516:184,1,44.9999987608196,2|2,1:2|0:2,0:2:0:0:
410,145,89441,2,0,L|401:76,1,44.9999987608196,2|2,1:2|0:2,0:2:0:0:
507,37,89605,5,6,1:2:0:0:
276,67,89768,1,0,1:2:0:0:
434,253,89932,5,2,1:2:0:0:
404,22,90095,1,0,1:2:0:0:
271,270,90259,6,0,L|261:196,1,55.0000018423798,6|2,1:2|1:2,0:2:0:0:
189,42,90422,2,0,L|198:116,1,55.0000018423798,2|2,1:2|1:2,0:2:0:0:
241,305,90586,6,0,L|231:231,1,55.0000018423798,6|2,1:2|1:2,0:2:0:0:
159,77,90749,2,0,L|168:151,1,55.0000018423798,2|2,1:2|1:2,0:2:0:0:
211,340,90913,6,0,L|201:266,1,55.0000018423798,6|0,1:2|1:2,0:2:0:0:
129,112,91076,2,0,L|120:38,1,55.0000018423798,0|0,1:2|1:2,0:2:0:0:
181,375,91240,6,0,B|162:231|162:231|90:171,1,194.999991654755,6|0,1:2|1:2,0:2:0:0:
57,331,91567,5,6,1:2:0:0:
0,100,91730,1,6,1:2:0:0:
227,163,91894,5,2,0:2:0:0:
279,177,91975,1,2,0:2:0:0:
331,192,92057,1,2,0:2:0:0:
383,206,92139,1,2,0:2:0:0:
435,221,92220,5,6,1:2:0:0:
213,352,92384,1,6,1:2:0:0:
340,118,92548,5,2,0:2:0:0:
391,102,92629,1,2,0:2:0:0:
443,114,92711,1,2,0:2:0:0:
483,149,92793,1,2,0:2:0:0:
501,200,92874,5,6,1:2:0:0:
225,234,93038,1,6,1:2:0:0:
449,287,93202,5,2,0:2:0:0:
504,308,93283,1,2,0:2:0:0:
501,368,93365,1,2,1:2:0:0:
442,384,93447,1,2,1:2:0:0:
410,333,93529,6,0,L|373:273,1,59.9999983477595,6|0,1:2|0:2,0:2:0:0:
293,64,93692,5,2,1:2:0:0:
286,74,93747,5,2,0:2:0:0:
279,84,93801,5,2,0:2:0:0:
272,95,93856,6,0,L|235:155,1,59.9999983477595,6|0,1:2|0:2,0:2:0:0:
268,313,94019,2,0,L|305:253,1,59.9999983477595,0|0,0:2|0:2,0:2:0:0:
340,118,94183,5,6,1:2:0:0:
461,335,94346,1,6,1:2:0:0:
217,244,94510,5,2,0:2:0:0:
168,223,94591,1,2,0:2:0:0:
117,201,94673,1,2,0:2:0:0:
67,179,94755,1,2,0:2:0:0:
18,158,94836,5,6,1:2:0:0:
272,95,95000,1,6,1:2:0:0:
208,330,95163,5,2,0:2:0:0:
157,346,95244,1,2,0:2:0:0:
105,334,95326,1,2,0:2:0:0:
65,299,95408,1,2,0:2:0:0:
47,248,95489,5,6,1:2:0:0:
291,196,95654,1,6,1:2:0:0:
71,68,95817,5,2,1:2:0:0:
121,0,95899,1,2,1:2:0:0:
201,28,95981,1,2,1:2:0:0:
199,112,96062,1,2,1:2:0:0:
119,136,96144,6,0,L|146:57,1,69.999998072386,6|0,1:2|0:2,0:2:0:0:
316,35,96308,2,0,L|350:11,1,29.9999991738797,2|0,1:2|1:2,0:2:0:0:
350,46,96390,2,0,L|391:42,1,29.9999991738797,2|0,1:2|1:2,0:2:0:0:
373,72,96471,1,6,1:2:0:0:
386,318,96798,5,0,1:2:0:0:
386,318,97125,6,0,L|335:295,1,37.5000015422703,2|0,0:2|0:2,0:2:0:0:
255,282,97289,2,0,L|306:259,1,37.5000015422703,2|0,0:2|0:2,0:2:0:0:
386,246,97452,6,0,L|335:223,1,37.5000015422703,2|2,0:2|0:2,0:2:0:0:
191,192,97616,2,0,L|242:215,1,37.5000015422703,2|2,0:2|0:2,0:2:0:0:
395,248,97779,2,0,L|339:223,1,37.5000015422703,2|2,0:2|0:2,0:2:0:0:
181,189,97943,2,0,L|237:214,1,37.5000015422703,2|2,0:2|0:2,0:2:0:0:
405,251,98106,5,2,0:2:0:0:
416,253,98187,1,0,0:2:0:0:
427,253,98269,1,2,0:2:0:0:
438,252,98351,1,2,0:2:0:0:
449,249,98432,1,2,0:2:0:0:
459,244,98514,1,2,0:2:0:0:
468,238,98596,1,2,0:2:0:0:
476,230,98678,1,2,0:2:0:0:
483,221,98760,6,0,L|492:198,14,18.7500007711352,2|0|0|0|0|0|0|0|0|0|0|0|0|0|0,0:2|0:2|0:2|0:2|0:2|0:2|0:2|0:2|0:2|0:2|0:2|0:2|0:2|0:2|0:2,0:2:0:0:
423,137,99414,6,0,L|438:86,1,50.0000001490117,6|0,1:2|0:2,0:2:0:0:
439,321,99578,2,0,L|424:371,1,50.0000001490117,2|0,0:2|0:2,0:2:0:0:
317,171,99741,1,2,1:2:0:0:
289,149,99822,1,2,0:2:0:0:
256,140,99904,1,2,0:2:0:0:
221,146,99986,1,0,0:2:0:0:
192,165,100068,6,0,L|142:214,1,50.0000001490117,2|0,1:2|0:2,0:2:0:0:
111,316,100232,2,0,L|161:267,1,50.0000001490117,2|2,0:2|0:2,0:2:0:0:
196,158,100395,2,0,L|141:211,1,50.0000001490117,2|2,1:2|0:2,0:2:0:0:
106,323,100559,2,0,L|162:270,1,50.0000001490117,2|2,0:2|0:2,0:2:0:0:
67,144,100722,6,0,L|81:93,1,50.0000001490117,0|0,1:2|0:2,0:2:0:0:
251,228,100886,2,0,L|237:279,1,50.0000001490117,2|0,0:2|0:2,0:2:0:0:
163,67,101049,1,2,1:2:0:0:
143,34,101131,1,2,0:2:0:0:
116,14,101213,1,2,0:2:0:0:
81,8,101294,1,2,0:2:0:0:
47,15,101376,6,0,L|-17:42,1,50.0000001490117,2|0,1:2|0:2,0:2:0:0:
1,231,101539,2,0,L|65:203,1,50.0000001490117,2|0,0:2|0:2,0:2:0:0:
163,67,101703,1,2,1:2:0:0:
196,54,101784,1,2,0:2:0:0:
230,54,101866,1,2,0:2:0:0:
261,74,101948,1,2,0:2:0:0:
281,103,102030,6,0,L|311:166,1,50.0000001490117,0|0,1:2|0:2,0:2:0:0:
159,192,102193,2,0,L|128:128,1,50.0000001490117,2|0,0:2|0:2,0:2:0:0:
289,7,102357,5,2,1:2:0:0:
366,15,102465,5,2,0:2:0:0:
412,77,102574,5,2,0:2:0:0:
397,153,102684,6,0,B|377:192|377:192|351:244,1,100.000000298024,2|0,1:2|0:2,0:2:0:0:
248,243,102902,6,0,B|291:240|291:240|350:236,1,100.000000298024,2|0,0:2|0:2,0:2:0:0:
401,328,103120,6,0,B|376:291|376:291|344:242,1,100.000000298024,2|0,0:2|0:2,0:2:0:0:
467,159,103338,5,6,1:2:0:0:
493,181,103419,1,0,0:2:0:0:
508,211,103501,1,2,0:2:0:0:
512,246,103583,1,2,0:2:0:0:
501,279,103665,2,0,L|469:321,1,50.0000001490117,2|2,1:2|0:2,0:2:0:0:
279,363,103828,2,0,L|310:320,1,50.0000001490117,2|2,0:2|0:2,0:2:0:0:
302,147,103992,6,0,L|332:107,1,50.0000001490117,6|0,1:2|0:2,0:2:0:0:
181,312,104155,5,2,0:2:0:0:
176,320,104210,5,2,0:2:0:0:
170,328,104264,5,2,0:2:0:0:
163,336,104319,6,0,L|133:376,1,50.0000001490117,6|0,1:2|0:2,0:2:0:0:
186,120,104482,2,0,L|216:80,1,50.0000001490117,2|0,1:2|0:2,0:2:0:0:
65,320,104646,5,6,1:2:0:0:
51,288,104727,1,0,0:2:0:0:
47,253,104809,1,0,0:2:0:0:
55,219,104891,1,0,0:2:0:0:
74,189,104972,1,0,1:2:0:0:
91,158,105054,1,0,0:2:0:0:
99,124,105136,1,2,0:2:0:0:
96,89,105218,1,0,0:2:0:0:
82,57,105300,6,0,L|43:5,1,50.0000001490117,2|0,1:2|0:2,0:2:0:0:
210,182,105463,2,0,L|249:234,1,50.0000001490117,2|0,0:2|0:2,0:2:0:0:
75,50,105627,2,0,L|33:-6,1,50.0000001490117,2|0,1:2|0:2,0:2:0:0:
216,188,105790,2,0,L|258:245,1,50.0000001490117,2|2,0:2|0:2,0:2:0:0:
68,43,105954,5,2,1:2:0:0:
95,21,106035,1,0,0:2:0:0:
128,12,106117,1,0,0:2:0:0:
163,16,106199,1,0,0:2:0:0:
193,33,106281,6,0,L|254:79,1,50.0000001490117,2|0,1:2|0:2,0:2:0:0:
176,244,106444,2,0,L|115:198,1,50.0000001490117,0|0,0:2|0:2,0:2:0:0:
306,107,106608,5,2,1:2:0:0:
344,99,106689,1,0,0:2:0:0:
382,109,106771,1,0,0:2:0:0:
411,136,106853,1,0,0:2:0:0:
425,174,106935,6,0,L|434:248,1,50.0000001490117,2|0,1:2|0:2,0:2:0:0:
316,345,107098,2,0,L|306:270,1,50.0000001490117,0|0,1:2|0:2,0:2:0:0:
285,205,107262,6,0,L|334:198,1,50.0000001490117,6|0,1:2|0:2,0:2:0:0:
456,314,107425,2,0,L|381:323,1,50.0000001490117,0|0,0:2|0:2,0:2:0:0:
223,339,107589,6,0,B|176:349|176:349|133:330,2,66.666666865349,2|2|2,1:2|0:2|0:2,1:2:0:0:
87,336,107916,6,0,B|101:290|101:290|139:262,2,66.666666865349,4|2|2,1:2|0:2|0:2,0:2:0:0:
157,219,108242,6,0,B|189:254|189:254|194:301,2,66.666666865349,6|2|2,1:2|0:2|0:2,0:2:0:0:
53,197,108569,5,6,1:2:0:0:
97,130,108678,5,2,0:2:0:0:
175,113,108787,5,2,0:2:0:0:
242,155,108896,5,6,1:2:0:0:
319,194,109005,5,2,0:2:0:0:
398,145,109114,5,2,0:2:0:0:
388,45,109223,5,6,1:2:0:0:
269,27,109332,5,2,0:2:0:0:
181,118,109441,5,2,0:2:0:0:
209,248,109550,5,6,1:2:0:0:
343,287,109659,5,2,0:2:0:0:
463,203,109768,5,2,0:2:0:0:
462,49,109877,5,6,1:2:0:0:
34,212,110205,5,2,1:2:0:0:
75,255,110286,1,2,1:2:0:0:
132,268,110368,1,2,1:2:0:0:
188,250,110450,1,2,1:2:0:0:
224,203,110531,6,0,L|249:124,1,50.0000001490117,6|0,1:2|0:2,0:2:0:0:
137,0,110695,6,0,L|118:58,2,33.3333334326745,2|2|2,0:2|0:2|0:2,0:2:0:0:
127,163,110858,5,2,1:2:0:0:
145,214,110939,1,2,1:2:0:0:
164,266,111022,1,2,1:2:0:0:
183,317,111103,1,2,1:2:0:0:
202,369,111185,5,6,1:2:0:0:
256,192,111267,12,0,113801,0:2:0:0:
