osu file format v14

[General]
AudioFilename: audio.mp3
AudioLeadIn: 0
PreviewTime: -1
Countdown: 0
SampleSet: None
StackLeniency: 0.7
Mode: 0
LetterboxInBreaks: 0
WidescreenStoryboard: 0

[Editor]
Bookmarks: 19469
DistanceSpacing: 1.2
BeatDivisor: 4
GridSize: 16
TimelineZoom: 3.699998

[Metadata]
Title:ANIMA
TitleUnicode:ANIMA
Artist:xi
ArtistUnicode:xi
Creator:Fragment-
Version:Fragmented Dimension
Source:
Tags:
BeatmapID:1430804
BeatmapSetID:676492

[Difficulty]
HPDrainRate:6
CircleSize:4
OverallDifficulty:9
ApproachRate:9.5
SliderMultiplier:1.6
SliderTickRate:1

[Events]
//Background and Video events
0,0,"bg.jpg",0,0
//Break Periods
//Storyboard Layer 0 (Background)
//Storyboard Layer 1 (Fail)
//Storyboard Layer 2 (Pass)
//Storyboard Layer 3 (Foreground)
//Storyboard Sound Samples

[TimingPoints]
1322,326.975476839237,4,1,0,80,1,0
1322,-100,4,2,0,80,0,0
5245,-100,4,2,0,5,0,0
5572,-100,4,2,0,100,0,0
5736,-100,4,2,0,5,0,0
5899,-100,4,2,0,100,0,0
6063,-100,4,2,0,5,0,0
6226,-100,4,2,0,100,0,0
6390,-100,4,2,0,5,0,0
6553,-100,4,2,0,100,0,0
7698,-100,4,2,0,5,0,0
7861,-100,4,2,0,100,0,0
8351,-100,4,2,0,5,0,0
8515,-100,4,2,0,100,0,0
9005,-100,4,2,0,5,0,0
9169,-100,4,2,0,100,0,0
9659,-100,4,2,0,5,0,0
9823,-100,4,2,0,100,0,0
10313,-100,4,2,0,5,0,0
10477,-100,4,2,0,100,0,0
10640,-100,4,2,0,5,0,0
10804,-100,4,2,0,100,0,0
10967,-100,4,2,0,5,0,0
11131,-100,4,2,0,100,0,0
11294,-100,4,2,0,5,0,0
11458,-100,4,2,0,100,0,0
11621,-100,4,2,0,5,0,0
11785,-100,4,1,0,100,0,0
12439,-100,4,1,0,5,0,0
12602,-100,4,1,0,100,0,0
13747,-100,4,1,0,5,0,0
13910,-100,4,1,0,100,0,0
14401,-100,4,1,0,100,0,0
14891,-100,4,1,0,5,0,0
15054,-83.3333333333333,4,1,0,100,0,0
15545,-83.3333333333333,4,1,0,5,0,0
15708,-83.3333333333333,4,1,0,100,0,0
16199,-83.3333333333333,4,1,0,5,0,0
16362,-83.3333333333333,4,1,0,100,0,0
16853,-83.3333333333333,4,1,0,5,0,0
17016,-83.3333333333333,4,1,0,100,0,0
23556,-100,4,1,0,100,0,1
25845,-66.6666666666667,4,1,0,100,0,1
26172,-100,4,1,0,100,0,1
30749,-76.9230769230769,4,1,0,100,0,1
31403,-100,4,1,0,100,0,1
34019,-100,4,1,0,100,0,0
39251,-76.9230769230769,4,1,0,100,0,0
40232,-100,4,1,0,100,0,0
40559,-76.9230769230769,4,1,0,100,0,0
41539,-100,4,1,0,100,0,0
56253,-76.9230769230769,4,1,0,100,0,0
57888,-100,4,1,0,100,0,0
58869,-76.9230769230769,4,1,0,100,0,0
59523,-100,4,1,0,100,0,0
65082,-83.3333333333333,4,1,0,100,0,0
91567,-100,4,1,0,100,0,1
93529,-83.3333333333333,4,1,0,100,0,1
96798,-100,4,1,0,100,0,0
97125,-133.333333333333,4,1,0,100,0,0
98760,-76.9230769230769,4,1,0,100,0,0
99414,-100,4,1,0,100,0,1
99578,-83.3333333333333,4,1,0,100,0,1
109877,-100,4,1,0,100,0,0
111185,-76.9230769230769,4,1,0,100,0,0

[HitObjects]
380,165,1322,6,0,B|385:202|370:247|294:265|241:229|241:229|298:146|260:44|76:46|91:191|91:191|155:207|185:158,1,640
174,174,3937,6,0,B|206:147|174:108|98:92|46:194|77:269|190:300|248:204|248:204|297:127|397:148|385:227|385:227|312:204|298:265,1,640
209,355,5572,6,0,P|262:342|298:295,1,80
227,269,5899,2,0,P|252:219|239:162,1,80
172,199,6226,2,0,P|150:148|98:120,1,80
108,286,6553,2,0,B|143:314|127:393|45:406|-3:379|-22:332|-28:276|-4:224|36:244|86:223|61:177|26:96|26:96|85:144|142:132,1,560
487,154,7861,6,0,B|519:117|513:41|513:41|443:69|415:137,1,240
295,282,8515,2,0,B|280:333|280:333|338:361|338:361|400:335|400:335|379:268,1,240
251,129,9169,2,0,B|201:91|165:42|165:42|189:97|191:155,1,240
321,314,9823,6,0,B|349:381|460:391|500:273|417:223,1,240
342,215,10477,6,0,L|389:290,1,80
497,13,10804,6,0,P|430:43|416:72,1,80
488,169,11131,2,0,P|494:96|476:69,1,80
358,84,11458,2,0,P|417:126|450:123,1,80
385,283,11785,2,0,B|396:215|301:159|221:234|255:307|255:307|208:303|184:355,1,320
320,281,12602,5,0,0:0:0:0:
445,371,12766,1,0,0:0:0:0:
320,281,12929,1,0,0:0:0:0:
160,384,13093,2,0,B|104:374|102:314|129:274|173:276|173:276|150:238|150:238|192:155|139:111,1,320
19,31,13910,5,0,0:0:0:0:
219,20,14074,1,0,0:0:0:0:
19,31,14237,1,0,0:0:0:0:
153,135,14401,6,0,B|221:105|274:129|274:129|317:129|345:94|332:44|293:29,1,240
484,170,15054,2,0,B|466:216|461:285|461:285|454:199|386:125,1,287.999991210938
312,348,15708,6,0,B|337:365|360:368|360:368|409:294|340:204|340:204|327:234|285:239,1,287.999991210938
93,348,16362,2,0,B|68:365|45:368|45:368|-4:294|65:204|65:204|78:234|120:239,1,287.999991210938
252,104,17016,5,0,0:0:0:0:
264,68,17098,1,0,0:0:0:0:
244,36,17180,1,0,0:0:0:0:
208,24,17262,1,0,0:0:0:0:
172,32,17343,5,0,0:0:0:0:
144,60,17425,1,0,0:0:0:0:
132,96,17507,1,0,0:0:0:0:
140,132,17589,1,0,0:0:0:0:
168,160,17670,5,0,0:0:0:0:
204,168,17752,1,0,0:0:0:0:
240,184,17834,1,0,0:0:0:0:
256,220,17916,1,0,0:0:0:0:
252,256,17997,5,0,0:0:0:0:
228,288,18079,1,0,0:0:0:0:
196,308,18161,2,0,L|136:336,1,47.9999985351563
8,256,18324,5,0,0:0:0:0:
36,224,18406,1,0,0:0:0:0:
36,180,18488,2,0,L|8:124,1,47.9999985351563
137,112,18651,6,0,L|193:123,1,47.9999985351563
268,316,18815,5,0,0:0:0:0:
227,302,18896,1,0,0:0:0:0:
198,268,18978,2,0,L|180:213,1,47.9999985351563
310,53,19142,5,0,0:0:0:0:
318,94,19223,1,0,0:0:0:0:
303,136,19305,2,0,L|268:181,1,47.9999985351563
316,284,19469,6,0,L|350:238,1,47.9999985351563
464,272,19632,5,0,0:0:0:0:
488,324,19714,1,0,0:0:0:0:
452,368,19796,1,0,0:0:0:0:
396,364,19877,1,0,0:0:0:0:
372,312,19959,5,0,0:0:0:0:
392,260,20041,1,0,0:0:0:0:
432,216,20123,2,0,L|464:172,1,47.9999985351563
384,64,20286,5,0,0:0:0:0:
343,16,20368,1,0,0:0:0:0:
280,9,20450,1,0,0:0:0:0:
228,43,20531,1,0,0:0:0:0:
209,102,20613,1,0,0:0:0:0:
230,160,20695,1,0,0:0:0:0:
285,189,20777,2,0,L|337:173,2,31.9999990234375
56,256,20940,5,0,0:0:0:0:
20,304,21022,1,0,0:0:0:0:
40,360,21104,1,0,0:0:0:0:
92,380,21185,1,0,0:0:0:0:
144,356,21267,5,0,0:0:0:0:
164,304,21349,1,0,0:0:0:0:
152,248,21430,1,0,0:0:0:0:
108,208,21512,1,0,0:0:0:0:
56,180,21594,5,0,0:0:0:0:
32,128,21676,1,0,0:0:0:0:
40,72,21757,1,0,0:0:0:0:
80,28,21839,1,0,0:0:0:0:
136,32,21921,1,0,0:0:0:0:
168,80,22003,5,0,0:0:0:0:
225,38,22084,1,0,0:0:0:0:
297,32,22166,1,0,0:0:0:0:
357,71,22248,1,0,0:0:0:0:
383,171,22575,5,0,0:0:0:0:
409,271,22902,5,0,0:0:0:0:
243,375,23065,1,0,0:0:0:0:
243,375,23147,1,0,0:0:0:0:
243,375,23229,6,0,L|257:313,1,47.9999985351563
60,284,23392,2,0,L|102:326,1,47.9999985351563
192,108,23556,5,0,0:0:0:0:
152,60,23638,1,0,0:0:0:0:
92,52,23719,1,0,0:0:0:0:
40,80,23801,1,0,0:0:0:0:
4,128,23883,2,0,L|24:188,1,40
236,40,24046,5,0,0:0:0:0:
292,44,24128,1,0,0:0:0:0:
332,84,24210,1,0,0:0:0:0:
332,140,24292,1,0,0:0:0:0:
304,188,24373,2,0,L|236:180,1,40
46,300,24537,5,0,0:0:0:0:
66,351,24618,1,0,0:0:0:0:
119,364,24700,1,0,0:0:0:0:
170,339,24782,1,0,0:0:0:0:
194,287,24864,2,0,L|168:221,1,40
369,245,25027,6,0,L|343:311,1,40
468,357,25191,2,0,L|442:291,1,40
355,152,25354,1,0,0:0:0:0:
355,152,25436,1,0,0:0:0:0:
355,152,25518,2,0,P|375:123|406:145,1,80
307,84,25763,5,0,0:0:0:0:
307,84,25845,2,0,P|358:54|417:60,1,120.000004577637,0|0,0:0|0:0,2:0:0:0:
492,249,26172,5,0,0:0:0:0:
512,299,26253,1,0,0:0:0:0:
482,345,26335,1,0,0:0:0:0:
427,362,26417,1,0,0:0:0:0:
374,340,26499,2,0,L|348:273,1,40
216,137,26662,5,0,0:0:0:0:
166,163,26744,1,0,0:0:0:0:
156,218,26826,1,0,0:0:0:0:
188,263,26907,1,0,0:0:0:0:
242,275,26989,2,0,L|288:249,1,40
343,96,27153,5,0,0:0:0:0:
364,49,27234,1,0,0:0:0:0:
415,39,27316,1,0,0:0:0:0:
453,74,27398,1,0,0:0:0:0:
441,125,27480,2,0,L|403:158,1,40
354,352,27643,6,0,L|344:302,1,40
200,163,27807,2,0,L|247:179,1,40
334,226,27970,1,0,0:0:0:0:
334,226,28052,1,0,0:0:0:0:
334,226,28133,6,0,L|318:147,1,80
157,212,28379,5,0,0:0:0:0:
157,212,28460,2,0,L|224:234,1,40
84,348,28624,2,0,L|16:370,1,40
18,172,28787,5,0,0:0:0:0:
31,121,28869,1,0,0:0:0:0:
65,82,28951,1,0,0:0:0:0:
112,60,29033,1,0,0:0:0:0:
163,65,29114,2,0,L|219:97,1,40
178,258,29278,5,0,0:0:0:0:
222,285,29360,1,0,0:0:0:0:
279,271,29441,1,0,0:0:0:0:
303,224,29523,1,0,0:0:0:0:
308,172,29605,2,0,L|272:120,1,40
395,12,29768,5,0,0:0:0:0:
446,18,29850,1,0,0:0:0:0:
481,55,29932,1,0,0:0:0:0:
488,106,30014,1,0,0:0:0:0:
462,150,30095,2,0,L|434:207,1,40
314,351,30259,6,0,L|376:341,1,40
512,267,30422,2,0,L|450:257,1,40
305,358,30586,2,0,L|367:348,1,40
312,231,30749,6,0,L|173:208,1,103.999995239258
118,384,30995,5,0,0:0:0:0:
116,384,31076,2,0,L|138:245,1,103.999995239258
19,56,31403,6,0,L|31:130,1,40
85,241,31567,2,0,L|72:166,1,40
9,49,31730,1,0,0:0:0:0:
237,214,31894,6,0,L|307:240,1,40
277,25,32057,6,0,L|206:51,1,40
226,204,32221,1,0,0:0:0:0:
493,56,32384,6,0,L|480:130,1,40
427,241,32548,2,0,L|439:166,1,40
503,49,32711,1,0,0:0:0:0:
359,226,32875,6,0,L|347:301,1,40
456,327,33038,2,0,L|453:368,3,26.6666666666667
270,350,33365,5,0,0:0:0:0:
244,329,33447,1,0,0:0:0:0:
213,320,33529,1,0,0:0:0:0:
181,326,33610,1,0,0:0:0:0:
148,367,33692,5,0,0:0:0:0:
96,376,33774,1,0,0:0:0:0:
47,355,33856,1,0,0:0:0:0:
14,309,33937,1,0,0:0:0:0:
3,253,34019,5,0,0:0:0:0:
59,256,34101,1,0,0:0:0:0:
111,235,34183,1,0,0:0:0:0:
142,189,34264,1,0,0:0:0:0:
138,132,34346,5,0,0:0:0:0:
85,151,34428,1,0,0:0:0:0:
33,130,34510,1,0,0:0:0:0:
6,81,34591,1,0,0:0:0:0:
2,22,34673,5,0,0:0:0:0:
55,5,34755,1,0,0:0:0:0:
110,6,34836,1,0,0:0:0:0:
158,34,34918,1,0,0:0:0:0:
183,84,35000,5,0,0:0:0:0:
228,50,35082,1,0,0:0:0:0:
280,31,35163,1,0,0:0:0:0:
335,39,35245,1,0,0:0:0:0:
385,64,35327,6,0,L|397:118,1,40
316,241,35490,2,0,L|328:187,1,40
483,105,35654,6,0,L|499:68,2,26.6666666666667
455,188,35817,2,0,L|476:286,1,80
368,316,36144,5,0,0:0:0:0:
327,354,36226,1,0,0:0:0:0:
270,357,36308,1,0,0:0:0:0:
224,323,36390,1,0,0:0:0:0:
213,268,36471,5,0,0:0:0:0:
235,216,36553,1,0,0:0:0:0:
279,181,36635,2,0,L|336:184,1,40
485,108,36798,5,0,0:0:0:0:
470,53,36880,1,0,0:0:0:0:
425,19,36962,1,0,0:0:0:0:
370,6,37044,1,0,0:0:0:0:
314,11,37125,5,0,0:0:0:0:
263,35,37207,1,0,0:0:0:0:
224,76,37289,2,0,L|199:113,1,40
336,222,37452,5,0,0:0:0:0:
371,178,37534,1,0,0:0:0:0:
370,121,37616,2,0,L|345:84,1,40
204,135,37779,5,0,0:0:0:0:
214,189,37861,1,0,0:0:0:0:
259,225,37943,2,0,L|303:229,1,40
428,256,38106,5,0,0:0:0:0:
470,292,38188,1,0,0:0:0:0:
470,348,38270,1,0,0:0:0:0:
423,378,38351,1,0,0:0:0:0:
370,359,38433,5,0,0:0:0:0:
350,306,38515,1,0,0:0:0:0:
369,253,38597,1,0,0:0:0:0:
416,223,38678,1,0,0:0:0:0:
468,201,38760,5,0,0:0:0:0:
502,156,38842,1,0,0:0:0:0:
506,100,38924,1,0,0:0:0:0:
477,52,39005,1,0,0:0:0:0:
426,27,39087,5,0,0:0:0:0:
370,38,39169,1,0,0:0:0:0:
324,78,39251,2,0,P|302:117|307:183,1,103.999995239258
173,32,39578,2,0,P|217:30|272:-6,1,103.999995239258
209,182,39905,2,0,P|185:143|125:115,1,103.999995239258
22,267,40232,5,0,0:0:0:0:
48,315,40313,1,0,0:0:0:0:
98,338,40395,1,0,0:0:0:0:
152,349,40477,1,0,0:0:0:0:
206,333,40559,2,0,B|259:336|259:336|303:378,1,103.999995239258
288,176,40886,2,0,B|257:220|257:220|200:237,1,103.999995239258
381,318,41213,2,0,B|357:269|357:269|371:211,1,103.999995239258
504,57,41539,5,0,0:0:0:0:
485,110,41621,1,0,0:0:0:0:
433,132,41703,1,0,0:0:0:0:
377,120,41785,1,0,0:0:0:0:
336,81,41866,2,0,L|289:31,1,40
136,47,42030,5,0,0:0:0:0:
82,28,42112,1,0,0:0:0:0:
31,51,42193,1,0,0:0:0:0:
4,100,42275,1,0,0:0:0:0:
8,155,42357,5,0,0:0:0:0:
49,193,42439,1,0,0:0:0:0:
103,202,42520,2,0,L|157:193,1,40
292,273,42684,5,0,0:0:0:0:
267,323,42766,1,0,0:0:0:0:
214,340,42847,2,0,L|160:331,1,40
95,198,43011,2,0,L|149:189,1,40
389,163,43174,5,0,0:0:0:0:
443,176,43256,1,0,0:0:0:0:
477,220,43338,1,0,0:0:0:0:
491,274,43420,1,0,0:0:0:0:
475,327,43501,5,0,0:0:0:0:
429,360,43583,1,0,0:0:0:0:
373,370,43665,1,0,0:0:0:0:
325,340,43747,1,0,0:0:0:0:
305,288,43828,5,0,0:0:0:0:
268,245,43910,1,0,0:0:0:0:
220,215,43992,1,0,0:0:0:0:
163,215,44074,1,0,0:0:0:0:
114,242,44155,5,0,0:0:0:0:
96,295,44237,1,0,0:0:0:0:
115,347,44319,1,0,0:0:0:0:
162,377,44401,1,0,0:0:0:0:
216,367,44482,6,0,P|277:329|294:294,1,80
449,216,44809,5,0,0:0:0:0:
491,154,44918,1,0,0:0:0:0:
473,81,45027,1,0,0:0:0:0:
408,43,45136,5,0,0:0:0:0:
345,84,45245,1,0,0:0:0:0:
341,158,45354,1,0,0:0:0:0:
290,213,45463,5,0,0:0:0:0:
218,191,45572,1,0,0:0:0:0:
191,121,45681,1,0,0:0:0:0:
235,61,45790,5,0,0:0:0:0:
57,32,45954,6,0,L|37:0,2,26.6666666666667
85,115,46117,2,0,L|64:213,1,80
204,328,46444,2,0,L|183:230,1,80
289,115,46771,2,0,L|305:193,1,80
438,300,47098,5,0,0:0:0:0:
414,346,47180,1,0,0:0:0:0:
362,354,47262,1,0,0:0:0:0:
321,322,47343,1,0,0:0:0:0:
312,269,47425,5,0,0:0:0:0:
339,224,47507,1,0,0:0:0:0:
389,211,47589,2,0,L|415:180,1,40
275,43,47752,5,0,0:0:0:0:
226,25,47834,1,0,0:0:0:0:
183,53,47916,1,0,0:0:0:0:
166,101,47997,1,0,0:0:0:0:
188,148,48079,5,0,0:0:0:0:
235,169,48161,1,0,0:0:0:0:
286,163,48242,2,0,L|323:131,1,40
83,45,48406,5,0,0:0:0:0:
40,75,48488,1,0,0:0:0:0:
24,124,48569,1,0,0:0:0:0:
40,173,48651,1,0,0:0:0:0:
79,207,48733,5,0,0:0:0:0:
121,229,48815,1,0,0:0:0:0:
156,266,48896,2,0,L|143:324,1,40
38,384,49060,5,0,0:0:0:0:
1,346,49142,1,0,0:0:0:0:
2,294,49223,1,0,0:0:0:0:
29,249,49305,1,0,0:0:0:0:
73,220,49387,5,0,0:0:0:0:
125,218,49469,1,0,0:0:0:0:
169,244,49550,1,0,0:0:0:0:
193,290,49632,1,0,0:0:0:0:
187,341,49714,6,0,P|126:352|91:315,1,80
443,246,50041,5,0,0:0:0:0:
467,310,50150,1,0,0:0:0:0:
426,366,50259,1,0,0:0:0:0:
365,331,50368,5,0,0:0:0:0:
372,262,50477,1,0,0:0:0:0:
315,221,50586,1,0,0:0:0:0:
248,240,50695,5,0,0:0:0:0:
194,196,50804,1,0,0:0:0:0:
208,128,50913,1,0,0:0:0:0:
277,121,51022,5,0,0:0:0:0:
479,47,51185,5,0,0:0:0:0:
479,47,51267,1,0,0:0:0:0:
479,47,51349,2,0,L|389:73,1,80
392,242,51676,2,0,L|417:151,1,80
266,69,52003,2,0,L|331:136,1,80
226,252,52330,6,0,L|181:153,1,80
0,48,52657,5,0,0:0:0:0:
7,99,52738,1,0,0:0:0:0:
17,150,52820,1,0,0:0:0:0:
27,201,52902,1,0,0:0:0:0:
35,252,52984,2,0,L|51:351,1,80
234,299,53311,5,0,0:0:0:0:
247,348,53392,1,0,0:0:0:0:
210,384,53474,1,0,0:0:0:0:
161,365,53556,1,0,0:0:0:0:
156,312,53638,2,0,L|170:250,1,40
326,121,53801,5,0,0:0:0:0:
355,165,53883,1,0,0:0:0:0:
332,212,53965,2,0,L|284:254,1,40
132,137,54128,5,0,0:0:0:0:
96,99,54210,1,0,0:0:0:0:
101,47,54292,1,0,0:0:0:0:
137,10,54373,1,0,0:0:0:0:
189,10,54455,5,0,0:0:0:0:
236,31,54537,1,0,0:0:0:0:
264,74,54619,1,0,0:0:0:0:
292,116,54700,1,0,0:0:0:0:
342,128,54782,5,0,0:0:0:0:
387,103,54864,1,0,0:0:0:0:
397,52,54945,2,0,P|355:23|304:19,1,80
48,160,55272,5,0,0:0:0:0:
19,203,55354,1,0,0:0:0:0:
16,254,55436,1,0,0:0:0:0:
40,300,55518,1,0,0:0:0:0:
81,331,55599,2,0,P|128:346|173:347,1,80
480,92,55926,5,0,0:0:0:0:
508,135,56008,1,0,0:0:0:0:
508,187,56090,1,0,0:0:0:0:
479,230,56172,1,0,0:0:0:0:
429,252,56253,6,0,P|352:260|295:229,1,103.999995239258
49,171,56499,5,0,0:0:0:0:
49,171,56580,2,0,P|125:179|182:148,1,103.999995239258
402,126,56826,5,0,0:0:0:0:
402,126,56907,2,0,L|311:118,1,51.999997619629
210,33,57071,2,0,L|301:25,1,51.999997619629
407,131,57234,2,0,L|316:123,1,51.999997619629
205,28,57398,2,0,L|296:20,1,51.999997619629
436,49,57561,6,0,P|494:89|522:162,1,103.999995239258
363,357,57888,5,0,0:0:0:0:
402,383,57970,1,0,0:0:0:0:
450,374,58052,1,0,0:0:0:0:
485,342,58133,1,0,0:0:0:0:
499,294,58215,2,0,P|462:228|439:214,1,80
178,28,58542,5,0,0:0:0:0:
221,49,58624,1,0,0:0:0:0:
236,94,58706,1,0,0:0:0:0:
226,140,58787,1,0,0:0:0:0:
189,176,58869,6,0,P|122:191|72:182,1,103.999995239258
320,231,59114,5,0,0:0:0:0:
320,231,59196,2,0,P|387:246|437:237,1,103.999995239258
168,275,59441,5,0,0:0:0:0:
168,275,59523,2,0,L|109:281,1,40
257,348,59687,2,0,L|316:354,1,40
163,270,59850,2,0,L|104:276,1,40
262,353,60014,2,0,L|321:359,1,40
158,265,60177,6,0,L|66:274,1,80
331,218,60504,5,0,0:0:0:0:
380,200,60586,1,0,0:0:0:0:
431,208,60668,1,0,0:0:0:0:
471,240,60749,1,0,0:0:0:0:
483,290,60831,6,0,P|465:344|449:360,1,80
244,359,61158,6,0,P|218:328|211:289,1,80
233,70,61485,6,0,L|237:19,1,40
206,59,61648,2,0,L|210:8,1,40
95,115,61812,6,0,L|44:111,1,40
84,142,61975,2,0,L|33:138,1,40
81,220,62139,6,0,L|30:229,1,40
76,247,62302,2,0,L|25:256,1,40
159,341,62466,6,0,L|168:391,1,40
188,345,62629,2,0,L|197:395,1,40
351,353,62793,5,0,0:0:0:0:
402,357,62875,1,0,0:0:0:0:
449,335,62956,1,0,0:0:0:0:
480,293,63038,1,0,0:0:0:0:
483,240,63120,5,0,0:0:0:0:
461,192,63202,1,0,0:0:0:0:
414,170,63283,1,0,0:0:0:0:
361,170,63365,1,0,0:0:0:0:
316,143,63447,5,0,0:0:0:0:
300,93,63529,1,0,0:0:0:0:
318,45,63610,1,0,0:0:0:0:
359,13,63692,1,0,0:0:0:0:
410,5,63774,5,0,0:0:0:0:
456,27,63856,1,0,0:0:0:0:
482,71,63937,1,0,0:0:0:0:
484,123,64019,1,0,0:0:0:0:
459,169,64101,5,0,0:0:0:0:
417,200,64183,1,0,0:0:0:0:
365,201,64264,1,0,0:0:0:0:
317,178,64346,1,0,0:0:0:0:
266,165,64428,5,0,0:0:0:0:
214,171,64510,1,0,0:0:0:0:
172,201,64591,1,0,0:0:0:0:
146,246,64673,1,0,0:0:0:0:
148,298,64755,5,0,0:0:0:0:
176,340,64836,1,0,0:0:0:0:
225,356,64918,1,0,0:0:0:0:
275,344,65000,1,0,0:0:0:0:
316,297,65082,5,0,0:0:0:0:
261,251,65163,1,0,0:0:0:0:
189,240,65245,1,0,0:0:0:0:
122,267,65327,1,0,0:0:0:0:
69,316,65409,6,0,L|41:369,3,47.9999985351563
0,199,65736,2,0,L|28:146,3,47.9999985351563
28,48,66063,5,0,0:0:0:0:
80,24,66144,1,0,0:0:0:0:
137,33,66226,1,0,0:0:0:0:
182,69,66308,1,0,0:0:0:0:
204,122,66390,5,0,0:0:0:0:
250,155,66471,1,0,0:0:0:0:
307,152,66553,1,0,0:0:0:0:
353,117,66635,1,0,0:0:0:0:
365,60,66717,6,0,L|326:23,3,47.9999985351563
474,36,67044,6,0,L|513:73,3,47.9999985351563
437,163,67371,5,0,0:0:0:0:
478,201,67452,1,0,0:0:0:0:
492,256,67534,1,0,0:0:0:0:
482,312,67616,1,0,0:0:0:0:
441,353,67698,5,0,0:0:0:0:
384,357,67779,1,0,0:0:0:0:
330,335,67861,1,0,0:0:0:0:
304,282,67943,1,0,0:0:0:0:
306,224,68024,6,0,P|340:186|378:175,1,47.9999985351563
380,63,68188,5,0,0:0:0:0:
341,19,68270,1,0,0:0:0:0:
284,14,68351,1,0,0:0:0:0:
229,33,68433,1,0,0:0:0:0:
191,76,68515,5,0,0:0:0:0:
175,131,68597,1,0,0:0:0:0:
186,186,68678,2,0,P|208:224|237:239,1,47.9999985351563
134,348,68842,5,0,0:0:0:0:
77,358,68924,1,0,0:0:0:0:
28,327,69005,1,0,0:0:0:0:
7,273,69087,1,0,0:0:0:0:
23,217,69169,5,0,0:0:0:0:
69,182,69251,1,0,0:0:0:0:
125,176,69332,2,0,P|158:213|166:241,1,47.9999985351563
255,375,69496,2,0,P|257:324|271:299,1,47.9999985351563
355,172,69659,2,0,P|357:221|371:246,1,47.9999985351563
455,373,69823,2,0,P|452:322|438:297,1,47.9999985351563
466,155,69986,5,0,0:0:0:0:
509,117,70068,1,0,0:0:0:0:
509,59,70150,1,0,0:0:0:0:
469,16,70232,1,0,0:0:0:0:
412,6,70313,5,0,0:0:0:0:
361,33,70395,1,0,0:0:0:0:
339,86,70477,1,0,0:0:0:0:
287,113,70559,1,0,0:0:0:0:
233,94,70640,6,0,L|199:41,3,47.9999985351563
306,207,70967,2,0,L|340:260,1,47.9999985351563
326,114,71131,2,0,L|379:80,1,47.9999985351563
213,187,71294,2,0,L|159:221,3,47.9999985351563
149,344,71621,6,0,L|202:310,3,47.9999985351563
31,234,71948,6,0,L|-3:180,1,47.9999985351563
19,339,72112,2,0,L|53:392,1,47.9999985351563
36,229,72275,2,0,L|2:175,1,47.9999985351563
14,344,72439,2,0,L|48:397,1,47.9999985351563
41,224,72602,5,0,0:0:0:0:
83,213,72684,1,0,0:0:0:0:
117,187,72766,1,0,0:0:0:0:
132,147,72847,1,0,0:0:0:0:
131,103,72929,5,0,0:0:0:0:
110,64,73011,1,0,0:0:0:0:
67,54,73093,1,0,0:0:0:0:
25,66,73174,1,0,0:0:0:0:
9,106,73256,6,0,P|23:137|41:157,3,47.9999985351563
155,86,73583,2,0,L|86:88,1,47.9999985351563
94,218,73747,2,0,L|126:157,1,47.9999985351563
223,146,73910,2,0,L|255:85,3,47.9999985351563
335,231,74237,6,0,L|266:233,3,47.9999985351563
353,91,74564,6,0,L|389:149,1,47.9999985351563
494,202,74727,2,0,L|468:161,1,47.9999985351563
348,86,74891,2,0,L|384:144,1,47.9999985351563
499,207,75054,2,0,L|473:166,1,47.9999985351563
343,81,75218,5,0,0:0:0:0:
314,48,75300,1,0,0:0:0:0:
274,30,75381,1,0,0:0:0:0:
230,32,75463,1,0,0:0:0:0:
192,53,75545,5,0,0:0:0:0:
167,88,75627,1,0,0:0:0:0:
165,130,75708,1,0,0:0:0:0:
184,168,75790,1,0,0:0:0:0:
233,186,75872,5,0,0:0:0:0:
282,203,75954,1,0,0:0:0:0:
315,243,76035,1,0,0:0:0:0:
321,295,76117,1,0,0:0:0:0:
297,342,76199,5,0,0:0:0:0:
247,361,76281,1,0,0:0:0:0:
196,346,76362,1,0,0:0:0:0:
167,301,76444,1,0,0:0:0:0:
165,248,76526,6,0,P|212:228|238:236,7,47.9999985351563
245,284,77180,5,0,0:0:0:0:
265,332,77262,1,0,0:0:0:0:
311,355,77343,1,0,0:0:0:0:
363,364,77425,1,0,0:0:0:0:
412,344,77507,5,0,0:0:0:0:
441,299,77589,1,0,0:0:0:0:
450,247,77670,1,0,0:0:0:0:
432,197,77752,1,0,0:0:0:0:
387,167,77834,6,0,P|345:196|338:222,7,47.9999985351563
358,275,78488,5,0,0:0:0:0:
308,258,78569,1,0,0:0:0:0:
277,214,78651,1,0,0:0:0:0:
272,161,78733,1,0,0:0:0:0:
290,111,78815,5,0,0:0:0:0:
328,75,78896,1,0,0:0:0:0:
380,65,78978,1,0,0:0:0:0:
432,72,79060,1,0,0:0:0:0:
460,116,79142,6,0,P|430:157|405:165,3,47.9999985351563
374,39,79469,2,0,P|403:-2|429:-10,3,47.9999985351563
266,74,79796,5,0,0:0:0:0:
214,82,79877,1,0,0:0:0:0:
165,60,79959,1,0,0:0:0:0:
128,20,80041,1,0,0:0:0:0:
75,10,80123,5,0,0:0:0:0:
32,32,80204,1,0,0:0:0:0:
7,78,80286,1,0,0:0:0:0:
20,129,80368,1,0,0:0:0:0:
68,151,80450,6,0,L|112:98,3,47.9999985351563
98,287,80777,2,0,L|54:340,3,47.9999985351563
212,336,81104,6,0,L|223:403,3,47.9999985351563
310,279,81430,2,0,L|321:211,1,47.9999985351563
207,331,81594,2,0,L|218:398,1,47.9999985351563
315,284,81757,6,0,L|326:216,3,47.9999985351563
448,226,82084,2,0,L|456:273,3,47.9999985351563
362,156,82411,6,0,L|370:108,1,47.9999985351563
491,31,82575,2,0,L|482:78,1,47.9999985351563
357,161,82738,2,0,L|365:113,1,47.9999985351563
496,26,82902,2,0,L|487:73,1,47.9999985351563
354,164,83065,5,0,0:0:0:0:
305,167,83147,1,0,0:0:0:0:
263,199,83229,1,0,0:0:0:0:
240,246,83311,1,0,0:0:0:0:
247,297,83392,5,0,0:0:0:0:
282,336,83474,1,0,0:0:0:0:
333,347,83556,1,0,0:0:0:0:
383,332,83638,1,0,0:0:0:0:
385,279,83719,6,0,P|356:240|317:224,3,47.9999985351563
489,303,84046,2,0,L|519:367,1,47.9999985351563
381,274,84210,2,0,L|339:211,1,47.9999985351563
494,125,84373,6,0,L|478:191,3,47.9999985351563
367,99,84700,2,0,L|351:33,3,47.9999985351563
254,129,85027,6,0,L|238:195,1,47.9999985351563
344,288,85191,2,0,L|328:222,1,47.9999985351563
249,124,85354,2,0,L|233:190,1,47.9999985351563
349,293,85518,2,0,L|333:227,1,47.9999985351563
244,119,85681,5,0,0:0:0:0:
230,72,85763,1,0,0:0:0:0:
193,40,85845,1,0,0:0:0:0:
148,23,85926,1,0,0:0:0:0:
99,21,86008,5,0,0:0:0:0:
51,30,86090,1,0,0:0:0:0:
16,63,86172,1,0,0:0:0:0:
0,106,86253,1,0,0:0:0:0:
4,153,86335,5,0,0:0:0:0:
62,130,86417,1,0,0:0:0:0:
124,137,86499,1,0,0:0:0:0:
170,177,86580,1,0,0:0:0:0:
192,235,86662,5,0,0:0:0:0:
181,296,86744,1,0,0:0:0:0:
135,338,86826,1,0,0:0:0:0:
73,347,86907,1,0,0:0:0:0:
20,312,86989,6,0,P|42:269|78:253,3,47.9999985351563
148,342,87316,2,0,P|141:364|127:384,3,47.9999985351563
276,223,87643,5,0,0:0:0:0:
314,173,87725,1,0,0:0:0:0:
370,147,87807,1,0,0:0:0:0:
428,153,87888,1,0,0:0:0:0:
478,192,87970,1,0,0:0:0:0:
504,248,88052,1,0,0:0:0:0:
501,309,88133,1,0,0:0:0:0:
459,355,88215,1,0,0:0:0:0:
397,344,88297,2,0,P|396:320|403:297,3,47.9999985351563
512,226,88624,2,0,P|512:249|505:272,3,47.9999985351563
375,233,88951,5,0,0:0:0:0:
319,216,89033,1,0,0:0:0:0:
280,173,89114,1,0,0:0:0:0:
275,115,89196,1,0,0:0:0:0:
300,63,89278,1,0,0:0:0:0:
347,30,89360,1,0,0:0:0:0:
404,27,89441,1,0,0:0:0:0:
454,55,89523,1,0,0:0:0:0:
471,110,89605,6,0,P|448:123|422:129,3,47.9999985351563
428,276,89932,2,0,P|427:249|435:223,3,47.9999985351563
315,163,90259,2,0,P|338:175|356:195,3,47.9999985351563
285,307,90586,5,0,0:0:0:0:
250,359,90668,1,0,0:0:0:0:
190,376,90749,1,0,0:0:0:0:
130,358,90831,1,0,0:0:0:0:
97,304,90913,5,0,0:0:0:0:
107,242,90995,1,0,0:0:0:0:
150,192,91076,1,0,0:0:0:0:
204,160,91158,1,0,0:0:0:0:
228,102,91240,5,0,0:0:0:0:
207,43,91321,1,0,0:0:0:0:
147,23,91403,1,0,0:0:0:0:
92,53,91485,1,0,0:0:0:0:
85,112,91567,5,0,0:0:0:0:
237,307,91730,1,0,0:0:0:0:
283,32,91894,5,0,0:0:0:0:
340,15,91975,1,0,0:0:0:0:
399,24,92057,1,0,0:0:0:0:
449,56,92139,1,0,0:0:0:0:
472,111,92221,5,0,0:0:0:0:
350,350,92384,1,0,0:0:0:0:
205,125,92548,5,0,0:0:0:0:
154,94,92629,1,0,0:0:0:0:
95,106,92711,1,0,0:0:0:0:
63,157,92793,1,0,0:0:0:0:
63,217,92875,5,0,0:0:0:0:
278,378,93038,1,0,0:0:0:0:
289,100,93202,5,0,0:0:0:0:
340,79,93283,1,0,0:0:0:0:
396,81,93365,1,0,0:0:0:0:
447,102,93447,1,0,0:0:0:0:
483,144,93529,6,0,P|489:219|472:264,1,95.9999970703126
301,236,93774,5,0,0:0:0:0:
301,236,93856,2,0,P|363:192|415:189,1,95.9999970703126
428,367,94183,5,0,0:0:0:0:
302,112,94346,1,0,0:0:0:0:
74,282,94510,5,0,0:0:0:0:
106,329,94591,1,0,0:0:0:0:
156,357,94673,1,0,0:0:0:0:
213,362,94755,1,0,0:0:0:0:
273,352,94836,5,0,0:0:0:0:
307,64,95000,1,0,0:0:0:0:
512,248,95163,5,0,0:0:0:0:
477,294,95245,1,0,0:0:0:0:
422,311,95327,1,0,0:0:0:0:
364,303,95409,1,0,0:0:0:0:
320,265,95490,5,0,0:0:0:0:
199,5,95654,1,0,0:0:0:0:
0,234,95817,5,0,0:0:0:0:
21,292,95899,1,0,0:0:0:0:
70,330,95981,1,0,0:0:0:0:
131,340,96063,1,0,0:0:0:0:
190,322,96144,1,0,0:0:0:0:
222,268,96226,1,0,0:0:0:0:
210,206,96308,2,0,L|159:216,2,31.9999990234375
287,143,96471,5,0,0:0:0:0:
438,273,96798,5,0,0:0:0:0:
497,107,97125,6,0,L|517:30,1,60.0000022888184
385,11,97452,6,0,L|368:53,1,30.0000011444092
298,27,97616,6,0,L|300:72,1,30.0000011444092
225,78,97779,6,0,L|246:118,1,30.0000011444092
181,154,97943,6,0,L|217:181,1,30.0000011444092
173,243,98106,6,0,P|195:251|212:267,1,30.0000011444092
322,355,98270,5,0,0:0:0:0:
368,335,98351,1,0,0:0:0:0:
395,292,98433,1,0,0:0:0:0:
396,240,98515,5,0,0:0:0:0:
365,198,98597,1,0,0:0:0:0:
317,181,98678,1,0,0:0:0:0:
264,176,98760,6,0,L|226:197,1,25.9999988098145
272,127,98842,2,0,L|228:126,1,25.9999988098145
303,88,98924,2,0,L|265:65,1,25.9999988098145
349,70,99005,6,0,L|328:32,1,25.9999988098145
398,77,99087,2,0,L|398:33,1,25.9999988098145
436,107,99168,2,0,L|458:69,1,25.9999988098145
455,153,99250,6,0,L|493:132,1,25.9999988098145
448,202,99332,2,0,L|491:202,1,25.9999988098145
419,242,99414,5,0,0:0:0:0:
142,255,99578,5,0,0:0:0:0:
118,300,99659,1,0,0:0:0:0:
131,350,99741,1,0,0:0:0:0:
173,382,99823,1,0,0:0:0:0:
227,383,99905,1,0,0:0:0:0:
272,357,99986,5,0,0:0:0:0:
305,316,100068,2,0,L|282:225,1,47.9999985351563
386,159,100232,2,0,L|363:250,1,47.9999985351563
300,321,100395,2,0,L|277:230,1,47.9999985351563
390,155,100559,2,0,L|367:246,1,47.9999985351563
394,348,100722,5,0,0:0:0:0:
485,152,100886,5,0,0:0:0:0:
484,99,100967,1,0,0:0:0:0:
462,50,101049,1,0,0:0:0:0:
412,31,101131,1,0,0:0:0:0:
359,26,101213,1,0,0:0:0:0:
310,45,101294,1,0,0:0:0:0:
281,89,101376,2,0,P|271:118|276:145,1,47.9999985351563
436,219,101539,5,0,0:0:0:0:
478,250,101621,1,0,0:0:0:0:
492,300,101703,1,0,0:0:0:0:
467,346,101785,1,0,0:0:0:0:
417,363,101866,1,0,0:0:0:0:
365,349,101948,1,0,0:0:0:0:
323,315,102030,2,0,P|308:275|318:239,1,47.9999985351563
414,149,102193,1,0,0:0:0:0:
308,37,102357,5,0,0:0:0:0:
239,51,102466,1,0,0:0:0:0:
220,119,102575,1,0,0:0:0:0:
246,184,102684,6,0,P|305:157|312:113,1,63.9999980468751
384,207,102902,2,0,P|377:271|412:299,1,63.9999980468751
295,315,103120,2,0,P|242:277|200:293,1,63.9999980468751
41,235,103338,5,0,0:0:0:0:
17,282,103420,1,0,0:0:0:0:
23,333,103501,1,0,0:0:0:0:
61,369,103583,1,0,0:0:0:0:
112,379,103665,1,0,0:0:0:0:
162,363,103747,1,0,0:0:0:0:
193,321,103828,2,0,P|201:268|194:247,1,47.9999985351563
107,159,103992,5,0,0:0:0:0:
58,137,104074,1,0,0:0:0:0:
46,85,104155,1,0,0:0:0:0:
64,35,104237,1,0,0:0:0:0:
107,4,104319,5,0,0:0:0:0:
158,17,104401,1,0,0:0:0:0:
190,57,104482,1,0,0:0:0:0:
238,77,104564,1,0,0:0:0:0:
290,75,104646,6,0,P|343:71|403:37,1,95.9999970703126
442,178,104973,5,0,0:0:0:0:
481,212,105054,1,0,0:0:0:0:
493,263,105136,1,0,0:0:0:0:
477,313,105218,1,0,0:0:0:0:
437,348,105300,6,0,L|346:364,1,47.9999985351563
247,243,105463,2,0,L|338:259,1,47.9999985351563
442,353,105627,2,0,L|351:369,1,47.9999985351563
242,238,105790,5,0,0:0:0:0:
203,201,105872,1,0,0:0:0:0:
150,192,105954,1,0,0:0:0:0:
105,219,106035,1,0,0:0:0:0:
75,262,106117,5,0,0:0:0:0:
76,314,106199,1,0,0:0:0:0:
103,358,106281,2,0,L|180:372,1,47.9999985351563
378,258,106444,5,0,0:0:0:0:
356,208,106526,1,0,0:0:0:0:
313,181,106608,2,0,L|261:188,1,47.9999985351563
54,201,106771,5,0,0:0:0:0:
18,162,106853,1,0,0:0:0:0:
14,109,106935,1,0,0:0:0:0:
41,64,107016,1,0,0:0:0:0:
89,41,107098,5,0,0:0:0:0:
141,45,107180,1,0,0:0:0:0:
183,77,107262,2,0,P|206:108|221:137,1,47.9999985351563
445,222,107425,5,0,0:0:0:0:
488,192,107507,1,0,0:0:0:0:
501,140,107589,1,0,0:0:0:0:
490,88,107670,1,0,0:0:0:0:
455,48,107752,5,0,0:0:0:0:
404,33,107834,1,0,0:0:0:0:
353,50,107916,2,0,P|318:84|309:99,1,47.9999985351563
241,209,108079,5,0,0:0:0:0:
204,259,108161,1,0,0:0:0:0:
205,320,108242,1,0,0:0:0:0:
245,367,108324,1,0,0:0:0:0:
304,381,108406,5,0,0:0:0:0:
363,364,108488,1,0,0:0:0:0:
397,312,108569,1,0,0:0:0:0:
390,250,108651,1,0,0:0:0:0:
345,205,108733,5,0,0:0:0:0:
300,170,108815,1,0,0:0:0:0:
267,123,108896,1,0,0:0:0:0:
273,66,108978,1,0,0:0:0:0:
312,24,109060,5,0,0:0:0:0:
368,33,109142,1,0,0:0:0:0:
400,78,109223,1,0,0:0:0:0:
388,133,109305,1,0,0:0:0:0:
343,169,109387,5,0,0:0:0:0:
286,162,109469,1,0,0:0:0:0:
241,128,109550,1,0,0:0:0:0:
188,104,109632,1,0,0:0:0:0:
131,106,109714,5,0,0:0:0:0:
76,136,109796,1,0,0:0:0:0:
52,190,109877,1,0,0:0:0:0:
374,204,110204,5,0,0:0:0:0:
440,184,110286,1,0,0:0:0:0:
486,135,110367,1,0,0:0:0:0:
512,71,110449,1,0,0:0:0:0:
500,3,110531,1,0,0:0:0:0:
295,83,110858,5,0,0:0:0:0:
231,124,110940,1,0,0:0:0:0:
155,135,111022,1,0,0:0:0:0:
78,115,111104,1,0,0:0:0:0:
25,62,111185,6,0,B|27:12|79:6|140:-10|178:41|138:159|138:159|132:183|83:284|141:340|141:340|218:203|-4:243|-64:85|145:32|203:36|222:150|216:185|216:185|302:27|437:158|395:258|261:288|261:288|215:319|220:396,1,1455.99993334961
