osu file format v14

[General]
AudioFilename: audio.mp3
AudioLeadIn: 0
PreviewTime: -1
Countdown: 0
SampleSet: Normal
StackLeniency: 0.7
Mode: 3
LetterboxInBreaks: 0
SpecialStyle: 0
WidescreenStoryboard: 0

[Editor]
DistanceSpacing: 1
BeatDivisor: 4
GridSize: 8
TimelineZoom: 2.2

[Metadata]
Title:.357 Magnum
TitleUnicode:.357 Magnum
Artist:xi
ArtistUnicode:xi
Creator:Level 51
Version:Revolver
Source:BMS
Tags:extremebeat piano jazz
BeatmapID:1099593
BeatmapSetID:517516

[Difficulty]
HPDrainRate:9
CircleSize:7
OverallDifficulty:8.2
ApproachRate:5
SliderMultiplier:1.4
SliderTickRate:1

[Events]
//Background and Video events
0,0,"bg.png",0,0
//Break Periods
//Storyboard Layer 0 (Background)
//Storyboard Layer 1 (Fail)
//Storyboard Layer 2 (Pass)
//Storyboard Layer 3 (Foreground)
//Storyboard Layer 4 (Overlay)
//Storyboard Sound Samples

[TimingPoints]
670,336.134453781513,4,1,0,0,1,0

[HitObjects]
256,192,670,128,0,2014:0:0:0:30:soft-hitnormal.wav
36,192,2014,1,0,0:0:0:30:soft-hitnormal.wav
109,192,2014,1,0,0:0:0:30:soft-hitnormal.wav
475,192,2350,1,0,0:0:0:30:soft-hitnormal.wav
109,192,2350,1,0,0:0:0:30:soft-hitnormal.wav
256,192,2350,1,0,0:0:0:30:soft-hitnormal.wav
182,192,2518,1,0,0:0:0:30:soft-hitnormal.wav
402,192,2518,1,0,0:0:0:30:soft-hitnormal.wav
329,192,2518,1,0,0:0:0:30:soft-hitnormal.wav
109,192,2602,1,0,0:0:0:30:soft-hitnormal.wav
329,192,2686,1,0,0:0:0:30:soft-hitnormal.wav
475,192,2686,1,0,0:0:0:30:soft-hitnormal.wav
256,192,2686,1,0,0:0:0:30:soft-hitnormal.wav
182,192,2770,1,0,0:0:0:30:soft-hitnormal.wav
36,192,2770,1,0,0:0:0:30:soft-hitnormal.wav
329,192,2854,1,0,0:0:0:30:soft-hitnormal.wav
475,192,2854,1,0,0:0:0:30:soft-hitnormal.wav
182,192,2938,1,0,0:0:0:30:soft-hitnormal.wav
36,192,2938,1,0,0:0:0:30:soft-hitnormal.wav
402,192,3022,1,0,0:0:0:30:soft-hitnormal.wav
329,192,3022,1,0,0:0:0:30:soft-hitnormal.wav
109,192,3106,1,0,0:0:0:30:soft-hitnormal.wav
182,192,3106,1,0,0:0:0:30:soft-hitnormal.wav
329,192,3191,1,0,0:0:0:30:soft-hitnormal.wav
402,192,3191,1,0,0:0:0:30:soft-hitnormal.wav
182,192,3275,1,0,0:0:0:30:soft-hitnormal.wav
109,192,3275,1,0,0:0:0:30:soft-hitnormal.wav
256,192,3359,1,0,0:0:0:30:soft-hitnormal.wav
329,192,3359,1,0,0:0:0:30:soft-hitnormal.wav
402,192,3359,1,0,0:0:0:30:soft-hitnormal.wav
475,192,3359,1,0,0:0:0:30:soft-hitnormal.wav
36,192,3527,1,0,0:0:0:30:soft-hitnormal.wav
329,192,3611,1,0,0:0:0:30:soft-hitnormal.wav
182,192,3611,1,0,0:0:0:30:soft-hitnormal.wav
475,192,3611,1,0,0:0:0:30:soft-hitnormal.wav
109,192,3863,128,0,4199:0:0:0:30:soft-hitnormal.wav
256,192,3863,128,0,4115:0:0:0:30:soft-hitnormal.wav
402,192,3863,128,0,4115:0:0:0:30:soft-hitnormal.wav
402,192,4199,1,0,0:0:0:30:soft-hitnormal.wav
256,192,4199,1,0,0:0:0:30:soft-hitnormal.wav
36,192,4283,1,0,0:0:0:30:soft-hitnormal.wav
329,192,4367,1,0,0:0:0:30:soft-hitnormal.wav
182,192,4367,1,0,0:0:0:30:soft-hitnormal.wav
475,192,4367,1,0,0:0:0:30:soft-hitnormal.wav
109,192,4451,1,0,0:0:0:30:soft-hitnormal.wav
36,192,4535,1,0,0:0:0:30:soft-hitnormal.wav
256,192,4535,1,0,0:0:0:30:soft-hitnormal.wav
182,192,4619,1,0,0:0:0:30:soft-hitnormal.wav
402,192,4703,1,0,0:0:0:30:soft-hitnormal.wav
109,192,4703,1,0,0:0:0:30:soft-hitnormal.wav
329,192,4703,1,0,0:0:0:30:soft-hitnormal.wav
329,192,4871,1,0,0:0:0:30:soft-hitnormal.wav
36,192,4871,1,0,0:0:0:30:soft-hitnormal.wav
402,192,4955,1,0,0:0:0:30:soft-hitnormal.wav
109,192,4955,1,0,0:0:0:30:soft-hitnormal.wav
475,192,5039,1,0,0:0:0:30:soft-hitnormal.wav
182,192,5039,1,0,0:0:0:30:soft-hitnormal.wav
329,192,5123,1,0,0:0:0:30:soft-hitnormal.wav
256,192,5207,1,0,0:0:0:30:soft-hitnormal.wav
475,192,5207,1,0,0:0:0:30:soft-hitnormal.wav
36,192,5207,1,0,0:0:0:30:soft-hitnormal.wav
182,192,5291,1,0,0:0:0:30:soft-hitnormal.wav
402,192,5291,1,0,0:0:0:30:soft-hitnormal.wav
109,192,5375,1,0,0:0:0:30:soft-hitnormal.wav
329,192,5375,1,0,0:0:0:30:soft-hitnormal.wav
36,192,5459,1,0,0:0:0:30:soft-hitnormal.wav
256,192,5543,1,0,0:0:0:30:soft-hitnormal.wav
475,192,5543,1,0,0:0:0:30:soft-hitnormal.wav
402,192,5627,1,0,0:0:0:30:soft-hitnormal.wav
182,192,5627,1,0,0:0:0:30:soft-hitnormal.wav
36,192,5712,1,0,0:0:0:30:soft-hitnormal.wav
109,192,5712,1,0,0:0:0:30:soft-hitnormal.wav
329,192,5712,1,0,0:0:0:30:soft-hitnormal.wav
36,192,5880,1,0,0:0:0:30:soft-hitnormal.wav
109,192,5880,1,0,0:0:0:30:soft-hitnormal.wav
402,192,5880,1,0,0:0:0:30:soft-hitnormal.wav
329,192,5964,1,0,0:0:0:30:soft-hitnormal.wav
36,192,6048,1,0,0:0:0:30:soft-hitnormal.wav
109,192,6048,1,0,0:0:0:30:soft-hitnormal.wav
475,192,6048,1,0,0:0:0:30:soft-hitnormal.wav
256,192,6048,1,0,0:0:0:30:soft-hitnormal.wav
182,192,6216,1,0,0:0:0:30:soft-hitnormal.wav
329,192,6216,1,0,0:0:0:30:soft-hitnormal.wav
402,192,6300,1,0,0:0:0:30:soft-hitnormal.wav
36,192,6300,1,0,0:0:0:30:soft-hitnormal.wav
256,192,6384,1,0,0:0:0:30:soft-hitnormal.wav
109,192,6384,1,0,0:0:0:30:soft-hitnormal.wav
329,192,6468,1,0,0:0:0:30:soft-hitnormal.wav
475,192,6468,1,0,0:0:0:30:soft-hitnormal.wav
36,192,6552,1,0,0:0:0:30:soft-hitnormal.wav
182,192,6552,1,0,0:0:0:30:soft-hitnormal.wav
402,192,6552,1,0,0:0:0:30:soft-hitnormal.wav
256,192,6636,128,0,6888:0:0:0:30:soft-hitnormal.wav
109,192,6636,128,0,6888:0:0:0:30:soft-hitnormal.wav
475,192,6888,1,0,0:0:0:30:soft-hitnormal.wav
402,192,6888,1,0,0:0:0:30:soft-hitnormal.wav
475,192,7056,1,0,0:0:0:30:soft-hitnormal.wav
109,192,7056,1,0,0:0:0:30:soft-hitnormal.wav
256,192,7056,1,0,0:0:0:30:soft-hitnormal.wav
475,192,7140,1,0,0:0:0:30:soft-hitnormal.wav
256,192,7140,1,0,0:0:0:30:soft-hitnormal.wav
402,192,7224,1,0,0:0:0:30:soft-hitnormal.wav
182,192,7224,1,0,0:0:0:30:soft-hitnormal.wav
329,192,7308,1,0,0:0:0:30:soft-hitnormal.wav
109,192,7308,1,0,0:0:0:30:soft-hitnormal.wav
256,192,7392,1,0,0:0:0:30:soft-hitnormal.wav
36,192,7392,1,0,0:0:0:30:soft-hitnormal.wav
475,192,7476,1,0,0:0:0:30:soft-hitnormal.wav
109,192,7560,1,0,0:0:0:30:soft-hitnormal.wav
329,192,7560,1,0,0:0:0:30:soft-hitnormal.wav
182,192,7644,1,0,0:0:0:30:soft-hitnormal.wav
402,192,7644,1,0,0:0:0:30:soft-hitnormal.wav
256,192,7728,1,0,0:0:0:30:soft-hitnormal.wav
475,192,7728,1,0,0:0:0:30:soft-hitnormal.wav
36,192,7812,1,0,0:0:0:30:soft-hitnormal.wav
329,192,7812,1,0,0:0:0:30:soft-hitnormal.wav
109,192,7896,1,0,0:0:0:30:soft-hitnormal.wav
402,192,7896,1,0,0:0:0:30:soft-hitnormal.wav
182,192,7896,1,0,0:0:0:30:soft-hitnormal.wav
256,192,7980,128,0,8569:0:0:0:30:soft-hitnormal.wav
329,192,8233,128,0,8485:0:0:0:30:soft-hitnormal.wav
402,192,8233,128,0,8485:0:0:0:30:soft-hitnormal.wav
109,192,8401,128,0,8737:0:0:0:30:soft-hitnormal.wav
36,192,8569,128,0,8737:0:0:0:30:soft-hitnormal.wav
402,192,8569,1,0,0:0:0:30:soft-hitnormal.wav
329,192,8569,1,0,0:0:0:30:soft-hitnormal.wav
402,192,8653,1,0,0:0:0:30:soft-hitnormal.wav
329,192,8653,1,0,0:0:0:30:soft-hitnormal.wav
402,192,8737,1,0,0:0:0:30:soft-hitnormal.wav
329,192,8737,1,0,0:0:0:30:soft-hitnormal.wav
182,192,8737,1,0,0:0:0:30:soft-hitnormal.wav
475,192,8905,128,0,9409:0:0:0:30:soft-hitnormal.wav
402,192,8905,128,0,9409:0:0:0:30:soft-hitnormal.wav
36,192,8905,1,0,0:0:0:30:soft-hitnormal.wav
256,192,8905,1,0,0:0:0:30:soft-hitnormal.wav
182,192,8989,1,0,0:0:0:30:soft-hitnormal.wav
109,192,9073,1,0,0:0:0:30:soft-hitnormal.wav
329,192,9073,1,0,0:0:0:30:soft-hitnormal.wav
256,192,9157,1,0,0:0:0:30:soft-hitnormal.wav
182,192,9241,1,0,0:0:0:30:soft-hitnormal.wav
36,192,9241,1,0,0:0:0:30:soft-hitnormal.wav
256,192,9325,1,0,0:0:0:30:soft-hitnormal.wav
109,192,9325,1,0,0:0:0:30:soft-hitnormal.wav
329,192,9409,1,0,0:0:0:30:soft-hitnormal.wav
182,192,9409,1,0,0:0:0:30:soft-hitnormal.wav
36,192,9493,1,0,0:0:0:30:soft-hitnormal.wav
256,192,9577,1,0,0:0:0:30:soft-hitnormal.wav
402,192,9577,1,0,0:0:0:30:soft-hitnormal.wav
475,192,9745,1,0,0:0:0:30:soft-hitnormal.wav
109,192,9745,1,0,0:0:0:30:soft-hitnormal.wav
329,192,9745,1,0,0:0:0:30:soft-hitnormal.wav
36,192,9829,1,0,0:0:0:30:soft-hitnormal.wav
256,192,9829,1,0,0:0:0:30:soft-hitnormal.wav
182,192,9913,1,0,0:0:0:30:soft-hitnormal.wav
402,192,9913,1,0,0:0:0:30:soft-hitnormal.wav
329,192,9997,1,0,0:0:0:30:soft-hitnormal.wav
109,192,9997,1,0,0:0:0:30:soft-hitnormal.wav
256,192,10081,1,0,0:0:0:30:soft-hitnormal.wav
475,192,10081,1,0,0:0:0:30:soft-hitnormal.wav
36,192,10165,1,0,0:0:0:30:soft-hitnormal.wav
402,192,10165,1,0,0:0:0:30:soft-hitnormal.wav
109,192,10249,1,0,0:0:0:30:soft-hitnormal.wav
329,192,10249,1,0,0:0:0:30:soft-hitnormal.wav
182,192,10333,1,0,0:0:0:30:soft-hitnormal.wav
475,192,10333,1,0,0:0:0:30:soft-hitnormal.wav
256,192,10417,1,0,0:0:0:30:soft-hitnormal.wav
402,192,10417,1,0,0:0:0:30:soft-hitnormal.wav
36,192,10417,1,0,0:0:0:30:soft-hitnormal.wav
182,192,10585,1,0,0:0:0:30:soft-hitnormal.wav
329,192,10585,1,0,0:0:0:30:soft-hitnormal.wav
36,192,10585,1,0,0:0:0:30:soft-hitnormal.wav
402,192,10670,1,0,0:0:0:30:soft-hitnormal.wav
475,192,10670,1,0,0:0:0:30:soft-hitnormal.wav
109,192,10754,1,0,0:0:0:30:soft-hitnormal.wav
256,192,10754,1,0,0:0:0:30:soft-hitnormal.wav
36,192,10922,1,0,0:0:0:30:soft-hitnormal.wav
109,192,10922,1,0,0:0:0:30:soft-hitnormal.wav
36,192,11006,1,0,0:0:0:30:soft-hitnormal.wav
109,192,11006,1,0,0:0:0:30:soft-hitnormal.wav
329,192,11090,1,0,0:0:0:30:soft-hitnormal.wav
402,192,11090,1,0,0:0:0:30:soft-hitnormal.wav
475,192,11090,1,0,0:0:0:30:soft-hitnormal.wav
256,192,11174,1,0,0:0:0:30:soft-hitnormal.wav
182,192,11174,1,0,0:0:0:30:soft-hitnormal.wav
109,192,11258,1,0,0:0:0:30:soft-hitnormal.wav
36,192,11258,1,0,0:0:0:30:soft-hitnormal.wav
256,192,11342,1,0,0:0:0:30:soft-hitnormal.wav
329,192,11342,1,0,0:0:0:30:soft-hitnormal.wav
402,192,11426,1,0,0:0:0:30:soft-hitnormal.wav
475,192,11426,1,0,0:0:0:30:soft-hitnormal.wav
182,192,11426,1,0,0:0:0:30:soft-hitnormal.wav
109,192,11510,1,0,0:0:0:30:soft-hitnormal.wav
36,192,11594,1,0,0:0:0:30:soft-hitnormal.wav
256,192,11594,1,0,0:0:0:30:soft-hitnormal.wav
182,192,11678,1,0,0:0:0:30:soft-hitnormal.wav
475,192,11762,1,0,0:0:0:30:soft-hitnormal.wav
109,192,11762,1,0,0:0:0:30:soft-hitnormal.wav
329,192,11762,1,0,0:0:0:30:soft-hitnormal.wav
256,192,11846,1,0,0:0:0:30:soft-hitnormal.wav
182,192,11930,1,0,0:0:0:30:soft-hitnormal.wav
36,192,11930,1,0,0:0:0:30:soft-hitnormal.wav
402,192,11930,1,0,0:0:0:30:soft-hitnormal.wav
329,192,12014,1,0,0:0:0:30:soft-hitnormal.wav
109,192,12098,1,0,0:0:0:30:soft-hitnormal.wav
256,192,12098,1,0,0:0:0:30:soft-hitnormal.wav
475,192,12098,1,0,0:0:0:30:soft-hitnormal.wav
36,192,12182,1,0,0:0:0:30:soft-hitnormal.wav
329,192,12266,1,0,0:0:0:30:soft-hitnormal.wav
182,192,12266,1,0,0:0:0:30:soft-hitnormal.wav
402,192,12350,1,0,0:0:0:30:soft-hitnormal.wav
109,192,12350,1,0,0:0:0:30:soft-hitnormal.wav
475,192,12434,1,0,0:0:0:30:soft-hitnormal.wav
256,192,12434,1,0,0:0:0:30:soft-hitnormal.wav
36,192,12434,1,0,0:0:0:30:soft-hitnormal.wav
182,192,12518,1,0,0:0:0:30:soft-hitnormal.wav
402,192,12602,1,0,0:0:0:30:soft-hitnormal.wav
329,192,12602,1,0,0:0:0:30:soft-hitnormal.wav
182,192,12686,1,0,0:0:0:30:soft-hitnormal.wav
109,192,12686,1,0,0:0:0:30:soft-hitnormal.wav
402,192,12770,1,0,0:0:0:30:soft-hitnormal.wav
329,192,12770,1,0,0:0:0:30:soft-hitnormal.wav
256,192,12770,1,0,0:0:0:30:soft-hitnormal.wav
475,192,12770,1,0,0:0:0:30:soft-hitnormal.wav
36,192,13106,1,0,0:0:0:30:soft-hitnormal.wav
109,192,13106,1,0,0:0:0:30:soft-hitnormal.wav
182,192,13106,1,0,0:0:0:30:soft-hitnormal.wav
256,192,13106,1,0,0:0:0:30:soft-hitnormal.wav
329,192,13106,1,0,0:0:0:30:soft-hitnormal.wav
475,192,13219,1,0,0:0:0:30:soft-hitnormal.wav
402,192,13219,1,0,0:0:0:30:soft-hitnormal.wav
182,192,13443,1,0,0:0:0:30:soft-hitnormal.wav
109,192,13443,1,0,0:0:0:30:soft-hitnormal.wav
36,192,13443,1,0,0:0:0:30:soft-hitnormal.wav
475,192,13527,1,0,0:0:0:30:soft-hitnormal.wav
402,192,13527,1,0,0:0:0:30:soft-hitnormal.wav
182,192,13611,1,0,0:0:0:30:soft-hitnormal.wav
36,192,13611,1,0,0:0:0:30:soft-hitnormal.wav
256,192,13667,1,0,0:0:0:30:soft-hitnormal.wav
475,192,13695,1,0,0:0:0:30:soft-hitnormal.wav
402,192,13695,1,0,0:0:0:30:soft-hitnormal.wav
329,192,13723,1,0,0:0:0:30:soft-hitnormal.wav
182,192,13779,1,0,0:0:0:30:soft-hitnormal.wav
36,192,13779,1,0,0:0:0:30:soft-hitnormal.wav
256,192,13863,1,0,0:0:0:30:soft-hitnormal.wav
329,192,13947,1,0,0:0:0:30:soft-hitnormal.wav
109,192,13947,1,0,0:0:0:30:soft-hitnormal.wav
402,192,14031,1,0,0:0:0:30:soft-hitnormal.wav
182,192,14031,1,0,0:0:0:30:soft-hitnormal.wav
475,192,14115,1,0,0:0:0:30:soft-hitnormal.wav
256,192,14115,1,0,0:0:0:30:soft-hitnormal.wav
36,192,14115,1,0,0:0:0:30:soft-hitnormal.wav
402,192,14283,128,0,15375:0:0:0:30:soft-hitnormal.wav
475,192,14283,128,0,15375:0:0:0:30:soft-hitnormal.wav
329,192,14283,1,0,0:0:0:30:soft-hitnormal.wav
182,192,14283,1,0,0:0:0:30:soft-hitnormal.wav
109,192,14367,1,0,0:0:0:30:soft-hitnormal.wav
256,192,14451,1,0,0:0:0:30:soft-hitnormal.wav
36,192,14451,1,0,0:0:0:30:soft-hitnormal.wav
182,192,14535,1,0,0:0:0:30:soft-hitnormal.wav
329,192,14619,1,0,0:0:0:30:soft-hitnormal.wav
109,192,14619,1,0,0:0:0:30:soft-hitnormal.wav
182,192,14703,1,0,0:0:0:30:soft-hitnormal.wav
256,192,14787,1,0,0:0:0:30:soft-hitnormal.wav
36,192,14787,1,0,0:0:0:30:soft-hitnormal.wav
109,192,14871,1,0,0:0:0:30:soft-hitnormal.wav
182,192,14955,1,0,0:0:0:30:soft-hitnormal.wav
329,192,14955,1,0,0:0:0:30:soft-hitnormal.wav
36,192,15039,1,0,0:0:0:30:soft-hitnormal.wav
109,192,15123,1,0,0:0:0:30:soft-hitnormal.wav
256,192,15123,1,0,0:0:0:30:soft-hitnormal.wav
329,192,15207,1,0,0:0:0:30:soft-hitnormal.wav
36,192,15291,1,0,0:0:0:30:soft-hitnormal.wav
182,192,15291,1,0,0:0:0:30:soft-hitnormal.wav
109,192,15375,1,0,0:0:0:30:soft-hitnormal.wav
329,192,15375,1,0,0:0:0:30:soft-hitnormal.wav
475,192,15459,1,0,0:0:0:30:soft-hitnormal.wav
402,192,15459,1,0,0:0:0:30:soft-hitnormal.wav
182,192,15459,1,0,0:0:0:30:soft-hitnormal.wav
36,192,15543,1,0,0:0:0:30:soft-hitnormal.wav
256,192,15543,1,0,0:0:0:30:soft-hitnormal.wav
329,192,15627,1,0,0:0:0:30:soft-hitnormal.wav
402,192,15627,1,0,0:0:0:30:soft-hitnormal.wav
109,192,15627,1,0,0:0:0:30:soft-hitnormal.wav
475,192,15712,1,0,0:0:0:30:soft-hitnormal.wav
182,192,15712,1,0,0:0:0:30:soft-hitnormal.wav
256,192,15796,1,0,0:0:0:30:soft-hitnormal.wav
36,192,15796,1,0,0:0:0:30:soft-hitnormal.wav
329,192,15796,1,0,0:0:0:30:soft-hitnormal.wav
402,192,15880,1,0,0:0:0:30:soft-hitnormal.wav
109,192,15880,1,0,0:0:0:30:soft-hitnormal.wav
475,192,15964,1,0,0:0:0:30:soft-hitnormal.wav
182,192,15964,1,0,0:0:0:30:soft-hitnormal.wav
256,192,15964,1,0,0:0:0:30:soft-hitnormal.wav
36,192,16048,1,0,0:0:0:30:soft-hitnormal.wav
329,192,16048,1,0,0:0:0:30:soft-hitnormal.wav
109,192,16132,1,0,0:0:0:30:soft-hitnormal.wav
182,192,16132,1,0,0:0:0:30:soft-hitnormal.wav
402,192,16132,1,0,0:0:0:30:soft-hitnormal.wav
256,192,16216,1,0,0:0:0:30:soft-hitnormal.wav
329,192,16300,1,0,0:0:0:30:soft-hitnormal.wav
36,192,16300,1,0,0:0:0:30:soft-hitnormal.wav
109,192,16300,1,0,0:0:0:30:soft-hitnormal.wav
402,192,16384,1,0,0:0:0:30:soft-hitnormal.wav
182,192,16384,1,0,0:0:0:30:soft-hitnormal.wav
256,192,16468,1,0,0:0:0:30:soft-hitnormal.wav
475,192,16468,1,0,0:0:0:30:soft-hitnormal.wav
36,192,16468,1,0,0:0:0:30:soft-hitnormal.wav
256,192,16636,1,0,0:0:0:30:soft-hitnormal.wav
402,192,16636,1,0,0:0:0:30:soft-hitnormal.wav
182,192,16636,1,0,0:0:0:30:soft-hitnormal.wav
475,192,16636,1,0,0:0:0:30:soft-hitnormal.wav
182,192,16804,128,0,16972:0:0:0:30:soft-hitnormal.wav
256,192,16804,128,0,16972:0:0:0:30:soft-hitnormal.wav
402,192,16804,128,0,16972:0:0:0:30:soft-hitnormal.wav
475,192,16804,128,0,17056:0:0:0:30:soft-hitnormal.wav
182,192,17056,1,0,0:0:0:30:soft-hitnormal.wav
256,192,17056,1,0,0:0:0:30:soft-hitnormal.wav
402,192,17056,1,0,0:0:0:30:soft-hitnormal.wav
36,192,17056,1,0,0:0:0:30:soft-hitnormal.wav
256,192,17308,128,0,17728:0:0:0:30:soft-hitnormal.wav
36,192,17308,128,0,17728:0:0:0:30:soft-hitnormal.wav
402,192,17308,128,0,17728:0:0:0:30:soft-hitnormal.wav
182,192,17308,128,0,17812:0:0:0:30:soft-hitnormal.wav
475,192,17308,1,0,0:0:0:30:soft-hitnormal.wav
36,192,17812,1,0,0:0:0:30:soft-hitnormal.wav
256,192,17812,1,0,0:0:0:30:soft-hitnormal.wav
402,192,17812,1,0,0:0:0:30:soft-hitnormal.wav
109,192,17896,1,0,0:0:0:30:soft-hitnormal.wav
475,192,17896,1,0,0:0:0:30:soft-hitnormal.wav
329,192,17980,1,0,0:0:0:30:soft-hitnormal.wav
182,192,17980,1,0,0:0:0:30:soft-hitnormal.wav
402,192,18064,1,0,0:0:0:30:soft-hitnormal.wav
36,192,18064,1,0,0:0:0:30:soft-hitnormal.wav
475,192,18148,1,0,0:0:0:30:soft-hitnormal.wav
256,192,18148,1,0,0:0:0:30:soft-hitnormal.wav
109,192,18148,1,0,0:0:0:30:soft-hitnormal.wav
36,192,18317,1,0,0:0:0:30:soft-hitnormal.wav
182,192,18317,1,0,0:0:0:30:soft-hitnormal.wav
402,192,18317,1,0,0:0:0:30:soft-hitnormal.wav
256,192,18317,1,0,0:0:0:30:soft-hitnormal.wav
109,192,18485,1,0,0:0:0:30:soft-hitnormal.wav
475,192,18485,1,0,0:0:0:30:soft-hitnormal.wav
329,192,18485,1,0,0:0:0:30:soft-hitnormal.wav
256,192,18485,1,0,0:0:0:30:soft-hitnormal.wav
36,192,18653,1,0,0:0:0:30:soft-hitnormal.wav
182,192,18653,1,0,0:0:0:30:soft-hitnormal.wav
256,192,18653,1,0,0:0:0:30:soft-hitnormal.wav
402,192,18653,1,0,0:0:0:30:soft-hitnormal.wav
109,192,18821,1,0,0:0:0:30:soft-hitnormal.wav
256,192,18821,1,0,0:0:0:30:soft-hitnormal.wav
329,192,18821,1,0,0:0:0:30:soft-hitnormal.wav
475,192,18821,1,0,0:0:0:30:soft-hitnormal.wav
475,192,18989,1,0,0:0:0:30:soft-hitnormal.wav
109,192,18989,1,0,0:0:0:30:soft-hitnormal.wav
256,192,18989,1,0,0:0:0:30:soft-hitnormal.wav
402,192,18989,1,0,0:0:0:30:soft-hitnormal.wav
475,192,19157,1,0,0:0:0:30:soft-hitnormal.wav
402,192,19157,1,0,0:0:0:30:soft-hitnormal.wav
329,192,19157,1,0,0:0:0:30:soft-hitnormal.wav
182,192,19157,1,0,0:0:0:30:soft-hitnormal.wav
109,192,19213,1,0,0:0:0:30:soft-hitnormal.wav
36,192,19269,1,0,0:0:0:30:soft-hitnormal.wav
256,192,19325,1,0,0:0:0:30:soft-hitnormal.wav
329,192,19325,1,0,0:0:0:30:soft-hitnormal.wav
402,192,19325,1,0,0:0:0:30:soft-hitnormal.wav
475,192,19325,1,0,0:0:0:30:soft-hitnormal.wav
182,192,19381,1,0,0:0:0:30:soft-hitnormal.wav
109,192,19437,1,0,0:0:0:30:soft-hitnormal.wav
329,192,19493,1,0,0:0:0:30:soft-hitnormal.wav
402,192,19493,1,0,0:0:0:30:soft-hitnormal.wav
475,192,19493,1,0,0:0:0:30:soft-hitnormal.wav
36,192,19493,1,0,0:0:0:30:soft-hitnormal.wav
256,192,19661,128,0,20838:0:0:0:30:soft-hitnormal.wav
182,192,19661,1,0,0:0:0:30:soft-hitnormal.wav
109,192,19661,1,0,0:0:0:30:soft-hitnormal.wav
329,192,19745,1,0,0:0:0:30:soft-hitnormal.wav
36,192,19829,1,0,0:0:0:30:soft-hitnormal.wav
475,192,19829,1,0,0:0:0:30:soft-hitnormal.wav
182,192,19913,1,0,0:0:0:30:soft-hitnormal.wav
329,192,19997,1,0,0:0:0:30:soft-hitnormal.wav
402,192,19997,1,0,0:0:0:30:soft-hitnormal.wav
475,192,19997,128,0,20081:0:0:0:30:soft-hitnormal.wav
109,192,20081,1,0,0:0:0:30:soft-hitnormal.wav
182,192,20081,128,0,20165:0:0:0:30:soft-hitnormal.wav
402,192,20165,1,0,0:0:0:30:soft-hitnormal.wav
329,192,20165,128,0,20249:0:0:0:30:soft-hitnormal.wav
36,192,20249,1,0,0:0:0:30:soft-hitnormal.wav
109,192,20249,128,0,20333:0:0:0:30:soft-hitnormal.wav
402,192,20333,1,0,0:0:0:30:soft-hitnormal.wav
475,192,20333,128,0,20417:0:0:0:30:soft-hitnormal.wav
182,192,20417,1,0,0:0:0:30:soft-hitnormal.wav
36,192,20417,128,0,20501:0:0:0:30:soft-hitnormal.wav
329,192,20501,1,0,0:0:0:30:soft-hitnormal.wav
402,192,20501,128,0,20585:0:0:0:30:soft-hitnormal.wav
109,192,20585,1,0,0:0:0:30:soft-hitnormal.wav
182,192,20585,128,0,20670:0:0:0:30:soft-hitnormal.wav
475,192,20670,1,0,0:0:0:30:soft-hitnormal.wav
329,192,20670,128,0,20754:0:0:0:30:soft-hitnormal.wav
109,192,20754,1,0,0:0:0:30:soft-hitnormal.wav
182,192,20754,1,0,0:0:0:30:soft-hitnormal.wav
36,192,20754,128,0,20838:0:0:0:30:soft-hitnormal.wav
402,192,20838,1,0,0:0:0:30:soft-hitnormal.wav
475,192,20838,1,0,0:0:0:30:soft-hitnormal.wav
182,192,20922,1,0,0:0:0:30:soft-hitnormal.wav
109,192,20922,1,0,0:0:0:30:soft-hitnormal.wav
329,192,21006,1,0,0:0:0:30:soft-hitnormal.wav
402,192,21006,1,0,0:0:0:30:soft-hitnormal.wav
36,192,21090,1,0,0:0:0:30:soft-hitnormal.wav
182,192,21090,1,0,0:0:0:30:soft-hitnormal.wav
475,192,21174,1,0,0:0:0:30:soft-hitnormal.wav
329,192,21174,1,0,0:0:0:30:soft-hitnormal.wav
36,192,21258,1,0,0:0:0:30:soft-hitnormal.wav
182,192,21258,1,0,0:0:0:30:soft-hitnormal.wav
256,192,21342,1,0,0:0:0:30:soft-hitnormal.wav
402,192,21342,1,0,0:0:0:30:soft-hitnormal.wav
109,192,21426,1,0,0:0:0:30:soft-hitnormal.wav
182,192,21510,1,0,0:0:0:30:soft-hitnormal.wav
402,192,21510,1,0,0:0:0:30:soft-hitnormal.wav
256,192,21594,1,0,0:0:0:30:soft-hitnormal.wav
475,192,21594,1,0,0:0:0:30:soft-hitnormal.wav
329,192,21678,1,0,0:0:0:30:soft-hitnormal.wav
109,192,21678,1,0,0:0:0:30:soft-hitnormal.wav
182,192,21762,1,0,0:0:0:30:soft-hitnormal.wav
402,192,21762,1,0,0:0:0:30:soft-hitnormal.wav
256,192,21846,1,0,0:0:0:30:soft-hitnormal.wav
36,192,21846,1,0,0:0:0:30:soft-hitnormal.wav
182,192,21930,1,0,0:0:0:30:soft-hitnormal.wav
475,192,21930,1,0,0:0:0:30:soft-hitnormal.wav
109,192,22014,1,0,0:0:0:30:soft-hitnormal.wav
402,192,22014,1,0,0:0:0:30:soft-hitnormal.wav
36,192,22098,1,0,0:0:0:30:soft-hitnormal.wav
329,192,22098,1,0,0:0:0:30:soft-hitnormal.wav
182,192,22182,1,0,0:0:0:30:soft-hitnormal.wav
256,192,22182,1,0,0:0:0:30:soft-hitnormal.wav
475,192,22182,1,0,0:0:0:30:soft-hitnormal.wav
182,192,22350,1,0,0:0:0:30:soft-hitnormal.wav
256,192,22350,1,0,0:0:0:30:soft-hitnormal.wav
329,192,22518,1,0,0:0:0:30:soft-hitnormal.wav
109,192,22518,1,0,0:0:0:30:soft-hitnormal.wav
36,192,22518,1,0,0:0:0:30:soft-hitnormal.wav
402,192,22602,1,0,0:0:0:30:soft-hitnormal.wav
182,192,22602,1,0,0:0:0:30:soft-hitnormal.wav
36,192,22686,1,0,0:0:0:30:soft-hitnormal.wav
256,192,22686,1,0,0:0:0:30:soft-hitnormal.wav
475,192,22686,1,0,0:0:0:30:soft-hitnormal.wav
329,192,22770,1,0,0:0:0:30:soft-hitnormal.wav
109,192,22770,1,0,0:0:0:30:soft-hitnormal.wav
402,192,22854,1,0,0:0:0:30:soft-hitnormal.wav
475,192,22854,1,0,0:0:0:30:soft-hitnormal.wav
182,192,22854,1,0,0:0:0:30:soft-hitnormal.wav
182,192,23022,1,0,0:0:0:30:soft-hitnormal.wav
402,192,23022,1,0,0:0:0:30:soft-hitnormal.wav
256,192,23106,1,0,0:0:0:30:soft-hitnormal.wav
329,192,23191,1,0,0:0:0:30:soft-hitnormal.wav
109,192,23191,1,0,0:0:0:30:soft-hitnormal.wav
475,192,23191,1,0,0:0:0:30:soft-hitnormal.wav
36,192,23275,1,0,0:0:0:30:soft-hitnormal.wav
256,192,23275,1,0,0:0:0:30:soft-hitnormal.wav
182,192,23359,1,0,0:0:0:30:soft-hitnormal.wav
402,192,23359,1,0,0:0:0:30:soft-hitnormal.wav
109,192,23443,1,0,0:0:0:30:soft-hitnormal.wav
329,192,23443,1,0,0:0:0:30:soft-hitnormal.wav
36,192,23527,1,0,0:0:0:30:soft-hitnormal.wav
256,192,23527,1,0,0:0:0:30:soft-hitnormal.wav
475,192,23527,1,0,0:0:0:30:soft-hitnormal.wav
182,192,23611,1,0,0:0:0:30:soft-hitnormal.wav
329,192,23695,1,0,0:0:0:30:soft-hitnormal.wav
475,192,23695,1,0,0:0:0:30:soft-hitnormal.wav
109,192,23779,1,0,0:0:0:30:soft-hitnormal.wav
329,192,23863,1,0,0:0:0:30:soft-hitnormal.wav
256,192,23863,1,0,0:0:0:30:soft-hitnormal.wav
402,192,23863,1,0,0:0:0:30:soft-hitnormal.wav
36,192,23947,1,0,0:0:0:30:soft-hitnormal.wav
182,192,23947,1,0,0:0:0:30:soft-hitnormal.wav
109,192,23947,1,0,0:0:0:30:soft-hitnormal.wav
402,192,24031,1,0,0:0:0:30:soft-hitnormal.wav
329,192,24031,1,0,0:0:0:30:soft-hitnormal.wav
475,192,24031,1,0,0:0:0:30:soft-hitnormal.wav
109,192,24115,1,0,0:0:0:30:soft-hitnormal.wav
256,192,24115,1,0,0:0:0:30:soft-hitnormal.wav
182,192,24115,1,0,0:0:0:30:soft-hitnormal.wav
402,192,24199,1,0,0:0:0:30:soft-hitnormal.wav
475,192,24199,1,0,0:0:0:30:soft-hitnormal.wav
36,192,24199,1,0,0:0:0:30:soft-hitnormal.wav
182,192,24283,1,0,0:0:0:30:soft-hitnormal.wav
329,192,24367,1,0,0:0:0:30:soft-hitnormal.wav
402,192,24367,1,0,0:0:0:30:soft-hitnormal.wav
109,192,24451,1,0,0:0:0:30:soft-hitnormal.wav
475,192,24451,1,0,0:0:0:30:soft-hitnormal.wav
256,192,24535,1,0,0:0:0:30:soft-hitnormal.wav
329,192,24535,1,0,0:0:0:30:soft-hitnormal.wav
36,192,24619,1,0,0:0:0:30:soft-hitnormal.wav
402,192,24619,1,0,0:0:0:30:soft-hitnormal.wav
182,192,24703,1,0,0:0:0:30:soft-hitnormal.wav
256,192,24703,1,0,0:0:0:30:soft-hitnormal.wav
329,192,24787,1,0,0:0:0:30:soft-hitnormal.wav
109,192,24787,1,0,0:0:0:30:soft-hitnormal.wav
402,192,24871,1,0,0:0:0:30:soft-hitnormal.wav
475,192,24871,1,0,0:0:0:30:soft-hitnormal.wav
36,192,24871,1,0,0:0:0:30:soft-hitnormal.wav
36,192,25039,128,0,26132:0:0:0:30:soft-hitnormal.wav
109,192,25039,128,0,26132:0:0:0:30:soft-hitnormal.wav
256,192,25039,1,0,0:0:0:30:soft-hitnormal.wav
329,192,25039,1,0,0:0:0:30:soft-hitnormal.wav
402,192,25123,1,0,0:0:0:30:soft-hitnormal.wav
475,192,25207,1,0,0:0:0:30:soft-hitnormal.wav
182,192,25207,1,0,0:0:0:30:soft-hitnormal.wav
256,192,25291,1,0,0:0:0:30:soft-hitnormal.wav
329,192,25375,1,0,0:0:0:30:soft-hitnormal.wav
475,192,25375,1,0,0:0:0:30:soft-hitnormal.wav
182,192,25459,1,0,0:0:0:30:soft-hitnormal.wav
256,192,25543,1,0,0:0:0:30:soft-hitnormal.wav
402,192,25543,1,0,0:0:0:30:soft-hitnormal.wav
475,192,25627,1,0,0:0:0:30:soft-hitnormal.wav
182,192,25712,1,0,0:0:0:30:soft-hitnormal.wav
329,192,25712,1,0,0:0:0:30:soft-hitnormal.wav
402,192,25796,1,0,0:0:0:30:soft-hitnormal.wav
475,192,25880,1,0,0:0:0:30:soft-hitnormal.wav
256,192,25880,1,0,0:0:0:30:soft-hitnormal.wav
329,192,25964,1,0,0:0:0:30:soft-hitnormal.wav
182,192,26048,1,0,0:0:0:30:soft-hitnormal.wav
402,192,26048,1,0,0:0:0:30:soft-hitnormal.wav
256,192,26132,1,0,0:0:0:30:soft-hitnormal.wav
475,192,26132,1,0,0:0:0:30:soft-hitnormal.wav
109,192,26216,1,0,0:0:0:30:soft-hitnormal.wav
36,192,26216,1,0,0:0:0:30:soft-hitnormal.wav
329,192,26216,1,0,0:0:0:30:soft-hitnormal.wav
256,192,26300,1,0,0:0:0:30:soft-hitnormal.wav
182,192,26384,1,0,0:0:0:30:soft-hitnormal.wav
109,192,26384,1,0,0:0:0:30:soft-hitnormal.wav
402,192,26384,1,0,0:0:0:30:soft-hitnormal.wav
329,192,26468,1,0,0:0:0:30:soft-hitnormal.wav
36,192,26468,1,0,0:0:0:30:soft-hitnormal.wav
256,192,26552,1,0,0:0:0:30:soft-hitnormal.wav
182,192,26552,1,0,0:0:0:30:soft-hitnormal.wav
475,192,26552,1,0,0:0:0:30:soft-hitnormal.wav
402,192,26636,1,0,0:0:0:30:soft-hitnormal.wav
109,192,26636,1,0,0:0:0:30:soft-hitnormal.wav
256,192,26720,1,0,0:0:0:30:soft-hitnormal.wav
329,192,26720,1,0,0:0:0:30:soft-hitnormal.wav
36,192,26720,1,0,0:0:0:30:soft-hitnormal.wav
475,192,26804,1,0,0:0:0:30:soft-hitnormal.wav
182,192,26804,1,0,0:0:0:30:soft-hitnormal.wav
329,192,26888,1,0,0:0:0:30:soft-hitnormal.wav
402,192,26888,1,0,0:0:0:30:soft-hitnormal.wav
109,192,26888,1,0,0:0:0:30:soft-hitnormal.wav
256,192,26972,1,0,0:0:0:30:soft-hitnormal.wav
402,192,27056,1,0,0:0:0:30:soft-hitnormal.wav
475,192,27056,1,0,0:0:0:30:soft-hitnormal.wav
182,192,27056,1,0,0:0:0:30:soft-hitnormal.wav
109,192,27140,1,0,0:0:0:30:soft-hitnormal.wav
329,192,27140,1,0,0:0:0:30:soft-hitnormal.wav
36,192,27224,1,0,0:0:0:30:soft-hitnormal.wav
256,192,27224,1,0,0:0:0:30:soft-hitnormal.wav
475,192,27224,1,0,0:0:0:30:soft-hitnormal.wav
329,192,27392,1,0,0:0:0:30:soft-hitnormal.wav
182,192,27392,1,0,0:0:0:30:soft-hitnormal.wav
36,192,27392,1,0,0:0:0:30:soft-hitnormal.wav
475,192,27392,1,0,0:0:0:30:soft-hitnormal.wav
329,192,27560,128,0,27728:0:0:0:30:soft-hitnormal.wav
182,192,27560,128,0,27728:0:0:0:30:soft-hitnormal.wav
36,192,27560,128,0,27812:0:0:0:30:soft-hitnormal.wav
475,192,27560,128,0,27728:0:0:0:30:soft-hitnormal.wav
329,192,27812,1,0,0:0:0:30:soft-hitnormal.wav
182,192,27812,1,0,0:0:0:30:soft-hitnormal.wav
475,192,27812,1,0,0:0:0:30:soft-hitnormal.wav
109,192,27812,1,0,0:0:0:30:soft-hitnormal.wav
475,192,28064,128,0,28485:0:0:0:30:soft-hitnormal.wav
329,192,28064,128,0,28485:0:0:0:30:soft-hitnormal.wav
109,192,28064,128,0,28485:0:0:0:30:soft-hitnormal.wav
182,192,28064,128,0,28569:0:0:0:30:soft-hitnormal.wav
36,192,28064,1,0,0:0:0:30:soft-hitnormal.wav
475,192,28569,1,0,0:0:0:30:soft-hitnormal.wav
329,192,28569,1,0,0:0:0:30:soft-hitnormal.wav
109,192,28569,1,0,0:0:0:30:soft-hitnormal.wav
256,192,28653,1,0,0:0:0:30:soft-hitnormal.wav
36,192,28653,1,0,0:0:0:30:soft-hitnormal.wav
402,192,28737,1,0,0:0:0:30:soft-hitnormal.wav
475,192,28737,1,0,0:0:0:30:soft-hitnormal.wav
182,192,28737,1,0,0:0:0:30:soft-hitnormal.wav
109,192,28821,1,0,0:0:0:30:soft-hitnormal.wav
329,192,28821,1,0,0:0:0:30:soft-hitnormal.wav
36,192,28905,1,0,0:0:0:30:soft-hitnormal.wav
256,192,28905,1,0,0:0:0:30:soft-hitnormal.wav
475,192,28905,1,0,0:0:0:30:soft-hitnormal.wav
36,192,29073,1,0,0:0:0:30:soft-hitnormal.wav
109,192,29073,1,0,0:0:0:30:soft-hitnormal.wav
329,192,29073,1,0,0:0:0:30:soft-hitnormal.wav
256,192,29073,1,0,0:0:0:30:soft-hitnormal.wav
36,192,29241,1,0,0:0:0:30:soft-hitnormal.wav
182,192,29241,1,0,0:0:0:30:soft-hitnormal.wav
475,192,29241,1,0,0:0:0:30:soft-hitnormal.wav
256,192,29241,1,0,0:0:0:30:soft-hitnormal.wav
36,192,29409,1,0,0:0:0:30:soft-hitnormal.wav
329,192,29409,1,0,0:0:0:30:soft-hitnormal.wav
256,192,29409,1,0,0:0:0:30:soft-hitnormal.wav
109,192,29409,1,0,0:0:0:30:soft-hitnormal.wav
36,192,29577,1,0,0:0:0:30:soft-hitnormal.wav
256,192,29577,1,0,0:0:0:30:soft-hitnormal.wav
182,192,29577,1,0,0:0:0:30:soft-hitnormal.wav
402,192,29577,1,0,0:0:0:30:soft-hitnormal.wav
256,192,29745,1,0,0:0:0:30:soft-hitnormal.wav
329,192,29745,1,0,0:0:0:30:soft-hitnormal.wav
475,192,29745,1,0,0:0:0:30:soft-hitnormal.wav
109,192,29745,1,0,0:0:0:30:soft-hitnormal.wav
475,192,29913,1,0,0:0:0:30:soft-hitnormal.wav
329,192,29913,1,0,0:0:0:30:soft-hitnormal.wav
402,192,29913,1,0,0:0:0:30:soft-hitnormal.wav
182,192,29913,1,0,0:0:0:30:soft-hitnormal.wav
109,192,29969,1,0,0:0:0:30:soft-hitnormal.wav
36,192,30025,1,0,0:0:0:30:soft-hitnormal.wav
329,192,30081,1,0,0:0:0:30:soft-hitnormal.wav
402,192,30081,1,0,0:0:0:30:soft-hitnormal.wav
475,192,30081,1,0,0:0:0:30:soft-hitnormal.wav
256,192,30081,1,0,0:0:0:30:soft-hitnormal.wav
182,192,30137,1,0,0:0:0:30:soft-hitnormal.wav
109,192,30193,1,0,0:0:0:30:soft-hitnormal.wav
36,192,30249,1,0,0:0:0:30:soft-hitnormal.wav
475,192,30249,1,0,0:0:0:30:soft-hitnormal.wav
329,192,30249,1,0,0:0:0:30:soft-hitnormal.wav
402,192,30249,1,0,0:0:0:30:soft-hitnormal.wav
329,192,30417,1,0,0:0:0:30:soft-hitnormal.wav
402,192,30417,1,0,0:0:0:30:soft-hitnormal.wav
256,192,30417,128,0,31594:0:0:0:30:soft-hitnormal.wav
182,192,30501,1,0,0:0:0:30:soft-hitnormal.wav
36,192,30585,1,0,0:0:0:30:soft-hitnormal.wav
475,192,30585,1,0,0:0:0:30:soft-hitnormal.wav
329,192,30670,1,0,0:0:0:30:soft-hitnormal.wav
182,192,30754,1,0,0:0:0:30:soft-hitnormal.wav
109,192,30754,1,0,0:0:0:30:soft-hitnormal.wav
36,192,30754,128,0,30838:0:0:0:30:soft-hitnormal.wav
402,192,30838,1,0,0:0:0:30:soft-hitnormal.wav
329,192,30838,128,0,30922:0:0:0:30:soft-hitnormal.wav
109,192,30922,1,0,0:0:0:30:soft-hitnormal.wav
182,192,30922,128,0,31006:0:0:0:30:soft-hitnormal.wav
475,192,31006,1,0,0:0:0:30:soft-hitnormal.wav
402,192,31006,128,0,31090:0:0:0:30:soft-hitnormal.wav
109,192,31090,1,0,0:0:0:30:soft-hitnormal.wav
36,192,31090,128,0,31174:0:0:0:30:soft-hitnormal.wav
329,192,31174,1,0,0:0:0:30:soft-hitnormal.wav
475,192,31174,128,0,31258:0:0:0:30:soft-hitnormal.wav
182,192,31258,1,0,0:0:0:30:soft-hitnormal.wav
109,192,31258,128,0,31342:0:0:0:30:soft-hitnormal.wav
402,192,31342,1,0,0:0:0:30:soft-hitnormal.wav
329,192,31342,128,0,31426:0:0:0:30:soft-hitnormal.wav
36,192,31426,1,0,0:0:0:30:soft-hitnormal.wav
182,192,31426,128,0,31510:0:0:0:30:soft-hitnormal.wav
402,192,31510,1,0,0:0:0:30:soft-hitnormal.wav
329,192,31510,1,0,0:0:0:30:soft-hitnormal.wav
475,192,31510,128,0,31594:0:0:0:30:soft-hitnormal.wav
109,192,31594,1,0,0:0:0:30:soft-hitnormal.wav
36,192,31594,1,0,0:0:0:30:soft-hitnormal.wav
329,192,31678,1,0,0:0:0:30:soft-hitnormal.wav
182,192,31762,1,0,0:0:0:30:soft-hitnormal.wav
329,192,31846,1,0,0:0:0:30:soft-hitnormal.wav
475,192,31930,1,0,0:0:0:30:soft-hitnormal.wav
36,192,31930,1,0,0:0:0:30:soft-hitnormal.wav
182,192,31930,1,0,0:0:0:30:soft-hitnormal.wav
402,192,31930,1,0,0:0:0:30:soft-hitnormal.wav
109,192,32098,1,0,0:0:0:30:soft-hitnormal.wav
475,192,32098,1,0,0:0:0:30:soft-hitnormal.wav
256,192,32098,1,0,0:0:0:30:soft-hitnormal.wav
182,192,32266,1,0,0:0:0:30:soft-hitnormal.wav
475,192,32266,1,0,0:0:0:30:soft-hitnormal.wav
329,192,32266,1,0,0:0:0:30:soft-hitnormal.wav
36,192,32266,1,0,0:0:0:30:soft-hitnormal.wav
475,192,32434,1,0,0:0:0:30:soft-hitnormal.wav
402,192,32434,1,0,0:0:0:30:soft-hitnormal.wav
256,192,32434,1,0,0:0:0:30:soft-hitnormal.wav
475,192,32602,1,0,0:0:0:30:soft-hitnormal.wav
329,192,32602,1,0,0:0:0:30:soft-hitnormal.wav
182,192,32602,1,0,0:0:0:30:soft-hitnormal.wav
109,192,32602,1,0,0:0:0:30:soft-hitnormal.wav
36,192,32686,1,0,0:0:0:30:soft-hitnormal.wav
402,192,32770,1,0,0:0:0:30:soft-hitnormal.wav
256,192,32770,1,0,0:0:0:30:soft-hitnormal.wav
109,192,32854,1,0,0:0:0:30:soft-hitnormal.wav
329,192,32938,1,0,0:0:0:30:soft-hitnormal.wav
182,192,32938,1,0,0:0:0:30:soft-hitnormal.wav
475,192,32938,1,0,0:0:0:30:soft-hitnormal.wav
36,192,33106,128,0,33611:0:0:0:30:soft-hitnormal.wav
182,192,33106,128,0,33611:0:0:0:30:soft-hitnormal.wav
402,192,33106,1,0,0:0:0:30:soft-hitnormal.wav
256,192,33106,1,0,0:0:0:30:soft-hitnormal.wav
402,192,33275,1,0,0:0:0:30:soft-hitnormal.wav
256,192,33275,1,0,0:0:0:30:soft-hitnormal.wav
329,192,33443,1,0,0:0:0:30:soft-hitnormal.wav
475,192,33443,1,0,0:0:0:30:soft-hitnormal.wav
256,192,33527,1,0,0:0:0:30:soft-hitnormal.wav
402,192,33611,1,0,0:0:0:30:soft-hitnormal.wav
109,192,33611,1,0,0:0:0:30:soft-hitnormal.wav
256,192,33779,1,0,0:0:0:30:soft-hitnormal.wav
475,192,33779,1,0,0:0:0:30:soft-hitnormal.wav
182,192,33863,1,0,0:0:0:30:soft-hitnormal.wav
109,192,33947,1,0,0:0:0:30:soft-hitnormal.wav
402,192,33947,1,0,0:0:0:30:soft-hitnormal.wav
256,192,34031,1,0,0:0:0:30:soft-hitnormal.wav
36,192,34115,1,0,0:0:0:30:soft-hitnormal.wav
182,192,34115,1,0,0:0:0:30:soft-hitnormal.wav
329,192,34199,1,0,0:0:0:30:soft-hitnormal.wav
256,192,34283,1,0,0:0:0:30:soft-hitnormal.wav
109,192,34283,1,0,0:0:0:30:soft-hitnormal.wav
475,192,34283,1,0,0:0:0:30:soft-hitnormal.wav
36,192,34367,1,0,0:0:0:30:soft-hitnormal.wav
402,192,34367,1,0,0:0:0:30:soft-hitnormal.wav
182,192,34451,1,0,0:0:0:30:soft-hitnormal.wav
329,192,34451,1,0,0:0:0:30:soft-hitnormal.wav
109,192,34535,1,0,0:0:0:30:soft-hitnormal.wav
475,192,34535,1,0,0:0:0:30:soft-hitnormal.wav
256,192,34619,1,0,0:0:0:30:soft-hitnormal.wav
402,192,34619,1,0,0:0:0:30:soft-hitnormal.wav
182,192,34703,1,0,0:0:0:30:soft-hitnormal.wav
329,192,34787,1,0,0:0:0:30:soft-hitnormal.wav
475,192,34787,1,0,0:0:0:30:soft-hitnormal.wav
109,192,34787,1,0,0:0:0:30:soft-hitnormal.wav
36,192,34787,1,0,0:0:0:30:soft-hitnormal.wav
402,192,34955,1,0,0:0:0:30:soft-hitnormal.wav
256,192,34955,1,0,0:0:0:30:soft-hitnormal.wav
109,192,34955,1,0,0:0:0:30:soft-hitnormal.wav
36,192,34955,1,0,0:0:0:30:soft-hitnormal.wav
329,192,35123,1,0,0:0:0:30:soft-hitnormal.wav
182,192,35123,1,0,0:0:0:30:soft-hitnormal.wav
109,192,35291,1,0,0:0:0:30:soft-hitnormal.wav
256,192,35291,1,0,0:0:0:30:soft-hitnormal.wav
329,192,35291,1,0,0:0:0:30:soft-hitnormal.wav
475,192,35375,1,0,0:0:0:30:soft-hitnormal.wav
402,192,35375,1,0,0:0:0:30:soft-hitnormal.wav
36,192,35459,1,0,0:0:0:30:soft-hitnormal.wav
182,192,35459,1,0,0:0:0:30:soft-hitnormal.wav
329,192,35543,1,0,0:0:0:30:soft-hitnormal.wav
402,192,35543,1,0,0:0:0:30:soft-hitnormal.wav
109,192,35627,1,0,0:0:0:30:soft-hitnormal.wav
182,192,35627,1,0,0:0:0:30:soft-hitnormal.wav
256,192,35627,1,0,0:0:0:30:soft-hitnormal.wav
475,192,35712,1,0,0:0:0:30:soft-hitnormal.wav
36,192,35796,1,0,0:0:0:30:soft-hitnormal.wav
402,192,35796,1,0,0:0:0:30:soft-hitnormal.wav
109,192,35880,1,0,0:0:0:30:soft-hitnormal.wav
182,192,35964,1,0,0:0:0:30:soft-hitnormal.wav
329,192,35964,1,0,0:0:0:30:soft-hitnormal.wav
475,192,36048,1,0,0:0:0:30:soft-hitnormal.wav
109,192,36132,1,0,0:0:0:30:soft-hitnormal.wav
256,192,36132,1,0,0:0:0:30:soft-hitnormal.wav
402,192,36216,1,0,0:0:0:30:soft-hitnormal.wav
36,192,36300,1,0,0:0:0:30:soft-hitnormal.wav
182,192,36300,1,0,0:0:0:30:soft-hitnormal.wav
256,192,36384,1,0,0:0:0:30:soft-hitnormal.wav
329,192,36468,1,0,0:0:0:30:soft-hitnormal.wav
475,192,36468,1,0,0:0:0:30:soft-hitnormal.wav
182,192,36552,1,0,0:0:0:30:soft-hitnormal.wav
256,192,36636,1,0,0:0:0:30:soft-hitnormal.wav
402,192,36636,1,0,0:0:0:30:soft-hitnormal.wav
36,192,36636,1,0,0:0:0:30:soft-hitnormal.wav
475,192,36720,1,0,0:0:0:30:soft-hitnormal.wav
109,192,36720,1,0,0:0:0:30:soft-hitnormal.wav
182,192,36804,1,0,0:0:0:30:soft-hitnormal.wav
329,192,36804,1,0,0:0:0:30:soft-hitnormal.wav
402,192,36804,1,0,0:0:0:30:soft-hitnormal.wav
36,192,36888,1,0,0:0:0:30:soft-hitnormal.wav
256,192,36888,1,0,0:0:0:30:soft-hitnormal.wav
109,192,36972,1,0,0:0:0:30:soft-hitnormal.wav
475,192,36972,1,0,0:0:0:30:soft-hitnormal.wav
402,192,36972,1,0,0:0:0:30:soft-hitnormal.wav
475,192,37308,1,0,0:0:0:30:soft-hitnormal.wav
329,192,37392,1,0,0:0:0:30:soft-hitnormal.wav
182,192,37476,1,0,0:0:0:30:soft-hitnormal.wav
36,192,37560,1,0,0:0:0:30:soft-hitnormal.wav
402,192,37644,1,0,0:0:0:30:soft-hitnormal.wav
256,192,37644,1,0,0:0:0:30:soft-hitnormal.wav
109,192,37728,1,0,0:0:0:30:soft-hitnormal.wav
329,192,37812,1,0,0:0:0:30:soft-hitnormal.wav
475,192,37868,1,0,0:0:0:30:soft-hitnormal.wav
182,192,37924,1,0,0:0:0:30:soft-hitnormal.wav
36,192,37980,1,0,0:0:0:30:soft-hitnormal.wav
402,192,37980,1,0,0:0:0:30:soft-hitnormal.wav
109,192,38064,1,0,0:0:0:30:soft-hitnormal.wav
329,192,38064,1,0,0:0:0:30:soft-hitnormal.wav
182,192,38148,1,0,0:0:0:30:soft-hitnormal.wav
475,192,38148,1,0,0:0:0:30:soft-hitnormal.wav
36,192,38233,1,0,0:0:0:30:soft-hitnormal.wav
329,192,38233,1,0,0:0:0:30:soft-hitnormal.wav
182,192,38317,1,0,0:0:0:30:soft-hitnormal.wav
402,192,38317,1,0,0:0:0:30:soft-hitnormal.wav
109,192,38317,1,0,0:0:0:30:soft-hitnormal.wav
475,192,38317,1,0,0:0:0:30:soft-hitnormal.wav
256,192,38485,1,0,0:0:0:30:soft-hitnormal.wav
36,192,38569,1,0,0:0:0:30:soft-hitnormal.wav
329,192,38653,1,0,0:0:0:30:soft-hitnormal.wav
36,192,38821,1,0,0:0:0:30:soft-hitnormal.wav
182,192,38821,1,0,0:0:0:30:soft-hitnormal.wav
475,192,38905,1,0,0:0:0:30:soft-hitnormal.wav
256,192,38989,1,0,0:0:0:30:soft-hitnormal.wav
329,192,39157,1,0,0:0:0:30:soft-hitnormal.wav
182,192,39325,1,0,0:0:0:30:soft-hitnormal.wav
475,192,39409,1,0,0:0:0:30:soft-hitnormal.wav
109,192,39493,1,0,0:0:0:30:soft-hitnormal.wav
402,192,39577,1,0,0:0:0:30:soft-hitnormal.wav
36,192,39661,1,0,0:0:0:30:soft-hitnormal.wav
182,192,39829,1,0,0:0:0:30:soft-hitnormal.wav
329,192,39913,1,0,0:0:0:30:soft-hitnormal.wav
475,192,39997,1,0,0:0:0:30:soft-hitnormal.wav
109,192,40165,1,0,0:0:0:30:soft-hitnormal.wav
182,192,40165,1,0,0:0:0:30:soft-hitnormal.wav
329,192,40333,1,0,0:0:0:30:soft-hitnormal.wav
36,192,40417,1,0,0:0:0:30:soft-hitnormal.wav
402,192,40501,1,0,0:0:0:30:soft-hitnormal.wav
109,192,40585,1,0,0:0:0:30:soft-hitnormal.wav
475,192,40670,1,0,0:0:0:30:soft-hitnormal.wav
36,192,40838,1,0,0:0:0:30:soft-hitnormal.wav
182,192,40922,1,0,0:0:0:30:soft-hitnormal.wav
329,192,41006,1,0,0:0:0:30:soft-hitnormal.wav
475,192,41006,1,0,0:0:0:30:soft-hitnormal.wav
109,192,41258,1,0,0:0:0:30:soft-hitnormal.wav
256,192,41258,1,0,0:0:0:30:soft-hitnormal.wav
402,192,41342,1,0,0:0:0:30:soft-hitnormal.wav
36,192,41510,1,0,0:0:0:30:soft-hitnormal.wav
182,192,41510,1,0,0:0:0:30:soft-hitnormal.wav
402,192,41678,1,0,0:0:0:30:soft-hitnormal.wav
256,192,41762,1,0,0:0:0:30:soft-hitnormal.wav
109,192,41846,1,0,0:0:0:30:soft-hitnormal.wav
329,192,42014,1,0,0:0:0:30:soft-hitnormal.wav
182,192,42182,1,0,0:0:0:30:soft-hitnormal.wav
36,192,42266,1,0,0:0:0:30:soft-hitnormal.wav
256,192,42350,1,0,0:0:0:30:soft-hitnormal.wav
109,192,42434,1,0,0:0:0:30:soft-hitnormal.wav
329,192,42518,1,0,0:0:0:30:soft-hitnormal.wav
182,192,42602,1,0,0:0:0:30:soft-hitnormal.wav
402,192,42686,1,0,0:0:0:30:soft-hitnormal.wav
256,192,42770,1,0,0:0:0:30:soft-hitnormal.wav
475,192,42854,1,0,0:0:0:30:soft-hitnormal.wav
329,192,42938,1,0,0:0:0:30:soft-hitnormal.wav
36,192,43106,1,0,0:0:0:30:soft-hitnormal.wav
329,192,43191,1,0,0:0:0:30:soft-hitnormal.wav
109,192,43275,1,0,0:0:0:30:soft-hitnormal.wav
402,192,43359,1,0,0:0:0:30:soft-hitnormal.wav
182,192,43443,1,0,0:0:0:30:soft-hitnormal.wav
475,192,43527,1,0,0:0:0:30:soft-hitnormal.wav
256,192,43611,1,0,0:0:0:30:soft-hitnormal.wav
402,192,43695,1,0,0:0:0:30:soft-hitnormal.wav
109,192,43695,1,0,0:0:0:30:soft-hitnormal.wav
256,192,43863,1,0,0:0:0:30:soft-hitnormal.wav
402,192,43947,1,0,0:0:0:30:soft-hitnormal.wav
182,192,44031,1,0,0:0:0:30:soft-hitnormal.wav
329,192,44031,1,0,0:0:0:30:soft-hitnormal.wav
36,192,44199,1,0,0:0:0:30:soft-hitnormal.wav
475,192,44199,1,0,0:0:0:30:soft-hitnormal.wav
109,192,44367,1,0,0:0:0:30:soft-hitnormal.wav
256,192,44451,1,0,0:0:0:30:soft-hitnormal.wav
182,192,44535,1,0,0:0:0:30:soft-hitnormal.wav
402,192,44535,1,0,0:0:0:30:soft-hitnormal.wav
36,192,44703,1,0,0:0:0:30:soft-hitnormal.wav
475,192,44703,1,0,0:0:0:30:soft-hitnormal.wav
329,192,44787,1,0,0:0:0:30:soft-hitnormal.wav
109,192,44871,1,0,0:0:0:30:soft-hitnormal.wav
402,192,44955,1,0,0:0:0:30:soft-hitnormal.wav
182,192,45039,1,0,0:0:0:30:soft-hitnormal.wav
475,192,45039,1,0,0:0:0:30:soft-hitnormal.wav
256,192,45291,1,0,0:0:0:30:soft-hitnormal.wav
402,192,45291,1,0,0:0:0:30:soft-hitnormal.wav
109,192,45375,1,0,0:0:0:30:soft-hitnormal.wav
329,192,45543,1,0,0:0:0:30:soft-hitnormal.wav
475,192,45543,1,0,0:0:0:30:soft-hitnormal.wav
402,192,45880,1,0,0:0:0:30:soft-hitnormal.wav
256,192,45880,1,0,0:0:0:30:soft-hitnormal.wav
182,192,46048,1,0,0:0:0:30:soft-hitnormal.wav
329,192,46048,1,0,0:0:0:30:soft-hitnormal.wav
109,192,46216,1,0,0:0:0:30:soft-hitnormal.wav
256,192,46216,1,0,0:0:0:30:soft-hitnormal.wav
36,192,46384,1,0,0:0:0:30:soft-hitnormal.wav
182,192,46384,1,0,0:0:0:30:soft-hitnormal.wav
109,192,46636,1,0,0:0:0:30:soft-hitnormal.wav
256,192,46636,1,0,0:0:0:30:soft-hitnormal.wav
402,192,46720,1,0,0:0:0:30:soft-hitnormal.wav
36,192,46888,1,0,0:0:0:30:soft-hitnormal.wav
329,192,46888,1,0,0:0:0:30:soft-hitnormal.wav
109,192,47056,1,0,0:0:0:30:soft-hitnormal.wav
256,192,47140,1,0,0:0:0:30:soft-hitnormal.wav
402,192,47224,1,0,0:0:0:30:soft-hitnormal.wav
36,192,47392,1,0,0:0:0:30:soft-hitnormal.wav
329,192,47476,1,0,0:0:0:30:soft-hitnormal.wav
109,192,47560,1,0,0:0:0:30:soft-hitnormal.wav
402,192,47644,1,0,0:0:0:30:soft-hitnormal.wav
182,192,47728,1,0,0:0:0:30:soft-hitnormal.wav
256,192,47728,1,0,0:0:0:30:soft-hitnormal.wav
475,192,47896,1,0,0:0:0:30:soft-hitnormal.wav
329,192,47980,1,0,0:0:0:30:soft-hitnormal.wav
182,192,48064,1,0,0:0:0:30:soft-hitnormal.wav
36,192,48064,1,0,0:0:0:30:soft-hitnormal.wav
36,192,48233,1,0,0:0:0:30:soft-hitnormal.wav
182,192,48317,1,0,0:0:0:30:soft-hitnormal.wav
329,192,48401,1,0,0:0:0:30:soft-hitnormal.wav
475,192,48401,1,0,0:0:0:30:soft-hitnormal.wav
402,192,48569,1,0,0:0:0:30:soft-hitnormal.wav
109,192,48737,1,0,0:0:0:30:soft-hitnormal.wav
256,192,48737,1,0,0:0:0:30:soft-hitnormal.wav
402,192,48821,1,0,0:0:0:30:soft-hitnormal.wav
36,192,48905,1,0,0:0:0:30:soft-hitnormal.wav
182,192,48905,1,0,0:0:0:30:soft-hitnormal.wav
329,192,48989,1,0,0:0:0:30:soft-hitnormal.wav
475,192,48989,1,0,0:0:0:30:soft-hitnormal.wav
256,192,49073,1,0,0:0:0:30:soft-hitnormal.wav
109,192,49073,1,0,0:0:0:30:soft-hitnormal.wav
36,192,49073,1,0,0:0:0:30:soft-hitnormal.wav
329,192,49241,1,0,0:0:0:30:soft-hitnormal.wav
475,192,49325,1,0,0:0:0:30:soft-hitnormal.wav
182,192,49409,1,0,0:0:0:30:soft-hitnormal.wav
329,192,49577,1,0,0:0:0:30:soft-hitnormal.wav
475,192,49577,1,0,0:0:0:30:soft-hitnormal.wav
182,192,49661,1,0,0:0:0:30:soft-hitnormal.wav
36,192,49745,1,0,0:0:0:30:soft-hitnormal.wav
256,192,49913,1,0,0:0:0:30:soft-hitnormal.wav
402,192,50081,1,0,0:0:0:30:soft-hitnormal.wav
329,192,50081,1,0,0:0:0:30:soft-hitnormal.wav
402,192,50165,1,0,0:0:0:30:soft-hitnormal.wav
256,192,50249,1,0,0:0:0:30:soft-hitnormal.wav
109,192,50333,1,0,0:0:0:30:soft-hitnormal.wav
329,192,50417,1,0,0:0:0:30:soft-hitnormal.wav
475,192,50417,1,0,0:0:0:30:soft-hitnormal.wav
36,192,50585,1,0,0:0:0:30:soft-hitnormal.wav
182,192,50670,1,0,0:0:0:30:soft-hitnormal.wav
329,192,50754,1,0,0:0:0:30:soft-hitnormal.wav
475,192,50754,1,0,0:0:0:30:soft-hitnormal.wav
109,192,50922,1,0,0:0:0:30:soft-hitnormal.wav
256,192,51090,1,0,0:0:0:30:soft-hitnormal.wav
402,192,51090,1,0,0:0:0:30:soft-hitnormal.wav
109,192,51174,1,0,0:0:0:30:soft-hitnormal.wav
329,192,51258,1,0,0:0:0:30:soft-hitnormal.wav
182,192,51342,1,0,0:0:0:30:soft-hitnormal.wav
36,192,51426,1,0,0:0:0:30:soft-hitnormal.wav
475,192,51426,1,0,0:0:0:30:soft-hitnormal.wav
109,192,51594,1,0,0:0:0:30:soft-hitnormal.wav
256,192,51678,1,0,0:0:0:30:soft-hitnormal.wav
402,192,51762,1,0,0:0:0:30:soft-hitnormal.wav
475,192,51762,1,0,0:0:0:30:soft-hitnormal.wav
36,192,52014,1,0,0:0:0:30:soft-hitnormal.wav
182,192,52014,1,0,0:0:0:30:soft-hitnormal.wav
329,192,52098,1,0,0:0:0:30:soft-hitnormal.wav
109,192,52266,1,0,0:0:0:30:soft-hitnormal.wav
256,192,52266,1,0,0:0:0:30:soft-hitnormal.wav
475,192,52434,1,0,0:0:0:30:soft-hitnormal.wav
329,192,52518,1,0,0:0:0:30:soft-hitnormal.wav
182,192,52602,1,0,0:0:0:30:soft-hitnormal.wav
256,192,52770,1,0,0:0:0:30:soft-hitnormal.wav
402,192,52770,1,0,0:0:0:30:soft-hitnormal.wav
36,192,52938,1,0,0:0:0:30:soft-hitnormal.wav
182,192,52938,1,0,0:0:0:30:soft-hitnormal.wav
329,192,53022,1,0,0:0:0:30:soft-hitnormal.wav
475,192,53106,1,0,0:0:0:30:soft-hitnormal.wav
109,192,53191,1,0,0:0:0:30:soft-hitnormal.wav
256,192,53275,1,0,0:0:0:30:soft-hitnormal.wav
402,192,53359,1,0,0:0:0:30:soft-hitnormal.wav
36,192,53443,1,0,0:0:0:30:soft-hitnormal.wav
182,192,53527,1,0,0:0:0:30:soft-hitnormal.wav
329,192,53611,1,0,0:0:0:30:soft-hitnormal.wav
475,192,53695,1,0,0:0:0:30:soft-hitnormal.wav
402,192,53863,1,0,0:0:0:30:soft-hitnormal.wav
256,192,53947,1,0,0:0:0:30:soft-hitnormal.wav
109,192,54031,1,0,0:0:0:30:soft-hitnormal.wav
475,192,54115,1,0,0:0:0:30:soft-hitnormal.wav
329,192,54199,1,0,0:0:0:30:soft-hitnormal.wav
182,192,54283,1,0,0:0:0:30:soft-hitnormal.wav
36,192,54367,1,0,0:0:0:30:soft-hitnormal.wav
256,192,54451,1,0,0:0:0:30:soft-hitnormal.wav
402,192,54451,1,0,0:0:0:30:soft-hitnormal.wav
109,192,54619,1,0,0:0:0:30:soft-hitnormal.wav
329,192,54703,1,0,0:0:0:30:soft-hitnormal.wav
182,192,54787,1,0,0:0:0:30:soft-hitnormal.wav
256,192,54955,1,0,0:0:0:30:soft-hitnormal.wav
475,192,54955,1,0,0:0:0:30:soft-hitnormal.wav
182,192,55123,1,0,0:0:0:30:soft-hitnormal.wav
329,192,55207,1,0,0:0:0:30:soft-hitnormal.wav
109,192,55291,1,0,0:0:0:30:soft-hitnormal.wav
256,192,55291,1,0,0:0:0:30:soft-hitnormal.wav
36,192,55459,1,0,0:0:0:30:soft-hitnormal.wav
182,192,55459,1,0,0:0:0:30:soft-hitnormal.wav
402,192,55543,1,0,0:0:0:30:soft-hitnormal.wav
109,192,55627,1,0,0:0:0:30:soft-hitnormal.wav
256,192,55627,1,0,0:0:0:30:soft-hitnormal.wav
475,192,55712,1,0,0:0:0:30:soft-hitnormal.wav
182,192,55796,1,0,0:0:0:30:soft-hitnormal.wav
329,192,55796,1,0,0:0:0:30:soft-hitnormal.wav
256,192,56048,1,0,0:0:0:30:soft-hitnormal.wav
402,192,56048,1,0,0:0:0:30:soft-hitnormal.wav
109,192,56132,1,0,0:0:0:30:soft-hitnormal.wav
182,192,56300,1,0,0:0:0:30:soft-hitnormal.wav
475,192,56300,1,0,0:0:0:30:soft-hitnormal.wav
109,192,56468,1,0,0:0:0:30:soft-hitnormal.wav
256,192,56552,1,0,0:0:0:30:soft-hitnormal.wav
402,192,56636,1,0,0:0:0:30:soft-hitnormal.wav
36,192,56804,1,0,0:0:0:30:soft-hitnormal.wav
182,192,56888,1,0,0:0:0:30:soft-hitnormal.wav
329,192,56972,5,0,0:0:0:30:soft-hitnormal.wav
475,192,57056,1,0,0:0:0:30:soft-hitnormal.wav
109,192,57140,1,0,0:0:0:30:soft-hitnormal.wav
256,192,57140,1,0,0:0:0:30:soft-hitnormal.wav
182,192,57392,1,0,0:0:0:30:soft-hitnormal.wav
402,192,57392,1,0,0:0:0:30:soft-hitnormal.wav
36,192,57476,1,0,0:0:0:30:soft-hitnormal.wav
475,192,57644,1,0,0:0:0:30:soft-hitnormal.wav
329,192,57644,1,0,0:0:0:30:soft-hitnormal.wav
109,192,57812,1,0,0:0:0:30:soft-hitnormal.wav
256,192,57896,1,0,0:0:0:30:soft-hitnormal.wav
402,192,57980,1,0,0:0:0:30:soft-hitnormal.wav
329,192,58148,5,0,0:0:0:30:soft-hitnormal.wav
475,192,58148,1,0,0:0:0:30:soft-hitnormal.wav
182,192,58148,1,0,0:0:0:30:soft-hitnormal.wav
109,192,58233,1,0,0:0:0:30:soft-hitnormal.wav
256,192,58317,1,0,0:0:0:30:soft-hitnormal.wav
402,192,58317,1,0,0:0:0:30:soft-hitnormal.wav
36,192,58401,1,0,0:0:0:30:soft-hitnormal.wav
182,192,58485,1,0,0:0:0:30:soft-hitnormal.wav
329,192,58485,1,0,0:0:0:30:soft-hitnormal.wav
475,192,58653,5,0,0:0:0:30:soft-hitnormal.wav
402,192,58653,1,0,0:0:0:30:soft-hitnormal.wav
329,192,58737,5,0,0:0:0:30:soft-hitnormal.wav
256,192,58737,1,0,0:0:0:30:soft-hitnormal.wav
36,192,58821,5,0,0:0:0:30:soft-hitnormal.wav
109,192,58821,1,0,0:0:0:30:soft-hitnormal.wav
182,192,58821,1,0,0:0:0:30:soft-hitnormal.wav
36,192,58989,5,0,0:0:0:30:soft-hitnormal.wav
109,192,58989,1,0,0:0:0:30:soft-hitnormal.wav
182,192,58989,1,0,0:0:0:30:soft-hitnormal.wav
329,192,59157,5,0,0:0:0:30:soft-hitnormal.wav
402,192,59157,1,0,0:0:0:30:soft-hitnormal.wav
475,192,59157,1,0,0:0:0:30:soft-hitnormal.wav
109,192,59241,1,0,0:0:0:30:soft-hitnormal.wav
182,192,59241,1,0,0:0:0:30:soft-hitnormal.wav
36,192,59241,1,0,0:0:0:30:soft-hitnormal.wav
256,192,59325,1,0,0:0:0:30:soft-hitnormal.wav
329,192,59325,1,0,0:0:0:30:soft-hitnormal.wav
402,192,59325,1,0,0:0:0:30:soft-hitnormal.wav
109,192,59409,1,0,0:0:0:30:soft-hitnormal.wav
182,192,59409,1,0,0:0:0:30:soft-hitnormal.wav
36,192,59409,1,0,0:0:0:30:soft-hitnormal.wav
329,192,59493,1,0,0:0:0:30:soft-hitnormal.wav
402,192,59493,1,0,0:0:0:30:soft-hitnormal.wav
475,192,59493,1,0,0:0:0:30:soft-hitnormal.wav
182,192,59577,1,0,0:0:0:30:soft-hitnormal.wav
256,192,59577,1,0,0:0:0:30:soft-hitnormal.wav
109,192,59577,1,0,0:0:0:30:soft-hitnormal.wav
329,192,59661,1,0,0:0:0:30:soft-hitnormal.wav
402,192,59661,1,0,0:0:0:30:soft-hitnormal.wav
475,192,59661,1,0,0:0:0:30:soft-hitnormal.wav
109,192,59745,1,0,0:0:0:30:soft-hitnormal.wav
182,192,59745,1,0,0:0:0:30:soft-hitnormal.wav
36,192,59745,1,0,0:0:0:30:soft-hitnormal.wav
256,192,59829,1,0,0:0:0:30:soft-hitnormal.wav
329,192,59829,1,0,0:0:0:30:soft-hitnormal.wav
475,192,59829,1,0,0:0:0:30:soft-hitnormal.wav
402,192,59829,1,0,0:0:0:30:soft-hitnormal.wav
36,192,59997,1,0,0:0:0:30:soft-hitnormal.wav
182,192,59997,1,0,0:0:0:30:soft-hitnormal.wav
109,192,60081,1,0,0:0:0:30:soft-hitnormal.wav
256,192,60081,1,0,0:0:0:30:soft-hitnormal.wav
475,192,60165,1,0,0:0:0:30:soft-hitnormal.wav
329,192,60165,1,0,0:0:0:30:soft-hitnormal.wav
182,192,60165,1,0,0:0:0:30:soft-hitnormal.wav
36,192,60333,1,0,0:0:0:30:soft-hitnormal.wav
109,192,60333,1,0,0:0:0:30:soft-hitnormal.wav
256,192,60333,1,0,0:0:0:30:soft-hitnormal.wav
182,192,60501,1,0,0:0:0:30:soft-hitnormal.wav
329,192,60501,1,0,0:0:0:30:soft-hitnormal.wav
475,192,60501,1,0,0:0:0:30:soft-hitnormal.wav
109,192,60670,1,0,0:0:0:30:soft-hitnormal.wav
402,192,60670,1,0,0:0:0:30:soft-hitnormal.wav
36,192,60670,1,0,0:0:0:30:soft-hitnormal.wav
182,192,60838,1,0,0:0:0:30:soft-hitnormal.wav
256,192,60838,1,0,0:0:0:30:soft-hitnormal.wav
475,192,60838,1,0,0:0:0:30:soft-hitnormal.wav
36,192,61006,1,0,0:0:0:30:soft-hitnormal.wav
329,192,61006,1,0,0:0:0:30:soft-hitnormal.wav
402,192,61006,1,0,0:0:0:30:soft-hitnormal.wav
256,192,61090,1,0,0:0:0:30:soft-hitnormal.wav
182,192,61174,1,0,0:0:0:30:soft-hitnormal.wav
109,192,61174,1,0,0:0:0:30:soft-hitnormal.wav
475,192,61174,1,0,0:0:0:30:soft-hitnormal.wav
402,192,61258,1,0,0:0:0:30:soft-hitnormal.wav
329,192,61342,1,0,0:0:0:30:soft-hitnormal.wav
36,192,61342,1,0,0:0:0:30:soft-hitnormal.wav
109,192,61426,1,0,0:0:0:30:soft-hitnormal.wav
402,192,61426,1,0,0:0:0:30:soft-hitnormal.wav
182,192,61510,1,0,0:0:0:30:soft-hitnormal.wav
475,192,61510,1,0,0:0:0:30:soft-hitnormal.wav
256,192,61594,1,0,0:0:0:30:soft-hitnormal.wav
36,192,61594,1,0,0:0:0:30:soft-hitnormal.wav
329,192,61678,1,0,0:0:0:30:soft-hitnormal.wav
109,192,61678,1,0,0:0:0:30:soft-hitnormal.wav
182,192,61762,1,0,0:0:0:30:soft-hitnormal.wav
475,192,61762,1,0,0:0:0:30:soft-hitnormal.wav
402,192,61846,1,0,0:0:0:30:soft-hitnormal.wav
109,192,61846,1,0,0:0:0:30:soft-hitnormal.wav
329,192,61930,1,0,0:0:0:30:soft-hitnormal.wav
36,192,61930,1,0,0:0:0:30:soft-hitnormal.wav
256,192,62014,1,0,0:0:0:30:soft-hitnormal.wav
182,192,62014,1,0,0:0:0:30:soft-hitnormal.wav
109,192,62098,1,0,0:0:0:30:soft-hitnormal.wav
475,192,62098,1,0,0:0:0:30:soft-hitnormal.wav
329,192,62182,1,0,0:0:0:30:soft-hitnormal.wav
36,192,62182,1,0,0:0:0:30:soft-hitnormal.wav
402,192,62266,1,0,0:0:0:30:soft-hitnormal.wav
182,192,62266,1,0,0:0:0:30:soft-hitnormal.wav
475,192,62350,1,0,0:0:0:30:soft-hitnormal.wav
256,192,62350,1,0,0:0:0:30:soft-hitnormal.wav
329,192,62434,1,0,0:0:0:30:soft-hitnormal.wav
109,192,62434,1,0,0:0:0:30:soft-hitnormal.wav
36,192,62518,1,0,0:0:0:30:soft-hitnormal.wav
402,192,62518,1,0,0:0:0:30:soft-hitnormal.wav
182,192,62518,1,0,0:0:0:30:soft-hitnormal.wav
475,192,62686,1,0,0:0:0:30:soft-hitnormal.wav
256,192,62686,1,0,0:0:0:30:soft-hitnormal.wav
36,192,62686,1,0,0:0:0:30:soft-hitnormal.wav
109,192,62686,1,0,0:0:0:30:soft-hitnormal.wav
402,192,62686,1,0,0:0:0:30:soft-hitnormal.wav
182,192,62854,1,0,0:0:0:30:soft-hitnormal.wav
329,192,62854,1,0,0:0:0:30:soft-hitnormal.wav
109,192,62854,1,0,0:0:0:30:soft-hitnormal.wav
36,192,63022,1,0,0:0:0:30:soft-hitnormal.wav
256,192,63022,1,0,0:0:0:30:soft-hitnormal.wav
402,192,63022,1,0,0:0:0:30:soft-hitnormal.wav
475,192,63022,1,0,0:0:0:30:soft-hitnormal.wav
329,192,63191,1,0,0:0:0:30:soft-hitnormal.wav
402,192,63191,1,0,0:0:0:30:soft-hitnormal.wav
36,192,63359,1,0,0:0:0:30:soft-hitnormal.wav
109,192,63359,1,0,0:0:0:30:soft-hitnormal.wav
256,192,63359,1,0,0:0:0:30:soft-hitnormal.wav
475,192,63359,1,0,0:0:0:30:soft-hitnormal.wav
109,192,63527,1,0,0:0:0:30:soft-hitnormal.wav
182,192,63527,1,0,0:0:0:30:soft-hitnormal.wav
329,192,63527,1,0,0:0:0:30:soft-hitnormal.wav
256,192,63695,1,0,0:0:0:30:soft-hitnormal.wav
402,192,63695,1,0,0:0:0:30:soft-hitnormal.wav
36,192,63695,1,0,0:0:0:30:soft-hitnormal.wav
109,192,63751,1,0,0:0:0:30:soft-hitnormal.wav
329,192,63807,1,0,0:0:0:30:soft-hitnormal.wav
36,192,63863,128,0,64367:0:0:0:30:soft-hitnormal.wav
182,192,63863,128,0,64115:0:0:0:30:soft-hitnormal.wav
402,192,63863,128,0,64367:0:0:0:30:soft-hitnormal.wav
475,192,63863,128,0,64367:0:0:0:30:soft-hitnormal.wav
109,192,64115,128,0,64367:0:0:0:30:soft-hitnormal.wav
256,192,64115,128,0,64367:0:0:0:30:soft-hitnormal.wav
182,192,64367,1,0,0:0:0:30:soft-hitnormal.wav
329,192,64367,1,0,0:0:0:30:soft-hitnormal.wav
36,192,64535,1,0,0:0:0:30:soft-hitnormal.wav
109,192,64535,1,0,0:0:0:30:soft-hitnormal.wav
256,192,64535,1,0,0:0:0:30:soft-hitnormal.wav
402,192,64535,1,0,0:0:0:30:soft-hitnormal.wav
475,192,64535,1,0,0:0:0:30:soft-hitnormal.wav
182,192,64703,1,0,0:0:0:30:soft-hitnormal.wav
329,192,64703,1,0,0:0:0:30:soft-hitnormal.wav
402,192,64703,1,0,0:0:0:30:soft-hitnormal.wav
109,192,64787,1,0,0:0:0:30:soft-hitnormal.wav
475,192,64787,1,0,0:0:0:30:soft-hitnormal.wav
36,192,64871,1,0,0:0:0:30:soft-hitnormal.wav
256,192,64871,1,0,0:0:0:30:soft-hitnormal.wav
329,192,64871,1,0,0:0:0:30:soft-hitnormal.wav
402,192,64955,1,0,0:0:0:30:soft-hitnormal.wav
109,192,64955,1,0,0:0:0:30:soft-hitnormal.wav
475,192,65039,1,0,0:0:0:30:soft-hitnormal.wav
182,192,65039,1,0,0:0:0:30:soft-hitnormal.wav
256,192,65039,1,0,0:0:0:30:soft-hitnormal.wav
329,192,65123,1,0,0:0:0:30:soft-hitnormal.wav
36,192,65123,1,0,0:0:0:30:soft-hitnormal.wav
402,192,65207,1,0,0:0:0:30:soft-hitnormal.wav
109,192,65207,1,0,0:0:0:30:soft-hitnormal.wav
182,192,65207,1,0,0:0:0:30:soft-hitnormal.wav
36,192,65375,1,0,0:0:0:30:soft-hitnormal.wav
256,192,65375,1,0,0:0:0:30:soft-hitnormal.wav
475,192,65375,1,0,0:0:0:30:soft-hitnormal.wav
182,192,65375,1,0,0:0:0:30:soft-hitnormal.wav
329,192,65375,1,0,0:0:0:30:soft-hitnormal.wav
109,192,65543,1,0,0:0:0:30:soft-hitnormal.wav
182,192,65543,1,0,0:0:0:30:soft-hitnormal.wav
402,192,65543,1,0,0:0:0:30:soft-hitnormal.wav
36,192,65712,1,0,0:0:0:30:soft-hitnormal.wav
256,192,65712,1,0,0:0:0:30:soft-hitnormal.wav
329,192,65712,1,0,0:0:0:30:soft-hitnormal.wav
475,192,65712,1,0,0:0:0:30:soft-hitnormal.wav
329,192,65880,1,0,0:0:0:30:soft-hitnormal.wav
402,192,65880,1,0,0:0:0:30:soft-hitnormal.wav
109,192,65880,1,0,0:0:0:30:soft-hitnormal.wav
36,192,66048,1,0,0:0:0:30:soft-hitnormal.wav
182,192,66048,1,0,0:0:0:30:soft-hitnormal.wav
256,192,66048,1,0,0:0:0:30:soft-hitnormal.wav
475,192,66048,1,0,0:0:0:30:soft-hitnormal.wav
109,192,66216,1,0,0:0:0:30:soft-hitnormal.wav
182,192,66216,1,0,0:0:0:30:soft-hitnormal.wav
402,192,66216,1,0,0:0:0:30:soft-hitnormal.wav
256,192,66384,1,0,0:0:0:30:soft-hitnormal.wav
475,192,66384,1,0,0:0:0:30:soft-hitnormal.wav
329,192,66384,1,0,0:0:0:30:soft-hitnormal.wav
182,192,66468,1,0,0:0:0:30:soft-hitnormal.wav
109,192,66552,1,0,0:0:0:30:soft-hitnormal.wav
402,192,66552,128,0,66888:0:0:0:30:soft-hitnormal.wav
36,192,66552,1,0,0:0:0:30:soft-hitnormal.wav
182,192,66720,1,0,0:0:0:30:soft-hitnormal.wav
329,192,66720,1,0,0:0:0:30:soft-hitnormal.wav
256,192,66888,128,0,67224:0:0:0:30:soft-hitnormal.wav
36,192,66888,1,0,0:0:0:30:soft-hitnormal.wav
475,192,66888,1,0,0:0:0:30:soft-hitnormal.wav
109,192,66888,1,0,0:0:0:30:soft-hitnormal.wav
402,192,67056,1,0,0:0:0:30:soft-hitnormal.wav
475,192,67056,1,0,0:0:0:30:soft-hitnormal.wav
109,192,67224,128,0,67476:0:0:0:30:soft-hitnormal.wav
36,192,67224,1,0,0:0:0:30:soft-hitnormal.wav
182,192,67224,1,0,0:0:0:30:soft-hitnormal.wav
329,192,67224,1,0,0:0:0:30:soft-hitnormal.wav
256,192,67392,1,0,0:0:0:30:soft-hitnormal.wav
402,192,67392,1,0,0:0:0:30:soft-hitnormal.wav
475,192,67476,128,0,67728:0:0:0:30:soft-hitnormal.wav
182,192,67560,1,0,0:0:0:30:soft-hitnormal.wav
329,192,67560,1,0,0:0:0:30:soft-hitnormal.wav
36,192,67560,1,0,0:0:0:30:soft-hitnormal.wav
109,192,67728,128,0,67896:0:0:0:30:soft-hitnormal.wav
256,192,67728,1,0,0:0:0:30:soft-hitnormal.wav
402,192,67728,1,0,0:0:0:30:soft-hitnormal.wav
182,192,67812,1,0,0:0:0:30:soft-hitnormal.wav
36,192,67896,1,0,0:0:0:30:soft-hitnormal.wav
329,192,67896,1,0,0:0:0:30:soft-hitnormal.wav
475,192,67896,1,0,0:0:0:30:soft-hitnormal.wav
402,192,67896,1,0,0:0:0:30:soft-hitnormal.wav
36,192,68064,1,0,0:0:0:30:soft-hitnormal.wav
109,192,68064,1,0,0:0:0:30:soft-hitnormal.wav
256,192,68064,1,0,0:0:0:30:soft-hitnormal.wav
402,192,68064,1,0,0:0:0:30:soft-hitnormal.wav
475,192,68064,1,0,0:0:0:30:soft-hitnormal.wav
182,192,68233,1,0,0:0:0:30:soft-hitnormal.wav
329,192,68233,1,0,0:0:0:30:soft-hitnormal.wav
109,192,68233,1,0,0:0:0:30:soft-hitnormal.wav
36,192,68401,1,0,0:0:0:30:soft-hitnormal.wav
256,192,68401,1,0,0:0:0:30:soft-hitnormal.wav
402,192,68401,1,0,0:0:0:30:soft-hitnormal.wav
475,192,68401,1,0,0:0:0:30:soft-hitnormal.wav
329,192,68569,1,0,0:0:0:30:soft-hitnormal.wav
402,192,68569,1,0,0:0:0:30:soft-hitnormal.wav
182,192,68569,1,0,0:0:0:30:soft-hitnormal.wav
36,192,68737,1,0,0:0:0:30:soft-hitnormal.wav
109,192,68737,1,0,0:0:0:30:soft-hitnormal.wav
256,192,68737,1,0,0:0:0:30:soft-hitnormal.wav
475,192,68737,1,0,0:0:0:30:soft-hitnormal.wav
109,192,68905,1,0,0:0:0:30:soft-hitnormal.wav
182,192,68905,1,0,0:0:0:30:soft-hitnormal.wav
329,192,68905,1,0,0:0:0:30:soft-hitnormal.wav
329,192,69073,1,0,0:0:0:30:soft-hitnormal.wav
402,192,69073,1,0,0:0:0:30:soft-hitnormal.wav
36,192,69073,1,0,0:0:0:30:soft-hitnormal.wav
109,192,69073,1,0,0:0:0:30:soft-hitnormal.wav
475,192,69073,1,0,0:0:0:30:soft-hitnormal.wav
329,192,69157,1,0,0:0:0:30:soft-hitnormal.wav
402,192,69157,1,0,0:0:0:30:soft-hitnormal.wav
475,192,69157,1,0,0:0:0:30:soft-hitnormal.wav
182,192,69241,1,0,0:0:0:30:soft-hitnormal.wav
256,192,69241,1,0,0:0:0:30:soft-hitnormal.wav
109,192,69241,128,0,69493:0:0:0:30:soft-hitnormal.wav
402,192,69577,128,0,69829:0:0:0:30:soft-hitnormal.wav
36,192,69577,1,0,0:0:0:30:soft-hitnormal.wav
109,192,69577,1,0,0:0:0:30:soft-hitnormal.wav
256,192,69577,1,0,0:0:0:30:soft-hitnormal.wav
475,192,69577,1,0,0:0:0:30:soft-hitnormal.wav
109,192,69913,128,0,70165:0:0:0:30:soft-hitnormal.wav
36,192,69913,1,0,0:0:0:30:soft-hitnormal.wav
256,192,69913,1,0,0:0:0:30:soft-hitnormal.wav
402,192,69913,1,0,0:0:0:30:soft-hitnormal.wav
475,192,69913,1,0,0:0:0:30:soft-hitnormal.wav
36,192,70249,1,0,0:0:0:30:soft-hitnormal.wav
256,192,70249,1,0,0:0:0:30:soft-hitnormal.wav
109,192,70333,1,0,0:0:0:30:soft-hitnormal.wav
329,192,70333,1,0,0:0:0:30:soft-hitnormal.wav
182,192,70417,1,0,0:0:0:30:soft-hitnormal.wav
402,192,70417,1,0,0:0:0:30:soft-hitnormal.wav
475,192,70501,1,0,0:0:0:30:soft-hitnormal.wav
256,192,70501,1,0,0:0:0:30:soft-hitnormal.wav
329,192,70585,1,0,0:0:0:30:soft-hitnormal.wav
109,192,70585,1,0,0:0:0:30:soft-hitnormal.wav
36,192,70585,1,0,0:0:0:30:soft-hitnormal.wav
182,192,70670,1,0,0:0:0:30:soft-hitnormal.wav
256,192,70754,1,0,0:0:0:30:soft-hitnormal.wav
402,192,70754,1,0,0:0:0:30:soft-hitnormal.wav
109,192,70838,1,0,0:0:0:30:soft-hitnormal.wav
182,192,70922,1,0,0:0:0:30:soft-hitnormal.wav
329,192,70922,1,0,0:0:0:30:soft-hitnormal.wav
475,192,70922,1,0,0:0:0:30:soft-hitnormal.wav
36,192,71006,1,0,0:0:0:30:soft-hitnormal.wav
256,192,71090,1,0,0:0:0:30:soft-hitnormal.wav
109,192,71090,1,0,0:0:0:30:soft-hitnormal.wav
475,192,71174,1,0,0:0:0:30:soft-hitnormal.wav
402,192,71258,1,0,0:0:0:30:soft-hitnormal.wav
182,192,71258,1,0,0:0:0:30:soft-hitnormal.wav
36,192,71258,1,0,0:0:0:30:soft-hitnormal.wav
256,192,71342,1,0,0:0:0:30:soft-hitnormal.wav
475,192,71426,1,0,0:0:0:30:soft-hitnormal.wav
109,192,71426,1,0,0:0:0:30:soft-hitnormal.wav
182,192,71510,1,0,0:0:0:30:soft-hitnormal.wav
256,192,71594,1,0,0:0:0:30:soft-hitnormal.wav
402,192,71594,1,0,0:0:0:30:soft-hitnormal.wav
36,192,71594,1,0,0:0:0:30:soft-hitnormal.wav
109,192,71678,1,0,0:0:0:30:soft-hitnormal.wav
182,192,71762,1,0,0:0:0:30:soft-hitnormal.wav
329,192,71762,1,0,0:0:0:30:soft-hitnormal.wav
402,192,71846,1,0,0:0:0:30:soft-hitnormal.wav
475,192,71930,1,0,0:0:0:30:soft-hitnormal.wav
256,192,71930,1,0,0:0:0:30:soft-hitnormal.wav
109,192,71930,1,0,0:0:0:30:soft-hitnormal.wav
36,192,71930,1,0,0:0:0:30:soft-hitnormal.wav
329,192,72098,1,0,0:0:0:30:soft-hitnormal.wav
109,192,72098,1,0,0:0:0:30:soft-hitnormal.wav
182,192,72182,1,0,0:0:0:30:soft-hitnormal.wav
256,192,72266,1,0,0:0:0:30:soft-hitnormal.wav
36,192,72266,1,0,0:0:0:30:soft-hitnormal.wav
402,192,72266,1,0,0:0:0:30:soft-hitnormal.wav
329,192,72434,1,0,0:0:0:30:soft-hitnormal.wav
475,192,72434,1,0,0:0:0:30:soft-hitnormal.wav
256,192,72602,1,0,0:0:0:30:soft-hitnormal.wav
402,192,72602,1,0,0:0:0:30:soft-hitnormal.wav
36,192,72602,1,0,0:0:0:30:soft-hitnormal.wav
109,192,72602,1,0,0:0:0:30:soft-hitnormal.wav
182,192,72770,1,0,0:0:0:30:soft-hitnormal.wav
329,192,72770,1,0,0:0:0:30:soft-hitnormal.wav
109,192,72938,1,0,0:0:0:30:soft-hitnormal.wav
256,192,72938,1,0,0:0:0:30:soft-hitnormal.wav
475,192,72938,1,0,0:0:0:30:soft-hitnormal.wav
402,192,72938,1,0,0:0:0:30:soft-hitnormal.wav
36,192,73106,1,0,0:0:0:30:soft-hitnormal.wav
182,192,73106,1,0,0:0:0:30:soft-hitnormal.wav
109,192,73275,1,0,0:0:0:30:soft-hitnormal.wav
329,192,73275,1,0,0:0:0:30:soft-hitnormal.wav
36,192,73443,1,0,0:0:0:30:soft-hitnormal.wav
109,192,73443,1,0,0:0:0:30:soft-hitnormal.wav
402,192,73443,1,0,0:0:0:30:soft-hitnormal.wav
475,192,73443,1,0,0:0:0:30:soft-hitnormal.wav
256,192,73443,1,0,0:0:0:30:soft-hitnormal.wav
182,192,73611,1,0,0:0:0:30:soft-hitnormal.wav
329,192,73611,1,0,0:0:0:30:soft-hitnormal.wav
36,192,73779,1,0,0:0:0:30:soft-hitnormal.wav
256,192,73779,1,0,0:0:0:30:soft-hitnormal.wav
402,192,73779,1,0,0:0:0:30:soft-hitnormal.wav
329,192,73947,1,0,0:0:0:30:soft-hitnormal.wav
475,192,73947,1,0,0:0:0:30:soft-hitnormal.wav
182,192,73947,1,0,0:0:0:30:soft-hitnormal.wav
109,192,73947,1,0,0:0:0:30:soft-hitnormal.wav
256,192,74059,1,0,0:0:0:30:soft-hitnormal.wav
402,192,74059,1,0,0:0:0:30:soft-hitnormal.wav
109,192,74115,1,0,0:0:0:30:soft-hitnormal.wav
36,192,74115,1,0,0:0:0:30:soft-hitnormal.wav
182,192,74171,1,0,0:0:0:30:soft-hitnormal.wav
329,192,74171,1,0,0:0:0:30:soft-hitnormal.wav
475,192,74283,1,0,0:0:0:30:soft-hitnormal.wav
402,192,74283,1,0,0:0:0:30:soft-hitnormal.wav
36,192,74283,1,0,0:0:0:30:soft-hitnormal.wav
256,192,74283,1,0,0:0:0:30:soft-hitnormal.wav
182,192,74395,1,0,0:0:0:30:soft-hitnormal.wav
329,192,74395,1,0,0:0:0:30:soft-hitnormal.wav
109,192,74451,1,0,0:0:0:30:soft-hitnormal.wav
36,192,74451,1,0,0:0:0:30:soft-hitnormal.wav
402,192,74507,1,0,0:0:0:30:soft-hitnormal.wav
256,192,74507,1,0,0:0:0:30:soft-hitnormal.wav
109,192,74619,1,0,0:0:0:30:soft-hitnormal.wav
256,192,74619,1,0,0:0:0:30:soft-hitnormal.wav
402,192,74619,1,0,0:0:0:30:soft-hitnormal.wav
36,192,74787,1,0,0:0:0:30:soft-hitnormal.wav
182,192,74787,1,0,0:0:0:30:soft-hitnormal.wav
109,192,74955,1,0,0:0:0:30:soft-hitnormal.wav
256,192,74955,1,0,0:0:0:30:soft-hitnormal.wav
402,192,74955,1,0,0:0:0:30:soft-hitnormal.wav
475,192,74955,1,0,0:0:0:30:soft-hitnormal.wav
182,192,75123,1,0,0:0:0:30:soft-hitnormal.wav
329,192,75123,1,0,0:0:0:30:soft-hitnormal.wav
36,192,75291,1,0,0:0:0:30:soft-hitnormal.wav
109,192,75291,1,0,0:0:0:30:soft-hitnormal.wav
256,192,75291,1,0,0:0:0:30:soft-hitnormal.wav
402,192,75291,1,0,0:0:0:30:soft-hitnormal.wav
475,192,75291,1,0,0:0:0:30:soft-hitnormal.wav
182,192,75459,1,0,0:0:0:30:soft-hitnormal.wav
109,192,75459,1,0,0:0:0:30:soft-hitnormal.wav
402,192,75459,1,0,0:0:0:30:soft-hitnormal.wav
329,192,75543,1,0,0:0:0:30:soft-hitnormal.wav
256,192,75627,1,0,0:0:0:30:soft-hitnormal.wav
182,192,75627,1,0,0:0:0:30:soft-hitnormal.wav
475,192,75627,1,0,0:0:0:30:soft-hitnormal.wav
402,192,75712,1,0,0:0:0:30:soft-hitnormal.wav
109,192,75712,1,0,0:0:0:30:soft-hitnormal.wav
329,192,75796,1,0,0:0:0:30:soft-hitnormal.wav
256,192,75796,1,0,0:0:0:30:soft-hitnormal.wav
36,192,75796,1,0,0:0:0:30:soft-hitnormal.wav
475,192,75880,1,0,0:0:0:30:soft-hitnormal.wav
182,192,75880,1,0,0:0:0:30:soft-hitnormal.wav
402,192,75964,1,0,0:0:0:30:soft-hitnormal.wav
329,192,75964,1,0,0:0:0:30:soft-hitnormal.wav
109,192,75964,1,0,0:0:0:30:soft-hitnormal.wav
256,192,76048,1,0,0:0:0:30:soft-hitnormal.wav
36,192,76132,1,0,0:0:0:30:soft-hitnormal.wav
109,192,76132,1,0,0:0:0:30:soft-hitnormal.wav
182,192,76132,1,0,0:0:0:30:soft-hitnormal.wav
329,192,76216,1,0,0:0:0:30:soft-hitnormal.wav
402,192,76216,1,0,0:0:0:30:soft-hitnormal.wav
475,192,76216,1,0,0:0:0:30:soft-hitnormal.wav
182,192,76300,1,0,0:0:0:30:soft-hitnormal.wav
109,192,76300,1,0,0:0:0:30:soft-hitnormal.wav
36,192,76300,1,0,0:0:0:30:soft-hitnormal.wav
256,192,76468,1,0,0:0:0:30:soft-hitnormal.wav
329,192,76468,1,0,0:0:0:30:soft-hitnormal.wav
402,192,76468,1,0,0:0:0:30:soft-hitnormal.wav
475,192,76468,1,0,0:0:0:30:soft-hitnormal.wav
36,192,76468,1,0,0:0:0:30:soft-hitnormal.wav
329,192,76636,1,0,0:0:0:30:soft-hitnormal.wav
109,192,76636,1,0,0:0:0:30:soft-hitnormal.wav
182,192,76804,1,0,0:0:0:30:soft-hitnormal.wav
402,192,76804,1,0,0:0:0:30:soft-hitnormal.wav
475,192,76972,1,0,0:0:0:30:soft-hitnormal.wav
256,192,76972,1,0,0:0:0:30:soft-hitnormal.wav
36,192,76972,1,0,0:0:0:30:soft-hitnormal.wav
182,192,77056,1,0,0:0:0:30:soft-hitnormal.wav
109,192,77140,1,0,0:0:0:30:soft-hitnormal.wav
329,192,77140,1,0,0:0:0:30:soft-hitnormal.wav
256,192,77224,1,0,0:0:0:30:soft-hitnormal.wav
182,192,77308,1,0,0:0:0:30:soft-hitnormal.wav
402,192,77308,1,0,0:0:0:30:soft-hitnormal.wav
475,192,77308,1,0,0:0:0:30:soft-hitnormal.wav
36,192,77392,1,0,0:0:0:30:soft-hitnormal.wav
256,192,77476,1,0,0:0:0:30:soft-hitnormal.wav
329,192,77476,1,0,0:0:0:30:soft-hitnormal.wav
109,192,77560,1,0,0:0:0:30:soft-hitnormal.wav
329,192,77644,1,0,0:0:0:30:soft-hitnormal.wav
475,192,77644,1,0,0:0:0:30:soft-hitnormal.wav
402,192,77644,1,0,0:0:0:30:soft-hitnormal.wav
182,192,77728,1,0,0:0:0:30:soft-hitnormal.wav
402,192,77812,1,0,0:0:0:30:soft-hitnormal.wav
475,192,77812,1,0,0:0:0:30:soft-hitnormal.wav
256,192,77896,1,0,0:0:0:30:soft-hitnormal.wav
36,192,77980,1,0,0:0:0:30:soft-hitnormal.wav
109,192,77980,1,0,0:0:0:30:soft-hitnormal.wav
182,192,77980,1,0,0:0:0:30:soft-hitnormal.wav
329,192,78064,1,0,0:0:0:30:soft-hitnormal.wav
475,192,78148,1,0,0:0:0:30:soft-hitnormal.wav
109,192,78148,1,0,0:0:0:30:soft-hitnormal.wav
256,192,78233,1,0,0:0:0:30:soft-hitnormal.wav
402,192,78317,1,0,0:0:0:30:soft-hitnormal.wav
36,192,78317,1,0,0:0:0:30:soft-hitnormal.wav
182,192,78317,1,0,0:0:0:30:soft-hitnormal.wav
329,192,78401,1,0,0:0:0:30:soft-hitnormal.wav
256,192,78485,1,0,0:0:0:30:soft-hitnormal.wav
109,192,78485,1,0,0:0:0:30:soft-hitnormal.wav
402,192,78569,1,0,0:0:0:30:soft-hitnormal.wav
329,192,78653,1,0,0:0:0:30:soft-hitnormal.wav
182,192,78653,1,0,0:0:0:30:soft-hitnormal.wav
36,192,78653,1,0,0:0:0:30:soft-hitnormal.wav
475,192,78653,1,0,0:0:0:30:soft-hitnormal.wav
182,192,78821,1,0,0:0:0:30:soft-hitnormal.wav
329,192,78821,1,0,0:0:0:30:soft-hitnormal.wav
402,192,78821,1,0,0:0:0:30:soft-hitnormal.wav
109,192,78905,1,0,0:0:0:30:soft-hitnormal.wav
36,192,78989,1,0,0:0:0:30:soft-hitnormal.wav
402,192,78989,1,0,0:0:0:30:soft-hitnormal.wav
256,192,78989,1,0,0:0:0:30:soft-hitnormal.wav
475,192,78989,1,0,0:0:0:30:soft-hitnormal.wav
182,192,79157,1,0,0:0:0:30:soft-hitnormal.wav
329,192,79157,1,0,0:0:0:30:soft-hitnormal.wav
475,192,79157,1,0,0:0:0:30:soft-hitnormal.wav
36,192,79157,1,0,0:0:0:30:soft-hitnormal.wav
402,192,79325,1,0,0:0:0:30:soft-hitnormal.wav
182,192,79325,1,0,0:0:0:30:soft-hitnormal.wav
109,192,79325,1,0,0:0:0:30:soft-hitnormal.wav
256,192,79493,1,0,0:0:0:30:soft-hitnormal.wav
36,192,79493,1,0,0:0:0:30:soft-hitnormal.wav
475,192,79493,1,0,0:0:0:30:soft-hitnormal.wav
109,192,79493,1,0,0:0:0:30:soft-hitnormal.wav
329,192,79577,1,0,0:0:0:30:soft-hitnormal.wav
402,192,79661,1,0,0:0:0:30:soft-hitnormal.wav
182,192,79661,1,0,0:0:0:30:soft-hitnormal.wav
256,192,79745,1,0,0:0:0:30:soft-hitnormal.wav
329,192,79829,1,0,0:0:0:30:soft-hitnormal.wav
109,192,79829,1,0,0:0:0:30:soft-hitnormal.wav
182,192,79913,1,0,0:0:0:30:soft-hitnormal.wav
329,192,79997,1,0,0:0:0:30:soft-hitnormal.wav
402,192,79997,1,0,0:0:0:30:soft-hitnormal.wav
256,192,79997,1,0,0:0:0:30:soft-hitnormal.wav
329,192,80081,1,0,0:0:0:30:soft-hitnormal.wav
402,192,80081,1,0,0:0:0:30:soft-hitnormal.wav
109,192,80249,1,0,0:0:0:30:soft-hitnormal.wav
182,192,80249,1,0,0:0:0:30:soft-hitnormal.wav
36,192,80249,1,0,0:0:0:30:soft-hitnormal.wav
109,192,80417,1,0,0:0:0:30:soft-hitnormal.wav
182,192,80417,1,0,0:0:0:30:soft-hitnormal.wav
36,192,80417,1,0,0:0:0:30:soft-hitnormal.wav
329,192,80501,1,0,0:0:0:30:soft-hitnormal.wav
402,192,80501,1,0,0:0:0:30:soft-hitnormal.wav
475,192,80501,1,0,0:0:0:30:soft-hitnormal.wav
182,192,80670,1,0,0:0:0:30:soft-hitnormal.wav
109,192,80670,1,0,0:0:0:30:soft-hitnormal.wav
36,192,80670,1,0,0:0:0:30:soft-hitnormal.wav
256,192,80838,1,0,0:0:0:30:soft-hitnormal.wav
402,192,80838,1,0,0:0:0:30:soft-hitnormal.wav
475,192,80838,1,0,0:0:0:30:soft-hitnormal.wav
329,192,80838,1,0,0:0:0:30:soft-hitnormal.wav
36,192,80838,1,0,0:0:0:30:soft-hitnormal.wav
36,192,81006,1,0,0:0:0:30:soft-hitnormal.wav
256,192,81006,1,0,0:0:0:30:soft-hitnormal.wav
475,192,81006,1,0,0:0:0:30:soft-hitnormal.wav
109,192,81090,1,0,0:0:0:30:soft-hitnormal.wav
329,192,81090,1,0,0:0:0:30:soft-hitnormal.wav
182,192,81174,1,0,0:0:0:30:soft-hitnormal.wav
402,192,81174,1,0,0:0:0:30:soft-hitnormal.wav
109,192,81258,1,0,0:0:0:30:soft-hitnormal.wav
329,192,81258,1,0,0:0:0:30:soft-hitnormal.wav
36,192,81342,1,0,0:0:0:30:soft-hitnormal.wav
256,192,81342,1,0,0:0:0:30:soft-hitnormal.wav
475,192,81342,1,0,0:0:0:30:soft-hitnormal.wav
402,192,81510,128,0,82602:0:0:0:30:soft-hitnormal.wav
475,192,81510,128,0,82602:0:0:0:30:soft-hitnormal.wav
329,192,81510,1,0,0:0:0:30:soft-hitnormal.wav
109,192,81510,1,0,0:0:0:30:soft-hitnormal.wav
182,192,81594,1,0,0:0:0:30:soft-hitnormal.wav
256,192,81678,1,0,0:0:0:30:soft-hitnormal.wav
36,192,81678,1,0,0:0:0:30:soft-hitnormal.wav
329,192,81678,1,0,0:0:0:30:soft-hitnormal.wav
109,192,81762,1,0,0:0:0:30:soft-hitnormal.wav
182,192,81846,1,0,0:0:0:30:soft-hitnormal.wav
329,192,81846,1,0,0:0:0:30:soft-hitnormal.wav
109,192,81930,1,0,0:0:0:30:soft-hitnormal.wav
36,192,82014,1,0,0:0:0:30:soft-hitnormal.wav
256,192,82014,1,0,0:0:0:30:soft-hitnormal.wav
329,192,82014,1,0,0:0:0:30:soft-hitnormal.wav
182,192,82098,1,0,0:0:0:30:soft-hitnormal.wav
109,192,82182,1,0,0:0:0:30:soft-hitnormal.wav
329,192,82182,1,0,0:0:0:30:soft-hitnormal.wav
256,192,82266,1,0,0:0:0:30:soft-hitnormal.wav
182,192,82350,1,0,0:0:0:30:soft-hitnormal.wav
36,192,82350,1,0,0:0:0:30:soft-hitnormal.wav
109,192,82350,1,0,0:0:0:30:soft-hitnormal.wav
329,192,82434,1,0,0:0:0:30:soft-hitnormal.wav
109,192,82518,1,0,0:0:0:30:soft-hitnormal.wav
182,192,82518,1,0,0:0:0:30:soft-hitnormal.wav
256,192,82518,1,0,0:0:0:30:soft-hitnormal.wav
36,192,82602,1,0,0:0:0:30:soft-hitnormal.wav
475,192,82686,1,0,0:0:0:30:soft-hitnormal.wav
402,192,82686,1,0,0:0:0:30:soft-hitnormal.wav
182,192,82686,1,0,0:0:0:30:soft-hitnormal.wav
256,192,82770,1,0,0:0:0:30:soft-hitnormal.wav
36,192,82770,1,0,0:0:0:30:soft-hitnormal.wav
329,192,82854,1,0,0:0:0:30:soft-hitnormal.wav
402,192,82854,1,0,0:0:0:30:soft-hitnormal.wav
109,192,82854,1,0,0:0:0:30:soft-hitnormal.wav
182,192,82938,1,0,0:0:0:30:soft-hitnormal.wav
475,192,82938,1,0,0:0:0:30:soft-hitnormal.wav
256,192,83022,1,0,0:0:0:30:soft-hitnormal.wav
329,192,83022,1,0,0:0:0:30:soft-hitnormal.wav
36,192,83022,1,0,0:0:0:30:soft-hitnormal.wav
109,192,83106,1,0,0:0:0:30:soft-hitnormal.wav
402,192,83106,1,0,0:0:0:30:soft-hitnormal.wav
182,192,83191,1,0,0:0:0:30:soft-hitnormal.wav
256,192,83191,1,0,0:0:0:30:soft-hitnormal.wav
475,192,83191,1,0,0:0:0:30:soft-hitnormal.wav
36,192,83275,1,0,0:0:0:30:soft-hitnormal.wav
329,192,83275,1,0,0:0:0:30:soft-hitnormal.wav
109,192,83359,1,0,0:0:0:30:soft-hitnormal.wav
182,192,83359,1,0,0:0:0:30:soft-hitnormal.wav
402,192,83359,1,0,0:0:0:30:soft-hitnormal.wav
256,192,83443,1,0,0:0:0:30:soft-hitnormal.wav
475,192,83443,1,0,0:0:0:30:soft-hitnormal.wav
329,192,83527,1,0,0:0:0:30:soft-hitnormal.wav
36,192,83527,1,0,0:0:0:30:soft-hitnormal.wav
109,192,83527,1,0,0:0:0:30:soft-hitnormal.wav
182,192,83611,1,0,0:0:0:30:soft-hitnormal.wav
402,192,83611,1,0,0:0:0:30:soft-hitnormal.wav
256,192,83695,1,0,0:0:0:30:soft-hitnormal.wav
475,192,83695,1,0,0:0:0:30:soft-hitnormal.wav
36,192,83695,1,0,0:0:0:30:soft-hitnormal.wav
36,192,83863,1,0,0:0:0:30:soft-hitnormal.wav
109,192,83863,1,0,0:0:0:30:soft-hitnormal.wav
329,192,83863,1,0,0:0:0:30:soft-hitnormal.wav
402,192,83863,1,0,0:0:0:30:soft-hitnormal.wav
36,192,84031,128,0,84283:0:0:0:30:soft-hitnormal.wav
109,192,84031,128,0,84199:0:0:0:30:soft-hitnormal.wav
329,192,84031,128,0,84283:0:0:0:30:soft-hitnormal.wav
402,192,84031,128,0,84199:0:0:0:30:soft-hitnormal.wav
109,192,84283,1,0,0:0:0:30:soft-hitnormal.wav
182,192,84283,1,0,0:0:0:30:soft-hitnormal.wav
402,192,84283,1,0,0:0:0:30:soft-hitnormal.wav
475,192,84283,1,0,0:0:0:30:soft-hitnormal.wav
109,192,84535,128,0,84955:0:0:0:30:soft-hitnormal.wav
182,192,84535,128,0,84955:0:0:0:30:soft-hitnormal.wav
402,192,84535,128,0,85039:0:0:0:30:soft-hitnormal.wav
475,192,84535,128,0,85039:0:0:0:30:soft-hitnormal.wav
36,192,84535,1,0,0:0:0:30:soft-hitnormal.wav
109,192,85039,1,0,0:0:0:30:soft-hitnormal.wav
182,192,85039,1,0,0:0:0:30:soft-hitnormal.wav
256,192,85039,1,0,0:0:0:30:soft-hitnormal.wav
36,192,85123,1,0,0:0:0:30:soft-hitnormal.wav
402,192,85123,1,0,0:0:0:30:soft-hitnormal.wav
182,192,85207,1,0,0:0:0:30:soft-hitnormal.wav
256,192,85207,1,0,0:0:0:30:soft-hitnormal.wav
329,192,85207,1,0,0:0:0:30:soft-hitnormal.wav
109,192,85291,1,0,0:0:0:30:soft-hitnormal.wav
475,192,85291,1,0,0:0:0:30:soft-hitnormal.wav
256,192,85375,1,0,0:0:0:30:soft-hitnormal.wav
329,192,85375,1,0,0:0:0:30:soft-hitnormal.wav
402,192,85375,1,0,0:0:0:30:soft-hitnormal.wav
36,192,85375,1,0,0:0:0:30:soft-hitnormal.wav
36,192,85543,1,0,0:0:0:30:soft-hitnormal.wav
329,192,85543,1,0,0:0:0:30:soft-hitnormal.wav
402,192,85543,1,0,0:0:0:30:soft-hitnormal.wav
182,192,85543,1,0,0:0:0:30:soft-hitnormal.wav
329,192,85712,1,0,0:0:0:30:soft-hitnormal.wav
402,192,85712,1,0,0:0:0:30:soft-hitnormal.wav
109,192,85712,1,0,0:0:0:30:soft-hitnormal.wav
256,192,85712,1,0,0:0:0:30:soft-hitnormal.wav
329,192,85880,1,0,0:0:0:30:soft-hitnormal.wav
402,192,85880,1,0,0:0:0:30:soft-hitnormal.wav
36,192,85880,1,0,0:0:0:30:soft-hitnormal.wav
182,192,85880,1,0,0:0:0:30:soft-hitnormal.wav
109,192,86048,1,0,0:0:0:30:soft-hitnormal.wav
256,192,86048,1,0,0:0:0:30:soft-hitnormal.wav
329,192,86048,1,0,0:0:0:30:soft-hitnormal.wav
402,192,86048,1,0,0:0:0:30:soft-hitnormal.wav
182,192,86216,1,0,0:0:0:30:soft-hitnormal.wav
329,192,86216,1,0,0:0:0:30:soft-hitnormal.wav
475,192,86216,1,0,0:0:0:30:soft-hitnormal.wav
109,192,86216,1,0,0:0:0:30:soft-hitnormal.wav
402,192,86384,1,0,0:0:0:30:soft-hitnormal.wav
475,192,86384,1,0,0:0:0:30:soft-hitnormal.wav
256,192,86384,1,0,0:0:0:30:soft-hitnormal.wav
36,192,86384,1,0,0:0:0:30:soft-hitnormal.wav
109,192,86440,1,0,0:0:0:30:soft-hitnormal.wav
182,192,86496,1,0,0:0:0:30:soft-hitnormal.wav
475,192,86552,1,0,0:0:0:30:soft-hitnormal.wav
329,192,86552,1,0,0:0:0:30:soft-hitnormal.wav
402,192,86552,1,0,0:0:0:30:soft-hitnormal.wav
36,192,86552,1,0,0:0:0:30:soft-hitnormal.wav
109,192,86608,1,0,0:0:0:30:soft-hitnormal.wav
182,192,86664,1,0,0:0:0:30:soft-hitnormal.wav
256,192,86720,1,0,0:0:0:30:soft-hitnormal.wav
402,192,86720,1,0,0:0:0:30:soft-hitnormal.wav
475,192,86720,1,0,0:0:0:30:soft-hitnormal.wav
36,192,86720,1,0,0:0:0:30:soft-hitnormal.wav
256,192,86888,128,0,88064:0:0:0:30:soft-hitnormal.wav
109,192,86888,1,0,0:0:0:30:soft-hitnormal.wav
402,192,86888,1,0,0:0:0:30:soft-hitnormal.wav
329,192,86972,1,0,0:0:0:30:soft-hitnormal.wav
36,192,87056,1,0,0:0:0:30:soft-hitnormal.wav
475,192,87056,1,0,0:0:0:30:soft-hitnormal.wav
182,192,87140,1,0,0:0:0:30:soft-hitnormal.wav
475,192,87224,1,0,0:0:0:30:soft-hitnormal.wav
329,192,87224,1,0,0:0:0:30:soft-hitnormal.wav
402,192,87224,128,0,87308:0:0:0:30:soft-hitnormal.wav
182,192,87308,1,0,0:0:0:30:soft-hitnormal.wav
109,192,87308,128,0,87392:0:0:0:30:soft-hitnormal.wav
475,192,87392,1,0,0:0:0:30:soft-hitnormal.wav
329,192,87392,128,0,87476:0:0:0:30:soft-hitnormal.wav
182,192,87476,1,0,0:0:0:30:soft-hitnormal.wav
36,192,87476,128,0,87560:0:0:0:30:soft-hitnormal.wav
402,192,87560,1,0,0:0:0:30:soft-hitnormal.wav
475,192,87560,128,0,87644:0:0:0:30:soft-hitnormal.wav
109,192,87644,1,0,0:0:0:30:soft-hitnormal.wav
182,192,87644,128,0,87728:0:0:0:30:soft-hitnormal.wav
329,192,87728,1,0,0:0:0:30:soft-hitnormal.wav
402,192,87728,128,0,87812:0:0:0:30:soft-hitnormal.wav
36,192,87812,1,0,0:0:0:30:soft-hitnormal.wav
109,192,87812,128,0,87896:0:0:0:30:soft-hitnormal.wav
475,192,87896,1,0,0:0:0:30:soft-hitnormal.wav
329,192,87896,128,0,87980:0:0:0:30:soft-hitnormal.wav
182,192,87980,1,0,0:0:0:30:soft-hitnormal.wav
109,192,87980,1,0,0:0:0:30:soft-hitnormal.wav
36,192,87980,128,0,88064:0:0:0:30:soft-hitnormal.wav
402,192,88064,1,0,0:0:0:30:soft-hitnormal.wav
475,192,88064,1,0,0:0:0:30:soft-hitnormal.wav
109,192,88148,1,0,0:0:0:30:soft-hitnormal.wav
182,192,88148,1,0,0:0:0:30:soft-hitnormal.wav
329,192,88233,1,0,0:0:0:30:soft-hitnormal.wav
402,192,88233,1,0,0:0:0:30:soft-hitnormal.wav
182,192,88317,1,0,0:0:0:30:soft-hitnormal.wav
256,192,88317,1,0,0:0:0:30:soft-hitnormal.wav
109,192,88401,1,0,0:0:0:30:soft-hitnormal.wav
36,192,88401,1,0,0:0:0:30:soft-hitnormal.wav
256,192,88485,1,0,0:0:0:30:soft-hitnormal.wav
402,192,88485,1,0,0:0:0:30:soft-hitnormal.wav
36,192,88569,1,0,0:0:0:30:soft-hitnormal.wav
182,192,88569,1,0,0:0:0:30:soft-hitnormal.wav
329,192,88653,1,0,0:0:0:30:soft-hitnormal.wav
256,192,88737,1,0,0:0:0:30:soft-hitnormal.wav
109,192,88737,1,0,0:0:0:30:soft-hitnormal.wav
402,192,88821,1,0,0:0:0:30:soft-hitnormal.wav
475,192,88821,1,0,0:0:0:30:soft-hitnormal.wav
182,192,88905,1,0,0:0:0:30:soft-hitnormal.wav
329,192,88905,1,0,0:0:0:30:soft-hitnormal.wav
109,192,88989,1,0,0:0:0:30:soft-hitnormal.wav
36,192,88989,1,0,0:0:0:30:soft-hitnormal.wav
256,192,89073,1,0,0:0:0:30:soft-hitnormal.wav
475,192,89073,1,0,0:0:0:30:soft-hitnormal.wav
402,192,89073,1,0,0:0:0:30:soft-hitnormal.wav
329,192,89157,1,0,0:0:0:30:soft-hitnormal.wav
182,192,89157,1,0,0:0:0:30:soft-hitnormal.wav
402,192,89241,1,0,0:0:0:30:soft-hitnormal.wav
36,192,89241,1,0,0:0:0:30:soft-hitnormal.wav
109,192,89241,1,0,0:0:0:30:soft-hitnormal.wav
475,192,89325,1,0,0:0:0:30:soft-hitnormal.wav
256,192,89325,1,0,0:0:0:30:soft-hitnormal.wav
329,192,89409,1,0,0:0:0:30:soft-hitnormal.wav
182,192,89409,1,0,0:0:0:30:soft-hitnormal.wav
109,192,89409,1,0,0:0:0:30:soft-hitnormal.wav
109,192,89577,1,0,0:0:0:30:soft-hitnormal.wav
402,192,89577,1,0,0:0:0:30:soft-hitnormal.wav
475,192,89577,1,0,0:0:0:30:soft-hitnormal.wav
182,192,89577,1,0,0:0:0:30:soft-hitnormal.wav
256,192,89745,1,0,0:0:0:30:soft-hitnormal.wav
475,192,89745,1,0,0:0:0:30:soft-hitnormal.wav
182,192,89745,1,0,0:0:0:30:soft-hitnormal.wav
109,192,89745,1,0,0:0:0:30:soft-hitnormal.wav
36,192,89829,1,0,0:0:0:30:soft-hitnormal.wav
402,192,89829,1,0,0:0:0:30:soft-hitnormal.wav
329,192,89913,1,0,0:0:0:30:soft-hitnormal.wav
256,192,89913,1,0,0:0:0:30:soft-hitnormal.wav
182,192,89913,1,0,0:0:0:30:soft-hitnormal.wav
475,192,89997,1,0,0:0:0:30:soft-hitnormal.wav
109,192,89997,1,0,0:0:0:30:soft-hitnormal.wav
256,192,90081,1,0,0:0:0:30:soft-hitnormal.wav
402,192,90081,1,0,0:0:0:30:soft-hitnormal.wav
329,192,90081,1,0,0:0:0:30:soft-hitnormal.wav
36,192,90081,1,0,0:0:0:30:soft-hitnormal.wav
109,192,90249,1,0,0:0:0:30:soft-hitnormal.wav
329,192,90249,1,0,0:0:0:30:soft-hitnormal.wav
475,192,90249,1,0,0:0:0:30:soft-hitnormal.wav
402,192,90249,1,0,0:0:0:30:soft-hitnormal.wav
182,192,90333,1,0,0:0:0:30:soft-hitnormal.wav
256,192,90417,1,0,0:0:0:30:soft-hitnormal.wav
402,192,90417,1,0,0:0:0:30:soft-hitnormal.wav
36,192,90417,1,0,0:0:0:30:soft-hitnormal.wav
109,192,90501,1,0,0:0:0:30:soft-hitnormal.wav
182,192,90585,1,0,0:0:0:30:soft-hitnormal.wav
329,192,90585,1,0,0:0:0:30:soft-hitnormal.wav
402,192,90670,1,0,0:0:0:30:soft-hitnormal.wav
475,192,90754,1,0,0:0:0:30:soft-hitnormal.wav
256,192,90754,1,0,0:0:0:30:soft-hitnormal.wav
36,192,90754,1,0,0:0:0:30:soft-hitnormal.wav
182,192,90838,1,0,0:0:0:30:soft-hitnormal.wav
109,192,90922,1,0,0:0:0:30:soft-hitnormal.wav
36,192,90922,1,0,0:0:0:30:soft-hitnormal.wav
329,192,90922,1,0,0:0:0:30:soft-hitnormal.wav
475,192,91006,1,0,0:0:0:30:soft-hitnormal.wav
402,192,91090,1,0,0:0:0:30:soft-hitnormal.wav
256,192,91090,1,0,0:0:0:30:soft-hitnormal.wav
329,192,91090,1,0,0:0:0:30:soft-hitnormal.wav
182,192,91174,1,0,0:0:0:30:soft-hitnormal.wav
109,192,91174,1,0,0:0:0:30:soft-hitnormal.wav
36,192,91174,1,0,0:0:0:30:soft-hitnormal.wav
329,192,91258,1,0,0:0:0:30:soft-hitnormal.wav
402,192,91258,1,0,0:0:0:30:soft-hitnormal.wav
475,192,91258,1,0,0:0:0:30:soft-hitnormal.wav
256,192,91342,1,0,0:0:0:30:soft-hitnormal.wav
182,192,91342,1,0,0:0:0:30:soft-hitnormal.wav
109,192,91342,1,0,0:0:0:30:soft-hitnormal.wav
329,192,91426,1,0,0:0:0:30:soft-hitnormal.wav
402,192,91426,1,0,0:0:0:30:soft-hitnormal.wav
475,192,91426,1,0,0:0:0:30:soft-hitnormal.wav
182,192,91510,1,0,0:0:0:30:soft-hitnormal.wav
256,192,91594,1,0,0:0:0:30:soft-hitnormal.wav
402,192,91594,1,0,0:0:0:30:soft-hitnormal.wav
475,192,91594,1,0,0:0:0:30:soft-hitnormal.wav
109,192,91678,1,0,0:0:0:30:soft-hitnormal.wav
182,192,91762,1,0,0:0:0:30:soft-hitnormal.wav
329,192,91762,1,0,0:0:0:30:soft-hitnormal.wav
402,192,91762,1,0,0:0:0:30:soft-hitnormal.wav
36,192,91846,1,0,0:0:0:30:soft-hitnormal.wav
475,192,91846,1,0,0:0:0:30:soft-hitnormal.wav
109,192,91930,1,0,0:0:0:30:soft-hitnormal.wav
256,192,91930,1,0,0:0:0:30:soft-hitnormal.wav
329,192,91930,1,0,0:0:0:30:soft-hitnormal.wav
402,192,92014,1,0,0:0:0:30:soft-hitnormal.wav
475,192,92098,1,0,0:0:0:30:soft-hitnormal.wav
256,192,92098,1,0,0:0:0:30:soft-hitnormal.wav
182,192,92098,1,0,0:0:0:30:soft-hitnormal.wav
109,192,92098,1,0,0:0:0:30:soft-hitnormal.wav
36,192,92098,1,0,0:0:0:30:soft-hitnormal.wav
36,192,92266,128,0,93359:0:0:0:30:soft-hitnormal.wav
109,192,92266,128,0,93359:0:0:0:30:soft-hitnormal.wav
182,192,92266,1,0,0:0:0:30:soft-hitnormal.wav
402,192,92266,1,0,0:0:0:30:soft-hitnormal.wav
329,192,92350,1,0,0:0:0:30:soft-hitnormal.wav
182,192,92434,1,0,0:0:0:30:soft-hitnormal.wav
475,192,92434,1,0,0:0:0:30:soft-hitnormal.wav
256,192,92434,1,0,0:0:0:30:soft-hitnormal.wav
402,192,92518,1,0,0:0:0:30:soft-hitnormal.wav
329,192,92602,1,0,0:0:0:30:soft-hitnormal.wav
182,192,92602,1,0,0:0:0:30:soft-hitnormal.wav
402,192,92686,1,0,0:0:0:30:soft-hitnormal.wav
256,192,92770,1,0,0:0:0:30:soft-hitnormal.wav
475,192,92770,1,0,0:0:0:30:soft-hitnormal.wav
182,192,92770,1,0,0:0:0:30:soft-hitnormal.wav
329,192,92854,1,0,0:0:0:30:soft-hitnormal.wav
402,192,92938,1,0,0:0:0:30:soft-hitnormal.wav
182,192,92938,1,0,0:0:0:30:soft-hitnormal.wav
256,192,93022,1,0,0:0:0:30:soft-hitnormal.wav
329,192,93106,1,0,0:0:0:30:soft-hitnormal.wav
402,192,93106,1,0,0:0:0:30:soft-hitnormal.wav
475,192,93106,1,0,0:0:0:30:soft-hitnormal.wav
182,192,93191,1,0,0:0:0:30:soft-hitnormal.wav
402,192,93275,1,0,0:0:0:30:soft-hitnormal.wav
256,192,93275,1,0,0:0:0:30:soft-hitnormal.wav
329,192,93275,1,0,0:0:0:30:soft-hitnormal.wav
475,192,93359,1,0,0:0:0:30:soft-hitnormal.wav
36,192,93443,1,0,0:0:0:30:soft-hitnormal.wav
109,192,93443,1,0,0:0:0:30:soft-hitnormal.wav
329,192,93443,1,0,0:0:0:30:soft-hitnormal.wav
182,192,93527,1,0,0:0:0:30:soft-hitnormal.wav
402,192,93527,1,0,0:0:0:30:soft-hitnormal.wav
256,192,93611,1,0,0:0:0:30:soft-hitnormal.wav
475,192,93611,1,0,0:0:0:30:soft-hitnormal.wav
36,192,93611,1,0,0:0:0:30:soft-hitnormal.wav
109,192,93695,1,0,0:0:0:30:soft-hitnormal.wav
329,192,93695,1,0,0:0:0:30:soft-hitnormal.wav
182,192,93779,1,0,0:0:0:30:soft-hitnormal.wav
402,192,93779,1,0,0:0:0:30:soft-hitnormal.wav
475,192,93779,1,0,0:0:0:30:soft-hitnormal.wav
109,192,93863,1,0,0:0:0:30:soft-hitnormal.wav
329,192,93863,1,0,0:0:0:30:soft-hitnormal.wav
36,192,93947,1,0,0:0:0:30:soft-hitnormal.wav
256,192,93947,1,0,0:0:0:30:soft-hitnormal.wav
475,192,93947,1,0,0:0:0:30:soft-hitnormal.wav
182,192,94031,1,0,0:0:0:30:soft-hitnormal.wav
402,192,94031,1,0,0:0:0:30:soft-hitnormal.wav
109,192,94115,1,0,0:0:0:30:soft-hitnormal.wav
329,192,94115,1,0,0:0:0:30:soft-hitnormal.wav
36,192,94115,1,0,0:0:0:30:soft-hitnormal.wav
182,192,94199,1,0,0:0:0:30:soft-hitnormal.wav
402,192,94199,1,0,0:0:0:30:soft-hitnormal.wav
256,192,94283,1,0,0:0:0:30:soft-hitnormal.wav
475,192,94283,1,0,0:0:0:30:soft-hitnormal.wav
36,192,94283,1,0,0:0:0:30:soft-hitnormal.wav
109,192,94367,1,0,0:0:0:30:soft-hitnormal.wav
329,192,94367,1,0,0:0:0:30:soft-hitnormal.wav
182,192,94451,1,0,0:0:0:30:soft-hitnormal.wav
402,192,94451,1,0,0:0:0:30:soft-hitnormal.wav
475,192,94451,1,0,0:0:0:30:soft-hitnormal.wav
182,192,94619,1,0,0:0:0:30:soft-hitnormal.wav
109,192,94619,1,0,0:0:0:30:soft-hitnormal.wav
475,192,94619,1,0,0:0:0:30:soft-hitnormal.wav
256,192,94619,1,0,0:0:0:30:soft-hitnormal.wav
475,192,94787,128,0,95039:0:0:0:30:soft-hitnormal.wav
256,192,94787,128,0,95039:0:0:0:30:soft-hitnormal.wav
182,192,94787,128,0,94955:0:0:0:30:soft-hitnormal.wav
109,192,94787,128,0,94955:0:0:0:30:soft-hitnormal.wav
402,192,95039,1,0,0:0:0:30:soft-hitnormal.wav
182,192,95039,1,0,0:0:0:30:soft-hitnormal.wav
109,192,95039,1,0,0:0:0:30:soft-hitnormal.wav
36,192,95039,1,0,0:0:0:30:soft-hitnormal.wav
402,192,95291,128,0,95712:0:0:0:30:soft-hitnormal.wav
182,192,95291,128,0,95712:0:0:0:30:soft-hitnormal.wav
109,192,95291,128,0,95712:0:0:0:30:soft-hitnormal.wav
36,192,95291,128,0,95712:0:0:0:30:soft-hitnormal.wav
475,192,95291,1,0,0:0:0:30:soft-hitnormal.wav
182,192,95796,1,0,0:0:0:30:soft-hitnormal.wav
109,192,95796,1,0,0:0:0:30:soft-hitnormal.wav
36,192,95796,1,0,0:0:0:30:soft-hitnormal.wav
256,192,95880,1,0,0:0:0:30:soft-hitnormal.wav
329,192,95880,1,0,0:0:0:30:soft-hitnormal.wav
475,192,95964,1,0,0:0:0:30:soft-hitnormal.wav
402,192,95964,1,0,0:0:0:30:soft-hitnormal.wav
36,192,96048,1,0,0:0:0:30:soft-hitnormal.wav
109,192,96048,1,0,0:0:0:30:soft-hitnormal.wav
329,192,96132,1,0,0:0:0:30:soft-hitnormal.wav
402,192,96132,1,0,0:0:0:30:soft-hitnormal.wav
475,192,96132,1,0,0:0:0:30:soft-hitnormal.wav
256,192,96132,1,0,0:0:0:30:soft-hitnormal.wav
402,192,96300,1,0,0:0:0:30:soft-hitnormal.wav
475,192,96300,1,0,0:0:0:30:soft-hitnormal.wav
36,192,96300,1,0,0:0:0:30:soft-hitnormal.wav
182,192,96300,1,0,0:0:0:30:soft-hitnormal.wav
402,192,96468,1,0,0:0:0:30:soft-hitnormal.wav
475,192,96468,1,0,0:0:0:30:soft-hitnormal.wav
256,192,96468,1,0,0:0:0:30:soft-hitnormal.wav
109,192,96468,1,0,0:0:0:30:soft-hitnormal.wav
402,192,96636,1,0,0:0:0:30:soft-hitnormal.wav
475,192,96636,1,0,0:0:0:30:soft-hitnormal.wav
36,192,96636,1,0,0:0:0:30:soft-hitnormal.wav
182,192,96636,1,0,0:0:0:30:soft-hitnormal.wav
109,192,96804,1,0,0:0:0:30:soft-hitnormal.wav
182,192,96804,1,0,0:0:0:30:soft-hitnormal.wav
402,192,96804,1,0,0:0:0:30:soft-hitnormal.wav
475,192,96804,1,0,0:0:0:30:soft-hitnormal.wav
256,192,96972,1,0,0:0:0:30:soft-hitnormal.wav
402,192,96972,1,0,0:0:0:30:soft-hitnormal.wav
475,192,96972,1,0,0:0:0:30:soft-hitnormal.wav
109,192,96972,1,0,0:0:0:30:soft-hitnormal.wav
329,192,97140,1,0,0:0:0:30:soft-hitnormal.wav
402,192,97140,1,0,0:0:0:30:soft-hitnormal.wav
475,192,97140,1,0,0:0:0:30:soft-hitnormal.wav
182,192,97140,1,0,0:0:0:30:soft-hitnormal.wav
109,192,97196,1,0,0:0:0:30:soft-hitnormal.wav
36,192,97252,1,0,0:0:0:30:soft-hitnormal.wav
329,192,97308,1,0,0:0:0:30:soft-hitnormal.wav
402,192,97308,1,0,0:0:0:30:soft-hitnormal.wav
475,192,97308,1,0,0:0:0:30:soft-hitnormal.wav
256,192,97308,1,0,0:0:0:30:soft-hitnormal.wav
182,192,97364,1,0,0:0:0:30:soft-hitnormal.wav
109,192,97420,1,0,0:0:0:30:soft-hitnormal.wav
36,192,97476,1,0,0:0:0:30:soft-hitnormal.wav
329,192,97476,1,0,0:0:0:30:soft-hitnormal.wav
402,192,97476,1,0,0:0:0:30:soft-hitnormal.wav
475,192,97476,1,0,0:0:0:30:soft-hitnormal.wav
402,192,97644,1,0,0:0:0:30:soft-hitnormal.wav
109,192,97644,1,0,0:0:0:30:soft-hitnormal.wav
256,192,97644,128,0,98821:0:0:0:30:soft-hitnormal.wav
182,192,97728,1,0,0:0:0:30:soft-hitnormal.wav
36,192,97812,1,0,0:0:0:30:soft-hitnormal.wav
475,192,97812,1,0,0:0:0:30:soft-hitnormal.wav
329,192,97896,1,0,0:0:0:30:soft-hitnormal.wav
36,192,97980,1,0,0:0:0:30:soft-hitnormal.wav
109,192,97980,128,0,98064:0:0:0:30:soft-hitnormal.wav
182,192,97980,1,0,0:0:0:30:soft-hitnormal.wav
329,192,98064,1,0,0:0:0:30:soft-hitnormal.wav
402,192,98064,128,0,98148:0:0:0:30:soft-hitnormal.wav
36,192,98148,1,0,0:0:0:30:soft-hitnormal.wav
182,192,98148,128,0,98233:0:0:0:30:soft-hitnormal.wav
329,192,98233,1,0,0:0:0:30:soft-hitnormal.wav
475,192,98233,128,0,98317:0:0:0:30:soft-hitnormal.wav
109,192,98317,1,0,0:0:0:30:soft-hitnormal.wav
36,192,98317,128,0,98401:0:0:0:30:soft-hitnormal.wav
402,192,98401,1,0,0:0:0:30:soft-hitnormal.wav
329,192,98401,128,0,98485:0:0:0:30:soft-hitnormal.wav
182,192,98485,1,0,0:0:0:30:soft-hitnormal.wav
109,192,98485,128,0,98569:0:0:0:30:soft-hitnormal.wav
402,192,98569,1,0,0:0:0:30:soft-hitnormal.wav
475,192,98569,128,0,98653:0:0:0:30:soft-hitnormal.wav
36,192,98653,1,0,0:0:0:30:soft-hitnormal.wav
182,192,98653,128,0,98737:0:0:0:30:soft-hitnormal.wav
475,192,98737,1,0,0:0:0:30:soft-hitnormal.wav
329,192,98737,1,0,0:0:0:30:soft-hitnormal.wav
402,192,98737,128,0,98821:0:0:0:30:soft-hitnormal.wav
109,192,98821,1,0,0:0:0:30:soft-hitnormal.wav
36,192,98821,1,0,0:0:0:30:soft-hitnormal.wav
329,192,98905,1,0,0:0:0:30:soft-hitnormal.wav
182,192,98989,1,0,0:0:0:30:soft-hitnormal.wav
256,192,99073,1,0,0:0:0:30:soft-hitnormal.wav
475,192,99157,1,0,0:0:0:30:soft-hitnormal.wav
36,192,99157,1,0,0:0:0:30:soft-hitnormal.wav
109,192,99157,1,0,0:0:0:30:soft-hitnormal.wav
329,192,99157,1,0,0:0:0:30:soft-hitnormal.wav
109,192,99325,1,0,0:0:0:30:soft-hitnormal.wav
182,192,99325,1,0,0:0:0:30:soft-hitnormal.wav
329,192,99325,1,0,0:0:0:30:soft-hitnormal.wav
182,192,99493,1,0,0:0:0:30:soft-hitnormal.wav
256,192,99493,1,0,0:0:0:30:soft-hitnormal.wav
475,192,99493,1,0,0:0:0:30:soft-hitnormal.wav
402,192,99493,1,0,0:0:0:30:soft-hitnormal.wav
256,192,99661,1,0,0:0:0:30:soft-hitnormal.wav
329,192,99661,1,0,0:0:0:30:soft-hitnormal.wav
36,192,99661,1,0,0:0:0:30:soft-hitnormal.wav
475,192,99829,1,0,0:0:0:30:soft-hitnormal.wav
329,192,99829,1,0,0:0:0:30:soft-hitnormal.wav
402,192,99829,1,0,0:0:0:30:soft-hitnormal.wav
109,192,99829,1,0,0:0:0:30:soft-hitnormal.wav
182,192,99913,1,0,0:0:0:30:soft-hitnormal.wav
402,192,99997,1,0,0:0:0:30:soft-hitnormal.wav
256,192,99997,1,0,0:0:0:30:soft-hitnormal.wav
36,192,100081,1,0,0:0:0:30:soft-hitnormal.wav
329,192,100165,1,0,0:0:0:30:soft-hitnormal.wav
182,192,100165,1,0,0:0:0:30:soft-hitnormal.wav
475,192,100165,1,0,0:0:0:30:soft-hitnormal.wav
182,192,100333,128,0,100838:0:0:0:30:soft-hitnormal.wav
36,192,100333,128,0,100838:0:0:0:30:soft-hitnormal.wav
402,192,100333,1,0,0:0:0:30:soft-hitnormal.wav
329,192,100333,1,0,0:0:0:30:soft-hitnormal.wav
402,192,100501,1,0,0:0:0:30:soft-hitnormal.wav
329,192,100501,1,0,0:0:0:30:soft-hitnormal.wav
475,192,100670,1,0,0:0:0:30:soft-hitnormal.wav
256,192,100670,1,0,0:0:0:30:soft-hitnormal.wav
329,192,100754,1,0,0:0:0:30:soft-hitnormal.wav
402,192,100838,1,0,0:0:0:30:soft-hitnormal.wav
109,192,100838,1,0,0:0:0:30:soft-hitnormal.wav
475,192,101006,1,0,0:0:0:30:soft-hitnormal.wav
329,192,101006,1,0,0:0:0:30:soft-hitnormal.wav
256,192,101090,1,0,0:0:0:30:soft-hitnormal.wav
36,192,101174,1,0,0:0:0:30:soft-hitnormal.wav
182,192,101174,1,0,0:0:0:30:soft-hitnormal.wav
329,192,101258,1,0,0:0:0:30:soft-hitnormal.wav
109,192,101342,1,0,0:0:0:30:soft-hitnormal.wav
256,192,101342,1,0,0:0:0:30:soft-hitnormal.wav
36,192,101426,1,0,0:0:0:30:soft-hitnormal.wav
182,192,101510,1,0,0:0:0:30:soft-hitnormal.wav
329,192,101510,1,0,0:0:0:30:soft-hitnormal.wav
475,192,101510,1,0,0:0:0:30:soft-hitnormal.wav
109,192,101594,1,0,0:0:0:30:soft-hitnormal.wav
256,192,101678,1,0,0:0:0:30:soft-hitnormal.wav
402,192,101678,1,0,0:0:0:30:soft-hitnormal.wav
36,192,101762,1,0,0:0:0:30:soft-hitnormal.wav
182,192,101846,1,0,0:0:0:30:soft-hitnormal.wav
329,192,101846,1,0,0:0:0:30:soft-hitnormal.wav
475,192,101930,1,0,0:0:0:30:soft-hitnormal.wav
36,192,102014,1,0,0:0:0:30:soft-hitnormal.wav
109,192,102014,1,0,0:0:0:30:soft-hitnormal.wav
402,192,102014,1,0,0:0:0:30:soft-hitnormal.wav
256,192,102014,1,0,0:0:0:30:soft-hitnormal.wav
109,192,102182,1,0,0:0:0:30:soft-hitnormal.wav
36,192,102182,1,0,0:0:0:30:soft-hitnormal.wav
182,192,102182,1,0,0:0:0:30:soft-hitnormal.wav
329,192,102182,1,0,0:0:0:30:soft-hitnormal.wav
256,192,102350,1,0,0:0:0:30:soft-hitnormal.wav
475,192,102350,1,0,0:0:0:30:soft-hitnormal.wav
109,192,102518,1,0,0:0:0:30:soft-hitnormal.wav
36,192,102518,1,0,0:0:0:30:soft-hitnormal.wav
182,192,102518,1,0,0:0:0:30:soft-hitnormal.wav
475,192,102602,1,0,0:0:0:30:soft-hitnormal.wav
329,192,102602,1,0,0:0:0:30:soft-hitnormal.wav
109,192,102686,1,0,0:0:0:30:soft-hitnormal.wav
182,192,102686,1,0,0:0:0:30:soft-hitnormal.wav
329,192,102770,1,0,0:0:0:30:soft-hitnormal.wav
475,192,102770,1,0,0:0:0:30:soft-hitnormal.wav
182,192,102854,1,0,0:0:0:30:soft-hitnormal.wav
109,192,102854,1,0,0:0:0:30:soft-hitnormal.wav
256,192,102854,1,0,0:0:0:30:soft-hitnormal.wav
36,192,102938,1,0,0:0:0:30:soft-hitnormal.wav
475,192,103022,1,0,0:0:0:30:soft-hitnormal.wav
329,192,103022,1,0,0:0:0:30:soft-hitnormal.wav
109,192,103106,1,0,0:0:0:30:soft-hitnormal.wav
256,192,103191,1,0,0:0:0:30:soft-hitnormal.wav
402,192,103191,1,0,0:0:0:30:soft-hitnormal.wav
36,192,103275,1,0,0:0:0:30:soft-hitnormal.wav
329,192,103359,1,0,0:0:0:30:soft-hitnormal.wav
109,192,103359,1,0,0:0:0:30:soft-hitnormal.wav
475,192,103443,1,0,0:0:0:30:soft-hitnormal.wav
182,192,103527,1,0,0:0:0:30:soft-hitnormal.wav
402,192,103527,1,0,0:0:0:30:soft-hitnormal.wav
256,192,103611,1,0,0:0:0:30:soft-hitnormal.wav
329,192,103695,1,0,0:0:0:30:soft-hitnormal.wav
109,192,103695,1,0,0:0:0:30:soft-hitnormal.wav
182,192,103779,1,0,0:0:0:30:soft-hitnormal.wav
36,192,103863,1,0,0:0:0:30:soft-hitnormal.wav
402,192,103863,1,0,0:0:0:30:soft-hitnormal.wav
256,192,103863,1,0,0:0:0:30:soft-hitnormal.wav
109,192,103947,1,0,0:0:0:30:soft-hitnormal.wav
475,192,103947,1,0,0:0:0:30:soft-hitnormal.wav
329,192,104031,1,0,0:0:0:30:soft-hitnormal.wav
182,192,104031,1,0,0:0:0:30:soft-hitnormal.wav
402,192,104115,1,0,0:0:0:30:soft-hitnormal.wav
36,192,104115,1,0,0:0:0:30:soft-hitnormal.wav
475,192,104199,1,0,0:0:0:30:soft-hitnormal.wav
256,192,104199,1,0,0:0:0:30:soft-hitnormal.wav
109,192,104199,1,0,0:0:0:30:soft-hitnormal.wav
329,192,104367,1,0,0:0:0:30:soft-hitnormal.wav
36,192,104367,1,0,0:0:0:30:soft-hitnormal.wav
109,192,104451,1,0,0:0:0:30:soft-hitnormal.wav
402,192,104451,1,0,0:0:0:30:soft-hitnormal.wav
475,192,104535,1,0,0:0:0:30:soft-hitnormal.wav
182,192,104535,1,0,0:0:0:30:soft-hitnormal.wav
256,192,104535,1,0,0:0:0:30:soft-hitnormal.wav
36,192,104703,1,0,0:0:0:30:soft-hitnormal.wav
329,192,104703,1,0,0:0:0:30:soft-hitnormal.wav
109,192,104787,1,0,0:0:0:30:soft-hitnormal.wav
402,192,104787,1,0,0:0:0:30:soft-hitnormal.wav
182,192,104871,1,0,0:0:0:30:soft-hitnormal.wav
475,192,104871,1,0,0:0:0:30:soft-hitnormal.wav
256,192,104871,1,0,0:0:0:30:soft-hitnormal.wav
36,192,105039,1,0,0:0:0:30:soft-hitnormal.wav
329,192,105039,1,0,0:0:0:30:soft-hitnormal.wav
109,192,105123,1,0,0:0:0:30:soft-hitnormal.wav
402,192,105123,1,0,0:0:0:30:soft-hitnormal.wav
182,192,105207,1,0,0:0:0:30:soft-hitnormal.wav
256,192,105207,1,0,0:0:0:30:soft-hitnormal.wav
475,192,105207,1,0,0:0:0:30:soft-hitnormal.wav
182,192,105375,1,0,0:0:0:30:soft-hitnormal.wav
256,192,105375,1,0,0:0:0:30:soft-hitnormal.wav
475,192,105375,1,0,0:0:0:30:soft-hitnormal.wav
36,192,105375,1,0,0:0:0:30:soft-hitnormal.wav
36,192,105543,1,0,0:0:0:30:soft-hitnormal.wav
182,192,105543,1,0,0:0:0:30:soft-hitnormal.wav
256,192,105543,1,0,0:0:0:30:soft-hitnormal.wav
475,192,105543,1,0,0:0:0:30:soft-hitnormal.wav
109,192,105712,1,0,0:0:0:30:soft-hitnormal.wav
329,192,105712,1,0,0:0:0:30:soft-hitnormal.wav
182,192,105796,1,0,0:0:0:30:soft-hitnormal.wav
402,192,105796,1,0,0:0:0:30:soft-hitnormal.wav
256,192,105880,1,0,0:0:0:30:soft-hitnormal.wav
36,192,105880,1,0,0:0:0:30:soft-hitnormal.wav
475,192,105880,1,0,0:0:0:30:soft-hitnormal.wav
109,192,105964,1,0,0:0:0:30:soft-hitnormal.wav
329,192,105964,1,0,0:0:0:30:soft-hitnormal.wav
402,192,106048,1,0,0:0:0:30:soft-hitnormal.wav
109,192,106132,128,0,106888:0:0:0:30:soft-hitnormal.wav
256,192,106132,1,0,0:0:0:30:soft-hitnormal.wav
36,192,106132,128,0,106888:0:0:0:30:soft-hitnormal.wav
475,192,106216,1,0,0:0:0:30:soft-hitnormal.wav
329,192,106216,1,0,0:0:0:30:soft-hitnormal.wav
182,192,106300,1,0,0:0:0:30:soft-hitnormal.wav
256,192,106384,1,0,0:0:0:30:soft-hitnormal.wav
402,192,106384,1,0,0:0:0:30:soft-hitnormal.wav
475,192,106468,1,0,0:0:0:30:soft-hitnormal.wav
182,192,106552,1,0,0:0:0:30:soft-hitnormal.wav
256,192,106552,1,0,0:0:0:30:soft-hitnormal.wav
329,192,106552,1,0,0:0:0:30:soft-hitnormal.wav
402,192,106636,1,0,0:0:0:30:soft-hitnormal.wav
475,192,106720,1,0,0:0:0:30:soft-hitnormal.wav
182,192,106720,1,0,0:0:0:30:soft-hitnormal.wav
256,192,106804,1,0,0:0:0:30:soft-hitnormal.wav
329,192,106888,1,0,0:0:0:30:soft-hitnormal.wav
402,192,106888,1,0,0:0:0:30:soft-hitnormal.wav
475,192,106888,1,0,0:0:0:30:soft-hitnormal.wav
182,192,106972,1,0,0:0:0:30:soft-hitnormal.wav
402,192,107056,1,0,0:0:0:30:soft-hitnormal.wav
256,192,107140,1,0,0:0:0:30:soft-hitnormal.wav
109,192,107224,1,0,0:0:0:30:soft-hitnormal.wav
475,192,107224,1,0,0:0:0:30:soft-hitnormal.wav
402,192,107308,1,0,0:0:0:30:soft-hitnormal.wav
36,192,107308,1,0,0:0:0:30:soft-hitnormal.wav
182,192,107392,1,0,0:0:0:30:soft-hitnormal.wav
256,192,107392,1,0,0:0:0:30:soft-hitnormal.wav
329,192,107392,1,0,0:0:0:30:soft-hitnormal.wav
109,192,107476,1,0,0:0:0:30:soft-hitnormal.wav
475,192,107476,128,0,108233:0:0:0:30:soft-hitnormal.wav
36,192,107560,1,0,0:0:0:30:soft-hitnormal.wav
402,192,107560,1,0,0:0:0:30:soft-hitnormal.wav
329,192,107644,1,0,0:0:0:30:soft-hitnormal.wav
256,192,107728,1,0,0:0:0:30:soft-hitnormal.wav
109,192,107728,1,0,0:0:0:30:soft-hitnormal.wav
329,192,107812,1,0,0:0:0:30:soft-hitnormal.wav
402,192,107896,1,0,0:0:0:30:soft-hitnormal.wav
182,192,107896,1,0,0:0:0:30:soft-hitnormal.wav
36,192,107896,1,0,0:0:0:30:soft-hitnormal.wav
256,192,107980,1,0,0:0:0:30:soft-hitnormal.wav
36,192,108064,1,0,0:0:0:30:soft-hitnormal.wav
109,192,108064,1,0,0:0:0:30:soft-hitnormal.wav
329,192,108148,1,0,0:0:0:30:soft-hitnormal.wav
402,192,108148,1,0,0:0:0:30:soft-hitnormal.wav
36,192,108233,1,0,0:0:0:30:soft-hitnormal.wav
109,192,108233,1,0,0:0:0:30:soft-hitnormal.wav
182,192,108233,1,0,0:0:0:30:soft-hitnormal.wav
329,192,108401,1,0,0:0:0:30:soft-hitnormal.wav
256,192,108401,1,0,0:0:0:30:soft-hitnormal.wav
475,192,108401,1,0,0:0:0:30:soft-hitnormal.wav
36,192,108401,128,0,108905:0:0:0:30:soft-hitnormal.wav
109,192,108401,128,0,108905:0:0:0:30:soft-hitnormal.wav
256,192,108569,1,0,0:0:0:30:soft-hitnormal.wav
329,192,108569,1,0,0:0:0:30:soft-hitnormal.wav
402,192,108737,1,0,0:0:0:30:soft-hitnormal.wav
182,192,108737,1,0,0:0:0:30:soft-hitnormal.wav
475,192,108821,1,0,0:0:0:30:soft-hitnormal.wav
256,192,108905,1,0,0:0:0:30:soft-hitnormal.wav
329,192,108905,1,0,0:0:0:30:soft-hitnormal.wav
182,192,109073,1,0,0:0:0:30:soft-hitnormal.wav
402,192,109073,1,0,0:0:0:30:soft-hitnormal.wav
475,192,109241,1,0,0:0:0:30:soft-hitnormal.wav
256,192,109241,1,0,0:0:0:30:soft-hitnormal.wav
36,192,109241,1,0,0:0:0:30:soft-hitnormal.wav
402,192,109325,1,0,0:0:0:30:soft-hitnormal.wav
109,192,109409,1,0,0:0:0:30:soft-hitnormal.wav
329,192,109409,1,0,0:0:0:30:soft-hitnormal.wav
182,192,109493,1,0,0:0:0:30:soft-hitnormal.wav
36,192,109577,1,0,0:0:0:30:soft-hitnormal.wav
256,192,109577,1,0,0:0:0:30:soft-hitnormal.wav
402,192,109577,1,0,0:0:0:30:soft-hitnormal.wav
109,192,109661,1,0,0:0:0:30:soft-hitnormal.wav
475,192,109661,1,0,0:0:0:30:soft-hitnormal.wav
182,192,109745,1,0,0:0:0:30:soft-hitnormal.wav
329,192,109745,1,0,0:0:0:30:soft-hitnormal.wav
402,192,109829,1,0,0:0:0:30:soft-hitnormal.wav
36,192,109829,1,0,0:0:0:30:soft-hitnormal.wav
475,192,109913,1,0,0:0:0:30:soft-hitnormal.wav
256,192,109913,1,0,0:0:0:30:soft-hitnormal.wav
109,192,109913,1,0,0:0:0:30:soft-hitnormal.wav
36,192,110081,1,0,0:0:0:30:soft-hitnormal.wav
182,192,110081,1,0,0:0:0:30:soft-hitnormal.wav
256,192,110081,1,0,0:0:0:30:soft-hitnormal.wav
329,192,110165,1,0,0:0:0:30:soft-hitnormal.wav
475,192,110165,1,0,0:0:0:30:soft-hitnormal.wav
109,192,110249,1,0,0:0:0:30:soft-hitnormal.wav
109,192,110417,1,0,0:0:0:30:soft-hitnormal.wav
182,192,110417,1,0,0:0:0:30:soft-hitnormal.wav
109,192,110501,1,0,0:0:0:30:soft-hitnormal.wav
182,192,110501,1,0,0:0:0:30:soft-hitnormal.wav
475,192,110585,1,0,0:0:0:30:soft-hitnormal.wav
256,192,110585,1,0,0:0:0:30:soft-hitnormal.wav
402,192,110670,1,0,0:0:0:30:soft-hitnormal.wav
182,192,110670,1,0,0:0:0:30:soft-hitnormal.wav
109,192,110754,1,0,0:0:0:30:soft-hitnormal.wav
329,192,110754,1,0,0:0:0:30:soft-hitnormal.wav
36,192,110838,1,0,0:0:0:30:soft-hitnormal.wav
256,192,110838,1,0,0:0:0:30:soft-hitnormal.wav
182,192,110922,1,0,0:0:0:30:soft-hitnormal.wav
402,192,110922,128,0,111174:0:0:0:30:soft-hitnormal.wav
475,192,110922,128,0,111174:0:0:0:30:soft-hitnormal.wav
109,192,111090,5,0,0:0:0:30:soft-hitnormal.wav
256,192,111090,1,0,0:0:0:30:soft-hitnormal.wav
402,192,111258,5,0,0:0:0:30:soft-hitnormal.wav
475,192,111258,1,0,0:0:0:30:soft-hitnormal.wav
36,192,111258,128,0,111510:0:0:0:30:soft-hitnormal.wav
109,192,111258,128,0,111510:0:0:0:30:soft-hitnormal.wav
256,192,111426,1,0,0:0:0:30:soft-hitnormal.wav
402,192,111426,1,0,0:0:0:30:soft-hitnormal.wav
475,192,111426,1,0,0:0:0:30:soft-hitnormal.wav
36,192,111594,1,0,0:0:0:30:soft-hitnormal.wav
109,192,111594,1,0,0:0:0:30:soft-hitnormal.wav
475,192,111594,128,0,111930:0:0:0:30:soft-hitnormal.wav
402,192,111594,128,0,111930:0:0:0:30:soft-hitnormal.wav
109,192,111762,1,0,0:0:0:30:soft-hitnormal.wav
329,192,111762,1,0,0:0:0:30:soft-hitnormal.wav
182,192,111846,1,0,0:0:0:30:soft-hitnormal.wav
329,192,111930,1,0,0:0:0:30:soft-hitnormal.wav
36,192,111930,1,0,0:0:0:30:soft-hitnormal.wav
256,192,111930,1,0,0:0:0:30:soft-hitnormal.wav
109,192,112098,1,0,0:0:0:30:soft-hitnormal.wav
402,192,112098,1,0,0:0:0:30:soft-hitnormal.wav
329,192,112098,1,0,0:0:0:30:soft-hitnormal.wav
475,192,112266,5,0,0:0:0:30:soft-hitnormal.wav
182,192,112266,1,0,0:0:0:30:soft-hitnormal.wav
402,192,112350,1,0,0:0:0:30:soft-hitnormal.wav
109,192,112350,1,0,0:0:0:30:soft-hitnormal.wav
329,192,112434,1,0,0:0:0:30:soft-hitnormal.wav
36,192,112434,1,0,0:0:0:30:soft-hitnormal.wav
182,192,112518,1,0,0:0:0:30:soft-hitnormal.wav
402,192,112518,1,0,0:0:0:30:soft-hitnormal.wav
256,192,112602,1,0,0:0:0:30:soft-hitnormal.wav
475,192,112602,1,0,0:0:0:30:soft-hitnormal.wav
36,192,112602,1,0,0:0:0:30:soft-hitnormal.wav
329,192,112686,1,0,0:0:0:30:soft-hitnormal.wav
109,192,112686,1,0,0:0:0:30:soft-hitnormal.wav
182,192,112770,1,0,0:0:0:30:soft-hitnormal.wav
475,192,112770,1,0,0:0:0:30:soft-hitnormal.wav
109,192,112854,1,0,0:0:0:30:soft-hitnormal.wav
402,192,112854,1,0,0:0:0:30:soft-hitnormal.wav
36,192,112938,1,0,0:0:0:30:soft-hitnormal.wav
329,192,112938,1,0,0:0:0:30:soft-hitnormal.wav
256,192,112938,1,0,0:0:0:30:soft-hitnormal.wav
329,192,113022,1,0,0:0:0:30:soft-hitnormal.wav
256,192,113022,1,0,0:0:0:30:soft-hitnormal.wav
109,192,113106,1,0,0:0:0:30:soft-hitnormal.wav
36,192,113106,1,0,0:0:0:30:soft-hitnormal.wav
182,192,113106,1,0,0:0:0:30:soft-hitnormal.wav
402,192,113191,1,0,0:0:0:30:soft-hitnormal.wav
475,192,113191,1,0,0:0:0:30:soft-hitnormal.wav
329,192,113191,1,0,0:0:0:30:soft-hitnormal.wav
109,192,113275,1,0,0:0:0:30:soft-hitnormal.wav
182,192,113275,1,0,0:0:0:30:soft-hitnormal.wav
256,192,113275,1,0,0:0:0:30:soft-hitnormal.wav
402,192,113359,1,0,0:0:0:30:soft-hitnormal.wav
475,192,113359,1,0,0:0:0:30:soft-hitnormal.wav
329,192,113359,1,0,0:0:0:30:soft-hitnormal.wav
36,192,113443,1,0,0:0:0:30:soft-hitnormal.wav
109,192,113443,1,0,0:0:0:30:soft-hitnormal.wav
182,192,113443,1,0,0:0:0:30:soft-hitnormal.wav
402,192,113527,1,0,0:0:0:30:soft-hitnormal.wav
475,192,113527,1,0,0:0:0:30:soft-hitnormal.wav
182,192,113611,1,0,0:0:0:30:soft-hitnormal.wav
36,192,113611,1,0,0:0:0:30:soft-hitnormal.wav
109,192,113611,1,0,0:0:0:30:soft-hitnormal.wav
256,192,113611,1,0,0:0:0:30:soft-hitnormal.wav
329,192,113611,1,0,0:0:0:30:soft-hitnormal.wav
329,192,113779,1,0,0:0:0:30:soft-hitnormal.wav
475,192,113779,1,0,0:0:0:30:soft-hitnormal.wav
182,192,113863,1,0,0:0:0:30:soft-hitnormal.wav
36,192,113863,1,0,0:0:0:30:soft-hitnormal.wav
256,192,113947,1,0,0:0:0:30:soft-hitnormal.wav
402,192,113947,1,0,0:0:0:30:soft-hitnormal.wav
475,192,113947,1,0,0:0:0:30:soft-hitnormal.wav
36,192,114115,128,0,114535:0:0:0:30:soft-hitnormal.wav
182,192,114115,128,0,114535:0:0:0:30:soft-hitnormal.wav
109,192,114115,1,0,0:0:0:30:soft-hitnormal.wav
329,192,114115,1,0,0:0:0:30:soft-hitnormal.wav
402,192,114115,1,0,0:0:0:30:soft-hitnormal.wav
402,192,114283,1,0,0:0:0:30:soft-hitnormal.wav
475,192,114283,1,0,0:0:0:30:soft-hitnormal.wav
402,192,114451,1,0,0:0:0:30:soft-hitnormal.wav
475,192,114451,1,0,0:0:0:30:soft-hitnormal.wav
36,192,114619,1,0,0:0:0:30:soft-hitnormal.wav
182,192,114619,1,0,0:0:0:30:soft-hitnormal.wav
402,192,114619,128,0,114955:0:0:0:30:soft-hitnormal.wav
475,192,114619,128,0,114955:0:0:0:30:soft-hitnormal.wav
182,192,114787,1,0,0:0:0:30:soft-hitnormal.wav
329,192,114787,1,0,0:0:0:30:soft-hitnormal.wav
109,192,114871,1,0,0:0:0:30:soft-hitnormal.wav
36,192,114955,1,0,0:0:0:30:soft-hitnormal.wav
256,192,114955,1,0,0:0:0:30:soft-hitnormal.wav
329,192,114955,1,0,0:0:0:30:soft-hitnormal.wav
182,192,115039,1,0,0:0:0:30:soft-hitnormal.wav
109,192,115123,1,0,0:0:0:30:soft-hitnormal.wav
329,192,115123,1,0,0:0:0:30:soft-hitnormal.wav
256,192,115207,1,0,0:0:0:30:soft-hitnormal.wav
182,192,115291,1,0,0:0:0:30:soft-hitnormal.wav
402,192,115291,1,0,0:0:0:30:soft-hitnormal.wav
475,192,115291,1,0,0:0:0:30:soft-hitnormal.wav
36,192,115375,1,0,0:0:0:30:soft-hitnormal.wav
109,192,115459,1,0,0:0:0:30:soft-hitnormal.wav
256,192,115459,1,0,0:0:0:30:soft-hitnormal.wav
329,192,115543,1,0,0:0:0:30:soft-hitnormal.wav
402,192,115627,1,0,0:0:0:30:soft-hitnormal.wav
182,192,115627,1,0,0:0:0:30:soft-hitnormal.wav
36,192,115627,1,0,0:0:0:30:soft-hitnormal.wav
256,192,115712,1,0,0:0:0:30:soft-hitnormal.wav
329,192,115796,1,0,0:0:0:30:soft-hitnormal.wav
475,192,115796,1,0,0:0:0:30:soft-hitnormal.wav
109,192,115880,1,0,0:0:0:30:soft-hitnormal.wav
256,192,115964,1,0,0:0:0:30:soft-hitnormal.wav
402,192,115964,1,0,0:0:0:30:soft-hitnormal.wav
36,192,115964,1,0,0:0:0:30:soft-hitnormal.wav
475,192,115964,1,0,0:0:0:30:soft-hitnormal.wav
182,192,116048,1,0,0:0:0:30:soft-hitnormal.wav
36,192,116132,1,0,0:0:0:30:soft-hitnormal.wav
256,192,116132,1,0,0:0:0:30:soft-hitnormal.wav
402,192,116132,1,0,0:0:0:30:soft-hitnormal.wav
475,192,116132,1,0,0:0:0:30:soft-hitnormal.wav
109,192,116216,1,0,0:0:0:30:soft-hitnormal.wav
475,192,116300,1,0,0:0:0:30:soft-hitnormal.wav
402,192,116300,1,0,0:0:0:30:soft-hitnormal.wav
256,192,116300,1,0,0:0:0:30:soft-hitnormal.wav
36,192,116300,1,0,0:0:0:30:soft-hitnormal.wav
182,192,116468,1,0,0:0:0:30:soft-hitnormal.wav
329,192,116468,1,0,0:0:0:30:soft-hitnormal.wav
109,192,116552,1,0,0:0:0:30:soft-hitnormal.wav
402,192,116552,1,0,0:0:0:30:soft-hitnormal.wav
256,192,116636,1,0,0:0:0:30:soft-hitnormal.wav
36,192,116636,1,0,0:0:0:30:soft-hitnormal.wav
475,192,116636,1,0,0:0:0:30:soft-hitnormal.wav
109,192,116720,1,0,0:0:0:30:soft-hitnormal.wav
329,192,116720,1,0,0:0:0:30:soft-hitnormal.wav
402,192,116804,1,0,0:0:0:30:soft-hitnormal.wav
109,192,116888,128,0,117644:0:0:0:30:soft-hitnormal.wav
36,192,116888,128,0,117644:0:0:0:30:soft-hitnormal.wav
475,192,116888,1,0,0:0:0:30:soft-hitnormal.wav
329,192,116972,1,0,0:0:0:30:soft-hitnormal.wav
182,192,116972,1,0,0:0:0:30:soft-hitnormal.wav
475,192,117056,1,0,0:0:0:30:soft-hitnormal.wav
256,192,117140,1,0,0:0:0:30:soft-hitnormal.wav
402,192,117140,1,0,0:0:0:30:soft-hitnormal.wav
182,192,117224,1,0,0:0:0:30:soft-hitnormal.wav
329,192,117308,1,0,0:0:0:30:soft-hitnormal.wav
475,192,117308,1,0,0:0:0:30:soft-hitnormal.wav
402,192,117308,1,0,0:0:0:30:soft-hitnormal.wav
256,192,117392,1,0,0:0:0:30:soft-hitnormal.wav
182,192,117476,1,0,0:0:0:30:soft-hitnormal.wav
475,192,117476,1,0,0:0:0:30:soft-hitnormal.wav
402,192,117560,1,0,0:0:0:30:soft-hitnormal.wav
329,192,117644,1,0,0:0:0:30:soft-hitnormal.wav
182,192,117644,1,0,0:0:0:30:soft-hitnormal.wav
256,192,117644,1,0,0:0:0:30:soft-hitnormal.wav
402,192,117728,1,0,0:0:0:30:soft-hitnormal.wav
475,192,117812,1,0,0:0:0:30:soft-hitnormal.wav
182,192,117812,1,0,0:0:0:30:soft-hitnormal.wav
256,192,117812,1,0,0:0:0:30:soft-hitnormal.wav
329,192,117896,1,0,0:0:0:30:soft-hitnormal.wav
36,192,117896,1,0,0:0:0:30:soft-hitnormal.wav
109,192,117980,1,0,0:0:0:30:soft-hitnormal.wav
402,192,117980,1,0,0:0:0:30:soft-hitnormal.wav
182,192,117980,1,0,0:0:0:30:soft-hitnormal.wav
256,192,118064,1,0,0:0:0:30:soft-hitnormal.wav
475,192,118064,1,0,0:0:0:30:soft-hitnormal.wav
36,192,118148,1,0,0:0:0:30:soft-hitnormal.wav
109,192,118148,1,0,0:0:0:30:soft-hitnormal.wav
329,192,118148,1,0,0:0:0:30:soft-hitnormal.wav
182,192,118233,1,0,0:0:0:30:soft-hitnormal.wav
256,192,118317,1,0,0:0:0:30:soft-hitnormal.wav
402,192,118317,1,0,0:0:0:30:soft-hitnormal.wav
475,192,118317,1,0,0:0:0:30:soft-hitnormal.wav
36,192,118317,1,0,0:0:0:30:soft-hitnormal.wav
36,192,118485,1,0,0:0:0:30:soft-hitnormal.wav
182,192,118485,1,0,0:0:0:30:soft-hitnormal.wav
329,192,118485,1,0,0:0:0:30:soft-hitnormal.wav
402,192,118485,1,0,0:0:0:30:soft-hitnormal.wav
36,192,118653,1,0,0:0:0:30:soft-hitnormal.wav
109,192,118653,1,0,0:0:0:30:soft-hitnormal.wav
256,192,118653,1,0,0:0:0:30:soft-hitnormal.wav
329,192,118653,1,0,0:0:0:30:soft-hitnormal.wav
109,192,118821,1,0,0:0:0:30:soft-hitnormal.wav
182,192,118821,1,0,0:0:0:30:soft-hitnormal.wav
36,192,118821,1,0,0:0:0:30:soft-hitnormal.wav
402,192,118905,1,0,0:0:0:30:soft-hitnormal.wav
475,192,118905,1,0,0:0:0:30:soft-hitnormal.wav
36,192,118989,1,0,0:0:0:30:soft-hitnormal.wav
109,192,118989,1,0,0:0:0:30:soft-hitnormal.wav
182,192,118989,1,0,0:0:0:30:soft-hitnormal.wav
256,192,118989,1,0,0:0:0:30:soft-hitnormal.wav
329,192,119157,1,0,0:0:0:30:soft-hitnormal.wav
402,192,119157,1,0,0:0:0:30:soft-hitnormal.wav
475,192,119157,1,0,0:0:0:30:soft-hitnormal.wav
36,192,119157,128,0,120333:0:0:0:30:soft-hitnormal.wav
109,192,119157,128,0,120333:0:0:0:30:soft-hitnormal.wav
182,192,119157,1,0,0:0:0:30:soft-hitnormal.wav
256,192,119325,1,0,0:0:0:30:soft-hitnormal.wav
402,192,119325,1,0,0:0:0:30:soft-hitnormal.wav
475,192,119493,1,0,0:0:0:30:soft-hitnormal.wav
329,192,119493,1,0,0:0:0:30:soft-hitnormal.wav
256,192,119577,1,0,0:0:0:30:soft-hitnormal.wav
475,192,119661,1,0,0:0:0:30:soft-hitnormal.wav
182,192,119661,1,0,0:0:0:30:soft-hitnormal.wav
402,192,119661,1,0,0:0:0:30:soft-hitnormal.wav
182,192,119829,1,0,0:0:0:30:soft-hitnormal.wav
329,192,119829,1,0,0:0:0:30:soft-hitnormal.wav
402,192,119829,1,0,0:0:0:30:soft-hitnormal.wav
256,192,119997,1,0,0:0:0:30:soft-hitnormal.wav
475,192,119997,1,0,0:0:0:30:soft-hitnormal.wav
402,192,120081,1,0,0:0:0:30:soft-hitnormal.wav
329,192,120165,1,0,0:0:0:30:soft-hitnormal.wav
182,192,120165,1,0,0:0:0:30:soft-hitnormal.wav
402,192,120249,1,0,0:0:0:30:soft-hitnormal.wav
475,192,120333,1,0,0:0:0:30:soft-hitnormal.wav
256,192,120333,1,0,0:0:0:30:soft-hitnormal.wav
182,192,120333,1,0,0:0:0:30:soft-hitnormal.wav
329,192,120417,1,0,0:0:0:30:soft-hitnormal.wav
402,192,120501,5,0,0:0:0:30:soft-hitnormal.wav
109,192,120501,1,0,0:0:0:30:soft-hitnormal.wav
182,192,120501,1,0,0:0:0:30:soft-hitnormal.wav
256,192,120585,1,0,0:0:0:30:soft-hitnormal.wav
475,192,120585,1,0,0:0:0:30:soft-hitnormal.wav
329,192,120670,1,0,0:0:0:30:soft-hitnormal.wav
36,192,120670,1,0,0:0:0:30:soft-hitnormal.wav
109,192,120670,1,0,0:0:0:30:soft-hitnormal.wav
36,192,120838,1,0,0:0:0:30:soft-hitnormal.wav
182,192,120838,1,0,0:0:0:30:soft-hitnormal.wav
402,192,120838,1,0,0:0:0:30:soft-hitnormal.wav
475,192,120922,1,0,0:0:0:30:soft-hitnormal.wav
256,192,120922,1,0,0:0:0:30:soft-hitnormal.wav
109,192,121006,1,0,0:0:0:30:soft-hitnormal.wav
329,192,121006,1,0,0:0:0:30:soft-hitnormal.wav
182,192,121174,1,0,0:0:0:30:soft-hitnormal.wav
329,192,121174,1,0,0:0:0:30:soft-hitnormal.wav
109,192,121174,1,0,0:0:0:30:soft-hitnormal.wav
256,192,121342,1,0,0:0:0:30:soft-hitnormal.wav
402,192,121342,1,0,0:0:0:30:soft-hitnormal.wav
36,192,121342,1,0,0:0:0:30:soft-hitnormal.wav
109,192,121426,1,0,0:0:0:30:soft-hitnormal.wav
475,192,121426,1,0,0:0:0:30:soft-hitnormal.wav
329,192,121510,1,0,0:0:0:30:soft-hitnormal.wav
182,192,121510,1,0,0:0:0:30:soft-hitnormal.wav
402,192,121594,1,0,0:0:0:30:soft-hitnormal.wav
109,192,121594,1,0,0:0:0:30:soft-hitnormal.wav
36,192,121678,128,0,122938:0:0:0:30:soft-hitnormal.wav
256,192,121678,1,0,0:0:0:30:soft-hitnormal.wav
475,192,121678,1,0,0:0:0:30:soft-hitnormal.wav
182,192,121678,1,0,0:0:0:30:soft-hitnormal.wav
329,192,121762,1,0,0:0:0:30:soft-hitnormal.wav
402,192,121846,1,0,0:0:0:30:soft-hitnormal.wav
182,192,121846,1,0,0:0:0:30:soft-hitnormal.wav
256,192,121930,1,0,0:0:0:30:soft-hitnormal.wav
329,192,122014,1,0,0:0:0:30:soft-hitnormal.wav
475,192,122014,1,0,0:0:0:30:soft-hitnormal.wav
109,192,122014,1,0,0:0:0:30:soft-hitnormal.wav
182,192,122098,1,0,0:0:0:30:soft-hitnormal.wav
402,192,122182,1,0,0:0:0:30:soft-hitnormal.wav
256,192,122182,1,0,0:0:0:30:soft-hitnormal.wav
109,192,122266,1,0,0:0:0:30:soft-hitnormal.wav
475,192,122350,1,0,0:0:0:30:soft-hitnormal.wav
182,192,122350,1,0,0:0:0:30:soft-hitnormal.wav
402,192,122350,1,0,0:0:0:30:soft-hitnormal.wav
256,192,122434,1,0,0:0:0:30:soft-hitnormal.wav
329,192,122518,1,0,0:0:0:30:soft-hitnormal.wav
475,192,122518,1,0,0:0:0:30:soft-hitnormal.wav
182,192,122602,1,0,0:0:0:30:soft-hitnormal.wav
256,192,122686,1,0,0:0:0:30:soft-hitnormal.wav
109,192,122686,128,0,122938:0:0:0:30:soft-hitnormal.wav
402,192,122686,1,0,0:0:0:30:soft-hitnormal.wav
402,192,122854,1,0,0:0:0:30:soft-hitnormal.wav
475,192,122854,1,0,0:0:0:30:soft-hitnormal.wav
402,192,122938,1,0,0:0:0:30:soft-hitnormal.wav
475,192,122938,1,0,0:0:0:30:soft-hitnormal.wav
256,192,123022,1,0,0:0:0:30:soft-hitnormal.wav
182,192,123022,1,0,0:0:0:30:soft-hitnormal.wav
109,192,123022,1,0,0:0:0:30:soft-hitnormal.wav
36,192,123022,1,0,0:0:0:30:soft-hitnormal.wav
329,192,123022,1,0,0:0:0:30:soft-hitnormal.wav
402,192,123106,1,0,0:0:0:30:soft-hitnormal.wav
475,192,123106,1,0,0:0:0:30:soft-hitnormal.wav
36,192,123191,1,0,0:0:0:30:soft-hitnormal.wav
109,192,123191,1,0,0:0:0:30:soft-hitnormal.wav
182,192,123191,1,0,0:0:0:30:soft-hitnormal.wav
256,192,123191,1,0,0:0:0:30:soft-hitnormal.wav
329,192,123275,1,0,0:0:0:30:soft-hitnormal.wav
402,192,123275,1,0,0:0:0:30:soft-hitnormal.wav
109,192,123359,1,0,0:0:0:30:soft-hitnormal.wav
36,192,123359,1,0,0:0:0:30:soft-hitnormal.wav
256,192,123443,1,0,0:0:0:30:soft-hitnormal.wav
402,192,123443,1,0,0:0:0:30:soft-hitnormal.wav
329,192,123443,1,0,0:0:0:30:soft-hitnormal.wav
475,192,123443,1,0,0:0:0:30:soft-hitnormal.wav
182,192,123527,1,0,0:0:0:30:soft-hitnormal.wav
109,192,123527,1,0,0:0:0:30:soft-hitnormal.wav
402,192,123611,1,0,0:0:0:30:soft-hitnormal.wav
475,192,123611,1,0,0:0:0:30:soft-hitnormal.wav
256,192,123695,1,0,0:0:0:30:soft-hitnormal.wav
182,192,123695,1,0,0:0:0:30:soft-hitnormal.wav
109,192,123695,1,0,0:0:0:30:soft-hitnormal.wav
36,192,123695,1,0,0:0:0:30:soft-hitnormal.wav
329,192,123779,1,0,0:0:0:30:soft-hitnormal.wav
402,192,123779,1,0,0:0:0:30:soft-hitnormal.wav
36,192,123863,1,0,0:0:0:30:soft-hitnormal.wav
109,192,123863,1,0,0:0:0:30:soft-hitnormal.wav
256,192,123947,1,0,0:0:0:30:soft-hitnormal.wav
329,192,123947,1,0,0:0:0:30:soft-hitnormal.wav
402,192,123947,1,0,0:0:0:30:soft-hitnormal.wav
475,192,123947,1,0,0:0:0:30:soft-hitnormal.wav
182,192,124031,1,0,0:0:0:30:soft-hitnormal.wav
109,192,124031,1,0,0:0:0:30:soft-hitnormal.wav
402,192,124115,1,0,0:0:0:30:soft-hitnormal.wav
475,192,124115,1,0,0:0:0:30:soft-hitnormal.wav
109,192,124199,1,0,0:0:0:30:soft-hitnormal.wav
36,192,124199,1,0,0:0:0:30:soft-hitnormal.wav
329,192,124283,1,0,0:0:0:30:soft-hitnormal.wav
402,192,124283,1,0,0:0:0:30:soft-hitnormal.wav
109,192,124367,1,0,0:0:0:30:soft-hitnormal.wav
182,192,124367,1,0,0:0:0:30:soft-hitnormal.wav
402,192,124451,1,0,0:0:0:30:soft-hitnormal.wav
475,192,124451,1,0,0:0:0:30:soft-hitnormal.wav
182,192,124535,1,0,0:0:0:30:soft-hitnormal.wav
109,192,124535,1,0,0:0:0:30:soft-hitnormal.wav
256,192,124535,1,0,0:0:0:30:soft-hitnormal.wav
36,192,124535,1,0,0:0:0:30:soft-hitnormal.wav
402,192,124619,1,0,0:0:0:30:soft-hitnormal.wav
329,192,124619,1,0,0:0:0:30:soft-hitnormal.wav
109,192,124703,1,0,0:0:0:30:soft-hitnormal.wav
36,192,124703,1,0,0:0:0:30:soft-hitnormal.wav
329,192,124787,1,0,0:0:0:30:soft-hitnormal.wav
256,192,124787,1,0,0:0:0:30:soft-hitnormal.wav
475,192,124787,1,0,0:0:0:30:soft-hitnormal.wav
402,192,124787,1,0,0:0:0:30:soft-hitnormal.wav
182,192,124871,1,0,0:0:0:30:soft-hitnormal.wav
109,192,124871,1,0,0:0:0:30:soft-hitnormal.wav
402,192,124955,1,0,0:0:0:30:soft-hitnormal.wav
475,192,124955,1,0,0:0:0:30:soft-hitnormal.wav
36,192,125039,1,0,0:0:0:30:soft-hitnormal.wav
109,192,125039,1,0,0:0:0:30:soft-hitnormal.wav
182,192,125039,1,0,0:0:0:30:soft-hitnormal.wav
256,192,125039,1,0,0:0:0:30:soft-hitnormal.wav
329,192,125123,1,0,0:0:0:30:soft-hitnormal.wav
402,192,125123,1,0,0:0:0:30:soft-hitnormal.wav
109,192,125207,1,0,0:0:0:30:soft-hitnormal.wav
36,192,125207,1,0,0:0:0:30:soft-hitnormal.wav
256,192,125291,1,0,0:0:0:30:soft-hitnormal.wav
402,192,125291,1,0,0:0:0:30:soft-hitnormal.wav
329,192,125291,1,0,0:0:0:30:soft-hitnormal.wav
475,192,125291,1,0,0:0:0:30:soft-hitnormal.wav
109,192,125375,1,0,0:0:0:30:soft-hitnormal.wav
36,192,125375,1,0,0:0:0:30:soft-hitnormal.wav
182,192,125375,1,0,0:0:0:30:soft-hitnormal.wav
475,192,125459,1,0,0:0:0:30:soft-hitnormal.wav
402,192,125459,1,0,0:0:0:30:soft-hitnormal.wav
329,192,125459,1,0,0:0:0:30:soft-hitnormal.wav
109,192,125543,1,0,0:0:0:30:soft-hitnormal.wav
36,192,125543,1,0,0:0:0:30:soft-hitnormal.wav
182,192,125543,1,0,0:0:0:30:soft-hitnormal.wav
256,192,125627,1,0,0:0:0:30:soft-hitnormal.wav
329,192,125627,1,0,0:0:0:30:soft-hitnormal.wav
402,192,125627,1,0,0:0:0:30:soft-hitnormal.wav
109,192,125712,1,0,0:0:0:30:soft-hitnormal.wav
182,192,125712,1,0,0:0:0:30:soft-hitnormal.wav
475,192,125712,1,0,0:0:0:30:soft-hitnormal.wav
256,192,125880,1,0,0:0:0:30:soft-hitnormal.wav
475,192,125880,1,0,0:0:0:30:soft-hitnormal.wav
36,192,125880,1,0,0:0:0:30:soft-hitnormal.wav
329,192,125964,1,0,0:0:0:30:soft-hitnormal.wav
402,192,126048,1,0,0:0:0:30:soft-hitnormal.wav
475,192,126048,1,0,0:0:0:30:soft-hitnormal.wav
182,192,126048,1,0,0:0:0:30:soft-hitnormal.wav
256,192,126132,1,0,0:0:0:30:soft-hitnormal.wav
36,192,126132,1,0,0:0:0:30:soft-hitnormal.wav
109,192,126132,1,0,0:0:0:30:soft-hitnormal.wav
329,192,126216,1,0,0:0:0:30:soft-hitnormal.wav
402,192,126216,1,0,0:0:0:30:soft-hitnormal.wav
475,192,126216,1,0,0:0:0:30:soft-hitnormal.wav
109,192,126300,1,0,0:0:0:30:soft-hitnormal.wav
182,192,126300,1,0,0:0:0:30:soft-hitnormal.wav
36,192,126300,1,0,0:0:0:30:soft-hitnormal.wav
256,192,126468,1,0,0:0:0:30:soft-hitnormal.wav
109,192,126468,1,0,0:0:0:30:soft-hitnormal.wav
402,192,126468,1,0,0:0:0:30:soft-hitnormal.wav
329,192,126552,1,0,0:0:0:30:soft-hitnormal.wav
475,192,126552,1,0,0:0:0:30:soft-hitnormal.wav
182,192,126636,1,0,0:0:0:30:soft-hitnormal.wav
36,192,126636,1,0,0:0:0:30:soft-hitnormal.wav
256,192,126720,1,0,0:0:0:30:soft-hitnormal.wav
402,192,126720,1,0,0:0:0:30:soft-hitnormal.wav
36,192,126804,1,0,0:0:0:30:soft-hitnormal.wav
109,192,126804,1,0,0:0:0:30:soft-hitnormal.wav
402,192,126888,1,0,0:0:0:30:soft-hitnormal.wav
475,192,126888,1,0,0:0:0:30:soft-hitnormal.wav
329,192,126888,1,0,0:0:0:30:soft-hitnormal.wav
109,192,126972,1,0,0:0:0:30:soft-hitnormal.wav
182,192,126972,1,0,0:0:0:30:soft-hitnormal.wav
36,192,127056,1,0,0:0:0:30:soft-hitnormal.wav
256,192,127056,1,0,0:0:0:30:soft-hitnormal.wav
402,192,127056,1,0,0:0:0:30:soft-hitnormal.wav
475,192,127056,1,0,0:0:0:30:soft-hitnormal.wav
36,192,127392,128,0,127728:0:0:0:30:soft-hitnormal.wav
109,192,127392,128,0,127728:0:0:0:30:soft-hitnormal.wav
182,192,127392,128,0,127728:0:0:0:30:soft-hitnormal.wav
329,192,127392,128,0,127728:0:0:0:30:soft-hitnormal.wav
402,192,127392,128,0,127728:0:0:0:30:soft-hitnormal.wav
475,192,127392,128,0,127728:0:0:0:30:soft-hitnormal.wav
