osu file format v14

[General]
AudioFilename: audio.mp3
AudioLeadIn: 0
PreviewTime: -1
Countdown: 0
SampleSet: Normal
StackLeniency: 0.7
Mode: 3
LetterboxInBreaks: 0
SpecialStyle: 0
WidescreenStoryboard: 1

[Editor]
DistanceSpacing: 1
BeatDivisor: 4
GridSize: 8
TimelineZoom: 1.4

[Metadata]
Title:.357 Magnum
TitleUnicode:.357 Magnum
Artist:xi
ArtistUnicode:xi
Creator:Level 51
Version:Easy
Source:BMS
Tags:extremebeat piano jazz
BeatmapID:1099591
BeatmapSetID:517516

[Difficulty]
HPDrainRate:7
CircleSize:7
OverallDifficulty:7
ApproachRate:5
SliderMultiplier:1.4
SliderTickRate:1

[Events]
//Background and Video events
0,0,"bg.png",0,0
//Break Periods
//Storyboard Layer 0 (Background)
//Storyboard Layer 1 (Fail)
//Storyboard Layer 2 (Pass)
//Storyboard Layer 3 (Foreground)
//Storyboard Layer 4 (Overlay)
//Storyboard Sound Samples

[TimingPoints]
670,336.134453781513,4,1,0,0,1,0

[HitObjects]
256,192,670,128,0,2014:0:0:0:30:soft-hitnormal.wav
402,192,2350,1,0,0:0:0:30:soft-hitnormal.wav
402,192,2686,1,0,0:0:0:30:soft-hitnormal.wav
109,192,3022,1,0,0:0:0:30:soft-hitnormal.wav
109,192,3359,1,0,0:0:0:30:soft-hitnormal.wav
402,192,3359,1,0,0:0:0:30:soft-hitnormal.wav
256,192,3863,1,0,0:0:0:30:soft-hitnormal.wav
475,192,4367,1,0,0:0:0:30:soft-hitnormal.wav
182,192,4703,1,0,0:0:0:30:soft-hitnormal.wav
182,192,5039,1,0,0:0:0:30:soft-hitnormal.wav
182,192,5375,1,0,0:0:0:30:soft-hitnormal.wav
402,192,5712,1,0,0:0:0:30:soft-hitnormal.wav
109,192,5880,1,0,0:0:0:30:soft-hitnormal.wav
329,192,6048,1,0,0:0:0:30:soft-hitnormal.wav
36,192,6636,128,0,7392:0:0:0:30:soft-hitnormal.wav
256,192,7392,1,0,0:0:0:30:soft-hitnormal.wav
402,192,7980,128,0,8737:0:0:0:30:soft-hitnormal.wav
109,192,8737,1,0,0:0:0:30:soft-hitnormal.wav
329,192,8905,128,0,9409:0:0:0:30:soft-hitnormal.wav
36,192,9409,128,0,10081:0:0:0:30:soft-hitnormal.wav
182,192,10081,1,0,0:0:0:30:soft-hitnormal.wav
475,192,10417,1,0,0:0:0:30:soft-hitnormal.wav
256,192,10670,1,0,0:0:0:30:soft-hitnormal.wav
402,192,11090,1,0,0:0:0:30:soft-hitnormal.wav
109,192,11426,1,0,0:0:0:30:soft-hitnormal.wav
109,192,11762,1,0,0:0:0:30:soft-hitnormal.wav
329,192,12098,1,0,0:0:0:30:soft-hitnormal.wav
329,192,12434,1,0,0:0:0:30:soft-hitnormal.wav
109,192,12770,1,0,0:0:0:30:soft-hitnormal.wav
329,192,13106,1,0,0:0:0:30:soft-hitnormal.wav
402,192,13106,1,0,0:0:0:30:soft-hitnormal.wav
109,192,13779,1,0,0:0:0:30:soft-hitnormal.wav
475,192,14115,1,0,0:0:0:30:soft-hitnormal.wav
329,192,14451,1,0,0:0:0:30:soft-hitnormal.wav
182,192,14787,1,0,0:0:0:30:soft-hitnormal.wav
36,192,15123,1,0,0:0:0:30:soft-hitnormal.wav
402,192,15459,1,0,0:0:0:30:soft-hitnormal.wav
256,192,15796,1,0,0:0:0:30:soft-hitnormal.wav
109,192,16132,1,0,0:0:0:30:soft-hitnormal.wav
329,192,16468,1,0,0:0:0:30:soft-hitnormal.wav
182,192,16636,1,0,0:0:0:30:soft-hitnormal.wav
402,192,16804,1,0,0:0:0:30:soft-hitnormal.wav
109,192,17140,1,0,0:0:0:30:soft-hitnormal.wav
329,192,17476,1,0,0:0:0:30:soft-hitnormal.wav
182,192,17812,1,0,0:0:0:30:soft-hitnormal.wav
475,192,18148,1,0,0:0:0:30:soft-hitnormal.wav
36,192,18485,1,0,0:0:0:30:soft-hitnormal.wav
402,192,18821,1,0,0:0:0:30:soft-hitnormal.wav
109,192,19157,1,0,0:0:0:30:soft-hitnormal.wav
256,192,19493,1,0,0:0:0:30:soft-hitnormal.wav
402,192,19661,128,0,20838:0:0:0:30:soft-hitnormal.wav
329,192,20838,1,0,0:0:0:30:soft-hitnormal.wav
182,192,21174,1,0,0:0:0:30:soft-hitnormal.wav
36,192,21510,1,0,0:0:0:30:soft-hitnormal.wav
256,192,21846,1,0,0:0:0:30:soft-hitnormal.wav
402,192,22182,1,0,0:0:0:30:soft-hitnormal.wav
182,192,22518,1,0,0:0:0:30:soft-hitnormal.wav
475,192,22854,1,0,0:0:0:30:soft-hitnormal.wav
109,192,23191,1,0,0:0:0:30:soft-hitnormal.wav
402,192,23527,1,0,0:0:0:30:soft-hitnormal.wav
329,192,23863,1,0,0:0:0:30:soft-hitnormal.wav
182,192,24199,1,0,0:0:0:30:soft-hitnormal.wav
109,192,24535,1,0,0:0:0:30:soft-hitnormal.wav
256,192,24871,1,0,0:0:0:30:soft-hitnormal.wav
329,192,24871,1,0,0:0:0:30:soft-hitnormal.wav
475,192,25207,1,0,0:0:0:30:soft-hitnormal.wav
475,192,25543,1,0,0:0:0:30:soft-hitnormal.wav
256,192,25880,1,0,0:0:0:30:soft-hitnormal.wav
109,192,26048,1,0,0:0:0:30:soft-hitnormal.wav
402,192,26216,1,0,0:0:0:30:soft-hitnormal.wav
329,192,26552,1,0,0:0:0:30:soft-hitnormal.wav
36,192,26888,1,0,0:0:0:30:soft-hitnormal.wav
402,192,27224,1,0,0:0:0:30:soft-hitnormal.wav
109,192,27392,1,0,0:0:0:30:soft-hitnormal.wav
402,192,27560,1,0,0:0:0:30:soft-hitnormal.wav
256,192,28064,128,0,28905:0:0:0:30:soft-hitnormal.wav
329,192,28905,1,0,0:0:0:30:soft-hitnormal.wav
329,192,29241,1,0,0:0:0:30:soft-hitnormal.wav
329,192,29577,1,0,0:0:0:30:soft-hitnormal.wav
402,192,29913,1,0,0:0:0:30:soft-hitnormal.wav
109,192,30249,1,0,0:0:0:30:soft-hitnormal.wav
475,192,30417,128,0,31594:0:0:0:30:soft-hitnormal.wav
36,192,31594,1,0,0:0:0:30:soft-hitnormal.wav
182,192,31930,1,0,0:0:0:30:soft-hitnormal.wav
329,192,32266,1,0,0:0:0:30:soft-hitnormal.wav
475,192,32602,1,0,0:0:0:30:soft-hitnormal.wav
182,192,32938,1,0,0:0:0:30:soft-hitnormal.wav
402,192,33275,1,0,0:0:0:30:soft-hitnormal.wav
256,192,33611,1,0,0:0:0:30:soft-hitnormal.wav
109,192,33947,1,0,0:0:0:30:soft-hitnormal.wav
329,192,34283,1,0,0:0:0:30:soft-hitnormal.wav
182,192,34619,1,0,0:0:0:30:soft-hitnormal.wav
402,192,34955,1,0,0:0:0:30:soft-hitnormal.wav
109,192,35291,1,0,0:0:0:30:soft-hitnormal.wav
329,192,35627,1,0,0:0:0:30:soft-hitnormal.wav
182,192,35964,1,0,0:0:0:30:soft-hitnormal.wav
475,192,36300,1,0,0:0:0:30:soft-hitnormal.wav
36,192,36636,1,0,0:0:0:30:soft-hitnormal.wav
256,192,36972,1,0,0:0:0:30:soft-hitnormal.wav
475,192,37308,1,0,0:0:0:30:soft-hitnormal.wav
329,192,37644,128,0,38317:0:0:0:30:soft-hitnormal.wav
109,192,38317,1,0,0:0:0:30:soft-hitnormal.wav
36,192,38317,1,0,0:0:0:30:soft-hitnormal.wav
182,192,38821,128,0,39661:0:0:0:30:soft-hitnormal.wav
402,192,39661,1,0,0:0:0:30:soft-hitnormal.wav
402,192,39997,1,0,0:0:0:30:soft-hitnormal.wav
402,192,40333,1,0,0:0:0:30:soft-hitnormal.wav
402,192,40670,1,0,0:0:0:30:soft-hitnormal.wav
256,192,41006,1,0,0:0:0:30:soft-hitnormal.wav
109,192,41510,128,0,42350:0:0:0:30:soft-hitnormal.wav
475,192,42350,1,0,0:0:0:30:soft-hitnormal.wav
329,192,42686,1,0,0:0:0:30:soft-hitnormal.wav
475,192,43022,1,0,0:0:0:30:soft-hitnormal.wav
329,192,43359,1,0,0:0:0:30:soft-hitnormal.wav
182,192,43695,1,0,0:0:0:30:soft-hitnormal.wav
256,192,44199,128,0,45039:0:0:0:30:soft-hitnormal.wav
475,192,45039,1,0,0:0:0:30:soft-hitnormal.wav
329,192,45543,128,0,46384:0:0:0:30:soft-hitnormal.wav
182,192,46384,1,0,0:0:0:30:soft-hitnormal.wav
36,192,46888,128,0,47728:0:0:0:30:soft-hitnormal.wav
256,192,47728,1,0,0:0:0:30:soft-hitnormal.wav
329,192,48064,1,0,0:0:0:30:soft-hitnormal.wav
402,192,48401,1,0,0:0:0:30:soft-hitnormal.wav
475,192,48737,1,0,0:0:0:30:soft-hitnormal.wav
109,192,49073,1,0,0:0:0:30:soft-hitnormal.wav
182,192,49073,1,0,0:0:0:30:soft-hitnormal.wav
329,192,49577,128,0,50417:0:0:0:30:soft-hitnormal.wav
182,192,50417,1,0,0:0:0:30:soft-hitnormal.wav
36,192,50754,1,0,0:0:0:30:soft-hitnormal.wav
182,192,51090,1,0,0:0:0:30:soft-hitnormal.wav
36,192,51426,1,0,0:0:0:30:soft-hitnormal.wav
475,192,51762,1,0,0:0:0:30:soft-hitnormal.wav
402,192,52266,128,0,53106:0:0:0:30:soft-hitnormal.wav
36,192,53106,1,0,0:0:0:30:soft-hitnormal.wav
329,192,53443,1,0,0:0:0:30:soft-hitnormal.wav
182,192,53779,1,0,0:0:0:30:soft-hitnormal.wav
475,192,54115,1,0,0:0:0:30:soft-hitnormal.wav
329,192,54451,1,0,0:0:0:30:soft-hitnormal.wav
182,192,54955,128,0,55796:0:0:0:30:soft-hitnormal.wav
402,192,55796,1,0,0:0:0:30:soft-hitnormal.wav
256,192,56300,128,0,57140:0:0:0:30:soft-hitnormal.wav
475,192,57140,1,0,0:0:0:30:soft-hitnormal.wav
36,192,57644,128,0,58485:0:0:0:30:soft-hitnormal.wav
475,192,58485,1,0,0:0:0:30:soft-hitnormal.wav
109,192,58821,1,0,0:0:0:30:soft-hitnormal.wav
256,192,59157,1,0,0:0:0:30:soft-hitnormal.wav
402,192,59493,1,0,0:0:0:30:soft-hitnormal.wav
36,192,59829,1,0,0:0:0:30:soft-hitnormal.wav
109,192,59829,1,0,0:0:0:30:soft-hitnormal.wav
256,192,60333,1,0,0:0:0:30:soft-hitnormal.wav
402,192,60838,1,0,0:0:0:30:soft-hitnormal.wav
475,192,61174,1,0,0:0:0:30:soft-hitnormal.wav
329,192,61510,1,0,0:0:0:30:soft-hitnormal.wav
182,192,61846,1,0,0:0:0:30:soft-hitnormal.wav
36,192,62182,1,0,0:0:0:30:soft-hitnormal.wav
402,192,62518,1,0,0:0:0:30:soft-hitnormal.wav
109,192,62854,1,0,0:0:0:30:soft-hitnormal.wav
402,192,63191,1,0,0:0:0:30:soft-hitnormal.wav
109,192,63527,1,0,0:0:0:30:soft-hitnormal.wav
256,192,63863,1,0,0:0:0:30:soft-hitnormal.wav
402,192,64115,128,0,65207:0:0:0:30:soft-hitnormal.wav
109,192,65207,1,0,0:0:0:30:soft-hitnormal.wav
256,192,65375,128,0,66216:0:0:0:30:soft-hitnormal.wav
36,192,66216,128,0,66552:0:0:0:30:soft-hitnormal.wav
475,192,66552,128,0,66888:0:0:0:30:soft-hitnormal.wav
329,192,66888,128,0,67224:0:0:0:30:soft-hitnormal.wav
182,192,67224,128,0,67560:0:0:0:30:soft-hitnormal.wav
36,192,67560,128,0,67896:0:0:0:30:soft-hitnormal.wav
402,192,67896,1,0,0:0:0:30:soft-hitnormal.wav
109,192,68064,1,0,0:0:0:30:soft-hitnormal.wav
329,192,68233,1,0,0:0:0:30:soft-hitnormal.wav
256,192,68569,1,0,0:0:0:30:soft-hitnormal.wav
182,192,68905,1,0,0:0:0:30:soft-hitnormal.wav
402,192,69241,1,0,0:0:0:30:soft-hitnormal.wav
475,192,69241,1,0,0:0:0:30:soft-hitnormal.wav
36,192,69577,1,0,0:0:0:30:soft-hitnormal.wav
109,192,69577,1,0,0:0:0:30:soft-hitnormal.wav
402,192,69913,1,0,0:0:0:30:soft-hitnormal.wav
475,192,69913,1,0,0:0:0:30:soft-hitnormal.wav
182,192,70249,1,0,0:0:0:30:soft-hitnormal.wav
329,192,70585,1,0,0:0:0:30:soft-hitnormal.wav
109,192,70922,1,0,0:0:0:30:soft-hitnormal.wav
402,192,71258,1,0,0:0:0:30:soft-hitnormal.wav
182,192,71594,1,0,0:0:0:30:soft-hitnormal.wav
475,192,71930,1,0,0:0:0:30:soft-hitnormal.wav
256,192,72182,128,0,73275:0:0:0:30:soft-hitnormal.wav
36,192,73275,1,0,0:0:0:30:soft-hitnormal.wav
402,192,73443,128,0,73779:0:0:0:30:soft-hitnormal.wav
109,192,73947,1,0,0:0:0:30:soft-hitnormal.wav
402,192,74283,1,0,0:0:0:30:soft-hitnormal.wav
182,192,74619,1,0,0:0:0:30:soft-hitnormal.wav
329,192,74955,1,0,0:0:0:30:soft-hitnormal.wav
256,192,75291,1,0,0:0:0:30:soft-hitnormal.wav
109,192,75627,1,0,0:0:0:30:soft-hitnormal.wav
402,192,75964,1,0,0:0:0:30:soft-hitnormal.wav
329,192,76300,1,0,0:0:0:30:soft-hitnormal.wav
256,192,76636,1,0,0:0:0:30:soft-hitnormal.wav
182,192,76972,1,0,0:0:0:30:soft-hitnormal.wav
109,192,77308,1,0,0:0:0:30:soft-hitnormal.wav
475,192,77644,1,0,0:0:0:30:soft-hitnormal.wav
36,192,77980,1,0,0:0:0:30:soft-hitnormal.wav
402,192,78317,1,0,0:0:0:30:soft-hitnormal.wav
109,192,78653,1,0,0:0:0:30:soft-hitnormal.wav
329,192,78989,1,0,0:0:0:30:soft-hitnormal.wav
182,192,79325,1,0,0:0:0:30:soft-hitnormal.wav
475,192,79661,1,0,0:0:0:30:soft-hitnormal.wav
36,192,79997,1,0,0:0:0:30:soft-hitnormal.wav
256,192,80333,1,0,0:0:0:30:soft-hitnormal.wav
182,192,80501,1,0,0:0:0:30:soft-hitnormal.wav
402,192,80838,1,0,0:0:0:30:soft-hitnormal.wav
475,192,80838,1,0,0:0:0:30:soft-hitnormal.wav
109,192,81342,1,0,0:0:0:30:soft-hitnormal.wav
402,192,81510,128,0,82350:0:0:0:30:soft-hitnormal.wav
256,192,82350,1,0,0:0:0:30:soft-hitnormal.wav
109,192,82686,1,0,0:0:0:30:soft-hitnormal.wav
475,192,82686,1,0,0:0:0:30:soft-hitnormal.wav
329,192,83022,1,0,0:0:0:30:soft-hitnormal.wav
36,192,83359,1,0,0:0:0:30:soft-hitnormal.wav
329,192,83695,1,0,0:0:0:30:soft-hitnormal.wav
182,192,83863,1,0,0:0:0:30:soft-hitnormal.wav
402,192,84031,1,0,0:0:0:30:soft-hitnormal.wav
256,192,84367,1,0,0:0:0:30:soft-hitnormal.wav
109,192,84703,1,0,0:0:0:30:soft-hitnormal.wav
329,192,85039,1,0,0:0:0:30:soft-hitnormal.wav
182,192,85375,1,0,0:0:0:30:soft-hitnormal.wav
182,192,85712,1,0,0:0:0:30:soft-hitnormal.wav
329,192,86048,1,0,0:0:0:30:soft-hitnormal.wav
402,192,86384,1,0,0:0:0:30:soft-hitnormal.wav
36,192,86720,1,0,0:0:0:30:soft-hitnormal.wav
329,192,86888,128,0,88064:0:0:0:30:soft-hitnormal.wav
109,192,88064,1,0,0:0:0:30:soft-hitnormal.wav
402,192,88401,1,0,0:0:0:30:soft-hitnormal.wav
182,192,88737,1,0,0:0:0:30:soft-hitnormal.wav
329,192,89073,1,0,0:0:0:30:soft-hitnormal.wav
36,192,89409,1,0,0:0:0:30:soft-hitnormal.wav
256,192,89745,1,0,0:0:0:30:soft-hitnormal.wav
475,192,90081,1,0,0:0:0:30:soft-hitnormal.wav
109,192,90417,1,0,0:0:0:30:soft-hitnormal.wav
402,192,90754,1,0,0:0:0:30:soft-hitnormal.wav
182,192,91090,1,0,0:0:0:30:soft-hitnormal.wav
329,192,91426,1,0,0:0:0:30:soft-hitnormal.wav
256,192,91762,1,0,0:0:0:30:soft-hitnormal.wav
36,192,92098,1,0,0:0:0:30:soft-hitnormal.wav
109,192,92098,1,0,0:0:0:30:soft-hitnormal.wav
402,192,92434,1,0,0:0:0:30:soft-hitnormal.wav
402,192,92770,1,0,0:0:0:30:soft-hitnormal.wav
402,192,93106,1,0,0:0:0:30:soft-hitnormal.wav
329,192,93443,1,0,0:0:0:30:soft-hitnormal.wav
182,192,93779,1,0,0:0:0:30:soft-hitnormal.wav
36,192,94115,1,0,0:0:0:30:soft-hitnormal.wav
256,192,94451,1,0,0:0:0:30:soft-hitnormal.wav
109,192,94619,1,0,0:0:0:30:soft-hitnormal.wav
402,192,94787,1,0,0:0:0:30:soft-hitnormal.wav
109,192,95123,1,0,0:0:0:30:soft-hitnormal.wav
475,192,95459,1,0,0:0:0:30:soft-hitnormal.wav
36,192,95796,1,0,0:0:0:30:soft-hitnormal.wav
329,192,96132,1,0,0:0:0:30:soft-hitnormal.wav
329,192,96468,1,0,0:0:0:30:soft-hitnormal.wav
329,192,96804,1,0,0:0:0:30:soft-hitnormal.wav
402,192,97140,1,0,0:0:0:30:soft-hitnormal.wav
109,192,97476,1,0,0:0:0:30:soft-hitnormal.wav
256,192,97644,128,0,98821:0:0:0:30:soft-hitnormal.wav
402,192,98821,1,0,0:0:0:30:soft-hitnormal.wav
109,192,99157,1,0,0:0:0:30:soft-hitnormal.wav
329,192,99493,1,0,0:0:0:30:soft-hitnormal.wav
182,192,99829,1,0,0:0:0:30:soft-hitnormal.wav
402,192,100165,1,0,0:0:0:30:soft-hitnormal.wav
36,192,100333,128,0,101510:0:0:0:30:soft-hitnormal.wav
402,192,101510,1,0,0:0:0:30:soft-hitnormal.wav
402,192,101846,1,0,0:0:0:30:soft-hitnormal.wav
109,192,102014,1,0,0:0:0:30:soft-hitnormal.wav
402,192,102182,1,0,0:0:0:30:soft-hitnormal.wav
109,192,102518,1,0,0:0:0:30:soft-hitnormal.wav
256,192,102854,1,0,0:0:0:30:soft-hitnormal.wav
329,192,103191,1,0,0:0:0:30:soft-hitnormal.wav
109,192,103527,1,0,0:0:0:30:soft-hitnormal.wav
402,192,103863,1,0,0:0:0:30:soft-hitnormal.wav
182,192,104199,1,0,0:0:0:30:soft-hitnormal.wav
182,192,104535,1,0,0:0:0:30:soft-hitnormal.wav
182,192,104871,1,0,0:0:0:30:soft-hitnormal.wav
475,192,105207,1,0,0:0:0:30:soft-hitnormal.wav
256,192,105375,1,0,0:0:0:30:soft-hitnormal.wav
36,192,105543,1,0,0:0:0:30:soft-hitnormal.wav
402,192,105880,1,0,0:0:0:30:soft-hitnormal.wav
109,192,106216,1,0,0:0:0:30:soft-hitnormal.wav
329,192,106552,1,0,0:0:0:30:soft-hitnormal.wav
182,192,106888,1,0,0:0:0:30:soft-hitnormal.wav
402,192,107224,1,0,0:0:0:30:soft-hitnormal.wav
109,192,107476,128,0,108233:0:0:0:30:soft-hitnormal.wav
256,192,108233,1,0,0:0:0:30:soft-hitnormal.wav
475,192,108401,128,0,109577:0:0:0:30:soft-hitnormal.wav
36,192,109577,1,0,0:0:0:30:soft-hitnormal.wav
182,192,109913,1,0,0:0:0:30:soft-hitnormal.wav
329,192,110249,1,0,0:0:0:30:soft-hitnormal.wav
475,192,110585,1,0,0:0:0:30:soft-hitnormal.wav
109,192,110922,1,0,0:0:0:30:soft-hitnormal.wav
109,192,111258,1,0,0:0:0:30:soft-hitnormal.wav
109,192,111594,1,0,0:0:0:30:soft-hitnormal.wav
402,192,111930,1,0,0:0:0:30:soft-hitnormal.wav
256,192,112266,1,0,0:0:0:30:soft-hitnormal.wav
256,192,112602,1,0,0:0:0:30:soft-hitnormal.wav
256,192,112938,1,0,0:0:0:30:soft-hitnormal.wav
182,192,113275,1,0,0:0:0:30:soft-hitnormal.wav
329,192,113611,1,0,0:0:0:30:soft-hitnormal.wav
36,192,113947,1,0,0:0:0:30:soft-hitnormal.wav
475,192,114283,1,0,0:0:0:30:soft-hitnormal.wav
402,192,114619,1,0,0:0:0:30:soft-hitnormal.wav
329,192,114955,1,0,0:0:0:30:soft-hitnormal.wav
36,192,115291,1,0,0:0:0:30:soft-hitnormal.wav
109,192,115627,1,0,0:0:0:30:soft-hitnormal.wav
182,192,115964,1,0,0:0:0:30:soft-hitnormal.wav
256,192,116300,1,0,0:0:0:30:soft-hitnormal.wav
402,192,116636,1,0,0:0:0:30:soft-hitnormal.wav
109,192,116972,1,0,0:0:0:30:soft-hitnormal.wav
329,192,117308,1,0,0:0:0:30:soft-hitnormal.wav
182,192,117644,1,0,0:0:0:30:soft-hitnormal.wav
256,192,117980,128,0,118989:0:0:0:30:soft-hitnormal.wav
36,192,118989,1,0,0:0:0:30:soft-hitnormal.wav
402,192,119325,1,0,0:0:0:30:soft-hitnormal.wav
109,192,119661,1,0,0:0:0:30:soft-hitnormal.wav
329,192,119997,1,0,0:0:0:30:soft-hitnormal.wav
182,192,120333,1,0,0:0:0:30:soft-hitnormal.wav
475,192,120670,1,0,0:0:0:30:soft-hitnormal.wav
36,192,121006,1,0,0:0:0:30:soft-hitnormal.wav
256,192,121342,1,0,0:0:0:30:soft-hitnormal.wav
475,192,121678,1,0,0:0:0:30:soft-hitnormal.wav
402,192,122014,5,0,0:0:0:30:soft-hitnormal.wav
256,192,122350,1,0,0:0:0:30:soft-hitnormal.wav
109,192,122686,1,0,0:0:0:30:soft-hitnormal.wav
36,192,123022,5,0,0:0:0:30:soft-hitnormal.wav
475,192,123275,1,0,0:0:0:30:soft-hitnormal.wav
36,192,123527,1,0,0:0:0:30:soft-hitnormal.wav
475,192,123779,1,0,0:0:0:30:soft-hitnormal.wav
109,192,124031,1,0,0:0:0:30:soft-hitnormal.wav
402,192,124199,1,0,0:0:0:30:soft-hitnormal.wav
182,192,124367,1,0,0:0:0:30:soft-hitnormal.wav
329,192,124619,1,0,0:0:0:30:soft-hitnormal.wav
182,192,124871,1,0,0:0:0:30:soft-hitnormal.wav
329,192,125123,1,0,0:0:0:30:soft-hitnormal.wav
182,192,125375,1,0,0:0:0:30:soft-hitnormal.wav
36,192,125712,1,0,0:0:0:30:soft-hitnormal.wav
475,192,125880,1,0,0:0:0:30:soft-hitnormal.wav
329,192,126048,1,0,0:0:0:30:soft-hitnormal.wav
182,192,126216,1,0,0:0:0:30:soft-hitnormal.wav
36,192,126384,1,0,0:0:0:30:soft-hitnormal.wav
402,192,126552,1,0,0:0:0:30:soft-hitnormal.wav
256,192,126720,1,0,0:0:0:30:soft-hitnormal.wav
109,192,126888,1,0,0:0:0:30:soft-hitnormal.wav
329,192,127056,1,0,0:0:0:30:soft-hitnormal.wav
109,192,127392,128,0,127728:0:0:0:30:soft-hitnormal.wav
402,192,127392,128,0,127728:0:0:0:30:soft-hitnormal.wav
