osu file format v14

[General]
AudioFilename: audio.mp3
AudioLeadIn: 0
PreviewTime: 80081
Countdown: 0
SampleSet: None
StackLeniency: 0.7
Mode: 3
LetterboxInBreaks: 0
SpecialStyle: 0
WidescreenStoryboard: 1

[Editor]
DistanceSpacing: 1.4
BeatDivisor: 4
GridSize: 8
TimelineZoom: 1.3

[Metadata]
Title:.357 Magnum
TitleUnicode:.357 Magnum
Artist:xi
ArtistUnicode:xi
Creator:Devvi-
Version:Normal
Source:
Tags:
BeatmapID:1809206
BeatmapSetID:865223

[Difficulty]
HPDrainRate:2.5
CircleSize:4
OverallDifficulty:2.7
ApproachRate:5
SliderMultiplier:1.4
SliderTickRate:1

[Events]
//Background and Video events
0,0,"lincoln.jpg",0,0
//Break Periods
//Storyboard Layer 0 (Background)
//Storyboard Layer 1 (Fail)
//Storyboard Layer 2 (Pass)
//Storyboard Layer 3 (Foreground)
//Storyboard Sound Samples

[TimingPoints]
754,336.134453781513,4,1,0,100,1,0
754.5,-100,4,2,0,100,0,0
14199,-100,4,2,0,100,0,1
35711,-100,4,2,0,100,0,0
81426,-100,4,2,0,100,0,1
102938,-100,4,2,0,100,0,0

[HitObjects]
448,192,754,5,0,0:0:0:0:
320,192,754,1,0,0:0:0:0:
192,192,754,128,0,2098:0:0:0:0:
64,192,2098,1,0,0:0:0:0:
448,192,2098,1,0,0:0:0:0:
320,192,2434,1,0,0:0:0:0:
192,192,2770,1,0,0:0:0:0:
64,192,2770,1,0,0:0:0:0:
448,192,2938,1,0,0:0:0:0:
320,192,3106,1,0,0:0:0:0:
192,192,3275,1,0,0:0:0:0:
64,192,3443,1,0,0:0:0:0:
448,192,3443,1,0,0:0:0:0:
320,192,3779,1,0,0:0:0:0:
192,192,4115,1,0,0:0:0:0:
448,192,4451,1,0,0:0:0:0:
192,192,4619,1,0,0:0:0:0:
64,192,4787,1,0,0:0:0:0:
448,192,4955,1,0,0:0:0:0:
320,192,5123,1,0,0:0:0:0:
64,192,5291,1,0,0:0:0:0:
448,192,5459,1,0,0:0:0:0:
192,192,5627,1,0,0:0:0:0:
320,192,5796,1,0,0:0:0:0:
64,192,5964,1,0,0:0:0:0:
448,192,6132,1,0,0:0:0:0:
192,192,6132,1,0,0:0:0:0:
64,192,6468,1,0,0:0:0:0:
448,192,6804,1,0,0:0:0:0:
320,192,6972,1,0,0:0:0:0:
192,192,7140,1,0,0:0:0:0:
448,192,7308,1,0,0:0:0:0:
64,192,7476,1,0,0:0:0:0:
320,192,7476,1,0,0:0:0:0:
192,192,7812,1,0,0:0:0:0:
448,192,8148,1,0,0:0:0:0:
64,192,8317,1,0,0:0:0:0:
320,192,8485,1,0,0:0:0:0:
192,192,8653,1,0,0:0:0:0:
192,192,8989,1,0,0:0:0:0:
320,192,8989,1,0,0:0:0:0:
448,192,9493,1,0,0:0:0:0:
64,192,9829,1,0,0:0:0:0:
192,192,9997,1,0,0:0:0:0:
320,192,10165,1,0,0:0:0:0:
448,192,10333,1,0,0:0:0:0:
320,192,10501,1,0,0:0:0:0:
192,192,10669,1,0,0:0:0:0:
64,192,10838,1,0,0:0:0:0:
448,192,11174,1,0,0:0:0:0:
64,192,11342,1,0,0:0:0:0:
320,192,11510,1,0,0:0:0:0:
192,192,11678,1,0,0:0:0:0:
448,192,11846,1,0,0:0:0:0:
320,192,12014,1,0,0:0:0:0:
64,192,12014,1,0,0:0:0:0:
448,192,12350,1,0,0:0:0:0:
320,192,12518,1,0,0:0:0:0:
192,192,12686,1,0,0:0:0:0:
448,192,12854,1,0,0:0:0:0:
64,192,13190,1,0,0:0:0:0:
320,192,13190,1,0,0:0:0:0:
448,192,13190,1,0,0:0:0:0:
192,192,13190,1,0,0:0:0:0:
448,192,13527,1,0,0:0:0:0:
320,192,13695,1,0,0:0:0:0:
64,192,13863,1,0,0:0:0:0:
320,192,14031,1,0,0:0:0:0:
192,192,14199,1,0,0:0:0:0:
448,192,14367,1,0,0:0:0:0:
192,192,14367,128,0,15207:0:0:0:0:
320,192,15207,128,0,15375:0:0:0:0:
448,192,15375,128,0,15543:0:0:0:0:
192,192,15543,128,0,15880:0:0:0:0:
64,192,15711,1,0,0:0:0:0:
320,192,15880,128,0,16216:0:0:0:0:
448,192,16048,1,0,0:0:0:0:
64,192,16216,128,0,16552:0:0:0:0:
192,192,16384,1,0,0:0:0:0:
448,192,16552,128,0,16720:0:0:0:0:
320,192,16720,128,0,16888:0:0:0:0:
64,192,16888,128,0,17224:0:0:0:0:
192,192,16888,128,0,17224:0:0:0:0:
320,192,17224,128,0,17392:0:0:0:0:
448,192,17224,128,0,17392:0:0:0:0:
192,192,17392,128,0,17896:0:0:0:0:
64,192,17392,128,0,17896:0:0:0:0:
448,192,17896,1,0,0:0:0:0:
320,192,18064,1,0,0:0:0:0:
64,192,18232,1,0,0:0:0:0:
320,192,18401,1,0,0:0:0:0:
64,192,18569,1,0,0:0:0:0:
448,192,18737,1,0,0:0:0:0:
192,192,18905,1,0,0:0:0:0:
320,192,19073,1,0,0:0:0:0:
64,192,19241,1,0,0:0:0:0:
448,192,19409,1,0,0:0:0:0:
64,192,19745,1,0,0:0:0:0:
192,192,19745,128,0,20081:0:0:0:0:
448,192,20081,1,0,0:0:0:0:
64,192,20249,1,0,0:0:0:0:
192,192,20417,1,0,0:0:0:0:
448,192,20585,1,0,0:0:0:0:
320,192,20754,1,0,0:0:0:0:
192,192,20922,1,0,0:0:0:0:
448,192,21258,1,0,0:0:0:0:
64,192,21594,1,0,0:0:0:0:
192,192,21762,1,0,0:0:0:0:
320,192,21930,1,0,0:0:0:0:
448,192,22098,1,0,0:0:0:0:
