osu file format v14

[General]
AudioFilename: audio.mp3
AudioLeadIn: 0
PreviewTime: 80081
Countdown: 0
SampleSet: None
StackLeniency: 0.7
Mode: 3
LetterboxInBreaks: 0
SpecialStyle: 0
WidescreenStoryboard: 0

[Editor]
DistanceSpacing: 1.4
BeatDivisor: 4
GridSize: 8
TimelineZoom: 1.3

[Metadata]
Title:.357 Magnum
TitleUnicode:.357 Magnum
Artist:xi
ArtistUnicode:xi
Creator:Devvi-
Version:Easy
Source:
Tags:
BeatmapID:1809205
BeatmapSetID:865223

[Difficulty]
HPDrainRate:1.4
CircleSize:4
OverallDifficulty:1.2
ApproachRate:5
SliderMultiplier:1.4
SliderTickRate:1

[Events]
//Background and Video events
0,0,"lincoln.jpg",0,0
//Break Periods
//Storyboard Layer 0 (Background)
//Storyboard Layer 1 (Fail)
//Storyboard Layer 2 (Pass)
//Storyboard Layer 3 (Foreground)
//Storyboard Sound Samples

[TimingPoints]
754,336.134453781513,4,1,0,100,1,0
754.5,-100,4,2,0,100,0,0
14199,-100,4,2,0,100,0,1
35711,-100,4,2,0,100,0,0
81426,-100,4,2,0,100,0,1
102938,-100,4,2,0,100,0,0

[HitObjects]
64,192,754,5,4,0:0:0:0:
448,192,2098,1,0,0:0:0:0:
320,192,2434,1,0,0:0:0:0:
64,192,2770,1,0,0:0:0:0:
320,192,3106,1,0,0:0:0:0:
448,192,3443,1,4,0:0:0:0:
64,192,3443,1,4,0:0:0:0:
320,192,4115,1,0,0:0:0:0:
64,192,4787,1,4,0:0:0:0:
192,192,5123,1,4,0:0:0:0:
320,192,5459,1,4,0:0:0:0:
192,192,5796,1,4,0:0:0:0:
448,192,6132,1,4,0:0:0:0:
192,192,6804,1,0,0:0:0:0:
448,192,7476,1,0,0:0:0:0:
192,192,7812,1,0,0:0:0:0:
320,192,8148,1,0,0:0:0:0:
192,192,8485,1,0,0:0:0:0:
320,192,8989,128,0,9325:0:0:0:0:
448,192,9829,1,0,0:0:0:0:
320,192,10165,1,0,0:0:0:0:
192,192,10838,1,0,0:0:0:0:
320,192,11342,1,0,0:0:0:0:
448,192,11510,128,0,12182:0:0:0:0:
320,192,12182,128,0,12854:0:0:0:0:
64,192,12854,128,0,13190:0:0:0:0:
448,192,13190,1,0,0:0:0:0:
320,192,14199,1,0,0:0:0:0:
192,192,14871,1,0,0:0:0:0:
320,192,15207,1,0,0:0:0:0:
64,192,15543,1,0,0:0:0:0:
448,192,15543,1,0,0:0:0:0:
192,192,15880,1,0,0:0:0:0:
320,192,16216,1,0,0:0:0:0:
64,192,16552,1,0,0:0:0:0:
448,192,16888,1,0,0:0:0:0:
320,192,17560,1,0,0:0:0:0:
192,192,18232,1,0,0:0:0:0:
320,192,18569,1,0,0:0:0:0:
64,192,18905,1,0,0:0:0:0:
448,192,19241,1,0,0:0:0:0:
64,192,19577,1,0,0:0:0:0:
448,192,20249,1,0,0:0:0:0:
192,192,20922,1,0,0:0:0:0:
320,192,21258,1,0,0:0:0:0:
448,192,21594,1,0,0:0:0:0:
192,192,21930,1,0,0:0:0:0:
448,192,22266,1,0,0:0:0:0:
192,192,22938,1,0,0:0:0:0:
320,192,23611,1,0,0:0:0:0:
192,192,23947,1,0,0:0:0:0:
320,192,24283,1,0,0:0:0:0:
192,192,24619,1,0,0:0:0:0:
64,192,24955,1,0,0:0:0:0:
448,192,26300,1,0,0:0:0:0:
192,192,26636,1,0,0:0:0:0:
320,192,26972,1,0,0:0:0:0:
448,192,27308,1,0,0:0:0:0:
64,192,27644,1,0,0:0:0:0:
448,192,28317,1,0,0:0:0:0:
192,192,28989,1,0,0:0:0:0:
448,192,29325,1,0,0:0:0:0:
64,192,29661,1,0,0:0:0:0:
192,192,29997,1,0,0:0:0:0:
448,192,30333,1,0,0:0:0:0:
320,192,31342,1,0,0:0:0:0:
192,192,31678,1,0,0:0:0:0:
448,192,32350,1,0,0:0:0:0:
64,192,33022,1,0,0:0:0:0:
448,192,33359,1,0,0:0:0:0:
320,192,33695,1,0,0:0:0:0:
192,192,34031,1,0,0:0:0:0:
448,192,34367,1,0,0:0:0:0:
64,192,35039,1,0,0:0:0:0:
320,192,35711,1,0,0:0:0:0:
448,192,37056,128,0,38401:0:0:0:0:
192,192,38401,1,0,0:0:0:0:
320,192,39745,1,0,0:0:0:0:
192,192,40417,1,0,0:0:0:0:
64,192,41090,1,0,0:0:0:0:
448,192,41090,1,0,0:0:0:0:
320,192,42434,1,0,0:0:0:0:
192,192,42770,1,0,0:0:0:0:
320,192,43106,1,0,0:0:0:0:
448,192,43443,1,0,0:0:0:0:
64,192,43779,1,0,0:0:0:0:
448,192,44451,1,0,0:0:0:0:
64,192,45123,1,0,0:0:0:0:
320,192,45796,1,0,0:0:0:0:
192,192,45796,1,0,0:0:0:0:
448,192,46468,1,0,0:0:0:0:
320,192,46804,1,0,0:0:0:0:
448,192,47140,1,0,0:0:0:0:
64,192,47476,1,0,0:0:0:0:
448,192,47812,1,0,0:0:0:0:
320,192,47812,128,0,48485:0:0:0:0:
192,192,48485,128,0,49157:0:0:0:0:
448,192,49157,1,0,0:0:0:0:
320,192,50165,1,0,0:0:0:0:
64,192,50501,1,0,0:0:0:0:
448,192,51510,1,0,0:0:0:0:
192,192,51846,1,0,0:0:0:0:
64,192,52518,1,0,0:0:0:0:
448,192,53190,1,0,0:0:0:0:
192,192,53527,1,0,0:0:0:0:
320,192,53863,1,0,0:0:0:0:
192,192,54199,1,0,0:0:0:0:
64,192,54535,1,0,0:0:0:0:
448,192,55207,1,0,0:0:0:0:
192,192,55880,1,0,0:0:0:0:
320,192,56552,1,0,0:0:0:0:
192,192,57224,128,0,57896:0:0:0:0:
320,192,57896,128,0,58569:0:0:0:0:
64,192,58569,128,0,59241:0:0:0:0:
448,192,59241,128,0,59913:0:0:0:0:
64,192,59913,1,0,0:0:0:0:
320,192,60585,1,0,0:0:0:0:
64,192,61258,1,0,0:0:0:0:
192,192,61594,1,0,0:0:0:0:
320,192,61930,1,0,0:0:0:0:
448,192,62266,1,0,0:0:0:0:
192,192,62602,1,0,0:0:0:0:
320,192,63275,1,0,0:0:0:0:
448,192,63947,1,0,0:0:0:0:
320,192,64619,1,0,0:0:0:0:
192,192,64955,1,0,0:0:0:0:
64,192,65291,1,0,0:0:0:0:
448,192,65964,1,0,0:0:0:0:
192,192,66636,1,0,0:0:0:0:
448,192,67308,1,0,0:0:0:0:
64,192,67644,1,0,0:0:0:0:
320,192,67980,1,0,0:0:0:0:
192,192,68653,1,0,0:0:0:0:
320,192,68989,1,0,0:0:0:0:
448,192,69325,1,0,0:0:0:0:
64,192,69997,1,0,0:0:0:0:
320,192,70333,1,0,0:0:0:0:
192,192,70669,1,0,0:0:0:0:
448,192,71342,1,0,0:0:0:0:
64,192,72014,1,0,0:0:0:0:
448,192,72686,1,0,0:0:0:0:
192,192,73022,1,0,0:0:0:0:
320,192,73359,1,0,0:0:0:0:
448,192,74031,1,0,0:0:0:0:
64,192,74703,1,0,0:0:0:0:
448,192,75375,1,0,0:0:0:0:
192,192,75711,1,0,0:0:0:0:
64,192,76048,1,0,0:0:0:0:
448,192,76720,1,0,0:0:0:0:
320,192,77392,1,0,0:0:0:0:
192,192,78064,1,0,0:0:0:0:
448,192,78737,1,0,0:0:0:0:
320,192,79073,1,0,0:0:0:0:
192,192,79409,1,0,0:0:0:0:
64,192,79745,1,0,0:0:0:0:
448,192,80081,128,0,81426:0:0:0:0:
64,192,80922,1,14,0:0:0:0:
192,192,81426,1,0,0:0:0:0:
320,192,82770,1,0,0:0:0:0:
192,192,83106,1,0,0:0:0:0:
320,192,83443,1,0,0:0:0:0:
192,192,83779,1,0,0:0:0:0:
448,192,84115,1,0,0:0:0:0:
64,192,84115,1,0,0:0:0:0:
320,192,85459,1,0,0:0:0:0:
192,192,85796,1,0,0:0:0:0:
448,192,86132,1,0,0:0:0:0:
192,192,86468,1,0,0:0:0:0:
320,192,86804,1,0,0:0:0:0:
448,192,87476,1,0,0:0:0:0:
64,192,88148,1,0,0:0:0:0:
448,192,88485,1,0,0:0:0:0:
320,192,88821,1,0,0:0:0:0:
192,192,89157,1,0,0:0:0:0:
448,192,89493,128,0,90165:0:0:0:0:
320,192,90165,128,0,90838:0:0:0:0:
64,192,90838,1,0,0:0:0:0:
448,192,91174,1,0,0:0:0:0:
320,192,91510,1,0,0:0:0:0:
192,192,91846,1,0,0:0:0:0:
448,192,92182,1,0,0:0:0:0:
64,192,93527,1,0,0:0:0:0:
448,192,93863,1,0,0:0:0:0:
192,192,94199,1,0,0:0:0:0:
320,192,94535,1,0,0:0:0:0:
64,192,94871,1,0,0:0:0:0:
192,192,94871,1,0,0:0:0:0:
448,192,96216,1,0,0:0:0:0:
192,192,96552,1,0,0:0:0:0:
320,192,96888,1,0,0:0:0:0:
320,192,97224,1,0,0:0:0:0:
448,192,97560,1,0,0:0:0:0:
448,192,98569,1,0,0:0:0:0:
192,192,98905,1,0,0:0:0:0:
64,192,99577,1,0,0:0:0:0:
448,192,99913,1,0,0:0:0:0:
192,192,100249,1,0,0:0:0:0:
448,192,100922,1,0,0:0:0:0:
192,192,101594,1,0,0:0:0:0:
320,192,101930,1,0,0:0:0:0:
448,192,102266,1,0,0:0:0:0:
64,192,102602,1,0,0:0:0:0:
320,192,102938,1,0,0:0:0:0:
64,192,103611,128,0,104283:0:0:0:0:
448,192,104283,1,0,0:0:0:0:
320,192,104619,1,0,0:0:0:0:
192,192,104955,1,0,0:0:0:0:
448,192,105291,1,0,0:0:0:0:
192,192,105627,1,0,0:0:0:0:
448,192,106300,1,0,0:0:0:0:
64,192,106972,1,0,0:0:0:0:
192,192,107308,1,0,0:0:0:0:
64,192,107644,1,0,0:0:0:0:
320,192,107980,1,0,0:0:0:0:
64,192,108317,1,0,0:0:0:0:
448,192,108989,1,0,0:0:0:0:
192,192,109661,1,0,0:0:0:0:
320,192,109997,1,0,0:0:0:0:
192,192,110333,1,0,0:0:0:0:
320,192,110669,1,0,0:0:0:0:
64,192,111006,1,0,0:0:0:0:
448,192,111678,1,0,0:0:0:0:
64,192,112350,1,0,0:0:0:0:
192,192,112686,1,0,0:0:0:0:
320,192,113022,1,0,0:0:0:0:
448,192,113359,1,0,0:0:0:0:
64,192,113695,1,0,0:0:0:0:
448,192,113695,1,0,0:0:0:0:
320,192,114703,1,0,0:0:0:0:
64,192,115039,1,0,0:0:0:0:
448,192,115039,1,0,0:0:0:0:
192,192,115711,1,0,0:0:0:0:
448,192,116384,1,0,0:0:0:0:
64,192,116384,1,0,0:0:0:0:
192,192,117056,1,0,0:0:0:0:
320,192,117392,1,0,0:0:0:0:
64,192,117728,1,0,0:0:0:0:
448,192,118064,1,0,0:0:0:0:
192,192,118401,1,0,0:0:0:0:
320,192,118737,1,0,0:0:0:0:
64,192,119241,1,0,0:0:0:0:
448,192,119241,1,0,0:0:0:0:
320,192,119745,1,0,0:0:0:0:
192,192,120081,1,0,0:0:0:0:
64,192,120417,1,0,0:0:0:0:
448,192,120754,1,0,0:0:0:0:
192,192,121090,1,0,0:0:0:0:
320,192,121426,1,0,0:0:0:0:
192,192,121762,1,0,0:0:0:0:
448,192,122098,1,0,0:0:0:0:
320,192,122434,1,0,0:0:0:0:
192,192,122770,1,0,0:0:0:0:
448,192,123106,128,0,124451:0:0:0:0:
64,192,123106,128,0,124451:0:0:0:0:
192,192,124451,128,0,125796:0:0:0:0:
320,192,124451,128,0,125796:0:0:0:0:
64,192,125796,1,0,0:0:0:0:
448,192,127476,1,14,0:0:0:0:
320,192,127476,1,14,0:0:0:0:
192,192,127476,1,14,0:0:0:0:
64,192,127476,1,14,0:0:0:0:
