osu file format v14

[General]
AudioFilename: 1337.mp3
AudioLeadIn: 1650
PreviewTime: 79997
Countdown: 0
SampleSet: Soft
StackLeniency: 0.7
Mode: 0
LetterboxInBreaks: 0
WidescreenStoryboard: 0

[Editor]
Bookmarks: 67476,88064
DistanceSpacing: 1
BeatDivisor: 4
GridSize: 4
TimelineZoom: 1.3

[Metadata]
Title:.357 Magnum
TitleUnicode:.357 Magnum
Artist:xi
ArtistUnicode:xi
Creator:Akali
Version:Medium
Source:BMS
Tags:sayaka- dialgadu77 tidek EXTREMEBEAT piano jazz
BeatmapID:551960
BeatmapSetID:155749

[Difficulty]
HPDrainRate:4.5
CircleSize:4
OverallDifficulty:6
ApproachRate:7.5
SliderMultiplier:1.25000000596046
SliderTickRate:2

[Events]
//Background and Video events
0,0,"lincoln.jpg",0,0
//Break Periods
2,38517,48248
2,81341,91274
//Storyboard Layer 0 (Background)
//Storyboard Layer 1 (Fail)
//Storyboard Layer 2 (Pass)
//Storyboard Layer 3 (Foreground)
//Storyboard Sound Samples

[TimingPoints]
669.585365853658,336.134453781513,4,2,1,60,1,0
38316,-100,4,2,1,47,0,0
113610,-100,4,2,1,60,0,1
123022,-100,4,2,1,60,0,0

[Colours]
Combo1 : 105,105,105
Combo2 : 160,82,45
Combo3 : 139,125,123
Combo4 : 205,190,112

[HitObjects]
230,292,670,6,0,P|349:124|144:112,1,500.000002384184,8|0,0:3|0:0,0:0:0:0:
144,112,2351,6,0,P|132:184|166:236,1,125.000000596046,2|0,0:0|0:0,0:0:0:0:
296,278,3023,1,8,0:0:0:0:
369,265,3191,1,0,0:0:0:0:
428,219,3359,6,0,P|444:174|365:68,1,187.500000894069,4|2,0:0|0:0,0:0:0:0:
256,166,4199,1,2,0:0:0:0:
203,219,4368,2,0,P|168:240|115:238,1,62.500000298023,8|0,0:0|0:0,0:0:0:0:
88,196,4704,6,0,L|79:123,1,62.500000298023,0|0,0:0|0:0,0:0:0:0:
144,96,5040,2,0,P|184:109|214:108,1,62.500000298023,0|0,0:0|0:0,0:0:0:0:
278,96,5376,2,0,P|317:122|328:160,1,62.500000298023,8|0,0:0|0:0,0:0:0:0:
318,209,5712,1,8,0:0:0:0:
266,263,5880,1,8,0:0:0:0:
202,302,6048,6,0,P|155:318|82:254,1,125.000000596046,4|0,0:0|0:0,0:0:0:0:
156,241,6552,1,0,0:0:0:0:
219,200,6721,2,0,P|168:166|109:181,1,125.000000596046,0|0,0:0|0:0,0:0:0:0:
202,302,7393,6,0,L|278:323,1,62.500000298023,0|0,0:0|0:0,0:0:0:0:
336,330,7729,2,0,P|385:316|406:290,2,62.500000298023,0|0|0,0:0|0:0|0:0,0:0:0:0:
342,255,8233,1,0,0:0:0:0:
390,197,8401,1,8,0:0:0:0:
464,187,8569,1,8,0:0:0:0:
404,49,8905,6,0,B|338:50|338:88|278:116|219:58,1,187.500000894069,6|10,0:0|0:0,0:0:0:0:
79,69,9746,2,0,P|54:106|62:147,1,62.500000298023,2|0,0:0|0:0,0:0:0:0:
70,195,10082,5,2,0:0:0:0:
148,322,10418,1,2,0:0:0:0:
279,249,10754,1,0,0:0:0:0:
201,122,11090,1,8,0:0:0:0:
205,273,11426,6,0,P|254:322|320:316,1,125.000000596046,12|0,0:0|0:0,0:0:0:0:
277,173,12099,2,0,P|233:187|210:228,1,62.500000298023,2|0,0:3|0:0,0:0:0:0:
279,249,12435,2,0,P|322:234|348:202,1,62.500000298023,8|0,0:0|0:0,0:0:0:0:
350,149,12771,5,2,0:0:0:0:
441,264,13107,1,12,0:3:0:0:
309,315,13443,2,0,B|285:324|252:317|252:317|221:341|154:334,1,125.000000596046,0|8,0:0|0:0,0:0:0:0:
189,185,14115,5,4,0:0:0:0:
189,185,14284,2,0,B|211:145|200:102|200:102|144:129|86:109,1,187.500000894069,2|0,0:0|0:0,0:0:0:0:
227,32,15124,2,0,P|258:51|273:94,1,62.500000298023,8|0,0:0|0:0,0:0:0:0:
303,140,15460,6,0,P|338:185|422:191,1,125.000000596046,0|8,0:0|0:0,0:0:0:0:
300,307,16132,2,0,L|216:318,1,62.500000298023,0|0,0:0|0:0,0:0:0:0:
201,249,16468,2,0,L|285:238,1,62.500000298023,8|8,0:0|0:0,0:0:0:0:
222,175,16805,6,0,B|153:184|153:184|128:237|81:239|48:227,1,187.500000894069,12|0,0:0|0:0,0:0:0:0:
205,63,17813,5,8,0:0:0:0:
278,49,17981,1,2,0:0:0:0:
346,78,18149,2,0,B|357:106|357:106|356:141,1,62.500000298023,2|0,0:0|0:0,0:0:0:0:
315,201,18485,2,0,B|314:233|314:233|325:261,1,62.500000298023,2|0,0:0|0:0,0:0:0:0:
345,333,18821,5,0,0:0:0:0:
418,314,18988,1,0,0:0:0:0:
398,241,19156,1,8,0:0:0:0:
325,260,19326,1,2,0:0:0:0:
177,287,19662,6,0,P|111:278|31:175,1,187.500000894069,2|0,0:0|0:0,0:0:0:0:
170,127,20502,1,8,0:0:0:0:
307,186,20838,2,0,P|387:208|464:179,1,125.000000596046,8|8,0:0|0:0,0:0:0:0:
382,56,21510,2,0,P|341:37|298:41,2,62.500000298023,2|2|10,0:0|0:0|0:0,0:0:0:0:
307,186,22183,2,0,P|253:236|159:242,1,125.000000596046,2|0,0:0|0:0,0:0:0:0:
188,97,22855,1,8,0:0:0:0:
68,187,23191,1,2,0:0:0:0:
158,306,23527,6,0,P|189:320|228:318,2,62.500000298023,8|8|8,0:0|0:0|0:0,0:0:0:0:
68,187,24199,2,0,L|56:97,1,62.500000298023,10|8,0:0|0:0,0:0:0:0:
127,91,24536,2,0,L|139:181,1,62.500000298023,8|0,0:0|0:0,0:0:0:0:
181,215,24872,5,4,0:0:0:0:
181,215,25040,2,0,P|259:239|358:190,1,187.500000894069,2|0,0:0|0:0,0:0:0:0:
379,45,25880,1,8,0:0:0:0:
304,55,26048,1,0,0:0:0:0:
229,63,26216,2,0,L|75:81,1,125.000000596046,0|8,0:0|0:0,0:0:0:0:
139,223,26889,2,0,P|159:263|195:278,1,62.500000298023,0|0,0:0|0:0,0:0:0:0:
242,245,27224,2,0,P|268:243|307:257,1,62.500000298023,0|0,0:0|0:0,0:0:0:0:
364,297,27560,6,0,P|419:339|447:339,2,93.7500004470345,2|2|2,0:0|0:0|0:0,0:0:0:0:
433,266,28233,2,0,B|443:232|443:232|433:173,1,62.500000298023,0|0,0:0|0:0,0:0:0:0:
421,132,28569,1,8,0:0:0:0:
366,183,28737,1,8,0:0:0:0:
296,210,28905,6,0,P|263:208|233:189,1,62.500000298023,10|0,0:0|0:0,0:0:0:0:
217,121,29242,2,0,P|173:152|168:183,1,62.500000298023,2|0,0:0|0:0,0:0:0:0:
169,232,29578,1,8,0:0:0:0:
123,291,29746,1,0,0:0:0:0:
50,309,29914,1,8,0:0:0:0:
71,237,30082,1,0,0:0:0:0:
195,320,30418,6,0,P|248:333|324:301,1,125.000000596046,2|0,0:0|0:0,0:0:0:0:
343,241,30922,2,0,L|352:166,1,62.500000298023,0|0,0:0|0:0,0:0:0:0:
417,212,31258,2,0,L|408:287,1,62.500000298023,8|0,0:0|0:0,0:0:0:0:
343,241,31594,6,0,L|359:102,1,125.000000596046,8|8,0:0|0:0,0:0:0:0:
154,116,32267,2,0,L|169:241,1,125.000000596046,8|0,0:0|0:0,0:0:0:0:
256,119,32939,5,2,0:0:0:0:
256,119,33107,2,0,P|219:45|112:23,1,187.500000894069,4|8,0:0|0:0,0:0:0:0:
39,144,33947,1,8,0:0:0:0:
38,218,34115,1,8,0:0:0:0:
80,280,34284,6,0,P|122:300|172:290,1,62.500000298023,8|0,0:0|0:0,0:0:0:0:
190,247,34620,2,0,L|195:185,2,62.500000298023,8|4|0,0:0|0:0|0:0,0:0:0:0:
235,306,35124,1,0,0:0:0:0:
306,327,35292,1,0,0:0:0:0:
375,298,35460,1,0,0:0:0:0:
418,236,35628,6,0,B|441:198|430:152|430:152|378:97,1,125.000000596046,4|0,0:0|0:0,0:0:0:0:
336,157,36132,2,0,B|310:129|310:129|299:83|322:45,1,125.000000596046,0|0,0:0|0:0,0:0:0:0:
396,44,36636,2,0,L|472:65,2,62.500000298023,8|8|8,0:0|0:0|0:0,0:0:0:0:
256,192,37309,12,4,38317,0:0:0:0:
201,243,49073,6,0,P|131:295|117:294,2,93.7500004470345,14|0|0,0:0|0:0|0:0,0:0:0:0:
138,65,50082,2,0,P|176:50|211:52,2,62.500000298023,2|0|0,0:0|0:0|0:0,0:0:0:0:
259,153,50754,6,0,P|335:151|397:100,2,125.000000596046,2|2|2,0:0|0:0|0:0,0:0:0:0:
138,65,51763,6,0,P|97:152|137:240,1,187.500000894069,2|0,0:0|0:0,0:0:0:0:
343,298,52771,2,0,L|350:211,1,62.500000298023,10|0,0:0|0:0,0:0:0:0:
321,165,53107,6,0,P|289:185|277:222,2,62.500000298023,2|0|0,0:0|0:0|0:0,0:0:0:0:
442,76,53779,2,0,P|474:56|486:19,2,62.500000298023,2|0|0,0:0|0:0|0:0,0:0:0:0:
291,76,54452,6,0,B|237:100|229:148|229:148|187:184|118:157,1,187.500000894069,2|0,0:0|0:0,0:0:0:0:
61,44,55292,2,0,P|102:32|145:45,2,62.500000298023,0|0|0,0:0|0:0|0:0,0:0:0:0:
102,105,55796,2,0,B|60:140|48:187|114:220|112:261|42:320,1,187.500000894069,2|2,0:0|0:0,0:0:0:0:
219,325,56636,2,0,P|254:341|293:338,2,62.500000298023,0|8|8,0:0|0:0|0:0,0:0:0:0:
267,267,57141,6,0,B|310:220|310:164|310:164|252:175|216:130,1,187.500000894069,10|0,0:0|0:0,0:0:0:0:
351,52,57981,2,0,P|297:73|282:110,2,62.500000298023,2|0|0,0:0|0:0|0:0,0:0:0:0:
422,77,58485,6,0,P|460:136|423:236,1,125.000000596046,2|8,0:0|0:0,0:0:0:0:
373,312,59157,2,0,P|335:253|372:153,1,125.000000596046,10|8,0:0|0:0,0:0:0:0:
352,50,59829,5,6,0:0:0:0:
352,50,59998,2,0,P|303:98|229:91,1,125.000000596046
175,91,60502,2,0,P|114:96|72:141,1,125.000000596046
92,289,61174,5,8,0:0:0:0:
231,342,61510,1,8,0:0:0:0:
376,304,61847,1,8,0:0:0:0:
448,172,62183,1,10,0:0:0:0:
321,91,62519,5,10,0:0:0:0:
321,91,62687,2,0,P|292:177|340:249,1,125.000000596046,4|0,0:0|0:0,0:0:0:0:
372,230,63191,2,0,P|342:272|310:280,1,62.500000298023,0|8,0:0|0:0,0:0:0:0:
258,270,63527,1,8,0:0:0:0:
191,235,63695,1,0,0:0:0:0:
138,181,63863,6,0,P|119:258|153:298,1,125.000000596046,4|8,0:0|0:0,0:0:0:0:
197,135,64536,2,0,P|181:119|144:108,2,62.500000298023,8|0|0,0:0|0:0|0:0,0:0:0:0:
329,242,65208,5,8,0:0:0:0:
329,242,65376,2,0,P|317:323|202:326,1,187.500000894069,4|0,0:0|0:0,0:0:0:0:
107,249,66216,1,0,0:0:0:0:
43,113,66552,6,0,P|121:92|194:135,1,125.000000596046,2|2,0:0|0:0,0:0:0:0:
300,160,67225,2,0,P|336:173|384:157,1,62.500000298023,2|0,0:0|0:0,0:0:0:0:
401,107,67561,2,0,P|365:94|317:110,1,62.500000298023,10|0,0:0|0:0,0:0:0:0:
300,160,67897,5,8,0:0:0:0:
256,221,68065,2,0,P|178:250|89:184,1,187.500000894069,4|0,0:0|0:0,0:0:0:0:
46,141,68737,2,0,P|25:169|24:212,2,62.500000298023,0|8|8,0:0|0:0|0:0,0:0:0:0:
118,122,69242,6,0,P|195:121|239:79,2,125.000000596046,12|0|0,0:0|0:0|0:0,0:0:0:0:
31,244,70250,2,0,P|49:287|77:302,1,62.500000298023,0|0,0:0|0:0,0:0:0:0:
126,330,70586,6,0,B|187:344|187:344|292:309,1,125.000000596046,2|8,0:0|0:0,0:0:0:0:
205,261,71090,2,0,B|264:241|264:241|325:255,1,125.000000596046,0|0,0:0|0:0,0:0:0:0:
368,194,71594,2,0,L|303:178,1,62.500000298023,8|8,0:0|0:0,0:0:0:0:
276,110,71931,6,0,P|233:158|304:255,1,187.500000894069,2|0,0:0|0:0,0:0:0:0:
369,237,72603,2,0,P|424:231|454:253,1,62.500000298023,0|0,0:0|0:0,0:0:0:0:
405,304,72939,2,0,P|350:310|320:288,1,62.500000298023,8|0,0:0|0:0,0:0:0:0:
286,252,73275,5,0,0:0:0:0:
226,207,73443,2,0,P|159:174|47:209,1,187.500000894069,4|8,0:0|0:0,0:0:0:0:
137,328,74284,1,8,0:0:0:0:
225,206,74620,6,0,B|251:169|254:140|191:107|199:65|245:12,1,187.500000894069,2|0,0:0|0:0,0:0:0:0:
288,81,75292,2,0,P|333:96|369:90,1,62.500000298023,0|0,0:0|0:0,0:0:0:0:
412,57,75628,1,8,0:0:0:0:
415,131,75796,1,8,0:0:0:0:
351,170,75964,6,0,P|330:222|380:295,1,125.000000596046,4|8,0:0|0:0,0:0:0:0:
406,223,76468,2,0,P|354:202|281:256,1,125.000000596046,2|0,0:0|0:0,0:0:0:0:
248,289,76973,1,8,0:0:0:0:
173,297,77141,1,8,0:0:0:0:
109,257,77308,6,0,P|78:217|74:183,2,62.500000298023,10|0|8,0:0|0:0|0:0,0:0:0:0:
231,170,77981,2,0,P|262:130|266:96,2,62.500000298023,10|0|10,0:0|0:0|0:0,0:0:0:0:
120,68,78653,6,0,P|166:42|267:76,1,125.000000596046,12|0,0:0|0:0,0:0:0:0:
265,119,79157,2,0,P|325:128|380:101,1,125.000000596046,2|0,0:0|0:0,0:0:0:0:
412,32,79662,2,0,P|453:75|455:100,1,62.500000298023,0|0,0:0|0:0,0:0:0:0:
256,192,79998,12,4,80838,0:3:0:0:
114,95,92099,5,2,0:0:0:0:
129,167,92266,2,0,B|160:210|170:243|107:276|110:305|136:342,1,187.500000894069,4|8,0:0|0:0,0:0:0:0:
260,327,93107,2,0,P|306:334|338:317,1,62.500000298023,8|0,0:0|0:0,0:0:0:0:
290,260,93443,6,0,P|272:190|326:124,1,125.000000596046,0|8,0:0|0:0,0:0:0:0:
442,122,94115,2,0,L|374:133,1,62.500000298023,0|0,0:0|0:0,0:0:0:0:
367,206,94452,2,0,L|435:195,1,62.500000298023,8|0,0:0|0:0,0:0:0:0:
475,254,94788,6,0,P|421:314|333:267,1,187.500000894069,2|0,0:0|0:0,0:0:0:0:
293,212,95460,2,0,P|256:191|204:206,1,62.500000298023,0|0,0:0|0:0,0:0:0:0:
164,209,95796,1,8,0:0:0:0:
90,192,95964,1,8,0:0:0:0:
51,127,96132,6,0,P|42:82|55:52,1,62.500000298023,10|0,0:0|0:0,0:0:0:0:
177,86,96468,2,0,P|147:95|116:90,1,62.500000298023,2|0,0:0|0:0,0:0:0:0:
237,40,96805,1,8,0:0:0:0:
249,113,96973,1,0,0:0:0:0:
298,169,97141,1,8,0:0:0:0:
371,183,97309,1,8,0:0:0:0:
297,312,97645,6,0,P|235:311|189:272,1,125.000000596046,4|0,0:0|0:0,0:0:0:0:
194,197,98149,2,0,P|236:213|258:240,1,62.500000298023,8|2,0:0|0:0,0:0:0:0:
189,272,98485,2,0,P|147:256|125:229,1,62.500000298023,8|2,0:0|0:0,0:0:0:0:
124,169,98821,6,0,L|118:102,2,62.500000298023,10|2|10,0:0|0:0|0:0,0:0:0:0:
266,122,99494,2,0,L|272:55,2,62.500000298023,0|0|0,0:0|0:0|0:0,0:0:0:0:
275,196,99998,1,2,0:0:0:0:
326,250,100166,5,6,0:0:0:0:
326,250,100334,2,0,P|412:276|455:214,1,125.000000596046,2|0,0:0|0:0,0:0:0:0:
458,189,100838,2,0,P|461:158|452:128,1,62.500000298023,8|0,0:0|0:0,0:0:0:0:
379,145,101174,2,0,P|375:175|384:205,1,62.500000298023,8|8,0:0|0:0,0:0:0:0:
326,250,101510,6,0,L|257:268,2,62.500000298023,8|0|8,0:0|0:0|0:0,0:0:0:0:
384,205,102015,1,0,0:0:0:0:
399,131,102183,1,2,0:0:0:0:
352,71,102351,1,2,0:0:0:0:
286,107,102519,2,0,P|240:111|206:96,1,62.500000298023,8|0,0:0|0:0,0:0:0:0:
157,73,102855,6,0,B|141:106|133:155|207:158|188:231|151:263,1,187.500000894069,10|0,0:0|0:0,0:0:0:0:
92,274,103527,2,0,P|107:305|155:322,1,62.500000298023,0|0,0:0|0:0,0:0:0:0:
204,316,103863,1,8,0:0:0:0:
355,320,104199,6,0,L|444:324,1,62.500000298023,0|0,0:0|0:0,0:0:0:0:
398,249,104536,2,0,L|309:245,1,62.500000298023,8|0,0:0|0:0,0:0:0:0:
322,172,104872,2,0,L|411:176,1,62.500000298023,0|0,0:0|0:0,0:0:0:0:
374,100,105208,1,8,0:0:0:0:
310,60,105376,1,0,0:0:0:0:
235,61,105544,6,0,P|178:81|155:138,1,125.000000596046,8|0,0:0|0:0,0:0:0:0:
230,136,106048,1,0,0:0:0:0:
226,211,106215,2,0,P|283:190|306:133,1,125.000000596046
161,172,106889,6,0,P|147:214|163:248,1,62.500000298023,8|0,0:0|0:0,0:0:0:0:
204,282,107225,2,0,L|279:305,2,62.500000298023,8|0|0,0:0|0:0|0:0,0:0:0:0:
151,230,107729,1,0,0:0:0:0:
78,247,107897,1,8,0:0:0:0:
23,195,108065,1,8,0:0:0:0:
138,98,108401,6,0,P|192:99|237:149,1,125.000000596046,4|0,0:0|0:0,0:0:0:0:
259,220,108905,2,0,P|297:267|358:271,1,125.000000596046,0|8,0:0|0:0,0:0:0:0:
408,207,109410,1,0,0:0:0:0:
334,199,109578,5,8,0:0:0:0:
224,301,109914,1,10,0:0:0:0:
75,283,110250,1,0,0:0:0:0:
165,163,110586,1,8,0:0:0:0:
224,301,110922,6,0,P|159:322|92:287,1,125.000000596046,10|10,0:0|0:0,0:0:0:0:
165,163,111594,2,0,P|193:117|224:99,1,62.500000298023,8|0,0:0|0:0,0:0:0:0:
268,81,111931,1,8,0:0:0:0:
342,80,112099,1,0,0:0:0:0:
408,115,112267,6,0,P|450:126|482:119,2,62.500000298023,2|0|0,0:0|0:0|0:0,0:0:0:0:
263,155,112939,1,10,0:0:0:0:
298,220,113107,2,0,P|320:242|375:251,2,62.500000298023,0|8|8,0:0|0:0|0:0,0:0:0:0:
263,155,113611,6,0,P|215:120|133:144,1,125.000000596046,4|0,0:0|0:0,0:0:0:0:
84,183,114115,2,0,P|132:218|214:194,1,125.000000596046,2|0,0:0|0:0,0:0:0:0:
263,155,114620,1,8,0:0:0:0:
347,131,114788,1,0,0:0:0:0:
414,186,114956,6,0,P|432:232|422:265,1,62.500000298023,8|0,0:0|0:0,0:0:0:0:
343,238,115292,2,0,P|335:286|310:310,1,62.500000298023,8|0,0:0|0:0,0:0:0:0:
256,246,115628,2,0,P|219:279|185:281,1,62.500000298023,0|0,0:0|0:0,0:0:0:0:
122,263,115964,1,0,0:0:0:0:
86,183,116132,1,0,0:0:0:0:
83,95,116300,6,0,B|61:70|61:70|49:30,2,62.500000298023,8|0|8,0:0|0:0|0:0,0:0:0:0:
161,134,116805,1,0,0:0:0:0:
248,126,116973,2,0,P|290:123|328:143,1,62.500000298023,0|0,0:0|0:0,0:0:0:0:
381,178,117309,1,8,0:0:0:0:
409,260,117477,1,8,0:0:0:0:
364,335,117645,6,0,P|293:352|232:308,1,125.000000596046,12|0,0:0|0:0,0:0:0:0:
119,211,118317,1,2,0:0:0:0:
105,297,118485,2,0,P|103:348|115:374,2,62.500000298023,0|8|8,0:0|0:0|0:0,0:0:0:0:
158,130,119156,5,6,0:0:0:0:
158,130,119326,2,0,P|207:158|291:138,1,125.000000596046,8|0,0:0|0:0,0:0:0:0:
428,69,119998,1,8,0:0:0:0:
438,155,120166,1,8,0:0:0:0:
410,237,120334,6,0,P|369:273|347:275,1,62.500000298023,10|0,0:0|0:0,0:0:0:0:
338,190,120670,1,10,0:0:0:0:
278,253,120838,2,0,P|279:300|303:329,2,62.500000298023,2|0|0,0:0|0:0|0:0,0:0:0:0:
253,168,121342,2,0,P|216:144|191:142,1,62.500000298023,8|8,0:0|0:0,0:0:0:0:
118,177,121678,6,0,P|112:246|170:272,1,125.000000596046,12|8,0:0|0:0,0:0:0:0:
134,98,122351,2,0,P|96:98|65:115,1,62.500000298023,8|0,0:0|0:0,0:0:0:0:
118,177,122687,2,0,P|163:189|201:173,1,62.500000298023,8|0,0:0|0:0,0:0:0:0:
256,192,123022,12,0,125207,0:0:0:0:
292,237,125880,6,0,L|223:248,2,62.500000298023,0|8|0,0:0|0:0|0:0,0:0:0:0:
185,170,126552,2,0,L|247:161,2,62.500000298023
185,170,127057,1,0,0:0:0:0:
91,87,127393,5,12,0:3:0:0:
