osu file format v14

[General]
AudioFilename: 1337.mp3
AudioLeadIn: 1650
PreviewTime: 79997
Countdown: 0
SampleSet: Soft
StackLeniency: 0.4
Mode: 0
LetterboxInBreaks: 0
WidescreenStoryboard: 0

[Editor]
Bookmarks: 67476,88064
DistanceSpacing: 2.4
BeatDivisor: 4
GridSize: 4
TimelineZoom: 4.099998

[Metadata]
Title:.357 Magnum
TitleUnicode:.357 Magnum
Artist:xi
ArtistUnicode:xi
Creator:Akali
Version:Hyper
Source:BMS
Tags:sayaka- dialgadu77 tidek EXTREMEBEAT piano jazz
BeatmapID:545555
BeatmapSetID:155749

[Difficulty]
HPDrainRate:5.5
CircleSize:4
OverallDifficulty:7
ApproachRate:9
SliderMultiplier:1.60000000596046
SliderTickRate:2

[Events]
//Background and Video events
0,0,"lincoln.jpg",0,0
//Break Periods
//Storyboard Layer 0 (Background)
//Storyboard Layer 1 (Fail)
//Storyboard Layer 2 (Pass)
//Storyboard Layer 3 (Foreground)
//Storyboard Sound Samples

[TimingPoints]
669.585365853658,336.134453781513,4,2,1,60,1,0
38316,-125,4,2,1,47,0,0
55795,-100,4,2,1,47,0,0
57140,-125,4,2,1,47,0,0
58485,-100,4,2,1,60,0,0
113610,-83.3333333333333,4,2,1,60,0,1
123022,-83.3333333333333,4,2,1,60,0,0

[Colours]
Combo1 : 105,105,105
Combo2 : 160,82,45
Combo3 : 139,125,123
Combo4 : 205,190,112

[HitObjects]
139,128,670,5,8,0:3:0:0:
139,128,2015,5,0,0:0:0:0:
139,128,2351,2,0,P|120:185|133:226,1,80.000000298023,2|0,0:0|0:0,0:0:0:0:
134,233,2603,1,0,0:0:0:0:
149,260,2687,2,0,P|166:282|185:297,3,40.0000001490115,8|0|0|0,0:0|0:0|0:0|0:0,0:0:0:0:
223,225,3023,2,0,P|243:219|263:218,3,40.0000001490115,8|0|0|0,0:0|0:0|0:0|0:0,0:0:0:0:
258,295,3359,6,0,P|310:316|377:304,2,120.000000447034,4|2|2,0:0|0:0|0:0,0:0:0:0:
325,195,4031,1,0,0:0:0:0:
431,139,4198,1,2,0:0:0:0:
447,166,4283,1,0,0:0:0:0:
451,197,4367,1,8,0:0:0:0:
356,92,4534,1,2,0:0:0:0:
355,60,4619,1,0,0:0:0:0:
367,31,4703,1,0,0:0:0:0:
257,107,4872,6,0,P|228:125|199:132,2,40.0000001490115,2|0|0,0:0|0:0|0:0,0:0:0:0:
141,75,5208,2,0,P|127:109|132:141,2,40.0000001490115,2|0|0,0:0|0:0|0:0,0:0:0:0:
133,194,5544,1,2,0:0:0:0:
139,225,5628,1,0,0:0:0:0:
155,252,5712,2,0,P|204:285|248:284,1,80.000000298023,8|8,0:0|0:0,0:0:0:0:
241,168,6048,5,4,0:0:0:0:
137,108,6216,1,0,0:0:0:0:
105,112,6300,1,0,0:0:0:0:
77,128,6384,1,0,0:0:0:0:
57,153,6468,1,0,0:0:0:0:
46,183,6552,1,0,0:0:0:0:
50,214,6636,2,0,B|58:269|58:269|103:336,1,120.000000447034,0|0,0:0|0:0,0:0:0:0:
173,231,7057,1,8,0:0:0:0:
257,316,7225,5,0,0:0:0:0:
286,327,7309,1,0,0:0:0:0:
317,328,7393,1,0,0:0:0:0:
336,209,7561,2,0,P|305:234|293:263,1,40.0000001490115,0|0,0:0|0:0,0:0:0:0:
399,308,7729,2,0,P|430:283|442:254,1,40.0000001490115,0|0,0:0|0:0,0:0:0:0:
428,183,7897,1,8,0:0:0:0:
428,183,7981,2,0,P|398:136|323:113,1,120.000000447034,0|0,0:0|0:0,0:0:0:0:
220,117,8401,1,8,0:0:0:0:
125,190,8569,1,8,0:0:0:0:
125,190,8905,6,0,P|110:138|165:48,1,160.000000596046,6|0,0:0|0:0,0:0:0:0:
191,44,9326,1,0,0:0:0:0:
221,52,9410,2,0,P|282:73|385:49,1,160.000000596046,10|0,0:0|0:0,0:0:0:0:
403,44,9830,1,0,0:0:0:0:
434,51,9914,1,0,0:0:0:0:
458,71,9998,1,0,0:0:0:0:
465,102,10082,6,0,P|460:139|454:153,1,40.0000001490115,2|0,0:0|0:0,0:0:0:0:
331,201,10250,2,0,P|318:170|317:141,1,40.0000001490115,0|0,0:0|0:0,0:0:0:0:
423,239,10418,2,0,P|390:292|350:302,1,80.000000298023,2|0,0:0|0:0,0:0:0:0:
344,305,10670,1,2,0:0:0:0:
294,87,10922,5,4,0:0:0:0:
265,244,11090,1,8,0:0:0:0:
249,272,11174,1,0,0:0:0:0:
224,293,11258,1,8,0:0:0:0:
195,306,11342,1,0,0:0:0:0:
163,306,11426,6,0,B|91:295|91:295|53:265,1,120.000000447034,12|0,0:0|0:0,0:0:0:0:
7,208,11763,2,0,B|35:182|75:192|75:192|137:149,1,120.000000447034,0|0,0:0|0:0,0:0:0:0:
192,172,12099,2,0,P|184:131|127:87,1,80.000000298023,2|0,0:0|0:0,0:0:0:0:
129,89,12351,1,0,0:0:0:0:
97,90,12435,2,0,P|53:58|44:25,2,80.000000298023,8|0|0,0:0|0:0|0:0,0:0:0:0:
432,61,13107,5,12,0:3:0:0:
397,268,13443,6,0,P|366:309|364:241,1,160.000000596046,0|8,0:0|0:0,0:0:0:0:
381,221,13863,1,0,0:0:0:0:
395,192,13947,1,8,0:0:0:0:
383,162,14031,1,0,0:0:0:0:
357,142,14115,1,4,0:0:0:0:
236,132,14284,6,0,P|183:144|142:187,2,80.000000298023,2|0|0,0:0|0:0|0:0,0:0:0:0:
230,251,14788,2,0,P|166:277|132:269,1,80.000000298023,8|0,0:0|0:0,0:0:0:0:
59,206,15124,1,8,0:0:0:0:
67,86,15292,1,0,0:0:0:0:
177,40,15460,6,0,L|309:29,1,120.000000447034,0|0,0:0|0:0,0:0:0:0:
360,93,15796,2,0,L|228:82,1,120.000000447034,8|0,0:0|0:0,0:0:0:0:
188,137,16132,2,0,P|236:158|291:140,1,80.000000298023,0|0,0:0|0:0,0:0:0:0:
352,247,16468,2,0,P|331:295|349:350,1,80.000000298023,8|8,0:0|0:0,0:0:0:0:
498,283,16805,6,0,B|508:242|508:242|493:179,1,80.000000298023,12|0,0:0|0:0,0:0:0:0:
490,174,17057,2,0,B|481:137|481:137|491:96,1,80.000000298023,0|0,0:0|0:0,0:0:0:0:
500,65,17309,2,0,P|440:107|338:70,1,160.000000596046,8|0,0:0|0:0,0:0:0:0:
244,54,17813,5,8,0:0:0:0:
212,48,17897,1,0,0:0:0:0:
181,56,17981,1,2,0:0:0:0:
153,73,18065,1,0,0:0:0:0:
138,101,18149,2,0,L|142:204,1,80.000000298023,2|0,0:0|0:0,0:0:0:0:
308,240,18485,2,0,L|311:160,1,80.000000298023,2|0,0:0|0:0,0:0:0:0:
146,259,18821,1,0,0:0:0:0:
303,320,18989,1,0,0:0:0:0:
228,169,19157,1,8,0:0:0:0:
145,342,19326,1,2,0:0:0:0:
67,231,19662,6,0,P|76:308|145:342,1,160.000000596046,2|0,0:0|0:0,0:0:0:0:
175,341,20081,1,0,0:0:0:0:
205,329,20166,1,0,0:0:0:0:
233,313,20250,1,0,0:0:0:0:
264,305,20334,1,0,0:0:0:0:
295,307,20418,1,0,0:0:0:0:
322,323,20502,6,0,P|357:337|386:336,3,40.0000001490115,8|0|0|0,0:0|0:0|0:0|0:0,0:0:0:0:
431,297,20838,2,0,L|436:241,3,40.0000001490115,8|0|8|0,0:0|0:0|0:0|0:0,0:0:0:0:
358,233,21174,2,0,L|352:177,3,40.0000001490115,8|0|8|0,0:0|0:0|0:0|0:0,0:0:0:0:
403,130,21510,2,0,L|403:73,3,40.0000001490115,2|0|2|0,0:0|0:0|0:0|0:0,0:0:0:0:
480,65,21847,2,0,L|480:122,1,40.0000001490115,10|0,0:0|0:0,0:0:0:0:
328,50,22015,2,0,L|328:-7,1,40.0000001490115,8|0,0:0|0:0,0:0:0:0:
285,141,22183,6,0,B|283:180|283:180|319:244,1,80.000000298023,2|0,0:0|0:0,0:0:0:0:
213,295,22519,1,8,0:0:0:0:
186,276,22603,1,0,0:0:0:0:
155,271,22687,1,0,0:0:0:0:
124,278,22771,1,0,0:0:0:0:
98,296,22855,2,0,L|102:356,1,40.0000001490115,8|0,0:0|0:0,0:0:0:0:
41,218,23023,2,0,L|45:158,1,40.0000001490115,0|0,0:0|0:0,0:0:0:0:
186,276,23191,2,0,L|188:355,1,80.000000298023,2|2,0:0|0:0,0:0:0:0:
298,305,23527,5,8,0:0:0:0:
310,275,23611,1,0,0:0:0:0:
310,243,23695,2,0,P|305:223|269:194,1,40.0000001490115,8|0,0:0|0:0,0:0:0:0:
169,160,23863,5,8,0:0:0:0:
157,190,23947,1,0,0:0:0:0:
157,222,24031,2,0,P|162:242|198:271,1,40.0000001490115,0|0,0:0|0:0,0:0:0:0:
239,121,24199,5,10,0:0:0:0:
45,142,24368,1,8,0:0:0:0:
180,56,24536,1,8,0:0:0:0:
239,207,24704,1,8,0:0:0:0:
115,105,24872,5,4,0:0:0:0:
92,263,25040,2,0,B|125:315|187:292|187:292|198:349,1,160.000000596046,2|0,0:0|0:0,0:0:0:0:
364,284,25544,2,0,L|378:206,1,80.000000298023,8|0,0:0|0:0,0:0:0:0:
239,207,25880,1,8,0:0:0:0:
346,363,26048,1,0,0:0:0:0:
473,243,26216,6,0,P|473:160|432:120,1,120.000000447034,0|0,0:0|0:0,0:0:0:0:
421,123,26552,2,0,L|290:106,1,120.000000447034,8|0,0:0|0:0,0:0:0:0:
256,52,26889,2,0,L|351:41,1,80.000000298023,0|0,0:0|0:0,0:0:0:0:
347,162,27225,1,0,0:0:0:0:
274,257,27393,1,0,0:0:0:0:
157,285,27561,6,0,B|116:277|116:277|78:246,1,80.000000298023,2|0,0:0|0:0,0:0:0:0:
65,230,27813,2,0,B|77:192|77:192|79:139,1,80.000000298023,2|0,0:0|0:0,0:0:0:0:
18,116,28065,2,0,L|14:283,1,160.000000596046,2|0,0:0|0:0,0:0:0:0:
159,208,28569,5,8,0:0:0:0:
186,192,28653,1,0,0:0:0:0:
217,189,28737,1,8,0:0:0:0:
247,198,28821,1,0,0:0:0:0:
271,218,28905,2,0,L|279:118,1,80.000000298023,10|0,0:0|0:0,0:0:0:0:
433,101,29242,2,0,L|427:12,1,80.000000298023,2|0,0:0|0:0,0:0:0:0:
356,173,29578,1,8,0:0:0:0:
445,239,29746,1,0,0:0:0:0:
368,62,29914,1,8,0:0:0:0:
253,218,30082,1,0,0:0:0:0:
383,286,30418,6,0,P|302:275|248:203,1,160.000000596046,2|0,0:0|0:0,0:0:0:0:
239,189,30838,1,0,0:0:0:0:
214,168,30922,1,0,0:0:0:0:
182,162,31006,1,0,0:0:0:0:
151,172,31090,1,0,0:0:0:0:
128,195,31174,1,0,0:0:0:0:
98,206,31258,1,8,0:0:0:0:
66,202,31342,1,0,0:0:0:0:
39,183,31426,1,0,0:0:0:0:
24,155,31510,1,0,0:0:0:0:
22,123,31594,6,0,P|22:92|28:69,1,40.0000001490115,8|0,0:0|0:0,0:0:0:0:
186,230,31763,2,0,P|179:265|162:288,1,40.0000001490115,8|0,0:0|0:0,0:0:0:0:
109,113,31931,2,0,P|154:93|207:93,1,80.000000298023,8|0,0:0|0:0,0:0:0:0:
262,270,32267,1,8,0:0:0:0:
107,231,32435,1,0,0:0:0:0:
254,142,32603,1,2,0:0:0:0:
290,126,32687,1,2,0:0:0:0:
329,125,32771,1,2,0:0:0:0:
366,137,32855,1,2,0:0:0:0:
397,161,32939,1,2,0:0:0:0:
323,325,33107,6,0,B|283:350|246:359|210:328|210:328|172:333,1,160.000000596046,4|0,0:0|0:0,0:0:0:0:
141,339,33527,1,0,0:0:0:0:
109,345,33611,2,0,L|49:355,3,40.0000001490115,8|0|0|0,0:0|0:0|0:0|0:0,0:0:0:0:
78,273,33947,2,0,L|166:259,1,80.000000298023,8|8,0:0|0:0,0:0:0:0:
220,115,34284,1,8,0:0:0:0:
188,110,34368,1,0,0:0:0:0:
157,105,34452,1,0,0:0:0:0:
125,110,34536,1,0,0:0:0:0:
93,115,34620,1,8,0:0:0:0:
157,260,34788,5,4,0:0:0:0:
221,115,34956,1,0,0:0:0:0:
157,176,35124,1,0,0:0:0:0:
309,224,35292,1,0,0:0:0:0:
194,335,35460,1,0,0:0:0:0:
353,334,35628,6,0,P|407:288|421:222,2,120.000000447034,4|0|0,0:0|0:0|0:0,0:0:0:0:
229,233,36300,2,0,L|321:223,1,80.000000298023,0|0,0:0|0:0,0:0:0:0:
340,133,36636,2,0,L|248:143,1,80.000000298023,8|8,0:0|0:0,0:0:0:0:
281,304,36973,1,8,0:0:0:0:
81,45,37309,6,0,L|72:91,3,40.0000001490115,0|0|0|0,0:0|0:0|0:0|0:0,0:0:0:0:
157,139,37645,2,0,L|166:185,3,40.0000001490115,8|0|0|0,0:3|0:0|0:0|0:0,0:0:0:0:
81,233,37981,2,0,L|79:279,3,40.0000001490115,8|0|0|0,0:3|0:0|0:0|0:3,0:0:0:0:
141,326,38317,6,0,P|194:336|245:313,2,96.0000003576276,6|0|0,0:0|0:0|0:0,0:0:0:0:
185,241,38989,2,0,P|241:231|265:238,1,64.0000002384184,0|0,0:0|0:0,0:0:0:0:
322,249,39326,1,0,0:0:0:0:
398,253,39494,2,0,B|392:302|357:317|357:317|334:336|340:363,1,128.000000476837,0|0,0:0|0:0,0:0:0:0:
329,142,39998,2,0,P|369:168|466:145,2,128.000000476837,2|0|0,0:0|0:0|0:0,0:0:0:0:
125,78,41006,6,0,P|156:72|188:79,1,64.0000002384184,2|0,0:0|0:0,0:0:0:0:
218,148,41258,2,0,P|187:154|156:148,1,64.0000002384184,2|0,0:0|0:0,0:0:0:0:
125,78,41510,2,0,P|61:118|38:181,1,128.000000476837,2|0,0:0|0:0,0:0:0:0:
90,257,42015,2,0,P|117:282|158:289,1,64.0000002384184,2|0,0:0|0:0,0:0:0:0:
239,313,42350,5,0,0:0:0:0:
257,317,42434,1,0,0:0:0:0:
276,318,42518,1,0,0:0:0:0:
294,313,42602,1,0,0:0:0:0:
310,303,42686,1,0,0:0:0:0:
328,297,42770,1,0,0:0:0:0:
347,297,42854,2,0,L|349:351,2,32.0000001192092,0|2|0,0:0|0:0|0:0,0:0:0:0:
352,278,43106,5,0,0:0:0:0:
359,260,43191,1,0,0:0:0:0:
369,244,43275,1,0,0:0:0:0:
382,230,43359,1,0,0:0:0:0:
390,211,43443,1,0,0:0:0:0:
392,191,43527,1,0,0:0:0:0:
389,172,43611,1,0,0:0:0:0:
383,153,43695,6,0,P|372:107|388:39,2,96.0000003576276,0|0|0,0:0|0:0|0:0,0:0:0:0:
79,77,44536,5,8,0:0:0:0:
39,142,44704,1,2,0:0:0:0:
63,214,44872,1,0,0:0:0:0:
130,251,45040,2,0,B|137:261|148:262|148:262|190:252|210:275,1,64.0000002384184,2|0,0:0|0:0,0:0:0:0:
226,327,45292,2,0,P|196:338|165:334,1,64.0000002384184,2|0,0:0|0:0,0:0:0:0:
189,261,45544,2,0,P|232:252|297:308,1,128.000000476837,2|0,0:0|0:0,0:0:0:0:
389,261,46048,2,0,P|370:212|373:175,1,64.0000002384184,8|0,0:0|0:0,0:0:0:0:
286,86,46384,6,0,B|251:92|251:92|206:127,1,64.0000002384184,2|0,0:0|0:0,0:0:0:0:
283,159,46636,2,0,B|318:153|318:153|363:118,1,64.0000002384184,2|0,0:0|0:0,0:0:0:0:
374,73,46889,2,0,L|367:226,1,128.000000476837,2|0,0:0|0:0,0:0:0:0:
225,219,47393,5,8,0:0:0:0:
213,203,47477,1,0,0:0:0:0:
204,185,47561,1,8,0:0:0:0:
200,166,47645,1,0,0:0:0:0:
202,143,47729,2,0,P|205:85|172:42,1,96.0000003576276,4|0,0:0|0:0,0:0:0:0:
133,109,48065,2,0,P|130:167|163:210,1,96.0000003576276
218,231,48401,2,0,L|72:249,1,128.000000476837,12|0,0:0|0:0,0:0:0:0:
75,262,48821,1,0,0:0:0:0:
67,283,48905,1,0,0:0:0:0:
71,304,48989,1,0,0:0:0:0:
82,323,49073,6,0,P|125:348|174:345,2,96.0000003576276,10|0|0,0:0|0:0|0:0,0:0:0:0:
363,191,50082,6,0,L|367:227,1,32.0000001192092,2|0,0:0|0:0,0:0:0:0:
486,158,50250,2,0,L|479:195,1,32.0000001192092,0|0,0:0|0:0,0:0:0:0:
399,82,50418,2,0,B|376:69|362:48|362:48|326:72|283:58,1,128.000000476837,2|2,0:0|0:0,0:0:0:0:
150,125,51090,2,0,P|170:178|249:216,1,128.000000476837,2|2,0:0|0:0,0:0:0:0:
201,65,51763,6,0,P|156:47|116:53,1,64.0000002384184,2|0,0:0|0:0,0:0:0:0:
150,125,52015,2,0,P|183:160|221:171,1,64.0000002384184,2|0,0:0|0:0,0:0:0:0:
201,65,52267,2,0,P|148:47|82:80,1,128.000000476837,2|0,0:0|0:0,0:0:0:0:
111,239,52771,2,0,P|165:242|191:229,1,64.0000002384184,10|0,0:0|0:0,0:0:0:0:
250,193,53106,5,0,0:0:0:0:
264,179,53191,1,0,0:0:0:0:
280,169,53275,1,0,0:0:0:0:
298,164,53359,1,0,0:0:0:0:
315,155,53443,1,0,0:0:0:0:
331,144,53527,1,0,0:0:0:0:
342,128,53611,2,0,L|327:88,2,32.0000001192092,0|2|0,0:0|0:0|0:0,0:0:0:0:
355,149,53863,5,0,0:0:0:0:
374,165,53947,1,0,0:0:0:0:
395,178,54031,1,0,0:0:0:0:
418,187,54115,1,0,0:0:0:0:
437,203,54199,1,0,0:0:0:0:
452,223,54283,1,0,0:0:0:0:
460,247,54367,1,0,0:0:0:0:
466,271,54452,6,0,P|470:316|455:347,1,64.0000002384184,2|0,0:0|0:0,0:0:0:0:
386,302,54704,2,0,P|341:298|310:313,1,64.0000002384184,2|0,0:0|0:0,0:0:0:0:
248,350,54956,2,0,P|207:363|113:324,1,128.000000476837,2|0,0:0|0:0,0:0:0:0:
71,253,55460,1,10,0:0:0:0:
95,153,55628,1,0,0:0:0:0:
207,214,55796,6,0,P|254:231|290:224,1,80.000000298023,6|0,0:0|0:0,0:0:0:0:
305,91,56048,2,0,P|266:123|254:157,1,80.000000298023,2|0,0:0|0:0,0:0:0:0:
337,167,56300,2,0,P|381:121|349:23,1,160.000000596046
238,47,56805,6,0,L|231:105,1,40.0000001490115,10|0,0:0|0:0,0:0:0:0:
159,67,56973,2,0,L|166:12,1,40.0000001490115,10|0,0:0|0:0,0:0:0:0:
96,108,57141,2,0,P|86:159|102:191,1,64.0000002384184,10|0,0:0|0:0,0:0:0:0:
154,207,57393,2,0,P|165:177|162:146,1,64.0000002384184,2|0,0:0|0:0,0:0:0:0:
89,169,57645,2,0,P|79:227|132:283,1,128.000000476837,2|0,0:0|0:0,0:0:0:0:
269,335,58149,5,0,0:0:0:0:
300,330,58233,1,0,0:0:0:0:
326,311,58317,1,0,0:0:0:0:
342,283,58401,1,0,0:0:0:0:
337,251,58485,2,0,B|329:219|324:177|383:177|380:132|363:74,1,160.000000596046,2|8,0:0|0:0,0:0:0:0:
134,287,59157,6,0,P|181:335|289:333,1,160.000000596046,10|8,0:0|0:0,0:0:0:0:
300,330,59578,1,8,0:0:0:0:
326,312,59662,1,8,0:0:0:0:
357,305,59746,1,0,0:0:0:0:
388,312,59830,5,6,0:0:0:0:
450,209,59998,2,0,P|461:155|449:117,1,80.000000298023
300,176,60334,1,0,0:0:0:0:
359,282,60502,2,0,P|400:318|439:327,1,80.000000298023,0|0,0:0|0:0,0:0:0:0:
377,182,60838,2,0,P|323:170|285:183,1,80.000000298023,0|2,0:0|0:0,0:0:0:0:
272,193,61090,1,0,0:0:0:0:
255,220,61174,2,0,L|266:270,1,40.0000001490115,8|0,0:0|0:0,0:0:0:0:
176,307,61342,5,2,0:0:0:0:
146,320,61426,1,0,0:0:0:0:
114,321,61510,2,0,L|98:367,1,40.0000001490115,8|0,0:0|0:0,0:0:0:0:
126,230,61678,5,2,0:0:0:0:
96,217,61762,1,0,0:0:0:0:
64,216,61846,2,0,L|48:170,1,40.0000001490115,8|0,0:0|0:0,0:0:0:0:
116,98,62015,5,2,0:0:0:0:
146,88,62099,1,2,0:0:0:0:
175,100,62183,2,0,L|196:153,1,40.0000001490115,10|0,0:0|0:0,0:0:0:0:
279,81,62351,2,0,L|282:37,1,40.0000001490115,2|0,0:0|0:0,0:0:0:0:
328,145,62519,1,10,0:0:0:0:
246,257,62687,6,0,P|201:275|81:242,1,160.000000596046,4|0,0:0|0:0,0:0:0:0:
8,112,63191,2,0,L|12:210,1,80.000000298023,0|8,0:0|0:0,0:0:0:0:
174,146,63527,1,8,0:0:0:0:
191,119,63611,1,0,0:0:0:0:
196,87,63695,1,0,0:0:0:0:
189,55,63779,1,0,0:0:0:0:
170,28,63863,6,0,L|72:38,1,80.000000298023,4|0,0:0|0:0,0:0:0:0:
140,168,64115,2,0,L|238:178,1,80.000000298023,0|0,0:0|0:0,0:0:0:0:
273,100,64368,2,0,L|169:100,1,80.000000298023,0|0,0:0|0:0,0:0:0:0:
172,257,64704,5,0,0:0:0:0:
186,285,64788,1,0,0:0:0:0:
207,309,64872,1,8,0:0:0:0:
234,326,64956,1,0,0:0:0:0:
264,336,65040,1,2,0:0:0:0:
296,338,65124,1,0,0:0:0:0:
327,332,65208,1,8,0:0:0:0:
422,227,65376,2,0,B|444:184|446:152|404:134|423:104|438:65,1,160.000000596046,4|0,0:0|0:0,0:0:0:0:
268,183,65880,2,0,P|306:190|344:179,1,80.000000298023,0|0,0:0|0:0,0:0:0:0:
211,111,66216,2,0,P|185:140|176:178,1,80.000000298023,0|0,0:0|0:0,0:0:0:0:
181,328,66552,6,0,B|255:355|255:355|352:321,1,160.000000596046,2|2,0:0|0:0,0:0:0:0:
84,133,67225,2,0,P|64:199|96:274,2,120.000000447034,2|0|0,0:0|0:0|0:0,0:0:0:0:
171,50,67897,1,8,0:0:0:0:
204,206,68065,2,0,P|220:258|268:130,1,400.000001490115,4|8,0:0|0:0,0:0:0:0:
240,132,68989,1,0,0:0:0:0:
207,132,69073,1,8,0:0:0:0:
176,119,69157,1,0,0:0:0:0:
152,96,69242,5,12,0:0:0:0:
304,377,69578,1,8,0:0:0:0:
471,103,69914,1,8,0:0:0:0:
255,271,70250,1,0,0:0:0:0:
229,290,70334,1,0,0:0:0:0:
199,303,70418,1,0,0:0:0:0:
167,304,70502,1,0,0:0:0:0:
136,293,70586,6,0,P|94:243|121:142,1,160.000000596046,2|8,0:0|0:0,0:0:0:0:
262,77,71090,2,0,B|247:147|247:147|185:211,1,160.000000596046,0|0,0:0|0:0,0:0:0:0:
343,188,71594,1,8,0:0:0:0:
372,175,71678,1,0,0:0:0:0:
404,173,71763,1,8,0:0:0:0:
433,184,71847,1,0,0:0:0:0:
452,209,71931,6,0,B|465:249|465:249|456:311,1,80.000000298023,2|0,0:0|0:0,0:0:0:0:
446,324,72183,2,0,B|386:309|386:309|300:332,1,120.000000447034,0|0,0:0|0:0,0:0:0:0:
220,352,72603,2,0,P|150:359|119:345,1,80.000000298023,0|0,0:0|0:0,0:0:0:0:
134,196,72938,2,0,P|175:253|178:286,1,80.000000298023,8|0,0:0|0:0,0:0:0:0:
57,117,73443,6,0,P|22:218|46:273,1,160.000000596046,4|0,0:0|0:0,0:0:0:0:
213,301,73947,2,0,L|279:307,2,60.0000002235172,8|0|0,0:0|0:0|0:0,0:0:0:0:
176,261,74283,2,0,L|110:267,2,60.0000002235172,8|0|0,0:0|0:0|0:0,0:0:0:0:
229,222,74620,6,0,P|275:204|337:220,1,80.000000298023,2|0,0:0|0:0,0:0:0:0:
342,218,74872,2,0,P|399:231|435:219,1,80.000000298023,2|0,0:0|0:0,0:0:0:0:
454,207,75124,2,0,P|486:160|487:128,1,80.000000298023,2|0,0:0|0:0,0:0:0:0:
370,29,75460,1,0,0:0:0:0:
273,100,75628,1,8,0:0:0:0:
153,96,75796,1,8,0:0:0:0:
202,205,75964,6,0,P|209:256|188:298,1,80.000000298023,4|0,0:0|0:0,0:0:0:0:
127,242,76216,2,0,P|120:191|141:149,1,80.000000298023,0|0,0:0|0:0,0:0:0:0:
269,162,76468,2,0,P|288:238|266:326,1,160.000000596046,2|0,0:0|0:0,0:0:0:0:
82,310,76973,5,8,0:0:0:0:
59,287,77057,1,0,0:0:0:0:
49,256,77141,1,8,0:0:0:0:
49,224,77225,1,0,0:0:0:0:
63,195,77309,1,10,0:0:0:0:
177,157,77477,5,0,0:0:0:0:
186,187,77561,1,0,0:0:0:0:
181,218,77645,1,8,0:0:0:0:
81,93,77813,5,0,0:0:0:0:
109,65,77897,1,0,0:0:0:0:
145,49,77981,2,0,P|188:46|236:63,1,80.000000298023,10|0,0:0|0:0,0:0:0:0:
359,149,78317,2,0,P|316:152|268:135,1,80.000000298023,10|0,0:0|0:0,0:0:0:0:
181,218,78653,6,0,L|189:327,1,80.000000298023,12|0,0:0|0:0,0:0:0:0:
195,336,78905,2,0,P|254:360|297:340,1,80.000000298023,0|0,0:0|0:0,0:0:0:0:
302,338,79157,2,0,B|334:297|332:261|283:241|309:177,1,160.000000596046,2|0,0:0|0:0,0:0:0:0:
334,158,79578,1,0,0:0:0:0:
369,139,79662,1,0,0:0:0:0:
408,144,79746,1,0,0:0:0:0:
440,166,79830,1,0,0:0:0:0:
451,204,79914,1,0,0:0:0:0:
450,243,79998,6,0,L|440:299,1,40.0000001490115,2|0,0:0|0:0,0:0:0:0:
220,138,80250,1,0,0:0:0:0:
120,308,80418,2,0,L|120:367,1,40.0000001490115
220,223,80670,1,2,0:0:0:0:
48,82,80838,1,4,0:3:0:0:
41,222,81006,5,8,0:0:0:0:
46,253,81090,1,0,0:0:0:0:
65,278,81174,1,8,0:0:0:0:
90,297,81258,1,0,0:0:0:0:
119,309,81342,1,8,0:0:0:0:
259,223,81510,6,0,P|185:216|149:234,1,80.000000298023,2|8,0:0|0:0,0:0:0:0:
213,313,81846,1,0,0:0:0:0:
316,302,82015,2,0,P|359:241|361:201,1,80.000000298023,0|0,0:0|0:0,0:0:0:0:
329,121,82351,1,8,0:0:0:0:
212,94,82519,1,0,0:0:0:0:
129,180,82687,6,0,B|97:214|95:250|127:265|133:294|92:345,1,160.000000596046,2|0,0:0|0:0,0:0:0:0:
61,50,83359,2,0,P|120:31|166:42,1,80.000000298023,0|0,0:0|0:0,0:0:0:0:
286,116,83695,2,0,P|247:112|212:94,1,80.000000298023,8|0,0:0|0:0,0:0:0:0:
372,75,84031,6,0,B|382:113|382:113|376:169,1,80.000000298023,2|0,0:0|0:0,0:0:0:0:
354,176,84284,2,0,B|349:216|349:216|359:254,1,80.000000298023,2|0,0:0|0:0,0:0:0:0:
382,277,84536,2,0,P|349:330|237:303,1,160.000000596046,2|0,0:0|0:0,0:0:0:0:
138,216,85040,1,8,0:0:0:0:
106,211,85124,1,0,0:0:0:0:
74,216,85208,1,8,0:0:0:0:
48,234,85292,1,0,0:0:0:0:
30,260,85376,6,0,P|26:313|46:353,1,80.000000298023,10|0,0:0|0:0,0:0:0:0:
209,258,85712,2,0,L|220:154,1,80.000000298023,2|0,0:0|0:0,0:0:0:0:
105,292,86048,1,0,0:0:0:0:
293,261,86216,1,0,0:0:0:0:
256,72,86384,1,0,0:0:0:0:
67,101,86552,1,0,0:0:0:0:
445,101,86889,6,0,B|430:180|430:180|372:269,1,160.000000596046,0|0,0:0|0:0,0:0:0:0:
357,233,87309,1,0,0:0:0:0:
325,228,87393,1,0,0:0:0:0:
293,234,87477,1,0,0:0:0:0:
263,245,87561,1,0,0:0:0:0:
240,267,87645,1,0,0:0:0:0:
228,296,87729,6,0,L|218:356,3,40.0000001490115,8|0|0|0,0:0|0:0|0:0|0:0,0:0:0:0:
152,295,88065,2,0,L|146:228,3,40.0000001490115,8|0|0|0,0:0|0:0|0:0|0:0,0:0:0:0:
68,259,88401,2,0,L|81:198,3,40.0000001490115,8|0|8|0,0:0|0:0|0:0|0:0,0:0:0:0:
35,151,88737,6,0,L|34:108,1,40.0000001490115,8|0,0:0|0:0,0:0:0:0:
170,145,88905,2,0,L|169:184,1,40.0000001490115,8|0,0:0|0:0,0:0:0:0:
110,77,89073,1,10,0:0:0:0:
136,59,89157,1,0,0:0:0:0:
168,54,89242,1,10,0:0:0:0:
199,61,89326,1,0,0:0:0:0:
227,74,89410,2,0,P|274:88|310:81,1,80.000000298023,2|0,0:0|0:0,0:0:0:0:
402,151,89746,5,8,0:0:0:0:
384,177,89830,1,0,0:0:0:0:
377,208,89914,1,0,0:0:0:0:
379,240,89998,1,0,0:0:0:0:
395,268,90082,1,8,0:0:0:0:
363,266,90166,1,0,0:0:0:0:
332,274,90250,1,0,0:0:0:0:
306,293,90334,1,0,0:0:0:0:
282,314,90418,2,0,P|214:336|177:320,1,80.000000298023,8|0,0:0|0:0,0:0:0:0:
231,213,90754,6,0,L|226:267,3,40.0000001490115,8|0|0|0,0:0|0:0|0:0|0:0,0:0:0:0:
152,223,91090,2,0,L|149:183,3,40.0000001490115,8|0|0|0,0:0|0:0|0:0|0:0,0:0:0:0:
74,209,91426,2,0,P|83:262|113:300,1,80.000000298023,0|0,0:0|0:0,0:0:0:0:
378,202,91763,2,0,P|369:149|339:111,1,80.000000298023,8|0,0:0|0:0,0:0:0:0:
231,213,92099,5,2,0:0:0:0:
317,335,92267,2,0,P|383:357|476:304,1,160.000000596046,4|0,0:0|0:0,0:0:0:0:
378,202,92771,2,0,L|281:209,1,80.000000298023,8|0,0:0|0:0,0:0:0:0:
195,141,93107,1,8,0:0:0:0:
222,298,93275,1,0,0:0:0:0:
325,129,93443,6,0,P|302:65|238:27,1,120.000000447034,0|0,0:0|0:0,0:0:0:0:
237,48,93779,2,0,P|177:74|118:61,1,120.000000447034,8|0,0:0|0:0,0:0:0:0:
107,86,94115,2,0,P|88:131|96:186,1,80.000000298023,0|0,0:0|0:0,0:0:0:0:
143,268,94452,1,8,0:0:0:0:
252,317,94620,1,8,0:0:0:0:
371,309,94788,6,0,B|412:302|412:302|450:275,1,80.000000298023,2|0,0:0|0:0,0:0:0:0:
387,153,95040,2,0,B|346:160|346:160|308:187,1,80.000000298023,2|0,0:0|0:0,0:0:0:0:
379,228,95292,2,0,P|436:212|441:102,1,160.000000596046,2|0,0:0|0:0,0:0:0:0:
361,47,95796,1,8,0:0:0:0:
329,41,95880,1,0,0:0:0:0:
297,45,95964,1,8,0:0:0:0:
267,58,96048,1,0,0:0:0:0:
241,77,96132,6,0,P|203:102|137:95,1,80.000000298023,10|0,0:0|0:0,0:0:0:0:
239,279,96468,2,0,P|277:254|343:261,1,80.000000298023,2|0,0:0|0:0,0:0:0:0:
304,330,96805,1,8,0:0:0:0:
113,357,96973,1,0,0:0:0:0:
87,167,97141,1,8,0:0:0:0:
277,139,97309,1,8,0:0:0:0:
134,182,97645,6,0,P|213:184|277:139,1,160.000000596046,4|0,0:0|0:0,0:0:0:0:
292,110,98065,1,0,0:0:0:0:
314,87,98149,1,8,0:0:0:0:
342,73,98233,1,0,0:0:0:0:
373,70,98317,1,2,0:0:0:0:
403,81,98401,1,0,0:0:0:0:
422,106,98485,2,0,P|452:129|482:132,3,40.0000001490115,8|0|2|0,0:0|0:0|0:0|0:0,0:0:0:0:
481,199,98821,5,10,0:0:0:0:
468,236,98905,1,0,0:0:0:0:
441,265,98989,1,2,0:0:0:0:
404,281,99073,1,0,0:0:0:0:
364,277,99157,1,10,0:0:0:0:
161,200,99326,1,2,0:0:0:0:
192,317,99494,1,0,0:0:0:0:
248,107,99662,1,6,0:0:0:0:
34,147,99830,1,2,0:0:0:0:
23,185,99914,1,0,0:0:0:0:
21,224,99998,1,2,0:0:0:0:
33,262,100082,1,0,0:0:0:0:
57,294,100166,1,6,0:0:0:0:
161,200,100334,6,0,B|220:161|276:194|276:194|261:217|262:236,1,160.000000596046,2|0,0:0|0:0,0:0:0:0:
259,260,100754,1,0,0:0:0:0:
268,290,100838,1,8,0:0:0:0:
289,313,100922,1,0,0:0:0:0:
319,321,101006,1,0,0:0:0:0:
350,313,101090,1,0,0:0:0:0:
374,293,101174,2,0,P|439:275|456:281,1,80.000000298023,8|8,0:0|0:0,0:0:0:0:
382,177,101510,5,8,0:0:0:0:
368,148,101594,1,0,0:0:0:0:
364,116,101678,1,0,0:0:0:0:
377,86,101763,1,0,0:0:0:0:
400,64,101847,1,8,0:0:0:0:
285,28,102015,6,0,L|228:38,1,40.0000001490115,0|0,0:0|0:0,0:0:0:0:
134,79,102183,2,0,L|114:133,1,40.0000001490115,2|0,0:0|0:0,0:0:0:0:
110,236,102351,2,0,L|147:280,1,40.0000001490115,2|0,0:0|0:0,0:0:0:0:
250,228,102519,1,8,0:0:0:0:
256,259,102603,1,0,0:0:0:0:
251,290,102687,1,8,0:0:0:0:
236,318,102771,1,0,0:0:0:0:
209,336,102855,6,0,P|174:353|122:354,1,80.000000298023,10|0,0:0|0:0,0:0:0:0:
80,296,103107,2,0,P|115:279|167:278,1,80.000000298023,0|0,0:0|0:0,0:0:0:0:
174,198,103359,2,0,P|76:209|13:244,1,160.000000596046,0|0,0:0|0:0,0:0:0:0:
3,262,103779,1,0,0:0:0:0:
0,296,103863,1,8,0:0:0:0:
172,262,104031,1,0,0:0:0:0:
177,230,104115,1,0,0:0:0:0:
173,198,104199,1,0,0:0:0:0:
97,103,104368,6,0,P|71:109|40:132,2,40.0000001490115,0|0|0,0:0|0:0|0:0,0:0:0:0:
216,110,104704,2,0,P|242:104|273:81,2,40.0000001490115,0|0|0,0:0|0:0|0:0,0:0:0:0:
282,10,105040,1,0,0:0:0:0:
310,24,105124,1,0,0:0:0:0:
328,50,105208,2,0,L|339:145,1,80.000000298023,8|0,0:0|0:0,0:0:0:0:
483,64,105544,5,8,0:0:0:0:
461,182,105712,1,0,0:0:0:0:
452,212,105796,1,0,0:0:0:0:
434,238,105880,1,0,0:0:0:0:
406,255,105964,1,0,0:0:0:0:
374,262,106048,1,0,0:0:0:0:
342,262,106132,2,0,P|289:262|211:305,1,120.000000447034,0|0,0:0|0:0,0:0:0:0:
310,376,106552,1,0,0:0:0:0:
406,255,106721,1,0,0:0:0:0:
398,223,106805,1,0,0:0:0:0:
380,196,106889,1,8,0:0:0:0:
264,171,107057,6,0,P|267:200|282:223,1,40.0000001490115,2|0,0:0|0:0,0:0:0:0:
336,90,107225,2,0,P|318:66|294:53,1,40.0000001490115,8|0,0:0|0:0,0:0:0:0:
377,164,107393,1,2,0:0:0:0:
380,196,107477,2,0,P|374:263|324:335,1,120.000000447034,0|0,0:0|0:0,0:0:0:0:
162,317,107897,2,0,P|195:339|235:344,1,80.000000298023,8|0,0:0|0:0,0:0:0:0:
234,344,108149,1,0,0:0:0:0:
234,344,108233,1,10,0:0:0:0:
230,241,108401,6,0,P|177:217|66:262,1,160.000000596046,4|0,0:0|0:0,0:0:0:0:
152,120,108905,2,0,P|205:144|316:99,1,160.000000596046,0|8,0:0|0:0,0:0:0:0:
326,99,109326,1,0,0:0:0:0:
356,88,109410,1,0,0:0:0:0:
387,87,109494,1,0,0:0:0:0:
417,95,109578,5,8,0:0:0:0:
408,134,109662,1,0,0:0:0:0:
408,173,109746,1,2,0:0:0:0:
419,211,109830,1,0,0:0:0:0:
445,240,109914,2,0,P|467:280|462:330,1,80.000000298023,10|0,0:0|0:0,0:0:0:0:
467,313,110166,1,0,0:0:0:0:
287,313,110418,5,0,0:0:0:0:
201,228,110586,1,8,0:0:0:0:
176,207,110670,1,0,0:0:0:0:
145,196,110754,1,8,0:0:0:0:
113,203,110838,1,0,0:0:0:0:
87,224,110922,6,0,B|71:280|71:280|86:348,1,120.000000447034,10|0,0:0|0:0,0:0:0:0:
187,346,111258,2,0,B|207:291|207:291|198:222,1,120.000000447034,10|0,0:0|0:0,0:0:0:0:
195,198,111594,2,0,B|189:157|189:157|208:111,1,80.000000298023,8|0,0:0|0:0,0:0:0:0:
219,93,111847,1,0,0:0:0:0:
234,65,111931,2,0,P|285:45|315:51,1,80.000000298023,8|0,0:0|0:0,0:0:0:0:
312,186,112267,6,0,L|266:193,3,40.0000001490115,2|0|0|0,0:0|0:0|0:0|0:0,0:0:0:0:
207,128,112603,2,0,L|161:121,3,40.0000001490115,2|0|0|0,0:0|0:0|0:0|0:0,0:0:0:0:
103,187,112939,1,10,0:0:0:0:
103,187,113023,1,0,0:0:0:0:
165,276,113191,1,0,0:0:0:0:
165,276,113275,2,0,L|173:327,1,40.0000001490115,8|0,0:0|0:0,0:0:0:0:
260,340,113443,2,0,L|293:380,1,40.0000001490115,8|0,0:0|0:0,0:0:0:0:
361,323,113611,6,0,P|417:329|459:313,1,95.9999974279402,4|0,0:0|0:0,0:0:0:0:
403,227,113863,2,0,P|347:221|305:237,1,95.9999974279402,2|0,0:0|0:0,0:0:0:0:
277,253,114115,2,0,P|225:282|113:224,1,191.99999485588,2|0,0:0|0:0,0:0:0:0:
103,187,114536,1,0,0:0:0:0:
103,187,114620,1,8,0:0:0:0:
165,78,114788,5,0,0:0:0:0:
198,60,114872,1,0,0:0:0:0:
236,55,114956,2,0,P|272:58|299:69,1,47.9999987139701,8|0,0:0|0:0,0:0:0:0:
363,140,115124,1,0,0:0:0:0:
330,158,115208,1,0,0:0:0:0:
292,163,115292,2,0,P|256:160|229:149,1,47.9999987139701,8|0,0:0|0:0,0:0:0:0:
442,61,115460,5,0,0:0:0:0:
460,94,115544,1,0,0:0:0:0:
465,132,115628,2,0,P|462:168|451:195,1,47.9999987139701,0|0,0:0|0:0,0:0:0:0:
380,259,115796,1,0,0:0:0:0:
362,226,115880,1,8,0:0:0:0:
357,188,115964,2,0,P|360:152|371:125,1,47.9999987139701,0|0,0:0|0:0,0:0:0:0:
244,157,116132,2,0,P|241:193|230:220,1,47.9999987139701,0|0,0:0|0:0,0:0:0:0:
292,291,116300,6,0,P|248:308|183:288,1,95.9999974279402,8|0,0:0|0:0,0:0:0:0:
169,278,116552,1,0,0:0:0:0:
137,256,116636,1,8,0:0:0:0:
98,257,116721,1,0,0:0:0:0:
64,274,116804,1,0,0:0:0:0:
26,268,116888,2,0,B|2:252|7:220|7:220|51:190|50:130,1,143.99999614191,0|0,0:0|0:0,0:0:0:0:
205,126,117309,1,8,0:0:0:0:
235,149,117393,1,0,0:0:0:0:
272,156,117477,1,8,0:0:0:0:
309,147,117561,1,0,0:0:0:0:
344,131,117645,6,0,B|385:101|436:102|436:102|429:160,1,143.99999614191,12|0,0:0|0:0,0:0:0:0:
426,185,117981,2,0,B|415:237|415:237|387:281|320:281,1,143.99999614191,10|0,0:0|0:0,0:0:0:0:
300,276,118317,2,0,P|223:274|148:318,1,143.99999614191,2|0,0:0|0:0,0:0:0:0:
133,325,118653,2,0,P|77:343|30:330,1,95.9999974279402,8|8,0:0|0:0,0:0:0:0:
100,77,119157,5,6,0:0:0:0:
93,231,119326,2,0,B|98:286|130:325|130:325|151:305|181:295,1,143.99999614191,8|0,0:0|0:0,0:0:0:0:
199,286,119662,2,0,P|249:273|385:308,1,191.99999485588,8|0,0:0|0:0,0:0:0:0:
417,319,120082,1,0,0:0:0:0:
453,307,120166,1,8,0:0:0:0:
475,276,120250,1,0,0:0:0:0:
478,237,120334,5,10,0:0:0:0:
431,224,120418,1,0,0:0:0:0:
388,201,120502,1,10,0:0:0:0:
370,156,120586,1,0,0:0:0:0:
386,110,120670,1,10,0:0:0:0:
232,171,120838,1,2,0:0:0:0:
240,218,120922,1,0,0:0:0:0:
100,77,121174,1,0,0:0:0:0:
148,245,121342,5,8,0:0:0:0:
173,285,121426,1,0,0:0:0:0:
213,311,121510,1,8,0:0:0:0:
260,309,121594,1,0,0:0:0:0:
305,294,121678,2,0,P|354:289|401:311,1,95.9999974279402,12|0,0:0|0:0,0:0:0:0:
279,115,122015,2,0,P|230:120|183:98,1,95.9999974279402,8|0,0:0|0:0,0:0:0:0:
247,18,122351,1,8,0:0:0:0:
370,68,122519,1,2,0:0:0:0:
382,114,122603,1,0,0:0:0:0:
372,161,122687,1,8,0:0:0:0:
221,213,122855,1,0,0:0:0:0:
101,146,123022,5,0,0:0:0:0:
101,146,123107,2,0,L|43:135,1,47.9999987139701,0|0,0:0|0:0,0:0:0:0:
143,263,123359,2,0,L|85:274,1,47.9999987139701,0|0,0:0|0:0,0:0:0:0:
231,110,123611,2,0,L|173:99,1,47.9999987139701,0|0,0:0|0:0,0:0:0:0:
277,292,123863,2,0,L|219:303,1,47.9999987139701,0|0,0:0|0:0,0:0:0:0:
319,137,124115,1,0,0:0:0:0:
358,281,124284,1,0,0:0:0:0:
405,165,124452,6,0,L|420:115,1,47.9999987139701,0|0,0:0|0:0,0:0:0:0:
256,265,124704,2,0,L|256:317,1,47.9999987139701,0|0,0:0|0:0,0:0:0:0:
107,165,124956,2,0,L|92:115,1,47.9999987139701,0|0,0:0|0:0,0:0:0:0:
256,87,125208,2,0,L|256:39,1,47.9999987139701,0|0,0:0|0:0,0:0:0:0:
285,173,125460,2,0,P|255:225|265:158,1,143.99999614191,0|0,0:0|0:0,0:0:0:0:
329,67,125880,6,0,L|388:47,1,47.9999987139701,0|0,0:0|0:0,0:0:0:0:
183,67,126048,2,0,L|124:47,1,47.9999987139701,8|0,0:0|0:0,0:0:0:0:
256,86,126216,2,0,L|256:164,1,47.9999987139701,0|0,0:0|0:0,0:0:0:0:
345,268,126468,5,0,0:0:0:0:
345,268,126552,2,0,L|371:342,1,47.9999987139701,0|0,0:0|0:0,0:0:0:0:
256,308,126721,2,0,L|256:384,1,47.9999987139701,0|0,0:0|0:0,0:0:0:0:
167,268,126889,2,0,L|141:342,1,47.9999987139701,0|0,0:0|0:0,0:0:0:0:
256,228,127057,1,0,0:0:0:0:
440,32,127393,5,12,0:3:0:0:
