osu file format v14

[General]
AudioFilename: 1337.mp3
AudioLeadIn: 1650
PreviewTime: 79997
Countdown: 0
SampleSet: Soft
StackLeniency: 0.4
Mode: 0
LetterboxInBreaks: 0
WidescreenStoryboard: 0

[Editor]
Bookmarks: 19996,67476,88064,89408
DistanceSpacing: 1.5
BeatDivisor: 4
GridSize: 4
TimelineZoom: 2.899999

[Metadata]
Title:.357 Magnum
TitleUnicode:.357 Magnum
Artist:xi
ArtistUnicode:xi
Creator:Akali
Version:High Noon
Source:BMS
Tags:sayaka- dialgadu77 tidek EXTREMEBEAT piano jazz
BeatmapID:546944
BeatmapSetID:155749

[Difficulty]
HPDrainRate:6
CircleSize:4.7
OverallDifficulty:9
ApproachRate:9.5
SliderMultiplier:2.20000000596046
SliderTickRate:2

[Events]
//Background and Video events
0,0,"lincoln.jpg",0,0
//Break Periods
//Storyboard Layer 0 (Background)
//Storyboard Layer 1 (Fail)
//Storyboard Layer 2 (Pass)
//Storyboard Layer 3 (Foreground)
//Storyboard Sound Samples

[TimingPoints]
669.585365853658,336.134453781513,4,2,1,60,1,0
38316,-125,4,2,1,47,0,0
45039,-100,4,2,1,47,0,0
46383,-125,4,2,1,47,0,0
55795,-100,4,2,1,60,0,0
57140,-125,4,2,1,60,0,0
58485,-100,4,2,1,60,0,0
113610,-83.3333333333333,4,2,1,60,0,1
123022,-76.9230769230769,4,2,1,60,0,0

[Colours]
Combo1 : 105,105,105
Combo2 : 160,82,45
Combo3 : 139,125,123
Combo4 : 205,190,112

[HitObjects]
458,62,670,5,8,0:3:0:0:
458,62,2014,5,0,0:0:0:0:
378,192,2350,5,2,0:0:0:0:
321,332,2518,1,0,0:0:0:0:
318,337,2602,1,0,0:0:0:0:
263,373,2686,1,8,0:0:0:0:
214,369,2770,1,0,0:0:0:0:
175,338,2854,1,0,0:0:0:0:
154,292,2938,1,0,0:0:0:0:
167,221,3022,5,8,0:0:0:0:
188,176,3106,1,0,0:0:0:0:
188,126,3191,1,0,0:0:0:0:
164,82,3275,1,0,0:0:0:0:
117,63,3359,6,0,P|72:62|17:102,1,110.000000298023,4|0,0:0|0:0,0:0:0:0:
75,250,3611,2,0,P|98:211|91:143,1,110.000000298023,2|0,0:0|0:0,0:0:0:0:
188,126,3863,2,0,P|198:169|251:212,1,110.000000298023,2|0,0:0|0:0,0:0:0:0:
396,42,4199,1,2,0:0:0:0:
346,33,4283,1,0,0:0:0:0:
298,47,4367,1,8,0:0:0:0:
387,236,4535,1,2,0:0:0:0:
429,208,4619,1,0,0:0:0:0:
453,164,4703,1,0,0:0:0:0:
232,252,4871,5,2,0:0:0:0:
245,300,4955,1,0,0:0:0:0:
257,347,5039,1,0,0:0:0:0:
280,132,5207,5,2,0:0:0:0:
267,84,5291,1,0,0:0:0:0:
255,37,5375,1,8,0:0:0:0:
110,141,5543,5,2,0:0:0:0:
103,189,5627,1,0,0:0:0:0:
94,237,5712,1,8,0:0:0:0:
294,175,5880,1,8,0:0:0:0:
44,33,6048,5,4,0:0:0:0:
84,282,6216,1,0,0:0:0:0:
115,319,6300,1,0,0:0:0:0:
162,331,6384,1,0,0:0:0:0:
207,313,6468,1,0,0:0:0:0:
382,353,6636,2,0,P|419:313|430:260,1,110.000000298023
434,213,6888,1,0,0:0:0:0:
398,66,7056,1,8,0:0:0:0:
275,116,7224,1,0,0:0:0:0:
225,122,7308,1,0,0:0:0:0:
177,109,7392,1,0,0:0:0:0:
347,20,7560,5,0,0:0:0:0:
392,0,7644,1,0,0:0:0:0:
439,12,7728,1,0,0:0:0:0:
464,54,7812,1,0,0:0:0:0:
454,102,7896,1,8,0:0:0:0:
415,133,7980,2,0,P|379:185|397:249,1,110.000000298023
390,255,8233,1,0,0:0:0:0:
395,281,8317,1,0,0:0:0:0:
403,307,8401,2,0,L|414:360,1,55.0000001490115,8|0,0:0|0:0,0:0:0:0:
273,240,8569,2,0,L|281:185,1,55.0000001490115,8|0,0:0|0:0,0:0:0:0:
229,45,8737,5,12,0:0:0:0:
39,136,8905,2,0,P|20:210|54:276,1,110.000000298023,6|0,0:0|0:0,0:0:0:0:
40,265,9157,1,0,0:0:0:0:
59,285,9241,1,0,0:0:0:0:
80,302,9325,1,0,0:0:0:0:
105,313,9409,2,0,L|231:320,1,110.000000298023,10|0,0:0|0:0,0:0:0:0:
240,309,9661,1,0,0:0:0:0:
256,287,9745,5,10,0:0:0:0:
273,240,9829,1,0,0:0:0:0:
263,191,9913,1,0,0:0:0:0:
224,159,9997,1,0,0:0:0:0:
174,157,10081,5,10,0:0:0:0:
120,168,10165,1,0,0:0:0:0:
70,144,10249,1,0,0:0:0:0:
55,91,10333,1,0,0:0:0:0:
73,39,10417,1,2,0:0:0:0:
280,126,10585,5,2,0:0:0:0:
263,191,10670,1,2,0:0:0:0:
485,22,10922,5,4,0:0:0:0:
469,202,11090,1,8,0:0:0:0:
459,250,11174,1,0,0:0:0:0:
436,293,11258,1,8,0:0:0:0:
395,321,11342,1,0,0:0:0:0:
346,330,11426,6,0,L|211:321,1,110.000000298023,12|0,0:0|0:0,0:0:0:0:
150,271,11678,1,0,0:0:0:0:
150,271,11762,2,0,B|94:267|94:267|34:234,1,110.000000298023
111,59,12098,1,2,0:0:0:0:
226,205,12266,1,0,0:0:0:0:
244,262,12350,1,0,0:0:0:0:
239,322,12434,1,8,0:0:0:0:
15,175,12602,6,0,L|25:112,1,55.0000001490115,2|0,0:0|0:0,0:0:0:0:
176,17,12770,1,2,0:0:0:0:
485,354,13106,5,12,0:3:0:0:
271,238,13443,2,0,L|216:245,1,55.0000001490115
150,269,13611,2,0,P|122:296|118:333,1,55.0000001490115
217,245,13779,1,8,0:0:0:0:
257,216,13863,1,0,0:0:0:0:
272,169,13947,1,8,0:0:0:0:
261,120,14031,1,0,0:0:0:0:
228,82,14115,5,4,0:0:0:0:
475,21,14283,1,2,0:0:0:0:
401,190,14451,1,8,0:0:0:0:
337,122,14619,1,0,0:0:0:0:
337,122,14703,1,0,0:0:0:0:
337,122,14787,1,8,0:0:0:0:
412,286,14955,1,0,0:0:0:0:
412,286,15039,1,0,0:0:0:0:
412,286,15123,2,0,P|396:345|350:381,1,110.000000298023,8|0,0:0|0:0,0:0:0:0:
208,236,15459,6,0,B|196:178|196:178|213:101,1,110.000000298023
288,178,15712,1,0,0:0:0:0:
288,178,15796,2,0,B|300:236|300:236|283:313,1,110.000000298023,8|0,0:0|0:0,0:0:0:0:
154,346,16132,1,0,0:0:0:0:
154,346,16300,1,0,0:0:0:0:
94,134,16468,1,8,0:0:0:0:
71,254,16636,1,8,0:0:0:0:
231,116,16804,6,0,P|244:53|219:6,1,110.000000298023,12|0,0:0|0:0,0:0:0:0:
94,133,17056,2,0,P|81:196|106:243,1,110.000000298023
121,251,17308,1,8,0:0:0:0:
239,192,17476,1,0,0:0:0:0:
331,286,17644,1,0,0:0:0:0:
352,136,17812,5,8,0:0:0:0:
318,164,17896,1,0,0:0:0:0:
302,205,17980,1,2,0:0:0:0:
305,249,18064,1,0,0:0:0:0:
331,286,18148,2,0,B|339:299|360:306|360:306|396:283|447:302,1,110.000000298023,2|0,0:0|0:0,0:0:0:0:
184,92,18485,2,0,B|170:84|148:89|148:89|129:127|75:136,1,110.000000298023,2|0,0:0|0:0,0:0:0:0:
62,99,18737,5,0,0:0:0:0:
83,60,18821,1,0,0:0:0:0:
173,270,18989,1,0,0:0:0:0:
254,14,19157,1,8,0:0:0:0:
394,218,19325,1,2,0:0:0:0:
181,342,19493,1,0,0:0:0:0:
349,315,19661,6,2,P|382:266|382:145,1,165.000000447034
344,86,19997,5,2,0:0:0:0:
300,81,20081,1,0,0:0:0:0:
262,103,20165,1,0,0:0:0:0:
220,117,20249,1,0,0:0:0:0:
176,115,20333,1,0,0:0:0:0:
133,102,20417,1,0,0:0:0:0:
72,139,20501,5,8,0:0:0:0:
54,179,20585,1,0,0:0:0:0:
64,221,20670,1,0,0:0:0:0:
98,248,20754,1,0,0:0:0:0:
164,274,20838,5,8,0:0:0:0:
201,276,20922,1,0,0:0:0:0:
238,280,21006,1,8,0:0:0:0:
277,283,21090,1,0,0:0:0:0:
277,355,21174,5,8,0:0:0:0:
246,358,21258,1,0,0:0:0:0:
216,361,21342,1,8,0:0:0:0:
186,362,21426,1,0,0:0:0:0:
162,294,21510,6,0,L|168:230,1,55.0000001490115,2|0,0:0|0:0,0:0:0:0:
344,239,21678,2,0,L|350:294,1,55.0000001490115,2|0,0:0|0:0,0:0:0:0:
256,188,21846,1,10,0:0:0:0:
203,160,21930,1,0,0:0:0:0:
183,105,22014,1,8,0:0:0:0:
206,50,22098,1,0,0:0:0:0:
260,104,22182,6,0,P|316:124|376:112,1,110.000000298023,2|0,0:0|0:0,0:0:0:0:
389,104,22434,1,0,0:0:0:0:
408,84,22518,1,8,0:0:0:0:
421,59,22602,1,0,0:0:0:0:
433,83,22686,1,0,0:0:0:0:
436,110,22770,1,0,0:0:0:0:
431,137,22854,5,8,0:0:0:0:
400,175,22938,1,0,0:0:0:0:
378,219,23022,1,0,0:0:0:0:
387,267,23106,1,0,0:0:0:0:
420,303,23191,2,0,P|448:317|479:312,1,55.0000001490115,2|0,0:0|0:0,0:0:0:0:
353,181,23359,2,0,P|321:182|297:202,1,55.0000001490115,2|0,0:0|0:0,0:0:0:0:
215,287,23527,5,8,0:0:0:0:
180,323,23611,1,0,0:0:0:0:
128,324,23695,1,8,0:0:0:0:
90,293,23779,1,0,0:0:0:0:
152,257,23863,5,8,0:0:0:0:
170,217,23947,1,0,0:0:0:0:
158,174,24031,1,0,0:0:0:0:
128,141,24115,1,0,0:0:0:0:
84,134,24199,1,10,0:0:0:0:
17,239,24367,6,0,L|14:321,1,55.0000001490115,8|0,0:0|0:0,0:0:0:0:
158,174,24535,2,0,L|161:92,1,55.0000001490115,8|0,0:0|0:0,0:0:0:0:
294,250,24703,2,0,L|291:332,1,55.0000001490115,8|0,0:0|0:0,0:0:0:0:
150,360,24871,1,4,0:0:0:0:
93,189,25039,5,2,0:0:0:0:
88,161,25123,1,0,0:0:0:0:
84,134,25207,2,0,B|87:81|87:81|114:12,1,110.000000298023
189,84,25459,1,0,0:0:0:0:
189,84,25543,2,0,B|236:107|236:107|309:119,1,110.000000298023,8|0,0:0|0:0,0:0:0:0:
487,123,25880,1,8,0:0:0:0:
363,20,26048,1,0,0:0:0:0:
313,274,26216,6,0,P|264:322|210:324,1,110.000000298023
137,260,26468,1,0,0:0:0:0:
137,260,26552,2,0,B|103:216|103:216|53:197,1,110.000000298023,8|0,0:0|0:0,0:0:0:0:
6,308,26888,1,0,0:0:0:0:
246,272,27056,1,0,0:0:0:0:
95,83,27224,1,8,0:0:0:0:
137,260,27392,1,0,0:0:0:0:
257,42,27560,6,0,P|321:26|377:55,1,110.000000298023,2|0,0:0|0:0,0:0:0:0:
363,204,27812,2,0,P|317:156|314:93,1,110.000000298023,2|0,0:0|0:0,0:0:0:0:
399,123,28064,2,0,P|451:189|359:294,1,220.000000596046,2|0,0:0|0:0,0:0:0:0:
375,291,28485,1,0,0:0:0:0:
353,287,28569,1,8,0:0:0:0:
320,290,28653,1,0,0:0:0:0:
282,313,28737,1,8,0:0:0:0:
230,331,28821,1,0,0:0:0:0:
165,345,28905,6,0,B|139:348|113:326|113:326|101:304|38:323,1,110.000000298023,10|0,0:0|0:0,0:0:0:0:
196,74,29241,2,0,B|207:99|236:104|236:104|264:109|279:173,1,110.000000298023,2|0,0:0|0:0,0:0:0:0:
250,186,29493,1,0,0:0:0:0:
207,174,29577,1,8,0:0:0:0:
114,29,29745,1,0,0:0:0:0:
363,53,29913,1,8,0:0:0:0:
61,127,30081,1,0,0:0:0:0:
255,22,30249,1,0,0:0:0:0:
61,127,30417,6,0,B|14:211|81:277|81:277|124:250|157:298,1,220.000000596046,2|0,0:0|0:0,0:0:0:0:
169,297,30838,1,0,0:0:0:0:
198,337,30922,1,0,0:0:0:0:
239,309,31006,1,0,0:0:0:0:
287,296,31090,1,0,0:0:0:0:
334,307,31174,1,0,0:0:0:0:
404,291,31258,5,8,0:0:0:0:
426,253,31342,1,0,0:0:0:0:
426,209,31426,1,0,0:0:0:0:
396,176,31510,1,0,0:0:0:0:
325,167,31594,5,8,0:0:0:0:
255,182,31678,1,0,0:0:0:0:
199,138,31762,1,8,0:0:0:0:
199,66,31846,1,0,0:0:0:0:
255,22,31930,1,8,0:0:0:0:
354,237,32098,1,0,0:0:0:0:
189,208,32266,1,8,0:0:0:0:
424,18,32434,1,0,0:0:0:0:
255,182,32602,5,2,0:0:0:0:
189,208,32686,1,2,0:0:0:0:
119,192,32770,1,2,0:0:0:0:
79,132,32854,1,2,0:0:0:0:
92,61,32938,1,2,0:0:0:0:
209,348,33106,6,0,B|279:397|336:369|336:369|332:357|342:294,1,165.000000447034,4|0,0:0|0:0,0:0:0:0:
346,268,33443,5,0,0:0:0:0:
366,223,33527,1,0,0:0:0:0:
406,195,33611,1,8,0:0:0:0:
454,205,33695,1,0,0:0:0:0:
476,247,33779,1,0,0:0:0:0:
460,293,33863,1,0,0:0:0:0:
415,314,33947,2,0,P|405:345|409:372,1,55.0000001490115,8|0,0:0|0:0,0:0:0:0:
477,166,34115,2,0,P|487:135|483:108,1,55.0000001490115,8|0,0:0|0:0,0:0:0:0:
399,60,34283,5,8,0:0:0:0:
356,84,34367,1,0,0:0:0:0:
307,91,34451,1,0,0:0:0:0:
258,80,34535,1,0,0:0:0:0:
218,49,34619,1,8,0:0:0:0:
91,129,34787,6,0,L|32:163,1,55.0000001490115,4|0,0:0|0:0,0:0:0:0:
127,260,34955,2,0,L|155:213,1,55.0000001490115
257,245,35123,2,0,L|257:300,1,55.0000001490115
384,260,35291,2,0,L|357:213,1,55.0000001490115
421,129,35459,2,0,L|479:163,1,55.0000001490115
308,151,35627,6,0,P|251:168|181:129,1,110.000000298023,4|0,0:0|0:0,0:0:0:0:
203,29,35880,2,0,P|260:12|330:51,1,110.000000298023
340,52,36132,1,0,0:0:0:0:
256,144,36300,1,0,0:0:0:0:
172,52,36468,1,0,0:0:0:0:
104,166,36636,6,0,L|114:222,1,55.0000001490115,8|0,0:0|0:0,0:0:0:0:
256,144,36804,2,0,L|265:89,1,55.0000001490115,8|0,0:0|0:0,0:0:0:0:
91,61,36972,1,8,0:0:0:0:
132,302,37308,5,0,0:0:0:0:
164,325,37392,1,0,0:0:0:0:
203,325,37476,1,0,0:0:0:0:
235,304,37560,1,0,0:0:0:0:
317,300,37644,5,8,0:3:0:0:
345,274,37728,1,0,0:0:0:0:
354,236,37812,1,0,0:0:0:0:
332,203,37896,1,0,0:0:0:0:
340,121,37980,5,8,0:3:0:0:
376,87,38064,1,0,0:3:0:0:
425,91,38148,1,0,0:3:0:0:
459,126,38233,1,0,0:3:0:0:
465,164,38316,6,0,P|465:215|436:256,1,88.0000002384184,4|0,0:0|0:0,0:0:0:0:
293,215,38568,2,0,P|337:189|395:194,1,88.0000002384184,2|0,0:0|0:0,0:0:0:0:
337,299,38821,2,0,P|287:312|232:292,1,88.0000002384184,2|0,0:0|0:0,0:0:0:0:
175,262,39157,1,0,0:0:0:0:
96,303,39325,2,0,L|105:351,1,44.0000001192092
10,258,39493,2,0,L|19:306,1,44.0000001192092
80,194,39661,6,0,P|126:158|166:151,1,88.0000002384184
241,163,39913,1,0,0:0:0:0:
241,163,39997,2,0,L|333:176,1,88.0000002384184,2|0,0:0|0:0,0:0:0:0:
343,40,40333,2,0,L|303:76,1,44.0000001192092,2|0,0:0|0:0,0:0:0:0:
230,49,40501,2,0,L|196:99,1,44.0000001192092
153,151,40670,2,0,B|133:193|133:193|133:269,1,88.0000002384184,2|0,0:0|0:0,0:0:0:0:
156,319,40922,1,0,0:0:0:0:
156,319,41006,6,0,P|196:353|239:358,1,88.0000002384184,2|0,0:0|0:0,0:0:0:0:
316,255,41258,2,0,L|230:271,1,88.0000002384184,2|0,0:0|0:0,0:0:0:0:
304,355,41510,2,0,L|390:339,1,88.0000002384184,2|0,0:0|0:0,0:0:0:0:
425,279,41762,1,0,0:0:0:0:
425,279,41846,1,0,0:0:0:0:
450,131,42014,1,0,0:0:0:0:
341,27,42182,1,0,0:0:0:0:
217,164,42350,5,0,0:0:0:0:
188,197,42434,1,0,0:0:0:0:
179,240,42518,1,0,0:0:0:0:
146,270,42602,1,0,0:0:0:0:
101,268,42686,1,0,0:0:0:0:
68,238,42770,1,0,0:0:0:0:
66,194,42854,1,0,0:0:0:0:
42,156,42938,1,2,0:0:0:0:
157,310,43106,5,0,0:0:0:0:
120,333,43191,1,0,0:0:0:0:
85,308,43275,1,0,0:0:0:0:
101,268,43359,1,0,0:0:0:0:
146,270,43443,1,0,0:0:0:0:
179,240,43527,1,0,0:0:0:0:
188,197,43611,1,0,0:0:0:0:
217,164,43695,6,0,P|275:144|314:152,1,88.0000002384184,2|0,0:0|0:0,0:0:0:0:
333,294,43947,2,0,P|297:270|277:232,1,88.0000002384184,2|0,0:0|0:0,0:0:0:0:
388,155,44199,2,0,P|424:179|444:217,1,88.0000002384184,2|0,0:0|0:0,0:0:0:0:
444,262,44451,1,0,0:0:0:0:
426,302,44535,1,8,0:0:0:0:
256,368,44703,1,2,0:0:0:0:
86,302,44871,1,2,0:0:0:0:
68,262,44955,1,0,0:0:0:0:
67,217,45039,6,0,P|76:172|120:121,1,110.000000298023,2|0,0:0|0:0,0:0:0:0:
246,108,45291,2,0,P|229:56|189:20,1,110.000000298023,2|0,0:0|0:0,0:0:0:0:
174,210,45543,2,0,B|172:240|194:258|194:258|230:266|282:274|331:217,1,165.000000447034,2|0,0:0|0:0,0:0:0:0:
331,223,45880,1,0,0:0:0:0:
407,143,46048,1,8,0:0:0:0:
447,245,46216,1,0,0:0:0:0:
374,327,46384,6,0,P|296:333|261:311,1,88.0000002384184,2|0,0:0|0:0,0:0:0:0:
218,277,46636,2,0,P|202:317|206:361,1,88.0000002384184,2|0,0:0|0:0,0:0:0:0:
122,333,46888,2,0,P|80:317|36:321,1,88.0000002384184,2|0,0:0|0:0,0:0:0:0:
18,332,47140,1,0,0:0:0:0:
3,348,47224,1,0,0:0:0:0:
67,184,47392,1,8,0:0:0:0:
83,157,47476,1,0,0:0:0:0:
86,126,47560,1,8,0:0:0:0:
78,96,47644,1,0,0:0:0:0:
60,70,47728,6,0,P|112:41|222:49,1,132.000000357628,2|0,0:0|0:0,0:0:0:0:
320,124,48064,2,0,P|262:138|158:102,1,132.000000357628,2|0,0:0|0:0,0:0:0:0:
328,36,48401,2,0,P|394:39|452:69,1,132.000000357628,14|0,0:0|0:0,0:0:0:0:
434,96,48737,1,8,0:0:0:0:
426,126,48821,1,0,0:0:0:0:
429,157,48905,1,8,0:0:0:0:
445,184,48989,1,0,0:0:0:0:
467,205,49073,6,0,P|474:259|453:303,1,88.0000002384184,12|0,0:0|0:0,0:0:0:0:
306,281,49325,2,0,P|349:247|397:244,1,88.0000002384184,2|0,0:0|0:0,0:0:0:0:
303,176,49577,2,0,P|249:183|205:162,2,88.0000002384184,2|0|0,0:0|0:0|0:0,0:0:0:0:
230,53,50081,1,2,0:0:0:0:
163,60,50165,2,0,P|142:63|122:73,1,44.0000001192092,2|0,0:0|0:0,0:0:0:0:
61,129,50333,1,2,0:0:0:0:
36,190,50417,6,0,B|17:265|65:313,1,132.000000357628,2|0,0:0|0:0,0:0:0:0:
234,292,50753,2,0,B|180:239|113:256,1,132.000000357628
134,327,51089,2,0,L|271:353,1,132.000000357628,2|0,0:0|0:0,0:0:0:0:
363,267,51425,2,0,L|234:292,1,132.000000357628,2|0,0:0|0:0,0:0:0:0:
360,357,51762,6,0,P|413:341|449:303,1,88.0000002384184,2|0,0:0|0:0,0:0:0:0:
371,182,52014,2,0,P|358:224|364:268,1,88.0000002384184,2|0,0:0|0:0,0:0:0:0:
274,196,52266,2,0,P|275:152|258:111,1,88.0000002384184,2|0,0:0|0:0,0:0:0:0:
103,195,52602,1,0,0:0:0:0:
224,246,52770,1,10,0:0:0:0:
192,117,52938,1,2,0:0:0:0:
144,278,53106,5,0,0:0:0:0:
169,313,53191,1,0,0:0:0:0:
209,329,53275,1,0,0:0:0:0:
252,327,53359,1,0,0:0:0:0:
287,301,53443,1,0,0:0:0:0:
308,262,53527,1,0,0:0:0:0:
305,218,53611,1,0,0:0:0:0:
315,175,53695,1,2,0:0:0:0:
401,337,53863,5,0,0:0:0:0:
358,345,53947,1,0,0:0:0:0:
317,332,54031,1,0,0:0:0:0:
287,301,54115,1,0,0:0:0:0:
252,327,54199,1,0,0:0:0:0:
209,329,54283,1,0,0:0:0:0:
169,313,54367,1,0,0:0:0:0:
144,278,54451,6,0,P|136:216|154:177,1,88.0000002384184,6|0,0:0|0:0,0:0:0:0:
229,150,54703,2,0,P|237:212|219:251,1,88.0000002384184,2|0,0:0|0:0,0:0:0:0:
150,96,54955,2,0,P|199:58|242:54,1,88.0000002384184,2|0,0:0|0:0,0:0:0:0:
347,97,55291,1,2,0:0:0:0:
448,180,55459,1,10,0:0:0:0:
494,10,55627,1,2,0:0:0:0:
223,53,55796,6,0,P|156:86|137:161,1,110.000000298023,6|0,0:0|0:0,0:0:0:0:
241,251,56048,2,0,P|246:176|190:122,1,110.000000298023,2|0,0:0|0:0,0:0:0:0:
80,211,56300,2,0,B|70:238|70:238|91:259|91:259|84:322|153:363,1,165.000000447034
201,359,56635,1,0,0:0:0:0:
336,311,56804,2,0,L|411:294,1,55.0000001490115,10|0,0:0|0:0,0:0:0:0:
241,251,56972,2,0,L|166:268,1,55.0000001490115,10|0,0:0|0:0,0:0:0:0:
250,146,57140,6,0,P|304:136|349:155,1,88.0000002384184,10|0,0:0|0:0,0:0:0:0:
378,219,57392,2,0,P|342:177|336:128,1,88.0000002384184,2|0,0:0|0:0,0:0:0:0:
378,73,57644,2,0,P|359:124|320:154,1,88.0000002384184,2|0,0:0|0:0,0:0:0:0:
250,33,57980,1,0,0:0:0:0:
133,110,58148,1,0,0:0:0:0:
102,116,58233,1,0,0:0:0:0:
71,115,58317,1,0,0:0:0:0:
42,103,58401,1,0,0:0:0:0:
24,81,58485,6,0,L|56:9,1,55.0000001490115,2|0,0:0|0:0,0:0:0:0:
159,90,58653,2,0,L|195:139,1,55.0000001490115
84,202,58821,2,0,L|25:207,1,55.0000001490115,10|0,0:0|0:0,0:0:0:0:
78,328,58989,2,0,L|143:321,1,55.0000001490115,8|0,0:0|0:0,0:0:0:0:
210,266,59157,5,10,0:0:0:0:
210,266,59241,1,8,0:0:0:0:
220,238,59325,2,0,L|239:177,1,55.0000001490115,8|0,0:0|0:0,0:0:0:0:
338,305,59493,1,10,0:0:0:0:
338,305,59577,1,8,0:0:0:0:
349,333,59661,2,0,L|371:385,1,55.0000001490115,8|0,0:0|0:0,0:0:0:0:
458,175,59829,5,6,0:0:0:0:
300,220,59997,2,0,P|233:240|157:186,1,165.000000447034
146,164,60333,1,0,0:0:0:0:
252,70,60501,2,0,P|311:41|362:48,1,110.000000298023
458,175,60838,1,0,0:0:0:0:
335,314,61006,5,2,0:0:0:0:
300,339,61090,1,0,0:0:0:0:
258,354,61174,1,8,0:0:0:0:
215,359,61258,1,0,0:0:0:0:
171,353,61342,1,2,0:0:0:0:
130,335,61426,1,0,0:0:0:0:
178,275,61510,5,8,0:0:0:0:
192,233,61594,1,0,0:0:0:0:
182,189,61678,1,2,0:0:0:0:
146,164,61762,1,0,0:0:0:0:
73,139,61846,5,8,0:0:0:0:
98,103,61930,1,0,0:0:0:0:
139,87,62014,1,2,0:0:0:0:
182,93,62098,1,2,0:0:0:0:
214,122,62182,6,0,P|225:153|221:196,1,55.0000001490115,10|2,0:0|0:0,0:0:0:0:
252,305,62350,2,0,P|264:273|297:245,1,55.0000001490115,10|2,0:0|0:0,0:0:0:0:
453,143,62518,1,10,0:0:0:0:
355,312,62686,6,0,P|277:320|231:275,1,110.000000298023,4|0,0:0|0:0,0:0:0:0:
183,260,62938,1,0,0:0:0:0:
183,260,63022,2,0,P|133:239|80:253,1,110.000000298023,8|0,0:0|0:0,0:0:0:0:
19,308,63275,1,0,0:0:0:0:
19,308,63359,1,8,0:0:0:0:
87,158,63527,1,8,0:0:0:0:
108,107,63611,1,0,0:0:0:0:
99,63,63695,6,0,B|89:37|102:10,2,36.6666667660077
133,90,63863,2,0,P|193:109|240:88,1,110.000000298023,4|0,0:0|0:0,0:0:0:0:
298,61,64115,1,0,0:0:0:0:
366,42,64199,2,0,P|439:66|468:120,1,110.000000298023,8|0,0:0|0:0,0:0:0:0:
469,161,64451,1,0,0:0:0:0:
469,161,64535,1,8,0:0:0:0:
352,306,64703,5,0,0:0:0:0:
312,269,64787,1,0,0:0:0:0:
309,215,64871,1,8,0:0:0:0:
324,162,64955,1,0,0:0:0:0:
326,108,65039,1,2,0:0:0:0:
299,61,65123,1,0,0:0:0:0:
249,38,65207,1,8,0:0:0:0:
168,166,65375,6,0,P|104:200|21:135,1,165.000000447034,4|0,0:0|0:0,0:0:0:0:
26,130,65712,1,0,0:0:0:0:
128,25,65880,1,0,0:0:0:0:
168,166,66048,1,0,0:0:0:0:
270,61,66216,1,8,0:0:0:0:
109,103,66384,1,0,0:0:0:0:
112,270,66552,6,0,B|130:317|182:304|182:304|184:261|252:251,1,165.000000447034,2|0,0:0|0:0,0:0:0:0:
338,282,66888,2,0,B|368:244|331:206|331:206|293:226|261:185,1,165.000000447034,2|0,0:0|0:0,0:0:0:0:
236,80,67224,2,0,B|186:72|171:123|171:123|207:146|182:210,1,165.000000447034,2|0,0:0|0:0,0:0:0:0:
172,215,67560,1,10,0:0:0:0:
275,343,67728,5,0,0:0:0:0:
307,363,67812,1,0,0:0:0:0:
344,369,67896,1,8,0:0:0:0:
415,169,68064,2,0,P|344:204|337:283,1,165.000000447034,4|0,0:0|0:0,0:0:0:0:
417,255,68401,2,0,P|459:241|499:188,2,110.000000298023
281,179,68905,1,8,0:0:0:0:
273,141,68989,1,0,0:0:0:0:
282,98,69073,1,8,0:0:0:0:
312,59,69157,1,0,0:0:0:0:
363,38,69241,6,0,P|428:44|478:107,1,110.000000298023,12|0,0:0|0:0,0:0:0:0:
484,138,69493,1,0,0:0:0:0:
484,209,69577,2,0,P|461:270|387:302,1,110.000000298023,8|0,0:0|0:0,0:0:0:0:
356,307,69829,1,0,0:0:0:0:
286,290,69913,2,0,P|214:290|166:339,1,110.000000298023,8|0,0:0|0:0,0:0:0:0:
222,138,70249,1,8,0:0:0:0:
218,83,70333,1,0,0:0:0:0:
181,41,70417,1,8,0:0:0:0:
126,30,70501,1,0,0:0:0:0:
73,45,70585,6,0,B|55:95|55:95|67:163,1,110.000000298023,6|0,0:0|0:0,0:0:0:0:
78,204,70838,1,0,0:0:0:0:
78,204,70922,1,8,0:0:0:0:
142,115,71090,1,0,0:0:0:0:
149,252,71258,2,0,B|153:304|153:304|124:367,1,110.000000298023
78,204,71594,1,8,0:0:0:0:
120,169,71678,1,0,0:0:0:0:
175,166,71762,1,8,0:0:0:0:
222,194,71846,1,0,0:0:0:0:
259,233,71930,6,0,P|316:258|375:238,1,110.000000298023,2|0,0:0|0:0,0:0:0:0:
416,203,72182,1,0,0:0:0:0:
442,136,72266,2,0,B|441:89|441:89|456:60|438:16,1,110.000000298023,8|0,0:0|0:0,0:0:0:0:
377,57,72518,1,0,0:0:0:0:
309,81,72602,2,0,P|253:94|185:69,1,110.000000298023
69,27,72938,1,8,0:0:0:0:
151,247,73106,1,2,0:0:0:0:
151,247,73443,6,0,P|97:240|162:270,1,220.000000596046,4|0,0:0|0:0,0:0:0:0:
227,243,73863,1,0,0:0:0:0:
295,278,73947,6,0,L|301:370,2,82.5000002235172,8|0|0,0:0|0:0|0:0,0:0:0:0:
380,246,74283,2,0,L|386:338,2,82.5000002235172,8|0|0,0:0|0:0|0:0,0:0:0:0:
444,182,74619,6,0,P|435:101|382:53,1,110.000000298023,2|0,0:0|0:0,0:0:0:0:
243,130,74871,2,0,P|252:211|305:259,1,110.000000298023,2|0,0:0|0:0,0:0:0:0:
318,58,75123,2,0,P|243:25|175:47,1,110.000000298023,2|0,0:0|0:0,0:0:0:0:
118,257,75459,2,0,P|98:294|47:320,1,55.0000001490115
13,136,75627,2,0,P|55:134|103:165,1,55.0000001490115,8|0,0:0|0:0,0:0:0:0:
167,53,75796,2,0,P|144:17|147:-39,1,55.0000001490115,8|0,0:0|0:0,0:0:0:0:
316,37,75964,6,0,P|319:116|292:152,1,110.000000298023,4|0,0:0|0:0,0:0:0:0:
259,196,76216,1,0,0:0:0:0:
267,266,76300,1,8,0:0:0:0:
489,136,76468,2,0,P|422:52|316:37,1,220.000000596046,2|0,0:0|0:0,0:0:0:0:
213,134,76972,5,8,0:0:0:0:
168,165,77056,1,0,0:0:0:0:
114,171,77140,1,8,0:0:0:0:
63,152,77224,1,0,0:0:0:0:
28,110,77308,1,10,0:0:0:0:
315,36,77476,5,0,0:0:0:0:
350,91,77560,1,0,0:0:0:0:
356,156,77644,1,8,0:0:0:0:
119,292,77812,5,0,0:0:0:0:
76,228,77896,1,0,0:0:0:0:
63,152,77980,2,0,P|80:92|120:57,1,110.000000298023,10|0,0:0|0:0,0:0:0:0:
199,40,78232,1,0,0:0:0:0:
272,87,78317,2,0,P|327:119|420:108,1,110.000000298023,10|0,0:0|0:0,0:0:0:0:
420,71,78569,5,0,0:0:0:0:
420,71,78653,2,0,L|408:193,1,110.000000298023,12|0,0:0|0:0,0:0:0:0:
267,264,78905,2,0,L|256:154,1,110.000000298023
109,229,79157,2,0,B|70:283|80:354|80:354|112:321|184:313,1,220.000000596046,2|0,0:0|0:0,0:0:0:0:
212,302,79577,1,0,0:0:0:0:
265,295,79661,1,8,0:0:0:0:
318,311,79745,1,0,0:0:0:0:
372,318,79829,1,8,0:0:0:0:
420,292,79913,1,0,0:0:0:0:
447,244,79997,5,10,0:0:0:0:
447,244,80081,1,0,0:0:0:0:
199,40,80249,1,0,0:0:0:0:
372,318,80417,1,0,0:0:0:0:
372,318,80501,1,2,0:0:0:0:
463,53,80670,5,2,0:0:0:0:
98,73,80838,1,4,0:3:0:0:
61,228,81006,5,8,0:0:0:0:
88,263,81090,1,0,0:0:0:0:
126,287,81174,1,8,0:0:0:0:
168,302,81258,1,0,0:0:0:0:
212,302,81342,1,8,0:0:0:0:
368,152,81510,5,2,0:0:0:0:
368,152,81594,1,0,0:0:0:0:
368,152,81678,1,8,0:0:0:0:
241,76,81846,1,0,0:0:0:0:
241,76,81930,1,0,0:0:0:0:
241,76,82014,2,0,P|216:120|224:191,1,110.000000298023
351,43,82350,1,8,0:0:0:0:
385,260,82518,1,0,0:0:0:0:
235,330,82686,6,0,B|172:352|172:352|100:324,1,110.000000298023,2|0,0:0|0:0,0:0:0:0:
77,273,82938,1,0,0:0:0:0:
77,273,83022,2,0,P|49:347|60:376,1,110.000000298023,8|0,0:0|0:0,0:0:0:0:
213,187,83359,1,0,0:0:0:0:
27,205,83527,1,0,0:0:0:0:
107,32,83695,1,8,0:0:0:0:
293,50,83863,1,0,0:0:0:0:
262,268,84031,6,0,P|191:279|132:218,1,110.000000298023,2|0,0:0|0:0,0:0:0:0:
124,165,84283,2,0,P|125:219|158:261,1,110.000000298023,2|0,0:0|0:0,0:0:0:0:
261,268,84535,2,0,P|298:228|305:175,1,110.000000298023,2|0,0:0|0:0,0:0:0:0:
292,150,84787,1,0,0:0:0:0:
292,150,84871,1,0,0:0:0:0:
168,78,85039,1,8,0:0:0:0:
195,44,85123,1,0,0:0:0:0:
232,20,85207,1,8,0:0:0:0:
275,10,85291,1,0,0:0:0:0:
319,15,85375,6,0,B|343:24|352:42|352:42|367:73|431:54,1,110.000000298023,10|0,0:0|0:0,0:0:0:0:
306,304,85712,2,0,B|282:295|273:277|273:277|258:246|194:265,1,110.000000298023,2|0,0:0|0:0,0:0:0:0:
188,269,85964,1,0,0:0:0:0:
170,290,86048,1,8,0:0:0:0:
390,329,86216,1,0,0:0:0:0:
175,176,86384,1,8,0:0:0:0:
415,65,86552,1,2,0:0:0:0:
232,20,86720,1,0,0:0:0:0:
415,65,86888,6,0,B|491:112|462:180|462:180|417:172,1,165.000000447034
364,199,87224,5,0,0:0:0:0:
366,243,87308,1,0,0:0:0:0:
341,280,87392,1,0,0:0:0:0:
302,301,87476,1,0,0:0:0:0:
258,302,87560,1,0,0:0:0:0:
218,283,87644,1,0,0:0:0:0:
159,241,87728,5,8,0:0:0:0:
124,214,87812,1,0,0:0:0:0:
80,213,87896,1,0,0:0:0:0:
44,239,87980,1,0,0:0:0:0:
35,309,88064,5,8,0:0:0:0:
70,336,88148,1,0,0:0:0:0:
114,337,88232,1,0,0:0:0:0:
150,311,88316,1,0,0:0:0:0:
159,241,88401,5,8,0:0:0:0:
177,200,88485,1,0,0:0:0:0:
215,179,88569,1,8,0:0:0:0:
259,185,88653,1,0,0:0:0:0:
286,219,88737,2,0,P|298:251|298:283,1,55.0000001490115,8|0,0:0|0:0,0:0:0:0:
165,133,88905,2,0,P|153:101|153:69,1,55.0000001490115,8|0,0:0|0:0,0:0:0:0:
257,19,89073,5,10,0:0:0:0:
311,10,89157,1,0,0:0:0:0:
363,27,89241,1,10,0:0:0:0:
389,75,89325,1,0,0:0:0:0:
361,164,89409,6,0,P|292:191|236:174,1,110.000000298023,2|0,0:0|0:0,0:0:0:0:
238,211,89661,1,0,0:0:0:0:
236,243,89745,1,8,0:0:0:0:
251,271,89829,1,0,0:0:0:0:
286,296,89913,5,0,0:0:0:0:
327,309,89997,1,0,0:0:0:0:
370,306,90081,1,8,0:0:0:0:
409,286,90165,1,0,0:0:0:0:
433,249,90249,1,0,0:0:0:0:
437,205,90333,1,0,0:0:0:0:
432,161,90417,2,0,P|427:138|411:112,1,55.0000001490115,8|0,0:0|0:0,0:0:0:0:
287,242,90585,2,0,P|283:269|292:313,1,55.0000001490115,8|0,0:0|0:0,0:0:0:0:
227,147,90754,5,8,0:0:0:0:
191,173,90838,1,0,0:0:0:0:
147,180,90922,1,0,0:0:0:0:
106,164,91006,1,0,0:0:0:0:
156,96,91090,5,8,0:0:0:0:
191,70,91174,1,0,0:0:0:0:
234,61,91258,1,0,0:0:0:0:
278,69,91342,1,0,0:0:0:0:
307,101,91426,6,0,P|319:128|317:161,1,55.0000001490115
389,258,91594,2,0,P|385:287|367:314,1,55.0000001490115
193,226,91762,2,0,P|186:199|191:172,1,55.0000001490115,8|0,0:0|0:0,0:0:0:0:
246,351,91930,2,0,P|222:364|194:366,1,55.0000001490115,8|0,0:0|0:0,0:0:0:0:
93,286,92098,5,2,0:0:0:0:
277,267,92266,2,0,B|389:257|389:257|429:296|484:269|499:244,1,220.000000596046,4|0,0:0|0:0,0:0:0:0:
438,205,92686,1,0,0:0:0:0:
438,205,92770,1,8,0:0:0:0:
345,69,92938,1,0,0:0:0:0:
331,92,93022,1,0,0:0:0:0:
309,109,93106,2,0,P|245:127|174:96,1,110.000000298023,8|0,0:0|0:0,0:0:0:0:
86,36,93443,6,0,P|62:85|66:139,1,110.000000298023
79,172,93695,1,0,0:0:0:0:
92,205,93779,2,0,P|95:259|72:308,1,110.000000298023,8|0,0:0|0:0,0:0:0:0:
16,352,94031,1,0,0:0:0:0:
16,352,94115,5,0,0:0:0:0:
232,304,94283,1,0,0:0:0:0:
124,327,94451,1,8,0:0:0:0:
336,338,94619,1,8,0:0:0:0:
442,310,94787,6,0,P|482:262|477:194,1,110.000000298023,2|0,0:0|0:0,0:0:0:0:
337,146,95039,2,0,P|358:204|419:234,1,110.000000298023,2|0,0:0|0:0,0:0:0:0:
442,110,95291,2,0,P|355:42|228:108,1,220.000000596046,2|0,0:0|0:0,0:0:0:0:
238,96,95712,5,0,0:0:0:0:
210,122,95796,1,8,0:0:0:0:
168,137,95880,1,0,0:0:0:0:
118,131,95964,1,8,0:0:0:0:
81,89,96048,1,0,0:0:0:0:
67,30,96132,2,0,L|37:165,1,110.000000298023,10|0,0:0|0:0,0:0:0:0:
255,222,96468,2,0,L|225:357,1,110.000000298023,2|0,0:0|0:0,0:0:0:0:
207,352,96720,1,0,0:0:0:0:
207,352,96804,5,8,0:0:0:0:
89,236,96972,1,0,0:0:0:0:
238,96,97140,1,8,0:0:0:0:
255,222,97308,1,8,0:0:0:0:
67,30,97476,1,2,0:0:0:0:
89,236,97644,6,0,B|107:279|135:290|135:290|172:253|232:238|296:298,1,220.000000596046,4|0,0:0|0:0,0:0:0:0:
300,307,98064,1,0,0:0:0:0:
325,342,98148,1,8,0:0:0:0:
340,300,98233,1,0,0:0:0:0:
336,256,98317,1,2,0:0:0:0:
321,214,98401,1,0,0:0:0:0:
255,241,98485,5,8,0:0:0:0:
212,254,98569,1,0,0:0:0:0:
167,259,98653,1,2,0:0:0:0:
126,244,98737,1,0,0:0:0:0:
88,183,98821,5,10,0:0:0:0:
81,111,98905,1,0,0:0:0:0:
119,50,98989,1,2,0:0:0:0:
186,26,99073,1,0,0:0:0:0:
254,45,99157,1,10,0:0:0:0:
52,236,99325,5,2,0:0:0:0:
269,269,99493,1,0,0:0:0:0:
188,64,99661,1,6,0:0:0:0:
407,80,99829,1,2,0:0:0:0:
475,102,99913,1,0,0:0:0:0:
475,173,99997,1,2,0:0:0:0:
406,195,100081,1,0,0:0:0:0:
364,138,100165,1,6,0:0:0:0:
188,64,100333,6,0,B|141:73|106:61|106:61|55:68|56:141,1,165.000000447034,2|0,0:0|0:0,0:0:0:0:
53,183,100670,5,0,0:0:0:0:
52,228,100754,1,0,0:0:0:0:
71,267,100838,1,8,0:0:0:0:
107,291,100922,1,0,0:0:0:0:
150,292,101006,1,0,0:0:0:0:
188,270,101090,1,0,0:0:0:0:
212,233,101174,2,0,P|221:195|220:171,1,55.0000001490115,8|0,0:0|0:0,0:0:0:0:
309,310,101342,2,0,P|300:348|301:372,1,55.0000001490115,8|0,0:0|0:0,0:0:0:0:
417,255,101510,5,8,0:0:0:0:
390,219,101594,1,0,0:0:0:0:
378,176,101678,1,0,0:0:0:0:
386,132,101762,1,0,0:0:0:0:
415,99,101846,1,8,0:0:0:0:
256,174,102014,6,0,P|222:185|189:179,1,55.0000001490115
147,50,102182,2,0,P|181:39|214:45,1,55.0000001490115,2|0,0:0|0:0,0:0:0:0:
365,50,102350,2,0,P|331:39|298:45,1,55.0000001490115,2|0,0:0|0:0,0:0:0:0:
256,174,102518,1,8,0:0:0:0:
240,215,102602,1,0,0:0:0:0:
210,247,102686,1,8,0:0:0:0:
168,260,102770,1,0,0:0:0:0:
124,251,102854,6,0,P|74:218|67:162,1,110.000000298023,10|0,0:0|0:0,0:0:0:0:
140,71,103106,2,0,P|166:118|152:170,1,110.000000298023
276,136,103359,2,0,P|238:98|239:45,1,110.000000298023
363,128,103695,5,0,0:0:0:0:
358,171,103779,1,0,0:0:0:0:
332,206,103863,1,8,0:0:0:0:
414,322,104031,5,0,0:0:0:0:
457,327,104115,1,0,0:0:0:0:
492,353,104199,1,0,0:0:0:0:
331,206,104367,5,0,0:0:0:0:
370,188,104451,1,0,0:0:0:0:
414,193,104535,1,8,0:0:0:0:
223,90,104703,5,0,0:0:0:0:
249,56,104787,1,0,0:0:0:0:
289,38,104871,1,0,0:0:0:0:
81,104,105039,5,0,0:0:0:0:
85,61,105123,1,0,0:0:0:0:
111,26,105207,1,8,0:0:0:0:
289,38,105375,1,0,0:0:0:0:
414,193,105543,1,8,0:0:0:0:
223,167,105712,5,0,0:0:0:0:
179,164,105796,1,0,0:0:0:0:
137,178,105880,1,0,0:0:0:0:
104,207,105964,1,0,0:0:0:0:
206,356,106132,2,0,P|288:365|329:343,1,110.000000298023
345,327,106384,1,0,0:0:0:0:
414,193,106552,1,0,0:0:0:0:
222,69,106720,1,0,0:0:0:0:
231,118,106804,1,0,0:0:0:0:
265,155,106888,1,8,0:0:0:0:
114,36,107056,5,2,0:0:0:0:
65,28,107140,1,0,0:0:0:0:
23,52,107224,1,8,0:0:0:0:
9,99,107308,1,0,0:0:0:0:
31,142,107392,1,2,0:0:0:0:
75,164,107476,2,0,P|124:166|178:120,1,110.000000298023
184,107,107728,1,0,0:0:0:0:
199,84,107812,1,0,0:0:0:0:
222,69,107896,2,0,L|291:59,1,55.0000001490115,8|0,0:0|0:0,0:0:0:0:
377,186,108064,2,0,L|322:178,1,55.0000001490115,8|0,0:0|0:0,0:0:0:0:
490,78,108233,5,10,0:0:0:0:
472,216,108401,2,0,P|420:274|372:278,1,110.000000298023,4|0,0:0|0:0,0:0:0:0:
364,282,108653,1,0,0:0:0:0:
337,289,108737,1,0,0:0:0:0:
312,303,108821,1,0,0:0:0:0:
285,311,108905,2,0,P|210:286|188:250,1,110.000000298023
172,223,109157,1,0,0:0:0:0:
167,174,109241,5,8,0:0:0:0:
188,129,109325,1,0,0:0:0:0:
227,99,109409,1,0,0:0:0:0:
276,99,109493,1,0,0:0:0:0:
315,128,109577,5,8,0:0:0:0:
368,141,109661,1,0,0:0:0:0:
419,122,109745,1,2,0:0:0:0:
440,71,109829,1,0,0:0:0:0:
427,17,109913,1,10,0:0:0:0:
255,184,110081,5,2,0:0:0:0:
262,249,110165,1,0,0:0:0:0:
132,37,110417,5,0,0:0:0:0:
63,189,110585,1,8,0:0:0:0:
57,242,110670,1,0,0:0:0:0:
77,288,110754,1,8,0:0:0:0:
117,319,110838,1,0,0:0:0:0:
165,333,110922,2,0,B|220:338|220:338|269:313,1,110.000000298023,10|0,0:0|0:0,0:0:0:0:
306,290,111174,1,0,0:0:0:0:
343,267,111258,2,0,B|392:242|392:242|447:247,1,110.000000298023,10|0,0:0|0:0,0:0:0:0:
444,61,111594,5,8,0:0:0:0:
317,165,111762,1,0,0:0:0:0:
256,192,111846,1,0,0:0:0:0:
195,165,111930,1,8,0:0:0:0:
256,0,112098,1,0,0:0:0:0:
323,133,112266,5,2,0:0:0:0:
316,165,112350,1,0,0:0:0:0:
310,197,112434,1,0,0:0:0:0:
304,230,112518,1,0,0:0:0:0:
220,258,112602,5,2,0:0:0:0:
227,290,112686,1,0,0:0:0:0:
233,322,112770,1,8,0:0:0:0:
239,355,112854,1,0,0:0:0:0:
324,374,112938,5,10,0:0:0:0:
324,374,113022,1,0,0:0:0:0:
446,246,113191,1,0,0:0:0:0:
446,246,113275,2,0,P|453:200|440:157,1,55.0000001490115,8|0,0:0|0:0,0:0:0:0:
220,173,113443,2,0,P|213:219|226:262,1,55.0000001490115,8|0,0:0|0:0,0:0:0:0:
336,204,113611,6,0,P|344:151|298:71,1,131.999996329307,4|0,0:0|0:0,0:0:0:0:
138,79,113863,2,0,P|157:128|237:175,1,131.999996329307,2|0,0:0|0:0,0:0:0:0:
246,43,114115,2,0,P|150:33|44:158,1,263.999992658615,2|0,0:0|0:0,0:0:0:0:
48,201,114535,1,0,0:0:0:0:
69,249,114619,1,8,0:0:0:0:
247,358,114787,5,0,0:0:0:0:
298,346,114871,1,0,0:0:0:0:
335,308,114955,1,8,0:0:0:0:
347,256,115039,1,0,0:0:0:0:
336,204,115123,1,0,0:0:0:0:
296,169,115207,1,0,0:0:0:0:
250,233,115291,5,8,0:0:0:0:
294,262,115375,1,0,0:0:0:0:
347,256,115459,1,0,0:0:0:0:
387,222,115543,1,0,0:0:0:0:
433,158,115627,5,8,0:0:0:0:
389,129,115711,1,0,0:0:0:0:
336,135,115795,1,0,0:0:0:0:
296,169,115879,1,0,0:0:0:0:
250,233,115963,6,0,P|229:258|199:273,1,65.9999981646537,8|0,0:0|0:0,0:0:0:0:
50,172,116131,2,0,P|55:139|73:111,1,65.9999981646537,8|0,0:0|0:0,0:0:0:0:
190,15,116300,5,8,0:0:0:0:
102,231,116468,1,0,0:0:0:0:
122,280,116552,1,0,0:0:0:0:
163,312,116636,1,8,0:0:0:0:
214,324,116720,2,0,P|258:318|284:296,1,65.9999981646537
310,281,116888,6,0,B|371:264|388:326|388:326|429:357|462:332|469:309,1,197.999994493961
484,248,117224,1,0,0:0:0:0:
481,182,117308,1,8,0:0:0:0:
444,127,117392,1,0,0:0:0:0:
384,99,117476,1,8,0:0:0:0:
318,101,117560,1,0,0:0:0:0:
266,141,117644,6,0,B|235:179|222:185|222:185|209:164|133:130|87:215,1,197.999994493961,12|0,0:0|0:0,0:0:0:0:
53,374,117980,2,0,B|95:372|126:316|112:275|112:275|152:267|174:228,1,197.999994493961,10|0,0:0|0:0,0:0:0:0:
66,123,118317,2,0,B|41:132|19:168|10:210|41:242|41:242|25:267|37:302,1,197.999994493961,2|0,0:0|0:0,0:0:0:0:
103,191,118653,2,0,P|133:162|141:108,1,65.9999981646537,8|0,0:0|0:0,0:0:0:0:
265,142,118821,2,0,P|276:101|256:51,1,65.9999981646537,8|0,0:0|0:0,0:0:0:0:
201,100,118989,1,10,0:0:0:0:
235,294,119157,5,6,0:0:0:0:
388,166,119325,2,0,P|376:97|326:46,1,131.999996329307,8|0,0:0|0:0,0:0:0:0:
265,141,119577,1,0,0:0:0:0:
265,141,119661,2,0,P|277:210|327:261,1,131.999996329307,8|0,0:0|0:0,0:0:0:0:
258,49,119997,5,8,0:0:0:0:
209,69,120081,1,0,0:0:0:0:
156,70,120165,1,8,0:0:0:0:
104,57,120249,1,0,0:0:0:0:
68,118,120333,5,10,0:0:0:0:
65,190,120417,1,0,0:0:0:0:
89,258,120501,1,10,0:0:0:0:
143,306,120585,1,0,0:0:0:0:
214,317,120670,1,10,0:0:0:0:
335,124,120838,5,2,0:0:0:0:
265,141,120922,1,0,0:0:0:0:
484,26,121174,5,0,0:0:0:0:
487,188,121342,1,8,0:0:0:0:
472,259,121426,1,0,0:0:0:0:
423,312,121510,1,8,0:0:0:0:
352,330,121594,1,0,0:0:0:0:
282,309,121678,6,0,P|219:299|133:384,1,131.999996329307,12|0,0:0|0:0,0:0:0:0:
215,221,121930,1,0,0:0:0:0:
215,221,122014,2,0,P|278:231|364:146,1,131.999996329307,8|0,0:0|0:0,0:0:0:0:
247,34,122350,1,8,0:0:0:0:
69,164,122518,1,2,0:0:0:0:
49,233,122602,1,0,0:0:0:0:
73,301,122686,1,8,0:0:0:0:
336,200,122854,2,0,P|334:153|317:129,2,65.9999981646537
313,267,123106,5,0,0:0:0:0:
313,267,123191,1,8,0:0:0:0:
199,117,123359,5,2,0:0:0:0:
199,117,123443,1,8,0:0:0:0:
243,335,123611,5,0,0:0:0:0:
243,335,123695,1,10,0:0:0:0:
269,49,123863,5,0,0:0:0:0:
269,49,123947,1,8,0:0:0:0:
384,256,124115,5,10,0:0:0:0:
128,128,124283,1,10,0:0:0:0:
163,335,124451,5,0,0:0:0:0:
163,335,124535,1,10,0:0:0:0:
349,49,124703,5,2,0:0:0:0:
349,49,124787,1,8,0:0:0:0:
67,208,124955,5,0,0:0:0:0:
67,208,125039,1,10,0:0:0:0:
445,176,125207,5,0,0:0:0:0:
445,176,125291,1,0,0:0:0:0:
445,176,125375,2,0,L|450:257,1,71.4999969207048,8|0,0:0|0:0,0:0:0:0:
346,121,125543,2,0,L|350:49,1,71.4999969207048,8|0,0:0|0:0,0:0:0:0:
267,19,125712,1,8,0:0:0:0:
54,174,125880,6,0,P|39:220|62:263,1,71.4999969207048,8|0,0:0|0:0,0:0:0:0:
112,217,126048,1,0,0:0:0:0:
121,146,126132,1,0,0:0:0:0:
65,100,126216,2,0,P|24:103|-8:133,1,71.4999969207048,8|0,0:0|0:0,0:0:0:0:
376,287,126468,5,0,0:0:0:0:
325,338,126552,2,0,P|274:357|216:332,1,71.4999969207048
189,334,126720,1,8,0:0:0:0:
139,283,126804,1,0,0:0:0:0:
112,217,126888,1,8,0:0:0:0:
121,146,126972,1,0,0:0:0:0:
159,85,127056,1,8,0:0:0:0:
472,358,127392,5,12,0:3:0:0:
