osu file format v14

[General]
AudioFilename: 1337.mp3
AudioLeadIn: 1650
PreviewTime: 79997
Countdown: 0
SampleSet: Soft
StackLeniency: 0.7
Mode: 0
LetterboxInBreaks: 0
WidescreenStoryboard: 0

[Editor]
Bookmarks: 19492,67476,88064,92098
DistanceSpacing: 1.3
BeatDivisor: 4
GridSize: 8
TimelineZoom: 1.7

[Metadata]
Title:.357 Magnum
TitleUnicode:.357 Magnum
Artist:xi
ArtistUnicode:xi
Creator:Akali
Version:Beginner
Source:BMS
Tags:sayaka- dialgadu77 tidek EXTREMEBEAT piano jazz
BeatmapID:545554
BeatmapSetID:155749

[Difficulty]
HPDrainRate:2
CircleSize:2.5
OverallDifficulty:2
ApproachRate:3.5
SliderMultiplier:0.750000005960459
SliderTickRate:1

[Events]
//Background and Video events
0,0,"lincoln.jpg",0,0
//Break Periods
2,38316,47693
2,81341,90719
//Storyboard Layer 0 (Background)
//Storyboard Layer 1 (Fail)
//Storyboard Layer 2 (Pass)
//Storyboard Layer 3 (Foreground)
//Storyboard Sound Samples

[TimingPoints]
669.585365853658,336.134453781513,4,2,1,60,1,0
38316,-100,4,2,1,47,0,0
58484,-100,4,2,1,60,0,0
113610,-100,4,2,1,60,0,1
123022,-100,4,2,1,60,0,0

[Colours]
Combo1 : 105,105,105
Combo2 : 160,82,45
Combo3 : 139,125,123
Combo4 : 205,190,112

[HitObjects]
17,130,669,6,0,P|37:233|201:191,1,300.000002384184,8|0,0:3|0:0,0:0:0:0:
207,109,2351,2,0,P|245:53|262:44,2,75.0000005960459,2|0|0,0:0|0:0|0:0,0:0:0:0:
301,134,3359,6,0,P|366:162|449:125,1,150.000001192092,4|0,0:0|0:0,0:0:0:0:
371,64,4368,1,8,0:0:0:0:
301,134,4704,2,0,L|287:223,1,75.0000005960459,0|0,0:0|0:0,0:0:0:0:
193,194,5376,2,0,L|207:105,1,75.0000005960459,8|8,0:0|0:0,0:0:0:0:
109,141,6048,6,0,B|97:215|97:215|126:299,1,150.000001192092,4|0,0:0|0:0,0:0:0:0:
202,340,7057,1,8,0:0:0:0:
299,333,7393,2,0,L|385:326,1,75.0000005960459,0|0,0:0|0:0,0:0:0:0:
403,234,8065,2,0,L|317:241,2,75.0000005960459,0|8|12,0:0|0:0|0:0,0:0:0:0:
365,42,9410,6,0,P|411:29|451:35,1,75.0000005960459,10|0,0:0|0:0,0:0:0:0:
414,127,10082,2,0,P|368:140|328:134,1,75.0000005960459,2|0,0:0|0:0,0:0:0:0:
250,103,10754,1,0,0:0:0:0:
153,117,11090,1,8,0:0:0:0:
99,198,11426,6,0,L|107:284,1,75.0000005960459,12|0,0:0|0:0,0:0:0:0:
190,321,12099,2,0,L|196:246,1,75.0000005960459,2|0,0:0|0:0,0:0:0:0:
265,177,12771,1,2,0:0:0:0:
209,97,13106,1,12,0:3:0:0:
485,193,14115,6,0,P|460:261|386:309,1,150.000001192092,4|8,0:0|0:0,0:0:0:0:
303,287,15124,1,8,0:0:0:0:
221,340,15460,2,0,P|172:352|136:341,1,75.0000005960459,0|8,0:0|0:0,0:0:0:0:
63,299,16132,2,0,P|35:274|20:240,1,75.0000005960459,0|8,0:0|0:0,0:0:0:0:
26,142,16805,6,0,B|45:89|112:82|154:103|179:137|240:102,1,225.000001788138,12|0,0:0|0:0,0:0:0:0:
296,44,18149,2,0,P|322:104|321:123,1,75.0000005960459,2|2,0:0|0:0,0:0:0:0:
293,197,18821,2,0,P|267:257|268:276,1,75.0000005960459,0|8,0:0|0:0,0:0:0:0:
340,334,19494,6,0,B|295:377|233:373|192:330|192:330|133:325,1,225.000001788138
67,254,20838,2,0,L|76:168,1,75.0000005960459,8|8,0:0|0:0,0:0:0:0:
166,146,21510,2,0,P|213:169|259:159,2,75.0000005960459,2|10|2,0:0|0:0|0:0,0:0:0:0:
185,50,22519,6,0,L|279:22,2,75.0000005960459,8|0|2,0:0|0:0|0:0,0:0:0:0:
94,86,23527,2,0,P|70:136|80:178,1,75.0000005960459,8|8,0:0|0:0,0:0:0:0:
104,245,24199,1,10,0:0:0:0:
176,310,24536,1,8,0:0:0:0:
272,322,24872,6,0,P|353:309|398:233,1,150.000001192092,4|0,0:0|0:0,0:0:0:0:
300,228,25880,1,8,0:0:0:0:
202,221,26216,2,0,B|167:213|167:213|108:175,1,75.0000005960459,0|8,0:0|0:0,0:0:0:0:
189,111,26889,2,0,B|223:118|223:118|282:156,1,75.0000005960459,0|0,0:0|0:0,0:0:0:0:
300,228,27561,6,0,P|362:242|476:136,1,225.000001788138,2|8,0:0|0:0,0:0:0:0:
455,49,28905,2,0,P|422:61|394:90,1,75.0000005960459,10|2,0:0|0:0,0:0:0:0:
347,174,29578,2,0,P|330:207|300:228,1,75.0000005960459,8|0,0:0|0:0,0:0:0:0:
204,246,30250,5,0,0:0:0:0:
160,158,30586,2,0,P|196:147|233:151,2,75.0000005960459,0|0|8,0:0|0:0|0:0,0:0:0:0:
80,214,31594,2,0,P|61:161|73:122,1,75.0000005960459,8|8,0:0|0:0,0:0:0:0:
125,66,32267,1,8,0:0:0:0:
220,49,32603,1,2,0:0:0:0:
306,89,32939,6,0,B|363:118|414:92|414:92|391:150|419:202,1,225.000001788138,2|8,0:0|0:0,0:0:0:0:
471,284,34284,2,0,P|438:299|401:298,1,75.0000005960459,8|0,0:0|0:0,0:0:0:0:
305,276,34956,1,0,0:0:0:0:
251,196,35292,1,0,0:0:0:0:
182,126,35628,6,0,P|122:124|182:261,1,300.000002384184,4|8,0:0|0:0,0:0:0:0:
55,197,49073,6,0,B|77:187|126:229|126:229|166:169|222:155|284:181|306:230,1,300.000002384184,14|2,0:0|0:0,0:0:0:0:
218,272,50754,2,0,P|255:313|290:322,2,75.0000005960459,2|2|2,0:0|0:0|0:0,0:0:0:0:
188,179,51762,6,0,P|196:118|340:57,1,225.000001788138,2|8,0:0|0:0,0:0:0:0:
425,86,53107,2,0,B|440:120|440:120|438:173,1,75.0000005960459,2|0,0:0|0:0,0:0:0:0:
357,211,53779,2,0,B|322:196|322:196|300:158,1,75.0000005960459,2|0,0:0|0:0,0:0:0:0:
239,89,54452,6,0,P|186:60|88:91,1,150.000001192092,2|0,0:0|0:0,0:0:0:0:
166,152,55460,1,10,0:0:0:0:
93,217,55796,2,0,P|146:246|244:215,1,150.000001192092,2|0,0:0|0:0,0:0:0:0:
303,162,56805,1,8,0:0:0:0:
331,69,57141,6,0,B|392:96|397:153|397:153|468:161|472:220|468:244,1,225.000001788138,10|0,0:0|0:0,0:0:0:0:
405,298,58485,2,0,P|352:329|306:325,1,75.0000005960459,2|8,0:0|0:0,0:0:0:0:
259,275,59157,2,0,L|162:286,1,75.0000005960459,10|8,0:0|0:0,0:0:0:0:
115,214,59830,5,6,0:0:0:0:
52,139,60166,2,0,P|19:190|49:284,1,150.000001192092,0|0,0:0|0:0,0:0:0:0:
115,214,61174,2,0,L|215:188,1,75.0000005960459,8|8,0:0|0:0,0:0:0:0:
256,126,61847,1,8,0:0:0:0:
352,139,62183,1,10,0:0:0:0:
417,211,62519,6,0,B|440:248|419:320|376:343|376:343|291:352,1,225.000001788138,10|8,0:0|0:0,0:0:0:0:
205,353,63863,2,0,P|127:338|84:256,1,150.000001192092,4|8,0:0|0:0,0:0:0:0:
186,114,65208,6,0,P|213:183|184:250,1,150.000001192092,8|0,0:0|0:0,0:0:0:0:
118,181,66216,1,0,0:0:0:0:
187,114,66552,2,0,P|235:92|279:89,1,75.0000005960459,2|2,0:0|0:0,0:0:0:0:
355,105,67225,2,0,L|445:145,1,75.0000005960459,2|0,0:0|0:0,0:0:0:0:
354,205,67897,6,0,P|343:240|356:301,2,75.0000005960459,8|0|0,0:0|0:0|0:0,0:0:0:0:
256,36,69242,1,12,0:0:0:0:
177,94,69578,1,8,0:0:0:0:
150,187,69914,1,8,0:0:0:0:
315,290,70586,6,0,P|338:220|307:154,1,150.000001192092,2|0,0:0|0:0,0:0:0:0:
239,226,71594,1,8,0:0:0:0:
159,284,71931,2,0,P|191:315|220:324,2,75.0000005960459,2|0|0,0:0|0:0|0:0,0:0:0:0:
112,200,72939,2,0,P|79:230|66:262,1,75.0000005960459,8|0,0:0|0:0,0:0:0:0:
127,72,73947,6,0,L|201:79,1,75.0000005960459,8|8,0:0|0:0,0:0:0:0:
296,58,74620,1,2,0:0:0:0:
384,99,74956,2,0,P|429:97|459:74,2,75.0000005960459,0|0|0,0:0|0:0|0:0,0:0:0:0:
303,154,75964,6,0,L|312:244,1,75.0000005960459,4|8,0:0|0:0,0:0:0:0:
405,208,76636,2,0,L|396:298,1,75.0000005960459,0|8,0:0|0:0,0:0:0:0:
320,342,77309,1,10,0:0:0:0:
233,296,77645,1,8,0:0:0:0:
143,334,77981,2,0,P|87:349|45:337,1,75.0000005960459,10|10,0:0|0:0,0:0:0:0:
91,251,78653,6,0,P|82:189|202:72,1,225.000001788138,12|0,0:0|0:0,0:0:0:0:
279,72,79997,2,0,B|418:92|418:92|432:143,1,187.500001490115,2|4,0:0|0:3,0:0:0:0:
228,278,92099,6,0,P|181:308|142:307,1,75.0000005960459,2|0,0:0|0:0,0:0:0:0:
156,213,92771,2,0,P|203:183|242:184,1,75.0000005960459,8|0,0:0|0:0,0:0:0:0:
317,199,93443,2,0,P|376:179|393:36,1,225.000001788138,0|8,0:0|0:0,0:0:0:0:
319,101,94787,5,2,0:0:0:0:
232,146,95124,2,0,P|165:144|130:120,2,75.0000005960459,0|0|8,0:0|0:0|0:0,0:0:0:0:
202,52,96132,2,0,P|165:42|128:47,1,75.0000005960459,10|2,0:0|0:0,0:0:0:0:
64,123,96805,1,8,0:0:0:0:
91,216,97141,1,8,0:0:0:0:
167,276,97477,6,0,L|250:289,1,75.0000005960459,2|0,0:0|0:0,0:0:0:0:
338,293,98149,2,0,P|376:296|423:271,1,75.0000005960459,8|8,0:0|0:0,0:0:0:0:
440,190,98821,1,10,0:0:0:0:
363,129,99157,2,0,P|326:134|294:154,1,75.0000005960459,10|0,0:0|0:0,0:0:0:0:
224,221,99829,1,2,0:0:0:0:
143,276,100166,6,0,B|77:326|32:280|32:280|37:160,1,225.000001788138,6|8,0:0|0:0,0:0:0:0:
112,118,101510,2,0,P|150:105|199:114,1,75.0000005960459,8|8,0:0|0:0,0:0:0:0:
278,134,102183,1,2,0:0:0:0:
316,223,102519,1,8,0:0:0:0:
229,267,102855,6,0,P|319:322|406:261,1,225.000001788138,10|8,0:0|0:0,0:0:0:0:
402,163,104199,2,0,L|394:60,1,75.0000005960459,0|8,0:0|0:0,0:0:0:0:
306,48,104872,2,0,L|219:50,1,75.0000005960459,0|0,0:0|0:0,0:0:0:0:
133,57,105544,5,8,0:0:0:0:
97,147,105880,1,0,0:0:0:0:
73,242,106216,2,0,P|118:243|159:220,1,75.0000005960459,0|0,0:0|0:0,0:0:0:0:
238,202,106889,2,0,B|277:192|277:192|331:196,1,75.0000005960459,8|0,0:0|0:0,0:0:0:0:
359,279,107561,2,0,B|320:289|320:289|266:285,2,75.0000005960459,0|0|10,0:0|0:0|0:0,0:0:0:0:
293,95,108905,6,0,L|199:96,1,75.0000005960459,0|8,0:0|0:0,0:0:0:0:
139,154,109578,2,0,P|128:204|137:238,1,75.0000005960459,8|0,0:0|0:0,0:0:0:0:
219,270,110250,2,0,P|230:220|221:186,1,75.0000005960459,0|0,0:0|0:0,0:0:0:0:
139,154,110922,5,10,0:0:0:0:
51,200,111258,1,10,0:0:0:0:
58,297,111594,2,0,B|91:326|91:326|145:331,1,75.0000005960459,8|8,0:0|0:0,0:0:0:0:
218,315,112267,2,0,B|253:274|248:229|215:187|209:126|261:81,1,225.000001788138,2|8,0:0|0:0,0:0:0:0:
333,60,113611,6,0,P|400:68|434:52,2,75.0000005960459,4|0|0,0:0|0:0|0:0,0:0:0:0:
236,43,114620,1,8,0:0:0:0:
147,82,114956,2,0,P|89:103|57:99,1,75.0000005960459,8|0,0:0|0:0,0:0:0:0:
81,199,115628,2,0,P|118:194|153:205,1,75.0000005960459,0|0,0:0|0:0,0:0:0:0:
242,244,116300,5,8,0:0:0:0:
334,273,116636,2,0,P|394:269|424:241,2,75.0000005960459,8|0|8,0:0|0:0|0:0,0:0:0:0:
356,177,117645,1,12,0:0:0:0:
301,95,117981,1,10,0:0:0:0:
213,136,118317,1,2,0:0:0:0:
121,102,118653,1,8,0:0:0:0:
139,197,118989,6,0,B|172:242|234:232|234:232|220:265|222:333|271:351,1,225.000001788138,10|8,0:0|0:0,0:0:0:0:
325,274,120334,2,0,P|379:278|408:294,1,75.0000005960459,10|10,0:0|0:0,0:0:0:0:
448,203,121006,2,0,P|412:161|403:130,1,75.0000005960459,0|8,0:0|0:0,0:0:0:0:
366,53,121678,5,12,0:0:0:0:
293,118,122015,2,0,P|243:124|200:106,1,75.0000005960459,8|0,0:0|0:0,0:0:0:0:
146,53,122687,1,8,0:0:0:0:
256,192,123022,12,0,125458,0:0:0:0:
256,192,127393,5,12,0:3:0:0:
