osu file format v14

[General]
AudioFilename: 1337.mp3
AudioLeadIn: 1650
PreviewTime: 79997
Countdown: 0
SampleSet: Soft
StackLeniency: 0.7
Mode: 0
LetterboxInBreaks: 0
WidescreenStoryboard: 0

[Editor]
Bookmarks: 13105,67476,88064
DistanceSpacing: 0.5
BeatDivisor: 4
GridSize: 4
TimelineZoom: 3.899998

[Metadata]
Title:.357 Magnum
TitleUnicode:.357 Magnum
Artist:xi
ArtistUnicode:xi
Creator:Akali
Version:Another
Source:BMS
Tags:sayaka- dialgadu77 tidek EXTREMEBEAT piano jazz
BeatmapID:381928
BeatmapSetID:155749

[Difficulty]
HPDrainRate:6
CircleSize:4
OverallDifficulty:8
ApproachRate:9.2
SliderMultiplier:2.00000000596046
SliderTickRate:2

[Events]
//Background and Video events
0,0,"lincoln.jpg",0,0
//Break Periods
//Storyboard Layer 0 (Background)
//Storyboard Layer 1 (Fail)
//Storyboard Layer 2 (Pass)
//Storyboard Layer 3 (Foreground)
//Storyboard Sound Samples

[TimingPoints]
669.585365853658,336.134453781513,4,2,1,60,1,0
38316,-100,4,2,1,47,0,0
58484,-100,4,2,1,60,0,0
113610,-76.9230769230769,4,2,1,60,0,1
123022,-76.9230769230769,4,2,1,60,0,0

[Colours]
Combo1 : 105,105,105
Combo2 : 160,82,45
Combo3 : 139,125,123
Combo4 : 205,190,112

[HitObjects]
57,43,670,5,8,0:3:0:0:
57,43,2015,5,0,0:0:0:0:
47,193,2351,2,0,P|85:237|137:245,1,100.000000298023,2|0,0:0|0:0,0:0:0:0:
124,246,2602,1,0,0:0:0:0:
175,252,2687,5,8,0:0:0:0:
223,238,2771,1,0,0:0:0:0:
260,204,2855,1,0,0:0:0:0:
266,154,2939,1,0,0:0:0:0:
298,115,3023,1,8,0:0:0:0:
344,97,3107,1,0,0:0:0:0:
393,103,3191,1,0,0:0:0:0:
433,132,3275,1,0,0:0:0:0:
445,180,3359,6,0,P|439:241|409:274,1,100.000000298023,4|0,0:0|0:0,0:0:0:0:
261,203,3611,2,0,P|320:188|365:202,1,100.000000298023,2|0,0:0|0:0,0:0:0:0:
362,359,3863,2,0,P|323:318|314:268,1,100.000000298023,2|0,0:0|0:0,0:0:0:0:
134,227,4199,1,2,0:0:0:0:
116,274,4284,1,0,0:0:0:0:
118,323,4368,1,8,0:0:0:0:
218,182,4536,1,2,0:0:0:0:
183,146,4620,1,0,0:0:0:0:
134,135,4704,1,0,0:0:0:0:
207,287,4872,5,2,0:0:0:0:
254,301,4956,1,0,0:0:0:0:
303,292,5040,1,0,0:0:0:0:
498,274,5208,1,2,0:0:0:0:
451,260,5292,1,0,0:0:0:0:
402,269,5376,1,8,0:0:0:0:
364,158,5544,1,2,0:0:0:0:
355,109,5628,1,0,0:0:0:0:
369,62,5712,1,8,0:0:0:0:
369,62,5880,1,8,0:0:0:0:
303,292,6048,5,4,0:0:0:0:
180,372,6216,1,0,0:0:0:0:
131,383,6300,1,0,0:0:0:0:
81,376,6384,1,0,0:0:0:0:
37,351,6468,1,0,0:0:0:0:
81,165,6636,2,0,P|136:153|187:169,1,100.000000298023,0|0,0:0|0:0,0:0:0:0:
214,205,6889,2,0,P|229:233|261:263,2,50.0000001490115,0|0|0,0:0|0:0|0:0,0:0:0:0:
273,61,7225,1,0,0:0:0:0:
321,47,7309,1,0,0:0:0:0:
368,62,7393,1,0,0:0:0:0:
464,175,7560,5,0,0:0:0:0:
467,224,7644,1,0,0:0:0:0:
453,271,7728,1,0,0:0:0:0:
426,313,7812,1,0,0:0:0:0:
386,344,7897,1,8,0:0:0:0:
338,360,7980,2,0,P|258:353|204:283,1,150.000000447035,0|0,0:0|0:0,0:0:0:0:
186,262,8317,1,0,0:0:0:0:
175,211,8401,2,0,P|171:184|196:127,1,50.0000001490115,8|0,0:0|0:0,0:0:0:0:
321,127,8569,2,0,P|326:152|322:177,1,50.0000001490115,8|0,0:0|0:0,0:0:0:0:
184,73,8737,5,12,0:0:0:0:
211,305,8904,2,0,P|264:356|338:360,1,150.000000447035,6|0,0:0|0:0,0:0:0:0:
386,344,9241,1,0,0:0:0:0:
426,313,9326,1,0,0:0:0:0:
453,271,9409,2,0,P|469:213|461:164,1,100.000000298023,10|0,0:0|0:0,0:0:0:0:
400,34,9745,5,2,0:0:0:0:
357,9,9830,1,0,0:0:0:0:
308,1,9914,1,0,0:0:0:0:
259,9,9998,1,0,0:0:0:0:
216,34,10082,1,2,0:0:0:0:
184,73,10166,1,0,0:0:0:0:
168,120,10250,1,0,0:0:0:0:
168,169,10334,1,0,0:0:0:0:
185,216,10418,1,2,0:0:0:0:
353,203,10586,5,2,0:0:0:0:
361,123,10670,1,2,0:0:0:0:
164,25,10922,5,4,0:0:0:0:
186,216,11090,1,8,0:0:0:0:
186,265,11174,1,0,0:0:0:0:
170,312,11258,1,8,0:0:0:0:
138,351,11342,1,0,0:0:0:0:
89,363,11426,6,0,P|11:345|-9:320,1,100.000000298023,12|0,0:0|0:0,0:0:0:0:
2,282,11678,1,0,0:0:0:0:
15,233,11763,2,0,P|95:230|120:249,1,100.000000298023,0|0,0:0|0:0,0:0:0:0:
345,285,12099,2,0,P|421:250|437:207,1,100.000000298023,2|0,0:0|0:0,0:0:0:0:
353,203,12351,1,0,0:0:0:0:
345,285,12435,2,0,L|445:337,2,100.000000298023,8|0|0,0:0|0:0|0:0,0:0:0:0:
10,52,13107,5,12,0:3:0:0:
11,52,13443,1,0,0:0:0:0:
9,61,13527,1,0,0:0:0:0:
8,71,13611,1,0,0:0:0:0:
7,81,13695,1,0,0:0:0:0:
9,100,13779,5,8,0:0:0:0:
10,130,13863,1,0,0:0:0:0:
21,169,13947,1,8,0:0:0:0:
49,211,14031,1,0,0:0:0:0:
86,245,14115,1,4,0:0:0:0:
220,83,14283,2,0,P|314:108|366:192,1,200.000000596046
301,267,14704,1,0,0:0:0:0:
301,267,14788,2,0,P|345:289|394:286,1,100.000000298023,8|0,0:0|0:0,0:0:0:0:
444,145,15124,1,8,0:0:0:0:
335,42,15292,1,0,0:0:0:0:
175,25,15460,6,0,P|99:40|55:84,1,100.000000298023,0|0,0:0|0:0,0:0:0:0:
60,152,15712,1,0,0:0:0:0:
60,153,15796,2,0,P|136:138|180:94,1,100.000000298023,8|0,0:0|0:0,0:0:0:0:
223,277,16132,2,0,P|230:351|208:394,1,100.000000298023,0|0,0:0|0:0,0:0:0:0:
133,320,16384,1,0,0:0:0:0:
133,320,16468,2,0,P|126:246|148:203,1,100.000000298023,8|8,0:0|0:0,0:0:0:0:
303,132,16804,6,0,P|357:132|400:157,1,100.000000298023,12|0,0:0|0:0,0:0:0:0:
361,322,17056,2,0,P|334:275|334:225,1,100.000000298023,0|0,0:0|0:0,0:0:0:0:
396,153,17308,2,0,P|457:265|432:367,1,200.000000596046,8|0,0:0|0:0,0:0:0:0:
171,291,17813,1,8,0:0:0:0:
143,249,17897,1,0,0:0:0:0:
136,199,17981,1,2,0:0:0:0:
147,150,18065,1,0,0:0:0:0:
178,105,18149,6,0,P|234:76|292:80,1,100.000000298023,2|0,0:0|0:0,0:0:0:0:
414,113,18485,1,2,0:0:0:0:
361,253,18653,1,0,0:0:0:0:
316,276,18737,1,0,0:0:0:0:
266,276,18821,1,0,0:0:0:0:
136,200,18989,1,0,0:0:0:0:
266,125,19157,2,0,P|273:160|269:193,1,50.0000001490115,8|0,0:0|0:0,0:0:0:0:
132,54,19326,2,0,P|125:19|129:-14,1,50.0000001490115,2|0,0:0|0:0,0:0:0:0:
160,202,19494,6,0,P|154:278|125:314,1,100.000000298023,0|0,0:0|0:0,0:0:0:0:
101,318,19746,1,0,0:0:0:0:
101,318,19830,1,0,0:0:0:0:
204,362,19998,1,2,0:0:0:0:
204,362,20082,1,0,0:0:0:0:
204,362,20166,2,0,L|272:397,1,50.0000001490115,0|0,0:0|0:0,0:0:0:0:
297,274,20333,2,0,L|229:239,1,50.0000001490115,0|0,0:0|0:0,0:0:0:0:
406,228,20502,1,8,0:0:0:0:
432,185,20586,1,0,0:0:0:0:
431,135,20670,1,0,0:0:0:0:
405,92,20754,1,0,0:0:0:0:
360,69,20838,5,8,0:0:0:0:
333,111,20922,1,0,0:0:0:0:
288,133,21006,1,8,0:0:0:0:
238,133,21090,1,0,0:0:0:0:
193,109,21174,1,8,0:0:0:0:
165,67,21258,1,0,0:0:0:0:
115,62,21342,1,8,0:0:0:0:
68,80,21426,1,0,0:0:0:0:
33,115,21510,5,2,0:0:0:0:
17,162,21594,1,0,0:0:0:0:
28,210,21678,2,0,P|46:247|66:270,1,50.0000001490115,2|0,0:0|0:0,0:0:0:0:
149,331,21847,2,0,P|190:333|219:328,1,50.0000001490115,10|0,0:0|0:0,0:0:0:0:
197,154,22015,2,0,P|159:172|137:192,1,50.0000001490115,8|0,0:0|0:0,0:0:0:0:
340,260,22183,2,0,P|344:206|312:142,1,100.000000298023,2|0,0:0|0:0,0:0:0:0:
289,133,22435,1,0,0:0:0:0:
239,125,22519,5,8,0:0:0:0:
214,81,22603,1,0,0:0:0:0:
224,32,22687,1,0,0:0:0:0:
268,8,22771,1,0,0:0:0:0:
316,21,22855,1,8,0:0:0:0:
339,65,22939,1,0,0:0:0:0:
386,79,23023,1,0,0:0:0:0:
430,57,23107,1,0,0:0:0:0:
446,9,23191,5,2,0:0:0:0:
421,207,23359,1,2,0:0:0:0:
271,335,23527,1,8,0:0:0:0:
237,356,23611,1,0,0:0:0:0:
197,360,23695,1,8,0:0:0:0:
162,342,23779,1,0,0:0:0:0:
111,286,23863,5,8,0:0:0:0:
131,251,23947,1,0,0:0:0:0:
127,211,24031,1,0,0:0:0:0:
109,175,24115,1,0,0:0:0:0:
74,155,24199,6,0,L|12:168,1,50.0000001490115,10|0,0:0|0:0,0:0:0:0:
178,266,24368,2,0,L|234:237,1,50.0000001490115,8|0,0:0|0:0,0:0:0:0:
173,94,24536,2,0,L|153:154,1,50.0000001490115,8|0,0:0|0:0,0:0:0:0:
303,85,24704,2,0,L|305:21,1,50.0000001490115,8|0,0:0|0:0,0:0:0:0:
394,164,24871,1,4,0:0:0:0:
271,335,25039,6,0,P|187:351|75:278,1,200.000000596046,2|0,0:0|0:0,0:0:0:0:
74,278,25460,1,0,0:0:0:0:
62,255,25544,2,0,P|54:203|69:150,1,100.000000298023,8|0,0:0|0:0,0:0:0:0:
158,110,25796,1,0,0:0:0:0:
158,110,25880,2,0,P|166:162|151:215,1,100.000000298023,8|0,0:0|0:0,0:0:0:0:
72,51,26216,6,0,P|136:16|208:20,1,100.000000298023,0|0,0:0|0:0,0:0:0:0:
250,219,26552,2,0,P|200:223|153:207,1,100.000000298023,8|0,0:0|0:0,0:0:0:0:
316,61,26889,1,0,0:0:0:0:
404,142,27057,1,0,0:0:0:0:
376,258,27225,1,0,0:0:0:0:
178,339,27393,5,0,0:0:0:0:
156,350,27477,1,0,0:0:0:0:
132,350,27561,2,0,P|83:342|45:310,1,100.000000298023,2|0,0:0|0:0,0:0:0:0:
68,213,27813,2,0,P|148:245|169:289,1,100.000000298023,2|0,0:0|0:0,0:0:0:0:
227,320,28065,2,0,P|351:338|443:229,1,250.000000745058,2|0,0:0|0:0,0:0:0:0:
447,209,28569,1,8,0:0:0:0:
447,159,28653,1,0,0:0:0:0:
425,114,28737,1,8,0:0:0:0:
384,78,28821,1,0,0:0:0:0:
338,58,28905,5,10,0:0:0:0:
304,198,29073,1,0,0:0:0:0:
199,99,29242,1,2,0:0:0:0:
170,239,29410,1,0,0:0:0:0:
189,286,29494,1,0,0:0:0:0:
229,314,29578,1,8,0:0:0:0:
424,275,29746,1,0,0:0:0:0:
213,133,29914,1,8,0:0:0:0:
384,78,30081,1,0,0:0:0:0:
214,17,30249,1,0,0:0:0:0:
47,44,30417,6,0,P|12:135|64:221,1,200.000000596046,2|0,0:0|0:0,0:0:0:0:
108,232,30838,1,0,0:0:0:0:
157,223,30922,1,0,0:0:0:0:
194,190,31006,1,0,0:0:0:0:
196,240,31090,1,0,0:0:0:0:
201,291,31174,1,0,0:0:0:0:
224,333,31258,1,8,0:0:0:0:
268,356,31342,1,0,0:0:0:0:
318,354,31426,1,0,0:0:0:0:
360,326,31510,1,0,0:0:0:0:
381,280,31594,6,0,P|391:239|389:211,1,50.0000001490115,8|0,0:0|0:0,0:0:0:0:
280,114,31763,2,0,P|280:156|290:182,1,50.0000001490115,8|0,0:0|0:0,0:0:0:0:
462,163,31931,2,0,P|464:95|454:54,1,100.000000298023,8|0,0:0|0:0,0:0:0:0:
260,36,32266,1,8,0:0:0:0:
109,167,32434,1,0,0:0:0:0:
223,333,32603,1,2,0:0:0:0:
268,354,32687,1,2,0:0:0:0:
301,316,32771,1,2,0:0:0:0:
276,273,32855,1,2,0:0:0:0:
228,283,32939,1,2,0:0:0:0:
97,331,33107,6,0,P|35:332|-37:300,1,100.000000298023,4|0,0:0|0:0,0:0:0:0:
151,227,33443,2,0,P|158:258|147:295,1,50.0000001490115,0|0,0:0|0:0,0:0:0:0:
125,92,33611,2,0,P|134:61|162:35,1,50.0000001490115,8|0,0:0|0:0,0:0:0:0:
237,167,33779,5,0,0:0:0:0:
260,211,33863,1,0,0:0:0:0:
299,241,33947,2,0,P|343:264|398:257,1,100.000000298023,8|8,0:0|0:0,0:0:0:0:
435,235,34199,1,0,0:0:0:0:
467,196,34284,1,8,0:0:0:0:
481,147,34368,1,0,0:0:0:0:
474,97,34452,1,0,0:0:0:0:
448,54,34536,1,0,0:0:0:0:
406,25,34620,1,8,0:0:0:0:
210,22,34788,5,4,0:0:0:0:
177,219,34956,1,0,0:0:0:0:
364,148,35124,1,0,0:0:0:0:
128,69,35292,1,0,0:0:0:0:
207,308,35460,1,0,0:0:0:0:
305,199,35628,6,0,P|313:119|289:69,1,100.000000298023,4|0,0:0|0:0,0:0:0:0:
179,121,35880,2,0,P|171:201|195:251,1,100.000000298023,0|0,0:0|0:0,0:0:0:0:
203,260,36132,1,0,0:0:0:0:
241,292,36216,1,0,0:0:0:0:
287,309,36300,2,0,P|365:305|403:275,1,100.000000298023,0|0,0:0|0:0,0:0:0:0:
294,118,36636,1,8,0:0:0:0:
179,120,36805,1,8,0:0:0:0:
81,180,36973,1,8,0:0:0:0:
339,63,37308,5,0,0:0:0:0:
332,87,37392,1,0,0:0:0:0:
315,105,37476,1,0,0:0:0:0:
294,118,37560,1,0,0:0:0:0:
232,160,37644,5,8,0:3:0:0:
211,173,37728,1,0,0:0:0:0:
194,191,37812,1,0,0:0:0:0:
187,215,37896,1,0,0:0:0:0:
152,283,37981,5,8,0:3:0:0:
134,300,38065,1,0,0:3:0:0:
110,308,38149,1,0,0:3:0:0:
85,308,38233,1,0,0:3:0:0:
61,299,38317,6,0,P|32:243|49:182,1,100.000000298023,6|0,0:0|0:0,0:0:0:0:
98,142,38569,2,0,P|127:198|110:259,1,100.000000298023,2|0,0:0|0:0,0:0:0:0:
163,321,38821,2,0,P|197:356|259:373,2,100.000000298023,2|0|0,0:0|0:0|0:0,0:0:0:0:
300,191,39326,1,0,0:0:0:0:
331,303,39494,6,0,P|233:284|183:183,1,200.000000596046,0|0,0:0|0:0,0:0:0:0:
108,179,39913,1,0,0:0:0:0:
108,179,39997,2,0,P|61:153|47:101,1,100.000000298023,2|0,0:0|0:0,0:0:0:0:
146,47,40334,2,0,L|135:104,1,50.0000001490115,2|0,0:0|0:0,0:0:0:0:
229,42,40502,2,0,L|212:133,1,50.0000001490115,0|0,0:0|0:0,0:0:0:0:
312,33,40669,2,0,L|285:160,1,100.000000298023,2|0,0:0|0:0,0:0:0:0:
285,155,40922,1,0,0:0:0:0:
279,179,41005,6,0,P|350:158|397:175,1,100.000000298023,2|0,0:0|0:0,0:0:0:0:
436,234,41258,2,0,P|365:255|318:238,1,100.000000298023,2|0,0:0|0:0,0:0:0:0:
252,266,41509,2,0,P|181:287|134:270,1,100.000000298023,2|0,0:0|0:0,0:0:0:0:
136,269,41763,1,0,0:0:0:0:
136,269,41847,1,0,0:0:0:0:
152,25,42015,2,0,P|153:99|125:140,1,100.000000298023,2|0,0:0|0:0,0:0:0:0:
118,128,42267,1,0,0:0:0:0:
96,139,42350,5,0,0:0:0:0:
75,153,42434,1,0,0:0:0:0:
61,173,42518,1,0,0:0:0:0:
55,197,42602,1,0,0:0:0:0:
58,222,42686,1,0,0:0:0:0:
70,244,42770,1,0,0:0:0:0:
88,260,42854,1,0,0:0:0:0:
112,270,42938,2,0,P|131:268|190:287,2,50.0000001490115,2|0|0,0:0|0:0|0:0,0:0:0:0:
138,338,43191,5,0,0:0:0:0:
167,349,43275,1,0,0:0:0:0:
197,356,43359,1,0,0:0:0:0:
227,357,43443,1,0,0:0:0:0:
257,355,43527,1,0,0:0:0:0:
286,347,43611,1,0,0:0:0:0:
347,311,43695,6,0,P|370:267|364:219,1,100.000000298023,2|0,0:0|0:0,0:0:0:0:
314,141,43947,2,0,P|276:185|275:231,1,100.000000298023,2|0,0:0|0:0,0:0:0:0:
364,219,44199,2,0,P|401:174|402:128,1,100.000000298023,2|8,0:0|0:0,0:0:0:0:
346,51,44536,1,8,0:0:0:0:
247,37,44704,1,2,0:0:0:0:
148,54,44872,1,2,0:0:0:0:
121,67,44956,1,0,0:0:0:0:
102,85,45040,6,0,P|76:140|85:184,1,100.000000298023,6|0,0:0|0:0,0:0:0:0:
211,233,45292,2,0,P|194:174|159:142,1,100.000000298023,2|0,0:0|0:0,0:0:0:0:
127,286,45544,2,0,P|172:327|294:289,1,200.000000596046,2|0,0:0|0:0,0:0:0:0:
299,191,46048,1,10,0:0:0:0:
213,138,46216,1,2,0:0:0:0:
122,180,46384,6,0,P|108:251|138:303,1,100.000000298023,2|0,0:0|0:0,0:0:0:0:
205,329,46636,2,0,P|219:258|189:206,1,100.000000298023,2|0,0:0|0:0,0:0:0:0:
122,180,46889,2,0,P|90:115|105:57,1,100.000000298023,2|0,0:0|0:0,0:0:0:0:
180,3,47225,1,0,0:0:0:0:
278,73,47393,1,8,0:0:0:0:
284,97,47477,1,0,0:0:0:0:
283,121,47561,1,8,0:0:0:0:
275,144,47645,1,0,0:0:0:0:
264,166,47729,6,0,P|254:254|299:317,1,150.000000447035
313,333,48065,2,0,P|384:269|468:280,1,150.000000447035
474,244,48401,2,0,P|391:191|382:135,1,150.000000447035,12|0,0:0|0:0,0:0:0:0:
386,120,48737,1,0,0:0:0:0:
403,102,48821,1,0,0:0:0:0:
427,102,48905,1,0,0:0:0:0:
448,115,48989,1,0,0:0:0:0:
460,136,49073,6,0,P|428:184|352:184,1,100.000000298023,14|0,0:0|0:0,0:0:0:0:
319,166,49326,2,0,P|242:153|210:177,1,100.000000298023,2|0,0:0|0:0,0:0:0:0:
171,212,49578,2,0,P|67:209|9:97,1,200.000000596046,2|0,0:0|0:0,0:0:0:0:
120,22,50082,5,2,0:0:0:0:
172,4,50166,1,0,0:0:0:0:
220,32,50250,1,0,0:0:0:0:
236,85,50334,1,0,0:0:0:0:
206,131,50417,2,0,B|170:161|170:161|163:250|255:303,1,200.000000596046,2|2,0:0|0:0,0:0:0:0:
334,309,50922,1,0,0:0:0:0:
433,294,51090,2,0,P|475:281|508:252,1,50.0000001490115
358,233,51258,2,0,B|339:224|275:230|274:230,1,50.0000001490115,0|0,0:0|0:0,0:0:0:0:
430,205,51426,2,0,P|439:148|401:104,1,100.000000298023,2|0,0:0|0:0,0:0:0:0:
388,97,51678,1,0,0:0:0:0:
353,99,51762,6,0,P|291:112|241:80,1,100.000000298023,2|0,0:0|0:0,0:0:0:0:
306,13,52014,2,0,P|368:0|418:32,1,100.000000298023,2|0,0:0|0:0,0:0:0:0:
388,97,52266,2,0,P|346:169|416:278,1,200.000000596046,2|0,0:0|0:0,0:0:0:0:
449,181,52770,1,8,0:0:0:0:
271,149,52938,1,2,0:0:0:0:
163,294,53107,5,0,0:0:0:0:
126,311,53191,1,0,0:0:0:0:
86,305,53275,1,0,0:0:0:0:
53,281,53359,1,0,0:0:0:0:
48,241,53443,1,0,0:0:0:0:
87,238,53527,1,0,0:0:0:0:
123,222,53611,1,0,0:0:0:0:
148,191,53695,1,2,0:0:0:0:
132,83,53863,5,0,0:0:0:0:
92,63,53947,1,0,0:0:0:0:
46,72,54031,1,0,0:0:0:0:
11,107,54115,1,0,0:0:0:0:
1,156,54199,1,0,0:0:0:0:
15,204,54284,1,0,0:0:0:0:
48,241,54368,1,0,0:0:0:0:
87,275,54452,6,0,P|137:288|195:270,1,100.000000298023,2|0,0:0|0:0,0:0:0:0:
216,185,54704,2,0,P|273:211|289:271,1,100.000000298023,2|0,0:0|0:0,0:0:0:0:
272,335,54956,2,0,P|357:325|378:297,1,100.000000298023,2|0,0:0|0:0,0:0:0:0:
456,201,55292,1,0,0:0:0:0:
350,83,55460,1,8,0:0:0:0:
256,211,55628,1,0,0:0:0:0:
339,280,55796,6,0,P|365:228|345:157,1,100.000000298023,6|0,0:0|0:0,0:0:0:0:
171,145,56048,2,0,P|145:197|165:268,1,100.000000298023,2|0,0:0|0:0,0:0:0:0:
256,212,56300,2,0,B|250:191|250:191|279:145|263:98|231:56|176:54,1,200.000000596046
62,14,56805,2,0,P|64:58|85:83,1,50.0000001490115,8|0,0:0|0:0,0:0:0:0:
35,130,56973,2,0,P|52:156|80:174,1,50.0000001490115,8|0,0:0|0:0,0:0:0:0:
32,243,57141,6,0,P|76:252|132:220,1,100.000000298023,10|0,0:0|0:0,0:0:0:0:
180,177,57393,2,0,P|229:136|282:137,1,100.000000298023,2|0,0:0|0:0,0:0:0:0:
342,143,57645,2,0,P|413:153|449:124,1,100.000000298023,2|0,0:0|0:0,0:0:0:0:
500,36,57981,1,2,0:0:0:0:
474,173,58149,1,2,0:0:0:0:
468,186,58233,1,0,0:0:0:0:
460,198,58317,1,0,0:0:0:0:
449,208,58401,1,0,0:0:0:0:
437,218,58485,6,0,P|418:272|426:304,1,50.0000001490115,2|0,0:0|0:0,0:0:0:0:
317,285,58653,2,0,L|301:359,1,50.0000001490115,0|0,0:0|0:0,0:0:0:0:
195,285,58821,2,0,L|211:359,1,50.0000001490115,10|0,0:0|0:0,0:0:0:0:
75,218,58989,2,0,P|94:272|86:304,1,50.0000001490115,8|0,0:0|0:0,0:0:0:0:
116,110,59157,5,10,0:0:0:0:
144,120,59241,1,8,0:0:0:0:
164,141,59325,2,0,P|189:194|185:229,1,50.0000001490115,8|0,0:0|0:0,0:0:0:0:
324,184,59493,5,10,0:0:0:0:
336,156,59577,1,8,0:0:0:0:
354,132,59661,2,0,P|392:110|404:108,1,50.0000001490115,8|0,0:0|0:0,0:0:0:0:
437,218,59830,5,6,0:0:0:0:
223,347,59997,2,0,P|151:362|89:338,1,100.000000298023
117,109,60334,1,0,0:0:0:0:
324,184,60501,2,0,P|319:257|280:311,1,100.000000298023
126,358,60838,1,0,0:0:0:0:
31,181,61006,5,2,0:0:0:0:
15,135,61090,1,0,0:0:0:0:
18,86,61174,2,0,P|22:49|30:31,1,50.0000001490115,8|0,0:0|0:0,0:0:0:0:
122,216,61342,5,2,0:0:0:0:
138,262,61426,1,0,0:0:0:0:
135,311,61510,2,0,P|130:347|122:365,1,50.0000001490115,8|0,0:0|0:0,0:0:0:0:
252,200,61678,5,2,0:0:0:0:
298,184,61762,1,0,0:0:0:0:
347,187,61846,2,0,P|383:191|401:199,1,50.0000001490115,8|0,0:0|0:0,0:0:0:0:
232,297,62015,5,2,0:0:0:0:
186,316,62099,1,2,0:0:0:0:
135,311,62183,1,10,0:0:0:0:
97,277,62267,1,2,0:0:0:0:
83,228,62351,1,2,0:0:0:0:
95,179,62435,1,2,0:0:0:0:
130,144,62519,5,10,0:0:0:0:
349,93,62687,2,0,P|425:118|444:145,1,100.000000298023,4|0,0:0|0:0,0:0:0:0:
422,345,63023,1,8,0:0:0:0:
312,296,63191,1,0,0:0:0:0:
270,183,63359,1,8,0:0:0:0:
234,68,63527,1,8,0:0:0:0:
190,42,63611,1,0,0:0:0:0:
139,29,63695,2,0,L|171:7,2,33.3333334326743,0|0|0,0:0|0:0|0:0,0:0:0:0:
114,44,63863,6,0,P|53:108|52:153,1,100.000000298023,4|0,0:0|0:0,0:0:0:0:
127,235,64115,1,0,0:0:0:0:
127,235,64199,2,0,P|153:150|135:109,1,100.000000298023,8|0,0:0|0:0,0:0:0:0:
30,268,64536,2,0,P|89:333|134:338,1,100.000000298023,8|0,0:0|0:0,0:0:0:0:
152,334,64788,1,0,0:0:0:0:
197,311,64872,1,8,0:0:0:0:
246,303,64956,1,0,0:0:0:0:
295,312,65040,1,2,0:0:0:0:
339,336,65124,1,0,0:0:0:0:
364,378,65208,5,8,0:0:0:0:
459,249,65376,2,0,P|464:182|450:137,1,100.000000298023,4|0,0:0|0:0,0:0:0:0:
327,33,65712,1,0,0:0:0:0:
229,54,65880,1,0,0:0:0:0:
236,210,66048,1,0,0:0:0:0:
299,133,66216,1,0,0:0:0:0:
129,216,66384,1,0,0:0:0:0:
260,341,66552,6,0,P|335:344|261:301,1,200.000000596046,2|2,0:0|0:0,0:0:0:0:
140,347,67057,2,0,P|89:346|72:340,1,50.0000001490115,0|0,0:0|0:0,0:0:0:0:
48,322,67225,2,0,P|18:254|27:213,1,100.000000298023,2|0,0:0|0:0,0:0:0:0:
109,181,67477,2,0,P|168:225|181:265,1,100.000000298023,0|0,0:0|0:0,0:0:0:0:
201,291,67729,1,0,0:0:0:0:
247,309,67813,1,0,0:0:0:0:
295,297,67897,5,8,0:0:0:0:
388,179,68065,1,4,0:0:0:0:
310,50,68233,2,0,P|260:32|186:47,1,100.000000298023
109,181,68569,2,0,P|159:199|233:184,1,100.000000298023,8|0,0:0|0:0,0:0:0:0:
77,93,68905,1,8,0:0:0:0:
37,124,68989,1,0,0:0:0:0:
18,170,69073,1,8,0:0:0:0:
24,219,69157,1,0,0:0:0:0:
54,259,69242,5,12,0:0:0:0:
165,308,69410,1,0,0:0:0:0:
188,316,69494,1,0,0:0:0:0:
211,324,69578,2,0,L|265:377,1,50.0000001490115,8|0,0:0|0:0,0:0:0:0:
337,206,69746,2,0,L|263:187,1,50.0000001490115,0|0,0:0|0:0,0:0:0:0:
369,352,69914,2,0,L|417:338,1,50.0000001490115,8|0,0:0|0:0,0:0:0:0:
469,240,70082,1,0,0:0:0:0:
475,190,70166,1,0,0:0:0:0:
464,142,70250,1,0,0:0:0:0:
437,100,70334,1,0,0:0:0:0:
396,71,70418,1,0,0:0:0:0:
349,57,70502,1,0,0:0:0:0:
304,59,70586,6,0,P|274:113|330:53,1,300.000000894069,2|0,0:0|0:0,0:0:0:0:
331,244,71258,2,0,P|380:235|422:204,1,100.000000298023,0|0,0:0|0:0,0:0:0:0:
237,249,71594,1,8,0:0:0:0:
198,280,71678,1,0,0:0:0:0:
147,287,71763,1,8,0:0:0:0:
100,268,71847,1,0,0:0:0:0:
70,227,71931,6,0,P|59:179|78:121,1,100.000000298023,2|0,0:0|0:0,0:0:0:0:
235,132,72183,2,0,P|198:165|139:178,1,100.000000298023,0|0,0:0|0:0,0:0:0:0:
186,54,72435,2,0,P|234:43|292:62,1,100.000000298023,0|0,0:0|0:0,0:0:0:0:
427,160,72771,1,0,0:0:0:0:
394,368,72939,1,8,0:0:0:0:
231,236,73107,1,2,0:0:0:0:
231,236,73443,6,0,P|182:267|248:245,1,200.000000596046,4|0,0:0|0:0,0:0:0:0:
304,246,73863,1,0,0:0:0:0:
347,269,73947,6,0,L|357:350,2,75.0000002235173,8|0|0,0:0|0:0|0:0,0:0:0:0:
420,217,74283,2,0,L|430:298,2,75.0000002235173,8|0|0,0:0|0:0|0:0,0:0:0:0:
430,140,74620,6,0,P|383:96|313:86,1,100.000000298023,2|0,0:0|0:0,0:0:0:0:
246,154,74872,2,0,P|302:184|372:175,1,100.000000298023,2|0,0:0|0:0,0:0:0:0:
254,54,75124,2,0,P|192:72|148:128,1,100.000000298023,2|0,0:0|0:0,0:0:0:0:
139,262,75460,2,0,P|150:307|174:331,1,50.0000001490115,0|0,0:0|0:0,0:0:0:0:
297,348,75628,2,0,P|330:315|339:283,1,50.0000001490115,8|0,0:0|0:0,0:0:0:0:
294,168,75796,2,0,P|249:155|216:163,1,50.0000001490115,8|0,0:0|0:0,0:0:0:0:
139,262,75964,6,0,P|82:279|13:248,1,100.000000298023,4|0,0:0|0:0,0:0:0:0:
133,97,76216,2,0,P|176:137|183:213,1,100.000000298023,0|0,0:0|0:0,0:0:0:0:
86,188,76468,2,0,P|78:128|176:27,1,200.000000596046,2|0,0:0|0:0,0:0:0:0:
388,64,76973,5,8,0:0:0:0:
435,92,77057,1,0,0:0:0:0:
464,132,77141,1,8,0:0:0:0:
479,179,77225,1,0,0:0:0:0:
469,227,77309,1,10,0:0:0:0:
375,351,77477,1,0,0:0:0:0:
315,374,77561,1,0,0:0:0:0:
249,368,77645,1,8,0:0:0:0:
83,293,77813,5,0,0:0:0:0:
39,231,77897,1,0,0:0:0:0:
18,158,77981,2,0,P|28:75|97:27,1,150.000000447035,10|0,0:0|0:0,0:0:0:0:
177,51,78317,2,0,P|152:100|115:127,1,100.000000298023,10|0,0:0|0:0,0:0:0:0:
302,45,78653,6,0,P|353:43|398:60,1,100.000000298023,12|0,0:0|0:0,0:0:0:0:
337,142,78905,2,0,P|286:144|240:126,1,100.000000298023,0|0,0:0|0:0,0:0:0:0:
398,59,79157,2,0,P|459:135|440:229,1,200.000000596046,2|0,0:0|0:0,0:0:0:0:
411,272,79578,1,0,0:0:0:0:
374,306,79662,1,0,0:0:0:0:
325,322,79746,1,0,0:0:0:0:
275,317,79830,1,0,0:0:0:0:
233,289,79914,1,0,0:0:0:0:
205,247,79998,5,2,0:0:0:0:
205,247,80082,1,0,0:0:0:0:
451,148,80250,1,0,0:0:0:0:
374,306,80418,1,0,0:0:0:0:
374,306,80502,1,2,0:0:0:0:
229,60,80669,5,2,0:0:0:0:
442,33,80838,1,4,0:3:0:0:
295,213,81006,5,8,0:0:0:0:
255,243,81090,1,0,0:0:0:0:
205,247,81174,1,8,0:0:0:0:
160,224,81258,1,0,0:0:0:0:
133,181,81342,1,8,0:0:0:0:
229,60,81510,5,2,0:0:0:0:
229,60,81594,1,0,0:0:0:0:
229,60,81678,2,0,P|237:109|221:156,1,100.000000298023,8|0,0:0|0:0,0:0:0:0:
57,224,82015,2,0,P|49:175|65:128,1,100.000000298023
191,39,82351,1,8,0:0:0:0:
313,133,82519,1,0,0:0:0:0:
236,266,82687,6,0,P|159:315|111:302,1,100.000000298023,2|0,0:0|0:0,0:0:0:0:
184,187,82939,1,0,0:0:0:0:
184,187,83023,2,0,P|275:182|310:217,1,100.000000298023,8|0,0:0|0:0,0:0:0:0:
417,224,83359,2,0,P|495:233|545:199,1,100.000000298023,0|0,0:0|0:0,0:0:0:0:
428,49,83695,1,8,0:0:0:0:
280,72,83863,1,0,0:0:0:0:
184,186,84031,6,0,P|165:232|175:280,1,100.000000298023,2|0,0:0|0:0,0:0:0:0:
268,243,84284,2,0,P|286:177|252:121,1,100.000000298023,2|0,0:0|0:0,0:0:0:0:
175,280,84536,2,0,P|230:334|368:260,1,250.000000745058,2|0,0:0|0:0,0:0:0:0:
380,219,85040,1,8,0:0:0:0:
387,169,85124,1,0,0:0:0:0:
379,119,85208,1,8,0:0:0:0:
346,81,85292,1,0,0:0:0:0:
307,57,85376,6,0,P|241:41|174:69,1,100.000000298023,10|0,0:0|0:0,0:0:0:0:
62,264,85712,2,0,P|128:280|195:252,1,100.000000298023,2|0,0:0|0:0,0:0:0:0:
184,248,85964,1,0,0:0:0:0:
184,248,86048,1,0,0:0:0:0:
210,47,86216,1,0,0:0:0:0:
135,195,86384,1,0,0:0:0:0:
304,205,86552,1,0,0:0:0:0:
98,74,86721,1,0,0:0:0:0:
210,47,86889,2,0,L|270:35,2,50.0000001490115,0|0|0,0:0|0:0|0:0,0:0:0:0:
68,166,87225,5,0,0:0:0:0:
66,215,87309,1,0,0:0:0:0:
95,255,87393,1,0,0:0:0:0:
142,269,87477,1,0,0:0:0:0:
187,248,87561,1,0,0:0:0:0:
210,204,87645,1,0,0:0:0:0:
257,188,87729,1,8,0:0:0:0:
303,205,87813,1,0,0:0:0:0:
330,246,87897,1,0,0:0:0:0:
322,295,87981,1,0,0:0:0:0:
342,340,88065,6,0,P|366:360|407:368,1,50.0000001490115,8|0,0:0|0:0,0:0:0:0:
353,215,88233,1,0,0:0:0:0:
303,205,88317,1,0,0:0:0:0:
257,225,88401,2,0,P|237:257|232:281,1,50.0000001490115,8|0,0:0|0:0,0:0:0:0:
419,281,88569,1,8,0:0:0:0:
443,237,88653,1,0,0:0:0:0:
452,189,88737,5,8,0:0:0:0:
449,139,88821,1,0,0:0:0:0:
416,100,88905,1,8,0:0:0:0:
366,90,88989,1,0,0:0:0:0:
322,113,89073,1,10,0:0:0:0:
273,125,89157,1,0,0:0:0:0:
226,104,89242,1,10,0:0:0:0:
203,59,89326,1,0,0:0:0:0:
213,10,89410,1,2,0:0:0:0:
379,166,89578,6,0,P|363:200|342:218,1,50.0000001490115,0|0,0:0|0:0,0:0:0:0:
314,238,89746,1,8,0:0:0:0:
273,208,89830,1,0,0:0:0:0:
223,209,89914,1,0,0:0:0:0:
186,243,89998,1,0,0:0:0:0:
179,292,90082,1,8,0:0:0:0:
200,336,90166,1,0,0:0:0:0:
245,355,90250,1,0,0:0:0:0:
293,343,90334,1,0,0:0:0:0:
312,296,90418,2,0,L|315:237,1,50.0000001490115,8|0,0:0|0:0,0:0:0:0:
106,335,90586,2,0,L|103:394,1,50.0000001490115,8|0,0:0|0:0,0:0:0:0:
179,292,90754,5,8,0:0:0:0:
186,243,90838,1,0,0:0:0:0:
168,196,90922,1,0,0:0:0:0:
125,170,91006,1,0,0:0:0:0:
75,174,91090,5,8,0:0:0:0:
44,135,91174,1,0,0:0:0:0:
36,85,91258,1,0,0:0:0:0:
60,41,91342,1,0,0:0:0:0:
105,21,91426,1,0,0:0:0:0:
279,4,91594,2,0,L|359:23,1,50.0000001490115,0|0,0:0|0:0,0:0:0:0:
450,143,91763,2,0,L|370:124,1,50.0000001490115,8|0,0:0|0:0,0:0:0:0:
235,188,91931,2,0,L|315:207,1,50.0000001490115,8|0,0:0|0:0,0:0:0:0:
357,288,92099,5,2,0:0:0:0:
147,330,92267,1,4,0:0:0:0:
147,330,92351,1,0,0:0:0:0:
147,330,92435,2,0,P|90:308|57:261,1,100.000000298023,0|0,0:0|0:0,0:0:0:0:
235,188,92771,2,0,P|245:248|221:300,1,100.000000298023,8|0,0:0|0:0,0:0:0:0:
143,105,93107,1,8,0:0:0:0:
342,118,93275,1,0,0:0:0:0:
231,285,93443,6,0,P|195:318|147:330,1,100.000000298023,0|0,0:0|0:0,0:0:0:0:
80,286,93695,1,0,0:0:0:0:
80,286,93779,2,0,L|98:403,1,100.000000298023,8|0,0:0|0:0,0:0:0:0:
107,192,94115,2,0,P|48:189|0:221,1,100.000000298023,0|0,0:0|0:0,0:0:0:0:
149,196,94368,1,0,0:0:0:0:
192,202,94452,2,0,P|259:198|292:173,1,100.000000298023,8|0,0:0|0:0,0:0:0:0:
234,17,94788,6,0,P|209:82|218:119,1,100.000000298023,2|0,0:0|0:0,0:0:0:0:
380,142,95040,2,0,P|335:87|299:77,1,100.000000298023,2|0,0:0|0:0,0:0:0:0:
284,180,95292,2,0,P|328:234|477:179,1,250.000000745058,2|0,0:0|0:0,0:0:0:0:
482,141,95796,1,8,0:0:0:0:
476,100,95880,1,0,0:0:0:0:
457,64,95964,1,8,0:0:0:0:
424,41,96048,1,0,0:0:0:0:
386,27,96132,6,0,P|328:19|270:32,1,100.000000298023,10|0,0:0|0:0,0:0:0:0:
238,253,96468,2,0,P|273:206|280:152,1,100.000000298023,2|0,0:0|0:0,0:0:0:0:
258,100,96721,1,0,0:0:0:0:
258,100,96805,1,8,0:0:0:0:
138,22,96972,1,0,0:0:0:0:
238,253,97140,1,8,0:0:0:0:
468,161,97308,1,8,0:0:0:0:
224,87,97476,1,0,0:0:0:0:
349,27,97645,6,0,P|436:69|468:161,1,200.000000596046,4|0,0:0|0:0,0:0:0:0:
471,211,98065,5,0,0:0:0:0:
461,260,98149,1,8,0:0:0:0:
433,301,98233,1,0,0:0:0:0:
388,324,98317,1,2,0:0:0:0:
338,327,98401,1,0,0:0:0:0:
299,295,98485,1,8,0:0:0:0:
292,245,98569,1,0,0:0:0:0:
322,205,98653,1,2,0:0:0:0:
338,157,98737,1,0,0:0:0:0:
340,107,98821,6,0,P|342:82|339:57,1,50.0000001490115,10|0,0:0|0:0,0:0:0:0:
114,166,98989,2,0,P|111:190|114:215,1,50.0000001490115,2|0,0:0|0:0,0:0:0:0:
136,345,99157,1,10,0:0:0:0:
359,263,99326,1,2,0:0:0:0:
177,112,99494,1,0,0:0:0:0:
281,384,99662,1,6,0:0:0:0:
404,193,99830,5,2,0:0:0:0:
412,138,99914,1,0,0:0:0:0:
402,83,99998,1,2,0:0:0:0:
375,34,100082,1,0,0:0:0:0:
330,2,100166,5,6,0:0:0:0:
116,234,100334,2,0,P|201:264|312:184,1,200.000000596046,2|0,0:0|0:0,0:0:0:0:
307,179,100754,1,0,0:0:0:0:
304,139,100838,1,8,0:0:0:0:
286,103,100922,1,0,0:0:0:0:
250,86,101006,1,0,0:0:0:0:
210,91,101090,1,0,0:0:0:0:
179,117,101174,2,0,P|168:150|180:191,1,50.0000001490115,8|0,0:0|0:0,0:0:0:0:
402,84,101342,2,0,P|412:50|400:9,1,50.0000001490115,8|0,0:0|0:0,0:0:0:0:
321,245,101510,5,8,0:0:0:0:
310,292,101594,1,0,0:0:0:0:
330,337,101678,1,0,0:0:0:0:
373,361,101762,1,0,0:0:0:0:
422,353,101846,1,8,0:0:0:0:
472,155,102015,1,0,0:0:0:0:
203,67,102183,1,2,0:0:0:0:
262,343,102351,1,2,0:0:0:0:
79,222,102519,5,8,0:0:0:0:
62,198,102603,1,0,0:0:0:0:
56,169,102687,1,8,0:0:0:0:
65,141,102771,1,0,0:0:0:0:
88,122,102855,2,0,B|126:89|126:89|116:40,1,100.000000298023,10|0,0:0|0:0,0:0:0:0:
203,67,103107,2,0,B|165:100|165:100|176:158,1,100.000000298023,0|0,0:0|0:0,0:0:0:0:
248,179,103359,2,0,L|284:75,1,100.000000298023,0|0,0:0|0:0,0:0:0:0:
348,285,103695,2,0,L|381:333,2,50.0000001490115,0|0|8,0:0|0:0|0:0,0:0:0:0:
233,305,104031,2,0,L|225:361,2,50.0000001490115,0|0|0,0:0|0:0|0:0,0:0:0:0:
124,262,104368,5,0,0:0:0:0:
95,272,104452,1,0,0:0:0:0:
67,284,104536,1,8,0:0:0:0:
297,198,104704,1,0,0:0:0:0:
326,205,104788,1,0,0:0:0:0:
354,213,104872,1,0,0:0:0:0:
199,82,105040,1,0,0:0:0:0:
174,65,105124,1,0,0:0:0:0:
147,50,105208,1,8,0:0:0:0:
297,198,105376,1,0,0:0:0:0:
97,160,105544,5,8,0:0:0:0:
296,198,105712,1,0,0:0:0:0:
257,191,105796,1,0,0:0:0:0:
217,182,105880,1,0,0:0:0:0:
177,175,105964,1,0,0:0:0:0:
248,56,106132,1,0,0:0:0:0:
257,306,106384,1,0,0:0:0:0:
257,306,106552,1,0,0:0:0:0:
177,175,106721,1,0,0:0:0:0:
154,207,106805,1,0,0:0:0:0:
158,246,106889,1,8,0:0:0:0:
248,56,107057,5,2,0:0:0:0:
213,36,107141,1,0,0:0:0:0:
174,25,107225,1,8,0:0:0:0:
134,25,107309,1,0,0:0:0:0:
97,40,107393,1,2,0:0:0:0:
64,63,107477,2,0,P|99:138|57:197,1,150.000000447035,0|0,0:0|0:0,0:0:0:0:
44,222,107813,1,0,0:0:0:0:
30,259,107897,2,0,P|29:303|46:328,1,50.0000001490115,8|0,0:0|0:0,0:0:0:0:
139,338,108065,2,0,P|160:376|187:389,1,50.0000001490115,8|0,0:0|0:0,0:0:0:0:
257,306,108233,5,10,0:0:0:0:
238,118,108401,2,0,P|155:68|61:94,1,200.000000596046,4|0,0:0|0:0,0:0:0:0:
28,188,108821,1,0,0:0:0:0:
28,188,108905,2,0,P|106:183|141:155,1,100.000000298023,0|0,0:0|0:0,0:0:0:0:
348,65,109242,1,8,0:0:0:0:
387,51,109326,1,0,0:0:0:0:
426,65,109410,1,0,0:0:0:0:
449,99,109494,1,0,0:0:0:0:
442,141,109578,5,8,0:0:0:0:
410,170,109662,1,0,0:0:0:0:
368,170,109746,1,2,0:0:0:0:
336,144,109830,1,0,0:0:0:0:
327,103,109914,1,10,0:0:0:0:
190,37,110082,5,2,0:0:0:0:
176,85,110166,1,0,0:0:0:0:
420,262,110418,5,0,0:0:0:0:
294,333,110586,1,8,0:0:0:0:
255,343,110670,1,0,0:0:0:0:
216,331,110754,1,8,0:0:0:0:
194,297,110838,1,0,0:0:0:0:
160,275,110922,6,0,P|105:259|35:276,1,100.000000298023,10|0,0:0|0:0,0:0:0:0:
68,130,111258,2,0,P|117:134|165:119,1,100.000000298023,10|0,0:0|0:0,0:0:0:0:
286,35,111594,1,8,0:0:0:0:
391,166,111763,1,0,0:0:0:0:
406,213,111847,1,0,0:0:0:0:
420,261,111930,2,0,P|417:308|379:354,1,100.000000298023,8|0,0:0|0:0,0:0:0:0:
129,346,112267,5,2,0:0:0:0:
104,314,112351,1,0,0:0:0:0:
100,274,112435,1,0,0:0:0:0:
115,237,112519,1,0,0:0:0:0:
156,168,112603,5,2,0:0:0:0:
179,135,112687,1,0,0:0:0:0:
177,95,112771,1,0,0:0:0:0:
151,63,112855,1,0,0:0:0:0:
115,44,112939,5,10,0:0:0:0:
115,44,113023,1,0,0:0:0:0:
70,235,113191,1,0,0:0:0:0:
101,273,113275,1,8,0:0:0:0:
145,295,113359,1,0,0:0:0:0:
194,295,113443,1,8,0:0:0:0:
236,279,113527,1,0,0:0:0:0:
265,246,113611,6,0,B|287:213|281:175|244:166|246:143|273:101,1,129.999994436502,4|0,0:0|0:0,0:0:0:0:
288,71,113863,1,2,0:0:0:0:
341,47,113947,1,0,0:0:0:0:
489,139,114115,2,0,P|487:224|430:253,2,129.999994436502,2|0|0,0:0|0:0|0:0,0:0:0:0:
435,114,114536,1,0,0:0:0:0:
376,120,114620,1,8,0:0:0:0:
271,232,114788,5,0,0:0:0:0:
237,279,114872,1,0,0:0:0:0:
180,295,114956,1,8,0:0:0:0:
122,286,115040,1,0,0:0:0:0:
80,244,115124,2,0,P|61:204|61:173,1,64.9999972182512,0|0,0:0|0:0,0:0:0:0:
253,176,115292,5,8,0:0:0:0:
270,231,115376,1,0,0:0:0:0:
264,289,115460,2,0,P|248:339|235:352,1,64.9999972182512,0|0,0:0|0:0,0:0:0:0:
135,121,115628,5,0,0:0:0:0:
175,79,115712,1,0,0:0:0:0:
228,55,115796,2,0,P|279:43|297:48,1,64.9999972182512,0|0,0:0|0:0,0:0:0:0:
413,231,115964,5,0,0:0:0:0:
355,233,116048,1,0,0:0:0:0:
302,213,116132,2,0,P|257:184|248:168,1,64.9999972182512,0|0,0:0|0:0,0:0:0:0:
375,53,116300,2,0,P|372:105|363:121,1,64.9999972182512,8|0,0:0|0:0,0:0:0:0:
175,80,116468,2,0,P|190:30|204:17,1,64.9999972182512,0|0,0:0|0:0,0:0:0:0:
253,176,116636,2,0,P|237:226|223:238,1,64.9999972182512,8|0,0:0|0:0,0:0:0:0:
102,292,116805,5,0,0:0:0:0:
102,292,116889,2,0,P|155:352|267:361,1,194.999991654754,0|0,0:0|0:0,0:0:0:0:
315,334,117225,1,0,0:0:0:0:
351,288,117309,1,8,0:0:0:0:
354,229,117393,1,0,0:0:0:0:
328,176,117477,1,8,0:0:0:0:
330,117,117561,1,0,0:0:0:0:
363,68,117645,6,0,P|423:38|501:144,1,194.999991654754,12|0,0:0|0:0,0:0:0:0:
474,259,117981,2,0,P|399:332|271:306,1,194.999991654754,10|0,0:0|0:0,0:0:0:0:
195,247,118317,2,0,P|110:203|19:231,1,194.999991654754,2|0,0:0|0:0,0:0:0:0:
39,130,118653,2,0,L|54:56,1,64.9999972182512,8|0,0:0|0:0,0:0:0:0:
182,183,118821,2,0,L|194:246,1,64.9999972182512,8|0,0:0|0:0,0:0:0:0:
97,330,118989,1,10,0:0:0:0:
322,275,119157,5,6,0:0:0:0:
275,139,119325,2,0,P|230:89|137:89,1,129.999994436502,8|0,0:0|0:0,0:0:0:0:
182,183,119577,1,0,0:0:0:0:
182,183,119662,2,0,P|227:233|320:233,1,129.999994436502,8|0,0:0|0:0,0:0:0:0:
464,124,119998,5,8,0:0:0:0:
438,71,120082,1,0,0:0:0:0:
386,43,120166,1,8,0:0:0:0:
328,51,120250,1,0,0:0:0:0:
281,86,120334,1,10,0:0:0:0:
228,111,120418,1,0,0:0:0:0:
170,100,120502,1,10,0:0:0:0:
128,59,120586,1,0,0:0:0:0:
116,1,120670,1,10,0:0:0:0:
371,133,120838,5,2,0:0:0:0:
365,171,120922,1,0,0:0:0:0:
217,9,121174,1,0,0:0:0:0:
83,135,121342,1,8,0:0:0:0:
53,185,121426,1,0,0:0:0:0:
49,243,121510,1,8,0:0:0:0:
69,297,121594,1,0,0:0:0:0:
113,323,121678,6,0,B|281:335|281:335|301:315,1,194.999991654754,12|0,0:0|0:0,0:0:0:0:
359,210,122015,2,0,B|157:216,1,194.999991654754,8|0,0:0|0:0,0:0:0:0:
164,215,122350,1,8,0:0:0:0:
299,316,122519,1,2,0:0:0:0:
353,336,122603,1,0,0:0:0:0:
410,325,122687,1,8,0:0:0:0:
311,64,122854,2,0,P|270:40|247:40,2,64.9999972182512
256,114,123107,5,0,0:0:0:0:
232,136,123191,1,0,0:0:0:0:
74,101,123359,5,0,0:0:0:0:
70,69,123443,1,0,0:0:0:0:
164,215,123611,5,0,0:0:0:0:
164,247,123695,1,0,0:0:0:0:
388,196,123863,5,0,0:0:0:0:
388,164,123947,1,0,0:0:0:0:
256,332,124115,1,0,0:0:0:0:
163,119,124284,1,0,0:0:0:0:
311,255,124452,5,0,0:0:0:0:
335,276,124536,1,0,0:0:0:0:
465,118,124704,5,0,0:0:0:0:
469,85,124788,1,0,0:0:0:0:
256,114,124956,5,0,0:0:0:0:
260,146,125040,1,0,0:0:0:0:
144,36,125208,5,0,0:0:0:0:
114,49,125292,1,0,0:0:0:0:
90,71,125375,6,0,L|80:155,1,64.9999972182512,0|0,0:0|0:0,0:0:0:0:
122,202,125543,2,0,L|112:286,2,64.9999972182512,0|0|0,0:0|0:0|0:0,0:0:0:0:
466,119,125880,6,0,L|476:203,1,64.9999972182512,0|0,0:0|0:0,0:0:0:0:
395,184,126048,2,0,L|405:268,1,64.9999972182512,8|0,0:0|0:0,0:0:0:0:
324,242,126216,2,0,L|334:326,1,64.9999972182512,0|0,0:0|0:0,0:0:0:0:
119,331,126468,5,0,0:0:0:0:
119,331,126552,2,0,L|55:344,1,64.9999972182512,0|0,0:0|0:0,0:0:0:0:
173,274,126720,2,0,L|236:260,1,64.9999972182512,0|0,0:0|0:0,0:0:0:0:
105,235,126888,1,0,0:0:0:0:
74,193,126972,1,0,0:0:0:0:
74,141,127056,1,0,0:0:0:0:
446,30,127393,5,12,0:3:0:0:
