osu file format v14

[General]
AudioFilename: 1337.mp3
AudioLeadIn: 1650
PreviewTime: 79997
Countdown: 0
SampleSet: Soft
StackLeniency: 0.7
Mode: 0
LetterboxInBreaks: 0
WidescreenStoryboard: 0

[Editor]
Bookmarks: 67476,88064
DistanceSpacing: 1.2
BeatDivisor: 4
GridSize: 4
TimelineZoom: 2.499999

[Metadata]
Title:.357 Magnum
TitleUnicode:.357 Magnum
Artist:xi
ArtistUnicode:xi
Creator:Akali
Version:Advanced
Source:BMS
Tags:sayaka- dialgadu77 tidek EXTREMEBEAT piano jazz
BeatmapID:545553
BeatmapSetID:155749

[Difficulty]
HPDrainRate:5
CircleSize:4
OverallDifficulty:6
ApproachRate:8
SliderMultiplier:1.40000000596046
SliderTickRate:2

[Events]
//Background and Video events
0,0,"lincoln.jpg",0,0
//Break Periods
2,38517,47987
//Storyboard Layer 0 (Background)
//Storyboard Layer 1 (Fail)
//Storyboard Layer 2 (Pass)
//Storyboard Layer 3 (Foreground)
//Storyboard Sound Samples

[TimingPoints]
669.585365853658,336.134453781513,4,2,1,60,1,0
38316,-100,4,2,1,47,0,0
58484,-100,4,2,1,60,0,0
74619,-100,4,2,1,60,0,0
113610,-100,4,2,1,60,0,1
123022,-100,4,2,1,60,0,0
125712,-76.9230769230769,4,2,1,60,0,0

[Colours]
Combo1 : 105,105,105
Combo2 : 160,82,45
Combo3 : 139,125,123
Combo4 : 205,190,112

[HitObjects]
270,222,670,6,0,P|272:288|316:162,1,560.000002384184,8|0,0:3|0:0,0:0:0:0:
180,205,2351,6,0,P|115:216|92:208,1,70.000000298023,2|0,0:0|0:0,0:0:0:0:
95,202,2603,1,0,0:0:0:0:
83,184,2687,2,0,L|72:129,3,35.0000001490115,8|0|0|0,0:0|0:0|0:0|0:0,0:0:0:0:
101,116,3023,2,0,L|96:73,3,35.0000001490115,8|0|0|0,0:0|0:0|0:0|0:0,0:0:0:0:
176,90,3359,6,0,P|229:100|293:72,2,105.000000447034,4|2|2,0:0|0:0|0:0,0:0:0:0:
351,35,4199,1,2,0:0:0:0:
361,53,4284,1,0,0:0:0:0:
367,72,4368,1,8,0:0:0:0:
360,155,4536,1,2,0:0:0:0:
358,175,4620,1,0,0:0:0:0:
362,195,4704,1,0,0:0:0:0:
397,271,4872,6,0,L|422:326,2,35.0000001490115,2|0|0,0:0|0:0|0:0,0:0:0:0:
328,319,5208,2,0,L|340:376,2,35.0000001490115,2|0|0,0:0|0:0|0:0,0:0:0:0:
256,275,5544,1,2,0:0:0:0:
235,271,5628,1,0,0:0:0:0:
214,273,5712,2,0,P|172:296|156:327,1,70.000000298023,8|8,0:0|0:0,0:0:0:0:
91,265,6048,6,0,L|80:177,1,70.000000298023,4|0,0:0|0:0,0:0:0:0:
95,178,6300,1,0,0:0:0:0:
107,161,6384,2,0,B|138:150|138:150|195:150,1,70.000000298023,0|0,0:0|0:0,0:0:0:0:
193,160,6636,2,0,P|245:175|306:146,1,105.000000447034,0|0,0:0|0:0,0:0:0:0:
351,99,7057,1,8,0:0:0:0:
412,156,7225,1,0,0:0:0:0:
422,174,7309,1,0,0:0:0:0:
426,194,7393,1,0,0:0:0:0:
401,274,7561,6,0,L|374:318,3,35.0000001490115,0|0|0|0,0:0|0:0|0:0|0:0,0:0:0:0:
364,313,7896,1,8,0:0:0:0:
345,321,7980,2,0,B|276:342|276:342|220:323,1,105.000000447034,0|0,0:0|0:0,0:0:0:0:
253,194,8401,1,8,0:0:0:0:
336,200,8569,1,8,0:0:0:0:
173,216,8905,6,0,P|119:222|64:84,1,210.000000894069,6|10,0:0|0:0,0:0:0:0:
87,267,9746,1,2,0:0:0:0:
96,285,9830,1,0,0:0:0:0:
112,298,9914,1,0,0:0:0:0:
129,309,9998,1,0,0:0:0:0:
148,316,10082,6,0,L|193:317,4,35.0000001490115,2|0|0|0|0,0:0|0:0|0:0|0:0|0:0,0:0:0:0:
207,217,10586,2,0,L|162:216,1,35.0000001490115,2|2,0:0|0:0,0:0:0:0:
325,319,10922,1,4,0:0:0:0:
380,256,11090,1,8,0:0:0:0:
388,236,11174,1,0,0:0:0:0:
384,215,11258,1,8,0:0:0:0:
389,194,11342,1,0,0:0:0:0:
386,174,11426,6,0,P|388:136|318:73,1,140.000000596046,12|0,0:0|0:0,0:0:0:0:
176,124,12099,2,0,P|211:125|243:112,1,70.000000298023,2|0,0:0|0:0,0:0:0:0:
243,112,12351,1,0,0:0:0:0:
243,112,12435,1,8,0:0:0:0:
197,42,12602,1,2,0:0:0:0:
116,64,12770,5,2,0:0:0:0:
105,274,13107,1,12,0:3:0:0:
105,274,13443,2,0,B|139:292|139:292|203:292|203:292|258:316,1,140.000000596046,0|8,0:0|0:0,0:0:0:0:
349,181,14115,5,4,0:0:0:0:
286,238,14284,2,0,P|267:297|313:366,1,140.000000596046,2|0,0:0|0:0,0:0:0:0:
421,312,14788,2,0,B|417:275|417:275|398:236,1,70.000000298023,8|0,0:0|0:0,0:0:0:0:
349,181,15124,1,8,0:0:0:0:
269,154,15292,1,0,0:0:0:0:
207,211,15460,6,0,P|156:233|58:207,1,140.000000596046,0|8,0:0|0:0,0:0:0:0:
34,77,16132,2,0,L|30:147,1,70.000000298023,0|0,0:0|0:0,0:0:0:0:
122,145,16468,2,0,L|117:75,1,70.000000298023,8|8,0:0|0:0,0:0:0:0:
195,106,16805,6,0,P|264:124|315:99,2,105.000000447034,12|0|0,0:0|0:0|0:0,0:0:0:0:
249,42,17477,2,0,P|305:32|322:37,1,70.000000298023,0|0,0:0|0:0,0:0:0:0:
392,70,17813,1,8,0:0:0:0:
432,143,17981,1,2,0:0:0:0:
398,219,18148,6,0,P|390:253|397:286,1,70.000000298023,2|0,0:0|0:0,0:0:0:0:
282,343,18485,2,0,P|290:309|283:276,1,70.000000298023,2|0,0:0|0:0,0:0:0:0:
212,225,18821,1,0,0:0:0:0:
127,216,18988,1,0,0:0:0:0:
120,300,19156,1,8,0:0:0:0:
204,307,19326,1,2,0:0:0:0:
206,309,19662,6,0,P|264:294|290:204,1,140.000000596046,2|0,0:0|0:0,0:0:0:0:
293,204,20082,1,0,0:0:0:0:
283,185,20166,2,0,P|275:161|277:135,3,35.0000001490115,0|0|0|0,0:0|0:0|0:0|0:0,0:0:0:0:
273,130,20502,2,0,P|271:112|264:96,3,35.0000001490115,8|0|0|0,0:0|0:0|0:0|0:0,0:0:0:0:
254,77,20838,6,0,P|243:62|229:52,3,35.0000001490115,8|0|8|0,0:0|0:0|0:0|0:0,0:0:0:0:
211,42,21174,2,0,P|194:35|177:32,3,35.0000001490115,8|0|8|0,0:0|0:0|0:0|0:0,0:0:0:0:
155,31,21510,2,0,P|137:32|121:39,3,35.0000001490115,2|0|2|0,0:0|0:0|0:0|0:0,0:0:0:0:
103,50,21847,2,0,P|88:60|78:74,3,35.0000001490115,10|0|0|0,0:0|0:0|0:0|0:0,0:0:0:0:
69,92,22183,6,0,P|62:138|76:178,1,70.000000298023,2|0,0:0|0:0,0:0:0:0:
118,226,22519,2,0,P|148:242|166:245,3,35.0000001490115,8|0|0|0,0:0|0:0|0:0|0:0,0:0:0:0:
190,242,22855,2,0,P|206:248|220:258,3,35.0000001490115,8|0|0|0,0:0|0:0|0:0|0:0,0:0:0:0:
249,288,23191,2,0,P|278:322|333:329,1,70.000000298023,2|2,0:0|0:0,0:0:0:0:
375,292,23527,6,0,P|384:273|390:244,3,35.0000001490115,8|0|8|0,0:0|0:0|0:0|0:0,0:0:0:0:
370,221,23863,2,0,P|363:190|368:173,3,35.0000001490115,8|0|0|0,0:0|0:0|0:0|0:0,0:0:0:0:
370,153,24199,2,0,P|379:112|362:65,1,70.000000298023,10|8,0:0|0:0,0:0:0:0:
229,103,24536,2,0,P|261:117|296:119,1,70.000000298023,8|0,0:0|0:0,0:0:0:0:
240,23,24871,1,4,0:0:0:0:
156,33,25040,6,0,P|108:50|59:129,1,140.000000596046,2|0,0:0|0:0,0:0:0:0:
58,204,25544,2,0,B|63:241|63:241|104:286,1,70.000000298023,8|0,0:0|0:0,0:0:0:0:
143,204,25880,1,8,0:0:0:0:
212,250,26048,1,0,0:0:0:0:
263,316,26216,6,0,P|309:346|409:312,1,140.000000596046,0|8,0:0|0:0,0:0:0:0:
422,166,26889,2,0,L|324:174,1,70.000000298023,0|0,0:0|0:0,0:0:0:0:
313,97,27225,2,0,L|382:91,1,70.000000298023,0|0,0:0|0:0,0:0:0:0:
352,172,27561,6,0,P|314:201|239:193,2,105.000000447034,2|0|0,0:0|0:0|0:0,0:0:0:0:
313,97,28233,2,0,B|283:73|283:73|227:62,1,70.000000298023,0|0,0:0|0:0,0:0:0:0:
168,71,28569,1,8,0:0:0:0:
147,77,28653,1,0,0:0:0:0:
130,89,28737,1,8,0:0:0:0:
118,106,28821,1,0,0:0:0:0:
112,126,28905,6,0,P|111:174|135:206,1,70.000000298023,10|0,0:0|0:0,0:0:0:0:
179,325,29242,2,0,P|184:290|171:259,1,70.000000298023,2|0,0:0|0:0,0:0:0:0:
341,258,29578,2,0,P|327:290|332:325,1,70.000000298023,8|0,0:0|0:0,0:0:0:0:
391,192,29913,2,0,P|404:160|399:125,1,70.000000298023,8|0,0:0|0:0,0:0:0:0:
217,141,30418,6,0,P|251:188|289:128,1,140.000000596046,2|0,0:0|0:0,0:0:0:0:
294,119,30838,1,0,0:0:0:0:
286,99,30922,2,0,P|263:75|246:68,3,35.0000001490115,0|0|0|0,0:0|0:0|0:0|0:0,0:0:0:0:
221,62,31258,2,0,P|187:65|172:75,3,35.0000001490115,8|0|0|0,0:0|0:0|0:0|0:0,0:0:0:0:
147,80,31594,6,0,P|114:88|80:87,1,35.0000001490115,8|0,0:0|0:0,0:0:0:0:
165,128,31763,2,0,P|183:140|214:145,1,35.0000001490115,8|0,0:0|0:0,0:0:0:0:
143,170,31931,2,0,P|146:210|131:243,1,70.000000298023,8|0,0:0|0:0,0:0:0:0:
252,284,32267,2,0,P|269:247|298:226,1,70.000000298023,8|0,0:0|0:0,0:0:0:0:
376,322,32603,2,0,P|407:329|427:323,4,35.0000001490115,2|0|0|0|0,0:0|0:0|0:0|0:0|0:0,0:0:0:0:
252,284,33107,6,0,P|190:269|120:312,1,140.000000596046,4|0,0:0|0:0,0:0:0:0:
109,317,33527,1,0,0:0:0:0:
89,325,33611,2,0,P|61:328|41:321,3,35.0000001490115,8|0|0|0,0:0|0:0|0:0|0:0,0:0:0:0:
48,284,33947,2,0,L|37:200,1,70.000000298023,8|8,0:0|0:0,0:0:0:0:
80,141,34284,6,0,L|79:96,4,35.0000001490115,8|0|0|0|0,0:0|0:0|0:0|0:0|0:0,0:0:0:0:
143,192,34788,1,4,0:0:0:0:
222,219,34956,2,0,P|278:223|315:204,1,70.000000298023,0|0,0:0|0:0,0:0:0:0:
358,169,35292,1,0,0:0:0:0:
374,251,35460,1,0,0:0:0:0:
321,316,35628,6,0,P|273:334|173:304,1,140.000000596046,4|0,0:0|0:0,0:0:0:0:
89,218,36132,2,0,P|155:199|221:219,1,140.000000596046,0|0,0:0|0:0,0:0:0:0:
302,287,36636,2,0,L|341:329,3,35.0000001490115,8|0|8|0,0:0|0:0|0:0|0:0,0:0:0:0:
284,268,36973,5,8,0:0:0:0:
256,192,37309,12,4,38317,0:0:0:0:
142,111,48737,6,0,L|150:158,3,35.0000001490115,0|0|0|0,0:0|0:0|0:0|0:0,0:0:0:0:
155,179,49073,2,0,P|185:228|253:257,2,105.000000447034,14|0|0,0:0|0:0|0:0,0:0:0:0:
447,175,50082,6,0,P|429:171|414:164,3,35.0000001490115,2|0|0|0,0:0|0:0|0:0|0:0,0:0:0:0:
384,151,50418,2,0,B|350:145|339:132|339:132|280:109|229:152,1,140.000000596046,2|2,0:0|0:0,0:0:0:0:
160,254,51090,1,2,0:0:0:0:
33,191,51426,1,2,0:0:0:0:
168,155,51762,6,0,P|218:172|253:220,2,105.000000447034,2|0|0,0:0|0:0|0:0,0:0:0:0:
341,272,52771,2,0,P|380:284|419:268,1,70.000000298023,10|0,0:0|0:0,0:0:0:0:
378,212,53107,5,2,0:0:0:0:
308,209,53275,1,0,0:0:0:0:
271,268,53443,1,0,0:0:0:0:
142,323,53779,1,2,0:0:0:0:
90,275,53947,1,0,0:0:0:0:
74,343,54115,1,0,0:0:0:0:
213,330,54452,6,0,P|277:351|323:333,2,105.000000447034,2|0|0,0:0|0:0|0:0,0:0:0:0:
131,216,55292,1,0,0:0:0:0:
116,147,55460,1,8,0:0:0:0:
151,86,55628,1,2,0:0:0:0:
217,64,55796,6,0,B|253:74|253:74|309:62,1,70.000000298023,2|0,0:0|0:0,0:0:0:0:
319,62,56048,2,0,B|350:55|350:55|386:65,1,70.000000298023,2|0,0:0|0:0,0:0:0:0:
417,81,56300,2,0,P|440:129|374:197,1,140.000000596046
326,215,56805,2,0,P|277:231|259:262,1,70.000000298023,8|0,0:0|0:0,0:0:0:0:
324,283,57141,6,0,P|272:314|225:300,2,105.000000447034,10|0|0,0:0|0:0|0:0,0:0:0:0:
186,254,57981,2,0,P|162:297|175:344,2,70.000000298023,2|0|0,0:0|0:0|0:0,0:0:0:0:
213,189,58485,6,0,B|226:159|218:117|206:130|174:96|202:47,1,140.000000596046,2|8,0:0|0:0,0:0:0:0:
314,56,59157,2,0,B|338:96|306:130|294:117|286:159|299:189,1,140.000000596046,10|8,0:0|0:0,0:0:0:0:
434,270,59830,5,6,0:0:0:0:
363,316,59998,2,0,P|298:336|269:326,1,70.000000298023
202,251,60334,1,0,0:0:0:0:
149,314,60502,2,0,P|179:332|214:335,1,70.000000298023,0|0,0:0|0:0,0:0:0:0:
202,251,60838,2,0,P|147:231|113:241,1,70.000000298023,0|2,0:0|0:0,0:0:0:0:
118,241,61090,1,0,0:0:0:0:
97,245,61174,1,8,0:0:0:0:
59,170,61342,6,0,P|58:134|69:108,2,35.0000001490115,2|0|8,0:0|0:0|0:0,0:0:0:0:
140,151,61678,2,0,P|181:149|202:139,2,35.0000001490115,2|0|8,0:0|0:0|0:0,0:0:0:0:
162,69,62015,2,0,P|172:47|189:34,2,35.0000001490115,2|0|0,0:0|0:0|0:0,0:0:0:0:
240,97,62351,1,2,0:0:0:0:
259,104,62435,1,2,0:0:0:0:
279,104,62519,1,10,0:0:0:0:
361,90,62687,6,0,P|394:54|403:12,2,70.000000298023,4|0|0,0:0|0:0|0:0,0:0:0:0:
334,169,63191,2,0,P|336:221|356:246,1,70.000000298023,0|8,0:0|0:0,0:0:0:0:
405,292,63527,1,8,0:0:0:0:
326,320,63695,1,0,0:0:0:0:
306,328,63779,1,0,0:0:0:0:
284,332,63863,6,0,P|234:323|197:286,2,105.000000447034,4|0|0,0:0|0:0|0:0,0:0:0:0:
226,208,64536,1,8,0:0:0:0:
143,222,64704,1,0,0:0:0:0:
128,236,64788,1,0,0:0:0:0:
115,253,64872,2,0,P|77:262|37:241,1,70.000000298023,8|0,0:0|0:0,0:0:0:0:
85,172,65208,5,8,0:0:0:0:
151,119,65376,2,0,P|199:94|293:113,1,140.000000596046,4|0,0:0|0:0,0:0:0:0:
329,176,65880,2,0,L|337:256,1,70.000000298023,0|0,0:0|0:0,0:0:0:0:
407,202,66216,2,0,L|399:122,1,70.000000298023,0|0,0:0|0:0,0:0:0:0:
327,47,66552,6,0,P|278:63|182:39,1,140.000000596046,2|2,0:0|0:0,0:0:0:0:
73,148,67225,2,0,B|83:198|83:198|76:265,2,105.000000447034,2|0|0,0:0|0:0|0:0,0:0:0:0:
109,72,67897,1,8,0:0:0:0:
157,140,68064,6,0,P|194:182|295:193,2,140.000000596046,4|0|0,0:0|0:0|0:0,0:0:0:0:
196,65,68905,2,0,L|234:50,3,35.0000001490115,8|0|8|0,0:0|0:0|0:0|0:0,0:0:0:0:
270,48,69242,6,0,B|316:54|332:84|332:84|381:106,1,105.000000447034,12|0,0:0|0:0,0:0:0:0:
378,105,69578,2,0,B|402:117|402:117|378:158|410:217,1,105.000000447034,8|0,0:0|0:0,0:0:0:0:
405,212,69914,2,0,B|417:250|435:268|435:268|353:290,1,140.000000596046,8|0,0:0|0:0,0:0:0:0:
205,226,70586,6,0,P|175:292|225:367,1,140.000000596046,2|8,0:0|0:0,0:0:0:0:
259,290,71090,1,0,0:0:0:0:
285,210,71258,2,0,P|242:151|152:156,1,140.000000596046,0|8,0:0|0:0,0:0:0:0:
124,207,71763,1,8,0:0:0:0:
70,271,71931,6,0,B|82:297|72:326|72:326|124:374,2,105.000000447034,2|0|0,0:0|0:0|0:0,0:0:0:0:
41,191,72603,1,0,0:0:0:0:
94,126,72771,1,0,0:0:0:0:
176,138,72939,1,8,0:0:0:0:
235,78,73107,1,2,0:0:0:0:
235,78,73443,6,0,B|214:147|214:147|239:220,1,140.000000596046,4|0,0:0|0:0,0:0:0:0:
255,292,73947,6,0,P|206:290|163:246,1,105.000000447034
124,250,74283,2,0,P|87:215|84:155,1,105.000000447034
89,121,74619,6,0,P|88:81|37:32,2,105.000000447034,2|2|2,0:0|0:0|0:0,0:0:0:0:
122,296,75460,1,0,0:0:0:0:
196,334,75628,1,8,0:0:0:0:
279,331,75796,1,8,0:0:0:0:
351,288,75964,6,0,B|372:255|372:255|374:201,1,70.000000298023,4|0,0:0|0:0,0:0:0:0:
373,182,76216,2,0,B|371:151|371:151|350:118,1,70.000000298023,0|0,0:0|0:0,0:0:0:0:
312,135,76468,2,0,P|255:141|201:71,1,140.000000596046,2|0,0:0|0:0,0:0:0:0:
282,57,76973,2,0,L|322:34,3,35.0000001490115,8|0|0|0,0:0|0:0|0:0|0:0,0:0:0:0:
354,40,77309,6,0,P|399:58|417:81,1,70.000000298023,10|0,0:0|0:0,0:0:0:0:
446,150,77645,2,0,P|452:203|441:227,1,70.000000298023,8|0,0:0|0:0,0:0:0:0:
385,274,77981,2,0,L|291:287,1,70.000000298023,10|0,0:0|0:0,0:0:0:0:
269,213,78317,2,0,L|363:200,1,70.000000298023,10|0,0:0|0:0,0:0:0:0:
294,131,78653,6,0,B|218:141|218:141|179:113,2,105.000000447034,12|0|2,0:0|0:0|0:0,0:0:0:0:
134,77,79493,1,0,0:0:0:0:
123,95,79578,1,0,0:0:0:0:
118,115,79662,2,0,P|117:142|129:166,3,35.0000001490115,0|0|0|0,0:0|0:0|0:0|0:0,0:0:0:0:
138,193,79998,5,2,0:0:0:0:
147,211,80082,2,0,B|157:252|157:252|142:308,1,70.000000298023,0|0,0:0|0:0,0:0:0:0:
246,257,80418,5,0,0:0:0:0:
240,277,80502,2,0,B|230:318|230:318|252:365,1,70.000000298023,2|2,0:0|0:0,0:0:0:0:
349,313,80838,5,4,0:3:0:0:
402,248,81006,1,8,0:0:0:0:
411,229,81090,1,0,0:0:0:0:
413,208,81174,2,0,L|410:144,2,35.0000001490115,8|0|8,0:0|0:0|0:0,0:0:0:0:
329,200,81510,6,0,P|329:142|402:85,1,140.000000596046,2|0,0:0|0:0,0:0:0:0:
314,43,82014,2,0,L|217:53,1,70.000000298023,0|0,0:0|0:0,0:0:0:0:
160,57,82350,1,8,0:0:0:0:
88,101,82518,1,0,0:0:0:0:
45,173,82686,6,0,B|32:244|32:244|56:331,1,140.000000596046,2|8,0:0|0:0,0:0:0:0:
206,246,83359,2,0,L|129:233,1,70.000000298023,0|0,0:0|0:0,0:0:0:0:
182,163,83695,2,0,L|259:176,1,70.000000298023,8|0,0:0|0:0,0:0:0:0:
286,250,84031,6,0,P|258:313|198:329,2,105.000000447034,2|2|2,0:0|0:0|0:0,0:0:0:0:
251,174,84703,2,0,P|245:106|259:85,1,70.000000298023,0|0,0:0|0:0,0:0:0:0:
316,63,85039,1,8,0:0:0:0:
335,70,85123,1,0,0:0:0:0:
352,82,85207,1,8,0:0:0:0:
364,99,85291,1,0,0:0:0:0:
368,119,85375,6,0,L|363:204,1,70.000000298023,10|0,0:0|0:0,0:0:0:0:
420,251,85712,2,0,L|425:336,1,70.000000298023,2|0,0:0|0:0,0:0:0:0:
346,289,86048,1,0,0:0:0:0:
264,269,86216,1,0,0:0:0:0:
182,289,86384,1,0,0:0:0:0:
119,344,86552,1,0,0:0:0:0:
36,197,86888,6,0,P|37:146|101:80,1,140.000000596046,0|0,0:0|0:0,0:0:0:0:
115,81,87308,1,0,0:0:0:0:
135,85,87392,2,0,P|156:93|191:95,3,35.0000001490115,0|0|0|0,0:0|0:0|0:0|0:0,0:0:0:0:
189,94,87728,2,0,P|212:89|251:93,3,35.0000001490115,8|0|0|0,0:0|0:0|0:0|0:0,0:0:0:0:
244,88,88064,6,0,P|321:112|354:183,1,140.000000596046,8|8,0:0|0:0,0:0:0:0:
250,295,88737,2,0,L|184:270,1,70.000000298023,8|8,0:0|0:0,0:0:0:0:
241,209,89073,1,10,0:0:0:0:
261,210,89157,1,0,0:0:0:0:
281,216,89241,1,10,0:0:0:0:
297,229,89325,1,0,0:0:0:0:
310,245,89409,6,0,P|360:291|390:292,1,70.000000298023,2|0,0:0|0:0,0:0:0:0:
384,210,89745,2,0,L|389:171,3,35.0000001490115,8|0|0|0,0:0|0:0|0:0|0:0,0:0:0:0:
367,138,90081,2,0,L|359:84,3,35.0000001490115,8|0|0|0,0:0|0:0|0:0|0:0,0:0:0:0:
321,90,90417,2,0,P|281:119|240:121,1,70.000000298023,8|8,0:0|0:0,0:0:0:0:
181,98,90754,6,0,P|186:77|203:53,3,35.0000001490115,8|0|0|0,0:0|0:0|0:0|0:0,0:0:0:0:
212,52,91090,2,0,P|234:42|266:40,3,35.0000001490115,8|0|0|0,0:0|0:0|0:0|0:0,0:0:0:0:
266,41,91426,2,0,L|362:51,1,70.000000298023,0|0,0:0|0:0,0:0:0:0:
412,86,91762,2,0,P|435:145|427:181,1,70.000000298023,8|8,0:0|0:0,0:0:0:0:
389,221,92099,5,2,0:0:0:0:
326,276,92267,2,0,B|294:307|261:314|224:298|214:288|214:288|160:311|110:284|99:254|97:224,1,280.000001192092,4|0,0:0|0:0,0:0:0:0:
150,158,93107,2,0,P|170:183|177:224,1,70.000000298023,8|0,0:0|0:0,0:0:0:0:
98,224,93443,6,0,P|67:173|98:92,1,140.000000596046,0|8,0:0|0:0,0:0:0:0:
163,61,93947,1,0,0:0:0:0:
245,47,94115,2,0,L|314:37,1,70.000000298023,0|0,0:0|0:0,0:0:0:0:
358,109,94452,2,0,L|288:118,1,70.000000298023,8|0,0:0|0:0,0:0:0:0:
277,201,94788,6,0,P|272:248|315:306,2,105.000000447034,2|0|0,0:0|0:0|0:0,0:0:0:0:
353,235,95460,2,0,P|392:246|430:234,1,70.000000298023,0|0,0:0|0:0,0:0:0:0:
389,161,95796,2,0,P|379:135|375:109,3,35.0000001490115,8|0|8|0,0:0|0:0|0:0|0:0,0:0:0:0:
361,89,96132,6,0,B|339:59|339:59|300:31,1,70.000000298023,10|0,0:0|0:0,0:0:0:0:
151,89,96468,2,0,B|173:59|173:59|212:31,1,70.000000298023,2|0,0:0|0:0,0:0:0:0:
256,122,96805,1,8,0:0:0:0:
326,192,96973,1,0,0:0:0:0:
256,262,97141,1,8,0:0:0:0:
186,192,97309,1,8,0:0:0:0:
323,290,97645,6,0,P|262:309|170:275,1,140.000000596046,4|0,0:0|0:0,0:0:0:0:
172,279,98065,1,0,0:0:0:0:
156,264,98149,2,0,P|135:211|142:173,1,70.000000298023,8|2,0:0|0:0,0:0:0:0:
138,178,98401,1,0,0:0:0:0:
141,157,98485,2,0,L|151:68,1,70.000000298023,8|2,0:0|0:0,0:0:0:0:
224,130,98821,5,10,0:0:0:0:
239,138,98905,1,0,0:0:0:0:
256,139,98989,1,2,0:0:0:0:
273,138,99073,1,0,0:0:0:0:
289,133,99157,2,0,P|346:115|368:117,1,70.000000298023,10|2,0:0|0:0,0:0:0:0:
348,255,99494,2,0,P|291:273|269:271,1,70.000000298023,0|0,0:0|0:0,0:0:0:0:
199,255,99830,1,2,0:0:0:0:
181,250,99914,1,0,0:0:0:0:
160,247,99998,1,2,0:0:0:0:
139,248,100082,1,0,0:0:0:0:
119,254,100166,6,0,P|81:261|39:246,2,70.000000298023,6|0|0,0:0|0:0|0:0,0:0:0:0:
88,175,100670,1,0,0:0:0:0:
56,97,100838,2,0,P|94:90|136:105,1,70.000000298023,8|0,0:0|0:0,0:0:0:0:
139,111,101090,1,0,0:0:0:0:
153,125,101174,2,0,P|202:147|242:140,1,70.000000298023,8|8,0:0|0:0,0:0:0:0:
298,127,101510,6,0,P|314:120|341:112,3,35.0000001490115,8|0|0|0,0:0|0:0|0:0|0:0,0:0:0:0:
372,110,101847,2,0,P|410:122|435:152,1,70.000000298023,8|0,0:0|0:0,0:0:0:0:
394,248,102183,2,0,P|370:224|361:191,1,70.000000298023,2|0,0:0|0:0,0:0:0:0:
276,240,102519,2,0,P|300:264|309:297,1,70.000000298023,8|0,0:0|0:0,0:0:0:0:
226,309,102855,6,0,P|181:321|99:292,2,105.000000447034,10|0|0,0:0|0:0|0:0,0:0:0:0:
314,166,103695,2,0,P|340:184|349:208,2,35.0000001490115,0|0|8,0:0|0:0|0:0,0:0:0:0:
261,100,104031,2,0,P|289:86|314:90,2,35.0000001490115,0|0|0,0:0|0:0|0:0,0:0:0:0:
189,144,104368,5,0,0:0:0:0:
168,149,104452,1,0,0:0:0:0:
147,147,104536,1,8,0:0:0:0:
65,166,104704,1,0,0:0:0:0:
51,181,104788,1,0,0:0:0:0:
46,201,104872,1,0,0:0:0:0:
74,280,105040,1,0,0:0:0:0:
91,291,105124,1,0,0:0:0:0:
110,299,105208,2,0,P|167:301|198:281,1,70.000000298023,8|0,0:0|0:0,0:0:0:0:
232,232,105544,6,0,L|243:144,1,70.000000298023,8|0,0:0|0:0,0:0:0:0:
248,143,105796,1,0,0:0:0:0:
260,126,105880,2,0,B|291:115|291:115|348:115,1,70.000000298023,0|0,0:0|0:0,0:0:0:0:
346,125,106132,2,0,P|398:140|459:111,1,105.000000447034,0|0,0:0|0:0,0:0:0:0:
395,55,106551,1,0,0:0:0:0:
311,43,106721,1,0,0:0:0:0:
290,40,106805,1,0,0:0:0:0:
269,42,106889,5,8,0:0:0:0:
195,82,107057,2,0,P|164:96|145:97,3,35.0000001490115,2|0|0|0,0:0|0:0|0:0|0:0,0:0:0:0:
142,95,107392,1,2,0:0:0:0:
120,97,107476,2,0,P|72:115|46:159,1,105.000000447034
83,237,107897,2,0,P|110:215|126:184,1,70.000000298023,8|0,0:0|0:0,0:0:0:0:
9,303,108400,6,0,B|37:334|78:347|122:337|154:305|154:305|222:307,1,210.000000894069,6|0,0:0|0:0,0:0:0:0:
368,296,109241,1,8,0:0:0:0:
388,291,109326,1,0,0:0:0:0:
406,280,109410,1,0,0:0:0:0:
418,263,109494,1,0,0:0:0:0:
425,243,109578,6,0,P|426:219|419:186,4,35.0000001490115,8|0|0|0|0,0:0|0:0|0:0|0:0|0:0,0:0:0:0:
302,176,110082,2,0,P|301:200|308:233,1,35.0000001490115,2|0,0:0|0:0,0:0:0:0:
388,119,110418,1,0,0:0:0:0:
297,74,110586,1,8,0:0:0:0:
276,79,110670,1,0,0:0:0:0:
257,88,110754,1,8,0:0:0:0:
240,100,110838,1,0,0:0:0:0:
224,114,110922,6,0,P|185:136|88:112,1,140.000000596046,10|10,0:0|0:0,0:0:0:0:
157,274,111594,1,8,0:0:0:0:
234,307,111763,1,0,0:0:0:0:
254,312,111847,1,0,0:0:0:0:
274,308,111931,2,0,P|332:308|362:323,1,70.000000298023,8|0,0:0|0:0,0:0:0:0:
413,266,112267,6,0,L|421:221,3,35.0000001490115,2|0|0|0,0:0|0:0|0:0|0:0,0:0:0:0:
390,201,112603,2,0,L|390:155,3,35.0000001490115,2|0|0|0,0:0|0:0|0:0|0:0,0:0:0:0:
358,138,112939,2,0,L|348:53,1,70.000000298023,10|0,0:0|0:0,0:0:0:0:
276,109,113275,1,8,0:0:0:0:
255,115,113359,1,0,0:0:0:0:
234,115,113443,1,8,0:0:0:0:
213,111,113527,1,0,0:0:0:0:
193,102,113611,6,0,P|142:89|89:106,2,105.000000447034,4|2|2,0:0|0:0|0:0,0:0:0:0:
341,231,114452,1,0,0:0:0:0:
366,241,114536,1,0,0:0:0:0:
393,243,114620,1,8,0:0:0:0:
342,327,114788,1,0,0:0:0:0:
315,334,114872,1,0,0:0:0:0:
287,332,114956,1,8,0:0:0:0:
192,307,115124,6,0,P|154:309|129:323,2,35.0000001490115,0|0|0,0:0|0:0|0:0,0:0:0:0:
127,233,115460,2,0,P|95:253|80:278,2,35.0000001490115,0|0|0,0:0|0:0|0:0,0:0:0:0:
207,177,115796,1,0,0:0:0:0:
222,153,115880,1,8,0:0:0:0:
230,126,115964,2,0,P|222:74|204:56,1,70.000000298023,0|0,0:0|0:0,0:0:0:0:
134,122,116300,6,0,P|116:160|122:211,1,70.000000298023,8|0,0:0|0:0,0:0:0:0:
122,214,116552,1,0,0:0:0:0:
132,239,116635,2,0,B|174:271|174:271|217:268,1,70.000000298023,8|0,0:0|0:0,0:0:0:0:
241,268,116888,2,0,L|345:261,1,105.000000447034,0|0,0:0|0:0,0:0:0:0:
392,192,117309,2,0,P|399:162|397:143,3,35.0000001490115,8|0|0|0,0:0|0:0|0:0|0:0,0:0:0:0:
393,130,117645,6,0,P|372:85|292:43,1,140.000000596046,12|0,0:0|0:0,0:0:0:0:
198,83,118148,1,0,0:0:0:0:
156,181,118317,2,0,P|177:226|257:268,1,140.000000596046,2|8,0:0|0:0,0:0:0:0:
253,267,118821,1,8,0:0:0:0:
198,83,119156,5,6,0:0:0:0:
84,123,119326,2,0,P|61:184|95:252,1,140.000000596046,8|0,0:0|0:0,0:0:0:0:
278,305,119998,1,8,0:0:0:0:
304,313,120082,1,0,0:0:0:0:
332,311,120166,1,8,0:0:0:0:
359,306,120250,1,0,0:0:0:0:
384,293,120334,6,0,P|416:280|428:281,4,35.0000001490115,10|0|0|0|10,0:0|0:0|0:0|0:0|0:0,0:0:0:0:
319,213,120838,2,0,P|311:190|313:168,1,35.0000001490115,2|0,0:0|0:0,0:0:0:0:
398,61,121174,1,0,0:0:0:0:
305,92,121342,1,8,0:0:0:0:
278,100,121426,1,0,0:0:0:0:
250,102,121510,1,8,0:0:0:0:
222,96,121594,1,0,0:0:0:0:
195,86,121678,6,0,P|142:81|63:145,1,140.000000596046,12|8,0:0|0:0,0:0:0:0:
201,274,122351,2,0,P|235:308|274:316,1,70.000000298023,8|0,0:0|0:0,0:0:0:0:
282,318,122603,1,0,0:0:0:0:
309,313,122687,2,0,P|365:314|393:334,1,70.000000298023,8|0,0:0|0:0,0:0:0:0:
256,192,123023,12,0,124283,0:0:0:0:
256,192,124368,12,0,125459,0:0:0:0:
150,198,125880,6,0,L|146:253,5,45.4999981108903,0|0|8|0|0|0,0:0|0:0|0:0|0:0|0:0|0:0,0:0:0:0:
217,136,126468,2,0,L|271:154,7,45.4999981108903
41,84,127393,5,12,0:3:0:0:
