osu file format v14

[General]
AudioFilename: 1337.mp3
AudioLeadIn: 1650
PreviewTime: 79997
Countdown: 0
SampleSet: Soft
StackLeniency: 0.7
Mode: 3
LetterboxInBreaks: 0
SpecialStyle: 0
WidescreenStoryboard: 0

[Editor]
Bookmarks: 31930,36972,73946,113190
DistanceSpacing: 1
BeatDivisor: 4
GridSize: 8
TimelineZoom: 2.499999

[Metadata]
Title:.357 Magnum
TitleUnicode:.357 Magnum
Artist:xi
ArtistUnicode:xi
Creator:Akali
Version:4K Normal
Source:BMS
Tags:sayaka- dialgadu77 tidek EXTREMEBEAT piano jazz
BeatmapID:573749
BeatmapSetID:155749

[Difficulty]
HPDrainRate:7.5
CircleSize:4
OverallDifficulty:7.5
ApproachRate:9
SliderMultiplier:2.00000000596046
SliderTickRate:2

[Events]
//Background and Video events
0,0,"lincoln.jpg",0,0
//Break Periods
//Storyboard Layer 0 (Background)
//Storyboard Layer 1 (Fail)
//Storyboard Layer 2 (Pass)
//Storyboard Layer 3 (Foreground)
//Storyboard Sound Samples

[TimingPoints]
669.585365853658,336.134453781513,4,2,0,60,1,0
13106,-100,4,3,1,60,0,0
13442,-100,4,2,0,60,0,0
80837,-100,4,3,1,60,0,0
81005,-100,4,2,0,60,0,0
113610,-100,4,2,0,60,0,1
123022,-100,4,2,0,60,0,0
127392,-100,4,3,1,60,0,0

[Colours]
Combo1 : 105,105,105
Combo2 : 160,82,45
Combo3 : 139,125,123
Combo4 : 205,190,112

[HitObjects]
448,192,669,128,0,2014:0:0:0:0:
64,192,2014,1,0,0:0:0:0:
320,192,2350,1,0,0:0:0:0:
192,192,2686,1,8,0:3:0:0:
448,192,3022,1,8,0:3:0:0:
64,192,3358,1,8,0:3:0:0:
448,192,3358,1,4,0:0:0:0:
192,192,3610,1,0,0:0:0:0:
320,192,3862,1,0,1:0:0:0:
64,192,4367,1,0,1:0:0:0:
192,192,4703,1,0,0:0:0:0:
320,192,5039,1,0,0:0:0:0:
448,192,5375,1,0,0:0:0:0:
64,192,5711,1,0,1:0:0:0:
192,192,5879,1,0,1:0:0:0:
64,192,6047,1,0,0:0:0:0:
448,192,6383,1,0,0:0:0:0:
64,192,6720,1,0,0:0:0:0:
448,192,7056,1,0,1:0:0:0:
320,192,7224,1,0,0:0:0:0:
448,192,7392,1,0,0:0:0:0:
192,192,7728,1,0,0:0:0:0:
320,192,8064,1,0,0:0:0:0:
64,192,8400,1,0,0:0:0:0:
192,192,8568,1,0,0:0:0:0:
64,192,8904,1,4,0:0:0:0:
448,192,8904,128,0,9409:0:0:0:0:
320,192,9409,128,0,9745:0:0:0:0:
192,192,9745,1,0,1:0:0:0:
448,192,9913,1,0,0:0:0:0:
64,192,10081,1,0,0:0:0:0:
320,192,10249,1,0,0:0:0:0:
192,192,10417,1,0,0:0:0:0:
448,192,10669,1,0,0:0:0:0:
320,192,10921,1,0,0:0:0:0:
64,192,11089,1,0,1:0:0:0:
192,192,11257,1,0,1:0:0:0:
64,192,11425,128,0,11762:0:0:0:0:
320,192,11762,128,0,12098:0:0:0:0:
192,192,12098,1,0,0:0:0:0:
448,192,12434,1,0,1:0:0:0:
320,192,12770,1,0,1:0:0:0:
64,192,13106,1,4,0:0:0:15:drum-hitfinish.wav
448,192,13106,1,4,0:0:0:15:drum-hitfinish.wav
192,192,13442,1,8,0:3:0:0:
448,192,13778,1,8,0:3:0:0:
64,192,13946,1,8,0:3:0:0:
448,192,14114,1,8,0:3:0:0:
320,192,14114,1,4,0:0:0:0:
192,192,14283,128,0,15123:0:0:0:0:
448,192,15123,1,0,1:0:0:0:
320,192,15291,1,8,0:3:0:0:
192,192,15459,1,8,0:3:0:0:
448,192,15795,1,0,0:0:0:0:
64,192,16131,1,0,0:0:0:0:
448,192,16467,1,8,1:3:0:0:
320,192,16635,1,0,1:0:0:0:
192,192,16804,1,8,0:3:0:0:
320,192,17056,1,0,0:0:0:0:
64,192,17308,128,0,17812:1:0:0:0:
448,192,17812,1,0,0:0:0:0:
320,192,17980,1,8,0:3:0:0:
64,192,18148,1,8,0:3:0:0:
64,192,18316,1,0,0:0:0:0:
192,192,18484,1,0,0:0:0:0:
192,192,18652,1,0,1:0:0:0:
320,192,18820,1,0,0:0:0:0:
320,192,18988,1,8,0:3:0:0:
448,192,19156,1,8,0:3:0:0:
448,192,19325,1,0,1:0:0:0:
64,192,19661,128,0,20501:0:0:0:0:
320,192,20165,1,0,0:0:0:0:
192,192,20501,1,0,1:0:0:0:
448,192,20669,1,8,0:3:0:0:
320,192,20837,1,8,0:3:0:0:
192,192,21173,1,0,0:0:0:0:
320,192,21509,1,0,0:0:0:0:
64,192,21677,1,8,0:3:0:0:
192,192,21846,1,0,1:0:0:0:
320,192,22014,1,0,1:0:0:0:
448,192,22182,1,8,0:3:0:0:
64,192,22518,1,0,0:0:0:0:
192,192,22686,1,0,0:0:0:0:
448,192,22854,1,0,0:0:0:0:
320,192,23022,1,8,0:3:0:0:
448,192,23190,128,0,23358:1:0:0:0:
64,192,23358,1,8,0:3:0:0:
320,192,23526,1,8,0:3:0:0:
448,192,23694,1,0,0:0:0:0:
192,192,23862,1,0,1:0:0:0:
64,192,24030,1,10,0:3:0:0:
448,192,24198,1,0,1:0:0:0:
64,192,24367,1,0,0:0:0:0:
192,192,24535,1,0,1:0:0:0:
320,192,24703,1,8,0:3:0:0:
192,192,24871,1,4,0:0:0:0:
64,192,24871,1,0,0:0:0:0:
448,192,25039,128,0,25879:0:0:0:0:
64,192,25879,1,0,1:0:0:0:
192,192,26047,1,8,0:3:0:0:
320,192,26215,1,8,0:3:0:0:
64,192,26551,1,0,0:0:0:0:
448,192,26888,1,0,0:0:0:0:
64,192,27224,1,0,1:0:0:0:
192,192,27392,1,8,0:3:0:0:
320,192,27560,1,8,0:3:0:0:
192,192,27812,1,0,0:0:0:0:
448,192,28064,128,0,28568:1:0:0:0:
64,192,28568,1,0,1:0:0:0:
192,192,28736,1,8,0:3:0:0:
448,192,28904,1,8,0:3:0:0:
448,192,29072,1,0,0:0:0:0:
320,192,29241,1,0,0:0:0:0:
320,192,29409,1,0,1:0:0:0:
192,192,29577,1,0,0:0:0:0:
192,192,29745,1,8,0:3:0:0:
64,192,29913,1,8,0:3:0:0:
64,192,30081,1,0,1:0:0:0:
448,192,30417,128,0,30921:0:0:0:0:
192,192,30921,1,0,0:0:0:0:
320,192,31257,1,0,1:0:0:0:
64,192,31593,1,8,0:3:0:0:
192,192,31762,1,0,0:0:0:0:
320,192,31930,1,0,0:0:0:0:
448,192,32098,1,0,1:0:0:0:
64,192,32266,1,0,0:0:0:0:
448,192,32434,1,8,0:3:0:0:
64,192,32602,1,0,1:0:0:0:
320,192,32770,1,0,1:0:0:0:
192,192,32938,1,8,0:3:0:0:
320,192,33106,1,4,0:0:0:0:
448,192,33106,128,4,33610:0:0:0:0:
64,192,33610,1,0,0:0:0:0:
192,192,33778,1,8,0:3:0:0:
64,192,33946,128,0,34114:1:0:0:0:
448,192,34114,1,8,0:3:0:0:
192,192,34283,1,8,0:3:0:0:
64,192,34451,1,0,0:0:0:0:
320,192,34619,1,0,1:0:0:0:
192,192,34787,1,4,0:0:0:0:
64,192,34787,1,0,0:0:0:0:
448,192,34955,1,0,0:0:0:0:
64,192,35123,1,0,0:0:0:0:
320,192,35291,1,8,0:3:0:0:
192,192,35459,1,8,0:3:0:0:
320,192,35627,1,4,0:0:0:0:
448,192,35627,1,0,0:3:0:0:
64,192,35879,1,0,0:0:0:0:
448,192,36131,128,0,36972:0:0:0:0:
64,192,36635,1,0,1:0:0:0:
192,192,36804,1,0,1:0:0:0:
64,192,36972,1,0,1:0:0:0:
320,192,37644,128,8,37980:0:3:0:0:
192,192,37980,128,8,38316:0:3:0:0:
64,192,38316,1,8,0:3:0:0:
448,192,38316,1,4,0:0:0:0:
320,192,38568,1,2,0:0:0:0:
192,192,38820,1,2,0:0:0:0:
448,192,39997,1,2,0:0:0:0:
64,192,40333,1,2,0:0:0:0:
448,192,40669,1,2,0:0:0:0:
192,192,41005,1,2,0:0:0:0:
320,192,41257,1,2,0:0:0:0:
192,192,41509,1,2,0:0:0:0:
448,192,42014,1,0,0:0:0:0:
320,192,42350,1,0,0:0:0:0:
192,192,42686,1,0,0:0:0:0:
64,192,43022,1,0,0:0:0:0:
448,192,43358,1,0,0:0:0:0:
192,192,43694,1,2,0:0:0:0:
320,192,43946,1,2,0:0:0:0:
192,192,44198,1,2,0:0:0:0:
448,192,44535,1,2,0:0:0:0:
320,192,44703,1,2,0:0:0:0:
192,192,44871,1,2,0:0:0:0:
64,192,45039,1,2,0:0:0:0:
448,192,45291,1,2,0:0:0:0:
192,192,45543,1,2,0:0:0:0:
320,192,45879,1,8,0:3:0:0:
192,192,46047,1,8,0:3:0:0:
448,192,46215,1,8,0:3:0:0:
64,192,46383,1,2,0:0:0:0:
448,192,46635,1,2,0:0:0:0:
64,192,46888,1,2,0:0:0:0:
448,192,47392,1,0,0:0:0:0:
320,192,47728,1,2,0:0:0:0:
192,192,48064,1,2,0:0:0:0:
64,192,48400,1,2,0:0:0:0:
448,192,48736,1,8,0:3:0:0:
64,192,49072,1,8,0:3:0:0:
448,192,49072,1,4,0:0:0:0:
320,192,49325,1,2,0:0:0:0:
192,192,49577,1,2,0:0:0:0:
320,192,50081,1,2,0:0:0:0:
64,192,50417,1,2,0:0:0:0:
448,192,50753,1,2,0:0:0:0:
64,192,51089,1,2,0:0:0:0:
448,192,51425,1,2,0:0:0:0:
192,192,51762,1,2,0:0:0:0:
320,192,52014,1,2,0:0:0:0:
192,192,52266,1,2,0:0:0:0:
448,192,52770,1,2,0:0:0:0:
320,192,53106,1,0,0:0:0:0:
192,192,53442,1,0,0:0:0:0:
64,192,53778,1,0,0:0:0:0:
448,192,54114,1,0,0:0:0:0:
192,192,54451,1,2,0:0:0:0:
320,192,54703,1,2,0:0:0:0:
192,192,54955,1,2,0:0:0:0:
448,192,55291,1,2,0:0:0:0:
320,192,55459,1,2,0:0:0:0:
192,192,55627,1,2,0:0:0:0:
64,192,55795,1,2,0:0:0:0:
448,192,56047,1,2,0:0:0:0:
192,192,56299,1,2,0:0:0:0:
320,192,56635,1,8,0:3:0:0:
192,192,56804,1,8,0:3:0:0:
448,192,56972,1,8,0:3:0:0:
64,192,57140,1,2,0:0:0:0:
448,192,57392,1,2,0:0:0:0:
64,192,57644,1,2,0:0:0:0:
320,192,58148,1,0,0:0:0:0:
192,192,58316,1,0,0:0:0:0:
448,192,58484,128,0,58820:0:0:0:0:
320,192,58820,128,0,59156:0:0:0:0:
192,192,59156,128,0,59493:0:0:0:0:
64,192,59493,128,8,59829:0:3:0:0:
320,192,59829,1,8,0:3:0:0:
448,192,59829,1,4,0:0:0:0:
192,192,59997,1,0,0:0:0:0:
192,192,60333,1,0,1:0:0:0:
320,192,60501,1,0,0:0:0:0:
64,192,60837,1,0,1:0:0:0:
448,192,61005,1,8,0:3:0:0:
320,192,61173,1,8,0:3:0:0:
64,192,61341,1,0,0:0:0:0:
192,192,61509,1,0,0:0:0:0:
448,192,61677,1,0,1:0:0:0:
320,192,61846,1,0,0:0:0:0:
64,192,62014,1,8,0:3:0:0:
192,192,62182,1,0,1:0:0:0:
320,192,62350,1,8,0:3:0:0:
448,192,62518,1,8,0:3:0:0:
320,192,62686,1,4,0:0:0:0:
64,192,62686,128,4,63526:0:0:0:0:
448,192,63526,1,0,1:0:0:0:
192,192,63862,1,8,0:3:0:0:
320,192,64114,1,0,0:0:0:0:
64,192,64367,1,0,1:0:0:0:
192,192,64535,1,0,0:0:0:0:
448,192,64703,1,8,0:3:0:0:
320,192,64871,1,8,0:3:0:0:
192,192,65039,1,0,1:0:0:0:
64,192,65207,1,8,0:3:0:0:
192,192,65375,1,8,0:3:0:0:
448,192,65375,128,4,66215:0:0:0:0:
64,192,66215,1,0,1:0:0:0:
320,192,66551,128,8,66888:0:3:0:0:
192,192,66888,128,0,67224:0:0:0:0:
448,192,67224,1,0,0:0:0:0:
320,192,67476,1,0,0:0:0:0:
192,192,67728,1,8,0:3:0:0:
64,192,67896,1,8,0:3:0:0:
320,192,68064,1,4,0:0:0:0:
448,192,68064,128,4,68904:0:0:0:0:
192,192,68904,1,0,1:0:0:0:
64,192,69241,1,8,0:3:0:0:
448,192,69241,1,4,0:0:0:0:
192,192,69577,1,8,0:3:0:0:
320,192,69577,1,4,0:0:0:0:
64,192,69913,1,8,0:3:0:0:
448,192,69913,1,4,0:0:0:0:
320,192,70249,1,8,0:3:0:0:
192,192,70417,1,0,0:0:0:0:
64,192,70585,128,4,71930:0:0:0:0:
448,192,70585,1,0,0:0:0:0:
320,192,71930,1,8,0:3:0:0:
192,192,72182,1,0,0:0:0:0:
448,192,72434,1,0,1:0:0:0:
320,192,72602,1,0,0:0:0:0:
192,192,72770,1,8,0:3:0:0:
64,192,72938,1,0,1:0:0:0:
448,192,73106,1,0,1:0:0:0:
64,192,73442,1,4,0:0:0:0:
320,192,73442,1,4,0:0:0:0:
192,192,73946,1,0,0:0:0:0:
320,192,74283,1,0,1:0:0:0:
448,192,74619,1,8,0:3:0:0:
320,192,74871,1,0,0:0:0:0:
448,192,75123,1,0,1:0:0:0:
320,192,75459,1,8,0:3:0:0:
64,192,75627,1,8,0:3:0:0:
192,192,75795,1,0,1:0:0:0:
320,192,75963,1,8,0:3:0:0:
192,192,76215,1,8,0:3:0:0:
448,192,76467,1,8,0:3:0:0:
64,192,76467,128,4,76972:0:0:0:0:
320,192,76972,1,0,1:0:0:0:
192,192,77140,1,8,0:3:0:0:
448,192,77308,128,8,77644:0:3:0:0:
320,192,77644,128,0,77980:0:0:0:0:
192,192,77980,128,0,78316:0:0:0:0:
64,192,78316,128,0,78652:1:0:0:0:
320,192,78652,1,8,0:3:0:0:
192,192,78904,1,0,0:0:0:0:
448,192,79156,128,0,79661:1:0:0:0:
320,192,79661,1,0,1:0:0:0:
64,192,79997,1,12,0:3:0:0:
448,192,80249,1,8,0:3:0:0:
64,192,80501,1,12,0:3:0:0:
448,192,80669,1,8,0:3:0:0:
192,192,80837,1,4,0:0:0:15:drum-hitfinish.wav
320,192,80837,1,4,0:0:0:15:drum-hitfinish.wav
64,192,81005,1,0,1:0:0:0:
320,192,81173,1,8,0:3:0:0:
192,192,81341,1,8,0:3:0:0:
448,192,81509,128,0,82350:0:0:0:0:
320,192,82350,1,0,1:0:0:0:
192,192,82518,1,8,0:3:0:0:
64,192,82686,1,8,0:3:0:0:
448,192,83022,1,0,0:0:0:0:
64,192,83358,1,0,0:0:0:0:
320,192,83694,1,0,1:0:0:0:
192,192,83862,1,0,0:0:0:0:
64,192,84030,1,8,0:3:0:0:
320,192,84283,1,0,0:0:0:0:
192,192,84535,128,0,85039:1:0:0:0:
320,192,85039,1,0,1:0:0:0:
192,192,85207,1,8,0:3:0:0:
64,192,85375,1,8,0:3:0:0:
64,192,85543,1,0,0:0:0:0:
192,192,85711,1,0,0:0:0:0:
192,192,85879,1,0,1:0:0:0:
320,192,86047,1,0,0:0:0:0:
320,192,86215,1,8,0:3:0:0:
448,192,86383,1,8,0:3:0:0:
448,192,86551,1,0,1:0:0:0:
192,192,86888,128,0,87728:0:0:0:0:
448,192,87392,1,0,0:0:0:0:
320,192,87728,1,0,1:0:0:0:
448,192,87896,1,8,0:3:0:0:
64,192,88064,1,8,0:3:0:0:
448,192,88400,1,0,0:0:0:0:
192,192,88736,1,0,0:0:0:0:
448,192,88904,1,8,0:3:0:0:
320,192,89072,1,0,1:0:0:0:
192,192,89241,1,0,1:0:0:0:
64,192,89409,1,8,0:3:0:0:
448,192,89745,1,0,0:0:0:0:
64,192,89913,1,0,0:0:0:0:
192,192,90081,1,0,0:0:0:0:
320,192,90249,1,8,0:3:0:0:
64,192,90417,128,0,90585:1:0:0:0:
448,192,90585,1,8,0:3:0:0:
192,192,90753,1,8,0:3:0:0:
64,192,90921,1,0,0:0:0:0:
320,192,91089,1,0,1:0:0:0:
448,192,91257,1,2,0:3:0:0:
64,192,91425,1,0,0:0:0:0:
320,192,91593,1,0,1:0:0:0:
192,192,91762,1,0,1:0:0:0:
64,192,91930,1,8,0:3:0:0:
320,192,92098,1,4,0:0:0:0:
448,192,92098,1,0,0:0:0:0:
64,192,92266,128,0,93106:0:0:0:0:
192,192,93106,1,0,1:0:0:0:
320,192,93274,1,8,0:3:0:0:
448,192,93442,1,8,0:3:0:0:
64,192,93778,1,0,0:0:0:0:
448,192,94114,1,0,0:0:0:0:
192,192,94451,1,0,1:0:0:0:
320,192,94619,1,0,1:0:0:0:
448,192,94787,1,8,0:3:0:0:
192,192,95039,1,0,0:0:0:0:
320,192,95291,128,0,95795:1:0:0:0:
192,192,95795,1,0,1:0:0:0:
320,192,95963,1,8,0:3:0:0:
448,192,96131,1,8,0:3:0:0:
448,192,96299,1,0,0:0:0:0:
320,192,96467,1,0,0:0:0:0:
320,192,96635,1,0,1:0:0:0:
192,192,96804,1,0,0:0:0:0:
192,192,96972,1,8,0:3:0:0:
64,192,97140,1,8,0:3:0:0:
64,192,97308,1,0,1:0:0:0:
320,192,97644,128,0,98148:0:0:0:0:
64,192,98148,1,0,0:0:0:0:
192,192,98484,1,0,1:0:0:0:
448,192,98820,1,8,0:3:0:0:
320,192,98988,1,0,0:0:0:0:
192,192,99156,1,0,0:0:0:0:
64,192,99325,1,0,1:0:0:0:
320,192,99493,1,0,0:0:0:0:
192,192,99661,1,8,0:3:0:0:
448,192,99829,1,0,1:0:0:0:
320,192,99997,1,0,1:0:0:0:
192,192,100165,1,8,0:3:0:0:
448,192,100333,1,4,0:0:0:0:
64,192,100333,128,4,100837:0:0:0:0:
320,192,100837,1,0,0:0:0:0:
192,192,101005,1,8,0:3:0:0:
448,192,101173,128,0,101341:1:0:0:0:
64,192,101341,1,8,0:3:0:0:
320,192,101509,1,8,0:3:0:0:
448,192,101677,1,0,0:0:0:0:
192,192,101846,1,0,1:0:0:0:
320,192,102014,1,8,0:3:0:0:
448,192,102014,1,4,0:0:0:0:
64,192,102182,1,8,0:3:0:0:
448,192,102350,1,8,0:3:0:0:
192,192,102518,1,8,0:3:0:0:
320,192,102686,1,8,0:3:0:0:
64,192,102854,1,8,0:3:0:0:
192,192,102854,1,4,0:0:0:0:
448,192,103106,1,0,0:0:0:0:
64,192,103358,1,0,1:0:0:0:
448,192,103862,1,0,1:0:0:0:
320,192,104198,1,0,0:0:0:0:
192,192,104535,1,0,0:0:0:0:
64,192,104871,1,0,0:0:0:0:
448,192,105207,1,0,1:0:0:0:
320,192,105375,1,0,1:0:0:0:
448,192,105543,1,8,0:3:0:0:
192,192,105879,1,0,0:0:0:0:
448,192,106131,1,0,0:0:0:0:
320,192,106383,1,0,0:0:0:0:
64,192,106551,1,0,1:0:0:0:
192,192,106720,1,0,0:0:0:0:
64,192,106888,1,0,0:0:0:0:
320,192,107224,1,0,0:0:0:0:
192,192,107476,1,0,0:0:0:0:
320,192,107728,1,0,0:0:0:0:
448,192,107896,1,0,1:0:0:0:
320,192,108064,1,8,0:3:0:0:
448,192,108400,1,8,0:3:0:0:
64,192,108400,128,4,108904:0:0:0:0:
192,192,108904,1,0,0:0:0:0:
448,192,109241,1,0,1:0:0:0:
320,192,109409,1,0,0:0:0:0:
192,192,109577,1,0,0:0:0:0:
64,192,109745,1,0,0:0:0:0:
448,192,109913,1,0,0:0:0:0:
64,192,110249,1,0,0:0:0:0:
320,192,110585,1,0,1:0:0:0:
192,192,110753,1,0,1:0:0:0:
448,192,110921,128,8,111257:0:3:0:0:
320,192,111257,128,0,111593:0:0:0:0:
192,192,111593,1,0,0:0:0:0:
320,192,111930,1,0,1:0:0:0:
64,192,112266,1,0,0:0:0:0:
192,192,112434,1,0,0:0:0:0:
448,192,112602,1,0,0:0:0:0:
320,192,112770,1,0,1:0:0:0:
64,192,112938,1,0,0:0:0:0:
448,192,113106,1,8,0:3:0:0:
192,192,113274,1,8,0:3:0:0:
320,192,113442,1,8,0:3:0:0:
64,192,113610,1,8,0:3:0:0:
192,192,113610,1,4,0:0:0:0:
320,192,113862,1,0,0:0:0:0:
192,192,114114,128,0,114619:1:0:0:0:
448,192,114619,1,0,1:0:0:0:
64,192,114787,1,8,0:3:0:0:
192,192,114955,1,8,0:3:0:0:
448,192,115123,1,0,0:0:0:0:
320,192,115291,1,0,0:0:0:0:
64,192,115459,1,0,1:0:0:0:
192,192,115627,1,0,0:0:0:0:
448,192,115795,1,0,0:0:0:0:
320,192,115963,1,0,1:0:0:0:
64,192,116131,1,0,1:0:0:0:
192,192,116299,1,8,0:3:0:0:
320,192,116579,1,0,0:0:0:0:
64,192,116804,1,0,1:0:0:0:
448,192,116972,128,0,117308:0:0:0:0:
192,192,117308,1,0,1:0:0:0:
320,192,117476,1,8,0:3:0:0:
64,192,117644,128,8,117980:0:3:0:0:
192,192,117980,128,0,118316:0:0:0:0:
448,192,118316,1,0,0:0:0:0:
320,192,118568,1,0,0:0:0:0:
192,192,118820,1,8,0:3:0:0:
64,192,119156,1,4,0:0:0:0:
320,192,119156,1,4,0:0:0:0:
448,192,119325,1,0,0:0:0:0:
64,192,119661,1,0,0:0:0:0:
448,192,119997,1,0,1:0:0:0:
320,192,120165,1,8,0:3:0:0:
192,192,120333,1,8,0:3:0:0:
64,192,120501,1,0,0:0:0:0:
448,192,120669,1,0,0:0:0:0:
64,192,121005,1,0,0:0:0:0:
320,192,121341,1,0,1:0:0:0:
192,192,121509,1,0,1:0:0:0:
448,192,121677,128,8,122014:0:3:0:0:
320,192,122014,128,0,122350:0:0:0:0:
192,192,122350,128,0,122686:0:0:0:0:
64,192,122686,1,0,1:0:0:0:
320,192,122854,1,0,0:0:0:0:
64,192,123022,1,4,0:0:0:0:
448,192,123022,1,4,0:0:0:0:
192,192,123274,1,8,0:3:0:0:
320,192,123274,1,0,0:0:0:0:
64,192,123526,1,8,0:3:0:0:
448,192,123526,1,0,0:0:0:0:
192,192,123778,1,8,0:3:0:0:
320,192,123778,1,0,0:0:0:0:
64,192,124030,1,8,3:0:0:0:
192,192,124030,1,0,0:0:0:0:
448,192,124198,1,8,0:3:0:0:
320,192,124198,1,0,0:0:0:0:
192,192,124367,1,8,0:3:0:0:
64,192,124367,1,0,0:0:0:0:
192,192,124619,1,8,0:3:0:0:
320,192,124619,1,0,0:0:0:0:
64,192,124871,1,8,0:3:0:0:
448,192,124871,1,0,0:0:0:0:
192,192,125123,1,8,0:3:0:0:
320,192,125123,1,0,0:0:0:0:
64,192,125375,1,8,0:3:0:0:
448,192,125375,1,0,0:0:0:0:
64,192,127392,1,4,0:0:0:15:drum-hitfinish.wav
192,192,127392,1,4,0:0:0:15:drum-hitfinish.wav
320,192,127392,1,4,0:0:0:15:drum-hitfinish.wav
448,192,127392,1,4,0:0:0:15:drum-hitfinish.wav
