osu file format v14

[General]
AudioFilename: 1337.mp3
AudioLeadIn: 1650
PreviewTime: 79997
Countdown: 0
SampleSet: Soft
StackLeniency: 0.7
Mode: 3
LetterboxInBreaks: 0
SpecialStyle: 0
WidescreenStoryboard: 0

[Editor]
Bookmarks: 31930,36972,73946,113190
DistanceSpacing: 1
BeatDivisor: 4
GridSize: 8
TimelineZoom: 1.8

[Metadata]
Title:.357 Magnum
TitleUnicode:.357 Magnum
Artist:xi
ArtistUnicode:xi
Creator:Akali
Version:4K Another
Source:BMS
Tags:sayaka- dialgadu77 tidek EXTREMEBEAT piano jazz
BeatmapID:433150
BeatmapSetID:155749

[Difficulty]
HPDrainRate:9
CircleSize:4
OverallDifficulty:9
ApproachRate:9
SliderMultiplier:2.00000000596046
SliderTickRate:2

[Events]
//Background and Video events
0,0,"lincoln.jpg",0,0
//Break Periods
//Storyboard Layer 0 (Background)
//Storyboard Layer 1 (Fail)
//Storyboard Layer 2 (Pass)
//Storyboard Layer 3 (Foreground)
//Storyboard Sound Samples

[TimingPoints]
669.585365853658,336.134453781513,4,2,0,60,1,0
13106,-100,4,3,1,60,0,0
13442,-100,4,2,0,60,0,0
80837,-100,4,3,1,60,0,0
81005,-100,4,2,0,60,0,0
113610,-100,4,2,0,60,0,1
123022,-100,4,2,0,60,0,0
127392,-100,4,3,1,60,0,0

[Colours]
Combo1 : 105,105,105
Combo2 : 160,82,45
Combo3 : 139,125,123
Combo4 : 205,190,112

[HitObjects]
64,192,669,128,0,2014:0:0:0:0:
448,192,669,1,0,0:0:0:0:
192,192,2014,128,0,2350:0:0:0:0:
320,192,2014,1,0,0:0:0:0:
448,192,2014,1,0,0:0:0:0:
320,192,2350,1,0,0:0:0:0:
448,192,2350,1,0,0:0:0:0:
64,192,2518,1,0,1:0:0:0:
192,192,2602,1,0,1:0:0:0:
320,192,2686,1,8,0:3:0:0:
448,192,2686,1,0,1:0:0:0:
192,192,2770,1,8,0:3:0:0:
64,192,2770,1,0,0:0:0:0:
320,192,2854,1,8,0:3:0:0:
448,192,2854,1,0,0:0:0:0:
64,192,2938,1,0,0:0:0:0:
192,192,2938,1,8,0:3:0:0:
64,192,3022,1,8,0:3:0:0:
448,192,3022,1,8,0:3:0:0:
320,192,3106,1,8,0:3:0:0:
192,192,3106,1,8,0:3:0:0:
64,192,3190,1,8,0:3:0:0:
448,192,3190,1,8,0:3:0:0:
320,192,3274,1,8,0:3:0:0:
192,192,3274,1,8,0:3:0:0:
64,192,3358,1,4,0:0:0:0:
192,192,3358,1,4,0:0:0:0:
448,192,3358,1,8,0:3:0:0:
320,192,3526,1,0,0:0:0:0:
448,192,3610,1,0,0:0:0:0:
64,192,3694,1,0,0:0:0:0:
320,192,3862,1,0,1:0:0:0:
448,192,3862,1,0,0:0:0:0:
192,192,3946,1,0,0:0:0:0:
320,192,4030,1,0,0:0:0:0:
64,192,4198,1,0,0:0:0:0:
192,192,4283,1,0,0:0:0:0:
320,192,4367,1,0,1:0:0:0:
448,192,4367,1,0,0:0:0:0:
448,192,4535,1,0,0:0:0:0:
320,192,4619,1,0,0:0:0:0:
192,192,4703,1,0,0:0:0:0:
320,192,4871,1,0,0:0:0:0:
192,192,4955,1,0,0:0:0:0:
64,192,5039,1,0,0:0:0:0:
320,192,5207,1,0,1:0:0:0:
448,192,5207,1,0,0:0:0:0:
192,192,5291,1,0,0:0:0:0:
64,192,5375,1,0,0:0:0:0:
320,192,5543,1,0,0:0:0:0:
192,192,5627,1,0,0:0:0:0:
64,192,5711,1,0,0:0:0:0:
448,192,5711,1,0,1:0:0:0:
320,192,5711,1,0,1:0:0:0:
192,192,5879,1,0,1:0:0:0:
64,192,5879,1,0,1:0:0:0:
448,192,5879,1,0,0:0:0:0:
64,192,6047,1,0,0:0:0:0:
448,192,6047,1,0,0:0:0:0:
320,192,6215,1,0,0:0:0:0:
448,192,6299,1,0,0:0:0:0:
192,192,6383,1,0,0:0:0:0:
64,192,6467,1,0,0:0:0:0:
320,192,6551,1,0,1:0:0:0:
448,192,6551,1,0,0:0:0:0:
192,192,6635,1,0,0:0:0:0:
448,192,6720,1,0,0:0:0:0:
64,192,6888,1,0,0:0:0:0:
192,192,6972,1,0,0:0:0:0:
64,192,7056,1,0,0:0:0:0:
448,192,7056,1,0,1:0:0:0:
64,192,7224,1,0,0:0:0:0:
320,192,7308,1,0,0:0:0:0:
192,192,7392,1,0,0:0:0:0:
320,192,7560,1,0,0:0:0:0:
192,192,7644,1,0,0:0:0:0:
448,192,7728,1,0,0:0:0:0:
320,192,7812,1,0,0:0:0:0:
64,192,7896,1,0,0:0:0:0:
192,192,7896,1,0,1:0:0:0:
448,192,7980,1,0,0:0:0:0:
320,192,8064,1,0,0:0:0:0:
192,192,8232,1,0,0:0:0:0:
448,192,8232,1,0,0:0:0:0:
320,192,8400,1,0,1:0:0:0:
64,192,8400,128,0,8904:0:0:0:0:
448,192,8568,1,0,0:0:0:0:
320,192,8652,1,8,0:3:0:0:
192,192,8652,1,0,0:0:0:0:
192,192,8736,1,0,0:0:0:0:
320,192,8736,1,8,0:3:0:0:
192,192,8904,1,4,0:0:0:0:
320,192,8904,1,0,0:0:0:0:
448,192,8904,128,0,9409:0:0:0:0:
64,192,8988,1,0,0:0:0:0:
192,192,9072,1,0,0:0:0:0:
320,192,9241,1,0,0:0:0:0:
192,192,9325,1,0,1:0:0:0:
64,192,9409,1,0,0:0:0:0:
320,192,9409,1,0,0:0:0:0:
192,192,9577,1,0,0:0:0:0:
64,192,9745,1,0,0:0:0:0:
448,192,9745,1,0,1:0:0:0:
320,192,9829,1,0,0:0:0:0:
192,192,9913,1,0,0:0:0:0:
64,192,9997,1,0,0:0:0:0:
448,192,10081,1,0,0:0:0:0:
192,192,10081,1,0,0:0:0:0:
320,192,10165,1,0,0:0:0:0:
192,192,10249,1,0,0:0:0:0:
320,192,10333,1,0,0:0:0:0:
448,192,10333,1,0,0:0:0:0:
64,192,10417,1,0,0:0:0:0:
192,192,10417,1,0,0:0:0:0:
448,192,10585,1,0,1:0:0:0:
64,192,10585,1,0,0:0:0:0:
320,192,10669,1,0,0:0:0:0:
192,192,10669,1,0,0:0:0:0:
192,192,10921,1,0,0:0:0:0:
320,192,10921,1,0,0:0:0:0:
64,192,11089,1,0,0:0:0:0:
192,192,11089,1,0,1:0:0:0:
320,192,11173,1,0,0:0:0:0:
192,192,11257,1,0,1:0:0:0:
448,192,11257,1,0,0:0:0:0:
320,192,11341,1,0,0:0:0:0:
64,192,11425,1,0,0:0:0:0:
192,192,11425,1,0,0:0:0:0:
448,192,11593,1,0,0:0:0:0:
320,192,11677,1,0,0:0:0:0:
64,192,11762,1,0,0:0:0:0:
192,192,11762,1,0,0:0:0:0:
192,192,11930,1,0,0:0:0:0:
320,192,11930,1,0,1:0:0:0:
64,192,12098,1,0,0:0:0:0:
448,192,12098,1,0,0:0:0:0:
320,192,12182,1,0,0:0:0:0:
192,192,12266,1,0,0:0:0:0:
64,192,12350,1,0,0:0:0:0:
320,192,12434,1,0,0:0:0:0:
448,192,12434,1,0,0:0:0:0:
192,192,12602,1,0,0:0:0:0:
320,192,12686,1,0,1:0:0:0:
448,192,12686,1,0,0:0:0:0:
64,192,12770,1,0,0:0:0:0:
192,192,12770,1,0,1:0:0:0:
64,192,13106,1,4,0:0:0:15:drum-hitfinish.wav
192,192,13106,1,4,0:0:0:15:drum-hitfinish.wav
320,192,13106,1,4,0:0:0:15:drum-hitfinish.wav
448,192,13106,1,4,0:0:0:15:drum-hitfinish.wav
64,192,13442,1,0,0:0:0:0:
192,192,13442,1,8,0:3:0:0:
320,192,13526,1,0,0:0:0:0:
448,192,13610,1,0,0:0:0:0:
320,192,13694,1,0,0:0:0:0:
64,192,13778,1,0,0:0:0:0:
192,192,13778,1,8,0:3:0:0:
320,192,13862,1,8,0:3:0:0:
448,192,13862,1,0,0:0:0:0:
64,192,13946,1,0,0:0:0:0:
192,192,13946,1,8,0:3:0:0:
448,192,14030,1,0,0:0:0:0:
320,192,14030,1,8,0:3:0:0:
64,192,14114,1,0,0:0:0:0:
192,192,14114,1,4,0:0:0:0:
320,192,14114,1,8,0:3:0:0:
448,192,14283,1,0,0:0:0:0:
320,192,14367,1,0,0:0:0:0:
192,192,14451,1,0,0:0:0:0:
320,192,14619,1,0,0:0:0:0:
448,192,14619,1,0,1:0:0:0:
64,192,14703,1,0,0:0:0:0:
192,192,14787,1,0,0:0:0:0:
448,192,14955,1,8,0:3:0:0:
320,192,15039,1,0,0:0:0:0:
64,192,15123,1,0,0:0:0:0:
192,192,15123,1,0,1:0:0:0:
320,192,15291,1,8,0:3:0:0:
192,192,15291,1,0,0:0:0:0:
64,192,15459,1,0,0:0:0:0:
448,192,15459,1,8,0:3:0:0:
320,192,15627,1,0,0:0:0:0:
448,192,15711,1,0,0:0:0:0:
64,192,15795,1,0,0:0:0:0:
192,192,15795,1,0,0:0:0:0:
320,192,15963,1,0,1:0:0:0:
64,192,15963,1,0,0:0:0:0:
192,192,16047,1,0,0:0:0:0:
320,192,16131,1,0,0:0:0:0:
448,192,16131,1,0,0:0:0:0:
64,192,16299,1,8,0:3:0:0:
192,192,16383,1,0,0:0:0:0:
320,192,16467,1,8,1:3:0:0:
448,192,16467,1,0,0:0:0:0:
192,192,16635,1,0,0:0:0:0:
320,192,16635,1,0,1:0:0:0:
64,192,16635,1,0,0:0:0:0:
64,192,16804,1,0,0:0:0:0:
448,192,16804,1,8,0:3:0:0:
320,192,16972,1,0,0:0:0:0:
192,192,17056,1,0,0:0:0:0:
64,192,17056,1,0,0:0:0:0:
448,192,17140,1,0,0:0:0:0:
64,192,17308,1,0,0:0:0:0:
192,192,17308,1,0,1:0:0:0:
448,192,17392,1,0,0:0:0:0:
320,192,17476,1,0,0:0:0:0:
64,192,17644,1,8,0:3:0:0:
192,192,17728,1,0,0:0:0:0:
320,192,17812,1,0,1:0:0:0:
448,192,17812,1,0,0:0:0:0:
64,192,17896,1,0,0:0:0:0:
192,192,17980,1,8,0:3:0:0:
320,192,18064,1,0,0:0:0:0:
448,192,18148,1,0,0:0:0:0:
192,192,18148,1,8,0:3:0:0:
64,192,18316,1,0,0:0:0:0:
320,192,18316,1,0,0:0:0:0:
192,192,18400,1,0,0:0:0:0:
320,192,18484,1,0,0:0:0:0:
448,192,18484,1,0,0:0:0:0:
64,192,18652,1,0,0:0:0:0:
192,192,18652,1,0,0:0:0:0:
320,192,18652,1,0,1:0:0:0:
320,192,18820,1,0,0:0:0:0:
448,192,18820,1,0,0:0:0:0:
64,192,18988,1,0,0:0:0:0:
192,192,18988,1,0,0:0:0:0:
320,192,18988,1,8,0:3:0:0:
192,192,19156,1,0,0:0:0:0:
448,192,19156,1,8,0:3:0:0:
64,192,19156,1,0,0:0:0:0:
64,192,19325,1,0,0:0:0:0:
320,192,19325,1,0,1:0:0:0:
448,192,19325,1,0,0:0:0:0:
448,192,19493,1,8,0:3:0:0:
64,192,19493,1,0,0:0:0:0:
192,192,19661,1,0,0:0:0:0:
64,192,19661,128,0,20501:0:0:0:0:
320,192,19745,1,0,0:0:0:0:
192,192,19829,1,0,0:0:0:0:
448,192,19997,1,0,1:0:0:0:
320,192,19997,1,0,0:0:0:0:
192,192,20081,1,0,0:0:0:0:
448,192,20165,1,0,0:0:0:0:
320,192,20249,1,0,0:0:0:0:
192,192,20333,1,8,0:3:0:0:
448,192,20417,1,0,0:0:0:0:
320,192,20501,1,0,1:0:0:0:
192,192,20501,1,0,0:0:0:0:
64,192,20585,1,0,0:0:0:0:
192,192,20669,1,8,0:3:0:0:
320,192,20753,1,0,0:0:0:0:
64,192,20837,1,8,0:3:0:0:
448,192,20837,1,0,0:0:0:0:
192,192,20921,1,0,0:0:0:0:
320,192,21005,1,0,0:0:0:0:
448,192,21089,1,0,0:0:0:0:
64,192,21173,1,0,0:0:0:0:
192,192,21173,1,0,0:0:0:0:
320,192,21257,1,0,0:0:0:0:
64,192,21341,1,0,0:0:0:0:
448,192,21341,1,0,1:0:0:0:
192,192,21425,1,0,0:0:0:0:
448,192,21509,1,0,0:0:0:0:
320,192,21509,1,0,0:0:0:0:
192,192,21593,1,0,0:0:0:0:
64,192,21677,1,8,0:3:0:0:
448,192,21677,1,0,0:0:0:0:
320,192,21762,1,0,0:0:0:0:
64,192,21846,1,0,0:0:0:0:
192,192,21846,1,0,1:0:0:0:
448,192,21930,1,0,0:0:0:0:
320,192,21930,1,0,0:0:0:0:
64,192,22014,1,0,0:0:0:0:
192,192,22014,1,0,1:0:0:0:
448,192,22098,1,0,0:0:0:0:
320,192,22098,1,0,0:0:0:0:
64,192,22182,1,0,0:0:0:0:
192,192,22182,1,8,0:3:0:0:
64,192,22350,1,0,0:0:0:0:
448,192,22350,1,2,0:3:0:0:
320,192,22518,1,0,0:0:0:0:
192,192,22602,1,0,0:0:0:0:
320,192,22686,1,0,1:0:0:0:
448,192,22686,1,0,0:0:0:0:
64,192,22770,1,0,0:0:0:0:
448,192,22854,1,0,0:0:0:0:
320,192,22938,1,0,0:0:0:0:
192,192,23022,1,8,0:3:0:0:
64,192,23106,1,0,0:0:0:0:
192,192,23190,1,0,1:0:0:0:
448,192,23190,1,0,0:0:0:0:
320,192,23274,1,0,0:0:0:0:
448,192,23358,1,8,0:3:0:0:
64,192,23358,1,0,0:0:0:0:
192,192,23442,1,0,0:0:0:0:
320,192,23526,1,8,0:3:0:0:
448,192,23526,1,0,0:0:0:0:
192,192,23610,1,0,0:0:0:0:
320,192,23694,1,0,0:0:0:0:
448,192,23778,1,0,0:0:0:0:
64,192,23862,1,0,0:0:0:0:
320,192,23862,1,0,1:0:0:0:
192,192,23946,1,0,0:0:0:0:
320,192,24030,1,2,0:3:0:0:
448,192,24030,1,8,0:3:0:0:
192,192,24114,1,0,0:0:0:0:
64,192,24198,1,0,0:0:0:0:
448,192,24198,1,0,1:0:0:0:
320,192,24367,1,0,0:0:0:0:
192,192,24367,1,0,0:0:0:0:
448,192,24535,1,0,0:0:0:0:
320,192,24535,1,8,1:3:0:0:
192,192,24619,1,8,0:3:0:0:
64,192,24619,1,0,0:0:0:0:
448,192,24703,1,0,0:0:0:0:
320,192,24703,1,8,0:3:0:0:
64,192,24787,1,8,0:3:0:0:
192,192,24787,1,0,0:0:0:0:
320,192,24871,1,4,0:0:0:0:
448,192,24871,1,0,0:0:0:0:
192,192,24871,1,8,0:3:0:0:
64,192,25039,128,0,25879:0:0:0:0:
320,192,25123,1,0,0:0:0:0:
448,192,25207,1,0,0:0:0:0:
320,192,25375,1,0,1:0:0:0:
192,192,25375,1,0,0:0:0:0:
448,192,25459,1,0,0:0:0:0:
320,192,25543,1,0,0:0:0:0:
448,192,25711,1,8,0:3:0:0:
320,192,25795,1,0,0:0:0:0:
192,192,25879,1,0,1:0:0:0:
448,192,25879,1,0,0:0:0:0:
320,192,26047,1,8,0:3:0:0:
64,192,26047,1,0,0:0:0:0:
192,192,26131,1,0,0:0:0:0:
320,192,26215,1,8,0:3:0:0:
448,192,26215,1,0,0:0:0:0:
64,192,26383,1,0,0:0:0:0:
192,192,26467,1,0,0:0:0:0:
320,192,26551,1,0,0:0:0:0:
448,192,26551,1,0,0:0:0:0:
192,192,26720,1,0,1:0:0:0:
448,192,26720,1,0,0:0:0:0:
320,192,26804,1,0,0:0:0:0:
64,192,26888,1,0,0:0:0:0:
192,192,26888,1,0,0:0:0:0:
448,192,27056,1,8,0:3:0:0:
320,192,27140,1,0,0:0:0:0:
64,192,27224,1,0,0:0:0:0:
192,192,27224,1,0,1:0:0:0:
192,192,27392,1,8,0:3:0:0:
320,192,27392,1,0,1:0:0:0:
448,192,27392,1,0,0:0:0:0:
64,192,27560,1,8,0:3:0:0:
448,192,27560,1,0,0:0:0:0:
320,192,27728,1,0,0:0:0:0:
64,192,27812,1,0,0:0:0:0:
192,192,27812,1,0,0:0:0:0:
448,192,27896,1,0,0:0:0:0:
64,192,28064,1,0,0:0:0:0:
192,192,28064,1,0,1:0:0:0:
448,192,28148,1,0,0:0:0:0:
320,192,28232,1,0,0:0:0:0:
64,192,28400,1,8,0:3:0:0:
192,192,28484,1,0,0:0:0:0:
320,192,28568,1,0,1:0:0:0:
448,192,28568,1,0,0:0:0:0:
64,192,28652,1,0,0:0:0:0:
192,192,28736,1,8,0:3:0:0:
448,192,28736,1,0,0:0:0:0:
64,192,28820,1,0,0:0:0:0:
448,192,28904,1,0,0:0:0:0:
320,192,28904,1,8,0:3:0:0:
64,192,29072,1,0,0:0:0:0:
320,192,29072,1,0,0:0:0:0:
192,192,29156,1,0,0:0:0:0:
320,192,29241,1,0,0:0:0:0:
448,192,29241,1,0,0:0:0:0:
64,192,29409,1,0,0:0:0:0:
192,192,29409,1,0,0:0:0:0:
320,192,29409,1,0,1:0:0:0:
320,192,29577,1,0,0:0:0:0:
448,192,29577,1,0,0:0:0:0:
64,192,29745,1,0,0:0:0:0:
192,192,29745,1,0,0:0:0:0:
320,192,29745,1,8,0:3:0:0:
64,192,29913,1,0,0:0:0:0:
320,192,29913,1,8,0:3:0:0:
448,192,29913,1,0,0:0:0:0:
192,192,30081,1,0,0:0:0:0:
64,192,30081,1,0,1:0:0:0:
448,192,30081,1,0,0:0:0:0:
64,192,30249,1,2,0:3:0:0:
448,192,30249,1,0,0:0:0:0:
320,192,30417,1,0,0:0:0:0:
448,192,30417,128,0,30921:0:0:0:0:
192,192,30501,1,0,0:0:0:0:
64,192,30585,1,0,0:0:0:0:
192,192,30753,1,0,1:0:0:0:
64,192,30753,1,0,0:0:0:0:
320,192,30837,1,0,0:0:0:0:
64,192,30921,1,0,0:0:0:0:
192,192,30921,1,0,0:0:0:0:
320,192,31005,1,0,0:0:0:0:
192,192,31089,1,8,0:3:0:0:
64,192,31173,1,0,0:0:0:0:
320,192,31257,1,0,1:0:0:0:
448,192,31257,1,0,0:0:0:0:
192,192,31341,1,0,0:0:0:0:
320,192,31425,1,8,0:3:0:0:
448,192,31509,1,0,0:0:0:0:
64,192,31593,1,0,0:0:0:0:
320,192,31593,1,8,0:3:0:0:
192,192,31677,1,0,0:0:0:0:
448,192,31677,1,0,0:0:0:0:
64,192,31762,1,0,0:0:0:0:
320,192,31762,1,0,0:0:0:0:
192,192,31846,1,0,0:0:0:0:
448,192,31846,1,0,0:0:0:0:
64,192,31930,1,0,0:0:0:0:
320,192,31930,1,0,0:0:0:0:
64,192,32098,1,0,0:0:0:0:
448,192,32098,1,0,0:0:0:0:
192,192,32098,1,0,1:0:0:0:
192,192,32266,1,0,0:0:0:0:
320,192,32266,1,0,0:0:0:0:
64,192,32434,1,0,0:0:0:0:
448,192,32434,1,8,0:3:0:0:
320,192,32602,1,0,1:0:0:0:
448,192,32602,1,0,0:0:0:0:
64,192,32686,1,0,0:0:0:0:
192,192,32686,1,0,0:0:0:0:
320,192,32770,1,0,1:0:0:0:
448,192,32770,1,0,0:0:0:0:
64,192,32854,1,0,0:0:0:0:
192,192,32854,1,0,0:0:0:0:
320,192,32938,1,8,0:3:0:0:
448,192,32938,1,0,0:0:0:0:
64,192,33106,1,0,0:0:0:0:
192,192,33106,1,4,0:0:0:0:
448,192,33106,1,0,0:0:0:0:
320,192,33190,1,0,0:0:0:0:
448,192,33274,1,0,0:0:0:0:
64,192,33442,1,0,0:0:0:0:
320,192,33442,1,0,1:0:0:0:
192,192,33526,1,0,0:0:0:0:
320,192,33610,1,0,0:0:0:0:
448,192,33610,1,0,0:0:0:0:
192,192,33694,1,0,0:0:0:0:
64,192,33778,1,8,0:3:0:0:
192,192,33862,1,0,0:0:0:0:
320,192,33946,1,0,1:0:0:0:
448,192,33946,1,0,0:0:0:0:
64,192,34114,1,0,0:0:0:0:
320,192,34114,1,8,0:3:0:0:
192,192,34283,1,8,0:3:0:0:
448,192,34283,1,0,0:0:0:0:
320,192,34367,1,0,0:0:0:0:
192,192,34451,1,0,0:0:0:0:
64,192,34535,1,0,0:0:0:0:
192,192,34619,1,0,1:0:0:0:
448,192,34619,1,0,0:0:0:0:
64,192,34787,1,0,0:0:0:0:
192,192,34787,1,4,0:0:0:0:
320,192,34787,1,4,0:0:0:0:
192,192,34955,1,0,0:0:0:0:
320,192,34955,1,0,0:0:0:0:
448,192,34955,1,0,0:0:0:0:
64,192,35123,1,0,0:0:0:0:
448,192,35123,1,0,0:0:0:0:
320,192,35291,1,8,0:3:0:0:
448,192,35291,1,0,0:0:0:0:
64,192,35375,1,0,0:0:0:0:
192,192,35375,1,8,0:3:0:0:
320,192,35459,1,8,0:3:0:0:
448,192,35459,1,0,0:0:0:0:
64,192,35543,1,0,0:0:0:0:
192,192,35543,1,8,0:3:0:0:
320,192,35627,1,4,0:0:0:0:
448,192,35627,1,0,0:0:0:0:
192,192,35627,1,0,0:3:0:0:
192,192,35795,1,0,0:0:0:0:
320,192,35879,1,0,0:0:0:0:
448,192,35879,1,0,0:0:0:0:
64,192,35963,1,0,0:0:0:0:
320,192,36131,1,0,1:0:0:0:
448,192,36131,1,0,0:0:0:0:
64,192,36215,1,0,0:0:0:0:
192,192,36299,1,0,0:0:0:0:
448,192,36467,1,8,0:3:0:0:
320,192,36551,1,0,0:0:0:0:
64,192,36635,1,0,0:0:0:0:
192,192,36635,1,0,1:0:0:0:
320,192,36720,1,0,0:0:0:0:
64,192,36804,1,0,1:0:0:0:
448,192,36804,1,0,0:0:0:0:
192,192,36888,1,0,0:0:0:0:
448,192,36972,1,0,0:0:0:0:
320,192,36972,1,0,1:0:0:0:
448,192,37308,1,0,0:0:0:0:
192,192,37392,1,0,0:0:0:0:
320,192,37476,1,0,0:0:0:0:
64,192,37560,1,0,0:0:0:0:
192,192,37644,1,0,0:0:0:0:
320,192,37644,1,8,0:3:0:0:
448,192,37728,1,0,0:0:0:0:
320,192,37812,1,0,0:0:0:0:
448,192,37896,1,0,0:0:0:0:
64,192,37980,1,0,0:0:0:0:
192,192,37980,1,8,0:3:0:0:
320,192,38064,1,8,0:3:0:0:
448,192,38064,1,0,0:0:0:0:
192,192,38148,1,8,0:3:0:0:
64,192,38148,1,0,0:0:0:0:
448,192,38232,1,0,0:0:0:0:
320,192,38232,1,8,0:3:0:0:
64,192,38316,1,0,0:0:0:0:
192,192,38316,1,8,0:3:0:0:
320,192,38316,1,4,0:0:0:0:
448,192,38484,1,0,0:0:0:0:
320,192,38568,1,0,0:0:0:0:
192,192,38652,1,0,0:0:0:0:
320,192,38820,1,0,0:0:0:0:
448,192,38820,1,2,0:0:0:0:
192,192,38904,1,0,0:0:0:0:
64,192,38988,1,0,0:0:0:0:
448,192,39156,1,0,0:0:0:0:
64,192,39325,1,0,0:0:0:0:
320,192,39409,1,0,0:0:0:0:
192,192,39493,1,0,0:0:0:0:
448,192,39577,1,0,0:0:0:0:
64,192,39661,1,0,0:0:0:0:
448,192,39829,1,0,0:0:0:0:
320,192,39913,1,0,0:0:0:0:
448,192,39997,1,2,0:0:0:0:
192,192,39997,1,0,0:0:0:0:
64,192,40165,1,0,0:0:0:0:
448,192,40333,1,2,0:0:0:0:
320,192,40333,1,0,0:0:0:0:
192,192,40417,1,0,0:0:0:0:
320,192,40501,1,0,0:0:0:0:
64,192,40585,1,0,0:0:0:0:
448,192,40669,1,2,0:0:0:0:
320,192,40669,1,0,0:0:0:0:
64,192,40837,1,0,0:0:0:0:
192,192,40921,1,0,0:0:0:0:
320,192,41005,1,0,0:0:0:0:
448,192,41005,1,2,0:0:0:0:
64,192,41257,1,0,0:0:0:0:
192,192,41257,1,2,0:0:0:0:
448,192,41341,1,0,0:0:0:0:
192,192,41509,1,2,0:0:0:0:
64,192,41509,1,0,0:0:0:0:
448,192,41677,1,0,0:0:0:0:
320,192,41762,1,0,0:0:0:0:
64,192,41846,1,0,0:0:0:0:
448,192,42014,128,0,42182:0:0:0:0:
64,192,42182,1,0,0:0:0:0:
192,192,42266,1,0,0:0:0:0:
448,192,42350,1,0,0:0:0:0:
320,192,42434,1,0,0:0:0:0:
448,192,42518,1,0,0:0:0:0:
320,192,42602,1,0,0:0:0:0:
64,192,42686,1,0,0:0:0:0:
192,192,42770,1,0,0:0:0:0:
320,192,42854,1,0,0:0:0:0:
448,192,42938,128,0,43106:0:0:0:0:
64,192,43106,1,0,0:0:0:0:
192,192,43190,1,0,0:0:0:0:
320,192,43274,1,0,0:0:0:0:
448,192,43358,1,0,0:0:0:0:
64,192,43442,1,0,0:0:0:0:
192,192,43526,1,0,0:0:0:0:
448,192,43610,1,0,0:0:0:0:
64,192,43694,1,0,0:0:0:0:
192,192,43694,1,2,0:0:0:0:
320,192,43862,1,0,0:0:0:0:
192,192,43946,1,0,0:0:0:0:
64,192,44030,1,0,0:0:0:0:
448,192,44030,1,0,0:0:0:0:
448,192,44198,1,2,0:0:0:0:
320,192,44198,1,0,0:0:0:0:
64,192,44367,1,0,0:0:0:0:
192,192,44451,1,0,0:0:0:0:
320,192,44535,1,0,0:0:0:0:
448,192,44535,1,2,0:0:0:0:
448,192,44703,1,2,0:0:0:0:
64,192,44703,1,0,0:0:0:0:
320,192,44787,1,0,0:0:0:0:
64,192,44871,1,2,0:0:0:0:
192,192,44871,1,0,0:0:0:0:
320,192,44955,1,0,0:0:0:0:
64,192,45039,1,2,0:0:0:0:
448,192,45039,1,0,0:0:0:0:
448,192,45291,1,2,0:0:0:0:
320,192,45291,1,0,0:0:0:0:
64,192,45375,1,0,0:0:0:0:
192,192,45543,1,0,0:0:0:0:
320,192,45543,1,2,0:0:0:0:
448,192,45711,1,0,0:0:0:0:
320,192,45795,1,0,0:0:0:0:
192,192,45879,128,8,46047:0:3:0:0:
448,192,45879,1,0,0:0:0:0:
320,192,46047,128,8,46215:0:3:0:0:
64,192,46047,1,0,0:0:0:0:
192,192,46215,1,0,0:0:0:0:
448,192,46215,128,8,46383:0:3:0:0:
64,192,46383,1,8,0:3:0:0:
320,192,46383,1,2,0:0:0:0:
192,192,46635,1,2,0:0:0:0:
448,192,46635,1,0,0:0:0:0:
320,192,46720,1,0,0:0:0:0:
64,192,46888,1,2,0:0:0:0:
448,192,46888,1,0,0:0:0:0:
192,192,47056,1,0,0:0:0:0:
320,192,47140,1,0,0:0:0:0:
448,192,47224,1,0,0:0:0:0:
64,192,47392,1,0,0:0:0:0:
192,192,47476,1,0,0:0:0:0:
320,192,47560,1,0,0:0:0:0:
448,192,47644,1,0,0:0:0:0:
64,192,47728,1,0,0:0:0:0:
192,192,47728,1,2,0:0:0:0:
320,192,47896,1,0,0:0:0:0:
448,192,47980,1,0,0:0:0:0:
64,192,48064,1,0,0:0:0:0:
192,192,48064,1,2,0:0:0:0:
448,192,48232,1,0,0:0:0:0:
320,192,48316,1,0,0:0:0:0:
64,192,48400,1,0,0:0:0:0:
192,192,48400,1,2,0:0:0:0:
448,192,48568,1,0,0:0:0:0:
64,192,48736,1,0,0:0:0:0:
192,192,48736,1,8,0:3:0:0:
320,192,48820,1,0,0:0:0:0:
64,192,48904,1,0,0:0:0:0:
192,192,48904,1,8,0:3:0:0:
320,192,48988,1,8,0:3:0:0:
448,192,48988,1,0,0:0:0:0:
64,192,49072,1,0,0:0:0:0:
192,192,49072,1,8,0:3:0:0:
448,192,49072,1,4,0:0:0:0:
320,192,49241,1,0,0:0:0:0:
448,192,49325,1,0,0:0:0:0:
64,192,49409,1,0,0:0:0:0:
320,192,49577,1,0,0:0:0:0:
448,192,49577,1,2,0:0:0:0:
192,192,49661,1,0,0:0:0:0:
320,192,49745,1,0,0:0:0:0:
448,192,49913,1,0,0:0:0:0:
192,192,50081,1,2,0:0:0:0:
192,192,50165,1,2,0:0:0:0:
448,192,50249,1,0,0:0:0:0:
64,192,50333,1,2,0:0:0:0:
320,192,50417,1,2,0:0:0:0:
192,192,50438,1,2,0:0:0:0:
64,192,50459,1,2,0:0:0:0:
448,192,50585,1,0,0:0:0:0:
320,192,50669,1,0,0:0:0:0:
192,192,50753,1,2,0:0:0:0:
64,192,50753,1,0,0:0:0:0:
448,192,50921,1,0,0:0:0:0:
64,192,51089,1,0,0:0:0:0:
320,192,51089,1,2,0:0:0:0:
192,192,51173,1,0,0:0:0:0:
448,192,51257,1,0,0:0:0:0:
320,192,51341,1,0,0:0:0:0:
192,192,51425,1,2,0:0:0:0:
64,192,51425,1,0,0:0:0:0:
320,192,51593,1,0,0:0:0:0:
192,192,51677,1,0,0:0:0:0:
64,192,51762,1,0,0:0:0:0:
448,192,51762,1,2,0:0:0:0:
64,192,52014,1,0,0:0:0:0:
192,192,52014,1,2,0:0:0:0:
448,192,52098,1,0,0:0:0:0:
64,192,52266,1,0,0:0:0:0:
320,192,52266,1,2,0:0:0:0:
448,192,52434,1,0,0:0:0:0:
320,192,52518,1,0,0:0:0:0:
448,192,52602,1,0,0:0:0:0:
192,192,52770,1,0,0:0:0:0:
320,192,52770,1,2,0:0:0:0:
64,192,52938,1,0,0:0:0:0:
448,192,52938,1,2,0:0:0:0:
320,192,53022,1,0,0:0:0:0:
448,192,53106,1,0,0:0:0:0:
320,192,53190,1,0,0:0:0:0:
64,192,53274,1,0,0:0:0:0:
192,192,53358,1,0,0:0:0:0:
448,192,53442,1,0,0:0:0:0:
320,192,53526,1,0,0:0:0:0:
64,192,53610,1,0,0:0:0:0:
448,192,53694,128,0,53862:0:0:0:0:
192,192,53862,1,0,0:0:0:0:
64,192,53946,1,0,0:0:0:0:
192,192,54030,1,0,0:0:0:0:
448,192,54114,1,0,0:0:0:0:
192,192,54198,1,0,0:0:0:0:
320,192,54283,1,0,0:0:0:0:
192,192,54367,1,0,0:0:0:0:
320,192,54451,1,0,0:0:0:0:
448,192,54451,1,2,0:0:0:0:
64,192,54619,1,0,0:0:0:0:
320,192,54703,1,0,0:0:0:0:
192,192,54787,1,0,0:0:0:0:
320,192,54955,1,0,0:0:0:0:
448,192,54955,1,2,0:0:0:0:
64,192,55123,1,0,0:0:0:0:
320,192,55207,1,0,0:0:0:0:
64,192,55291,1,0,0:0:0:0:
192,192,55291,1,2,0:0:0:0:
448,192,55459,1,0,0:0:0:0:
320,192,55459,1,2,0:0:0:0:
192,192,55543,1,0,0:0:0:0:
64,192,55627,1,0,0:0:0:0:
448,192,55627,1,2,0:0:0:0:
192,192,55711,1,0,0:0:0:0:
448,192,55795,1,2,0:0:0:0:
320,192,55795,1,0,0:0:0:0:
64,192,56047,1,0,0:0:0:0:
192,192,56047,1,2,0:0:0:0:
448,192,56131,1,0,0:0:0:0:
64,192,56299,1,0,0:0:0:0:
320,192,56299,1,2,0:0:0:0:
448,192,56467,1,0,0:0:0:0:
192,192,56551,1,0,0:0:0:0:
320,192,56635,1,8,0:3:0:0:
64,192,56804,1,8,0:3:0:0:
192,192,56888,1,0,0:0:0:0:
320,192,56972,1,8,0:3:0:0:
192,192,57056,1,0,0:0:0:0:
320,192,57140,1,8,0:3:0:0:
448,192,57140,1,2,0:0:0:0:
64,192,57392,1,0,0:0:0:0:
448,192,57392,1,2,0:0:0:0:
192,192,57476,1,0,0:0:0:0:
320,192,57644,1,0,0:0:0:0:
448,192,57644,1,2,0:0:0:0:
64,192,57812,1,0,0:0:0:0:
320,192,57896,1,0,0:0:0:0:
192,192,57980,1,0,0:0:0:0:
448,192,58148,1,0,0:0:0:0:
64,192,58148,1,0,0:0:0:0:
192,192,58232,1,0,0:0:0:0:
320,192,58232,1,0,0:0:0:0:
448,192,58316,1,0,0:0:0:0:
64,192,58316,1,0,0:0:0:0:
192,192,58400,1,0,0:0:0:0:
320,192,58400,1,0,0:0:0:0:
448,192,58484,1,0,0:0:0:0:
64,192,58484,1,0,0:0:0:0:
192,192,58652,1,0,0:0:0:0:
320,192,58736,1,0,0:0:0:0:
192,192,58820,1,0,1:0:0:0:
448,192,58820,1,0,0:0:0:0:
64,192,58988,1,0,0:0:0:0:
320,192,58988,1,0,1:0:0:0:
320,192,59156,1,0,1:0:0:0:
448,192,59156,1,0,0:0:0:0:
192,192,59241,1,8,0:3:0:0:
64,192,59241,1,0,0:0:0:0:
320,192,59325,1,8,0:3:0:0:
448,192,59325,1,0,0:0:0:0:
192,192,59409,1,8,0:3:0:0:
64,192,59409,1,0,0:0:0:0:
448,192,59493,1,8,0:3:0:0:
64,192,59493,1,8,0:3:0:0:
192,192,59577,1,8,0:3:0:0:
320,192,59577,1,8,0:3:0:0:
64,192,59661,1,8,0:3:0:0:
448,192,59661,1,8,0:3:0:0:
192,192,59745,1,8,0:3:0:0:
320,192,59745,1,8,0:3:0:0:
64,192,59829,1,4,0:0:0:0:
192,192,59829,1,8,0:3:0:0:
448,192,59829,1,4,0:0:0:0:
448,192,59997,1,0,0:0:0:0:
320,192,59997,1,0,0:0:0:0:
192,192,60081,1,0,0:0:0:0:
64,192,60165,1,0,0:0:0:0:
64,192,60333,1,0,0:0:0:0:
192,192,60333,1,0,1:0:0:0:
320,192,60417,1,0,0:0:0:0:
448,192,60501,1,0,0:0:0:0:
64,192,60501,1,0,0:0:0:0:
192,192,60669,1,8,0:3:0:0:
64,192,60753,1,0,0:0:0:0:
320,192,60837,1,0,1:0:0:0:
448,192,60837,1,0,0:0:0:0:
64,192,61005,1,8,0:3:0:0:
192,192,61089,1,0,0:0:0:0:
448,192,61173,1,8,0:3:0:0:
320,192,61257,1,0,0:0:0:0:
192,192,61341,1,0,0:0:0:0:
64,192,61425,1,0,0:0:0:0:
448,192,61509,1,0,0:0:0:0:
320,192,61593,1,0,0:0:0:0:
64,192,61677,1,0,0:0:0:0:
192,192,61677,1,0,1:0:0:0:
320,192,61762,1,0,0:0:0:0:
448,192,61846,1,0,0:0:0:0:
320,192,61930,1,0,0:0:0:0:
192,192,62014,1,8,0:3:0:0:
64,192,62098,1,0,0:0:0:0:
320,192,62182,1,0,1:0:0:0:
448,192,62182,1,0,0:0:0:0:
192,192,62266,1,0,0:0:0:0:
320,192,62350,1,8,0:3:0:0:
448,192,62434,1,0,0:0:0:0:
64,192,62518,1,8,0:3:0:0:
192,192,62686,1,0,0:0:0:0:
320,192,62686,1,4,0:0:0:0:
448,192,62686,1,0,0:0:0:0:
64,192,62770,1,0,0:0:0:0:
320,192,62854,1,0,0:0:0:0:
64,192,63022,1,0,0:0:0:0:
192,192,63022,1,0,1:0:0:0:
320,192,63106,1,0,0:0:0:0:
448,192,63190,1,0,0:0:0:0:
192,192,63358,1,8,0:3:0:0:
320,192,63442,1,0,0:0:0:0:
192,192,63526,1,0,1:0:0:0:
64,192,63526,1,0,0:0:0:0:
448,192,63610,1,0,0:0:0:0:
64,192,63694,1,8,0:3:0:0:
192,192,63750,1,0,0:0:0:0:
320,192,63806,1,0,0:0:0:0:
448,192,63862,1,8,0:3:0:0:
64,192,64030,1,0,0:0:0:0:
192,192,64114,1,0,0:0:0:0:
320,192,64114,1,0,0:0:0:0:
448,192,64283,1,0,0:0:0:0:
64,192,64367,1,0,0:0:0:0:
320,192,64367,1,0,1:0:0:0:
320,192,64535,1,0,0:0:0:0:
192,192,64535,1,0,0:0:0:0:
448,192,64535,1,0,0:0:0:0:
64,192,64703,1,0,0:0:0:0:
448,192,64703,1,8,0:3:0:0:
192,192,64787,1,0,0:0:0:0:
320,192,64871,1,0,0:0:0:0:
448,192,64871,1,8,0:3:0:0:
192,192,64955,1,0,0:0:0:0:
448,192,65039,1,0,0:0:0:0:
64,192,65039,1,0,1:0:0:0:
192,192,65123,1,0,0:0:0:0:
448,192,65207,1,8,0:3:0:0:
192,192,65375,1,4,0:0:0:0:
320,192,65375,1,8,0:3:0:0:
448,192,65375,128,0,66215:0:0:0:0:
64,192,65459,1,0,0:0:0:0:
320,192,65543,1,0,0:0:0:0:
64,192,65711,1,0,0:0:0:0:
192,192,65711,1,0,1:0:0:0:
320,192,65795,1,0,0:0:0:0:
192,192,65879,1,0,0:0:0:0:
320,192,66047,1,8,0:3:0:0:
192,192,66131,1,0,0:0:0:0:
64,192,66215,1,0,0:0:0:0:
320,192,66215,1,0,1:0:0:0:
192,192,66383,1,8,0:3:0:0:
320,192,66467,1,0,0:0:0:0:
64,192,66551,1,0,0:0:0:0:
448,192,66551,1,8,0:3:0:0:
320,192,66720,1,0,0:0:0:0:
448,192,66804,1,0,0:0:0:0:
64,192,66888,1,0,0:0:0:0:
192,192,66888,1,0,0:0:0:0:
320,192,67056,1,0,1:0:0:0:
448,192,67056,1,0,0:0:0:0:
192,192,67140,1,0,0:0:0:0:
448,192,67224,1,0,0:0:0:0:
64,192,67224,1,0,0:0:0:0:
192,192,67392,1,8,0:3:0:0:
320,192,67476,1,0,0:0:0:0:
448,192,67476,1,0,0:0:0:0:
64,192,67560,1,0,0:0:0:0:
192,192,67560,1,0,1:0:0:0:
64,192,67728,1,0,0:0:0:0:
448,192,67728,1,8,0:3:0:0:
192,192,67812,1,0,0:0:0:0:
320,192,67812,1,8,0:3:0:0:
64,192,67896,1,0,0:0:0:0:
448,192,67896,1,8,0:3:0:0:
192,192,68064,1,0,0:0:0:0:
320,192,68064,1,4,0:0:0:0:
448,192,68064,128,0,68904:0:0:0:0:
64,192,68148,1,0,0:0:0:0:
320,192,68232,1,0,0:0:0:0:
64,192,68400,1,0,0:0:0:0:
192,192,68400,1,0,1:0:0:0:
320,192,68568,1,0,0:0:0:0:
64,192,68736,1,0,0:0:0:0:
192,192,68820,1,0,0:0:0:0:
320,192,68904,1,0,0:0:0:0:
64,192,68904,1,0,1:0:0:0:
192,192,68988,1,0,0:0:0:0:
320,192,69072,1,8,0:3:0:0:
448,192,69072,1,0,0:0:0:0:
64,192,69156,1,0,0:0:0:0:
192,192,69156,1,8,0:3:0:0:
320,192,69241,1,8,0:3:0:0:
448,192,69241,1,4,0:0:0:0:
64,192,69241,1,0,0:0:0:0:
192,192,69409,1,0,0:0:0:0:
320,192,69493,1,0,1:0:0:0:
64,192,69577,1,8,0:3:0:0:
192,192,69577,1,4,0:0:0:0:
448,192,69577,1,4,0:0:0:0:
320,192,69661,1,0,1:0:0:0:
192,192,69745,1,0,0:0:0:0:
64,192,69829,1,0,1:0:0:0:
192,192,69913,1,4,0:0:0:0:
320,192,69913,1,4,0:0:0:0:
448,192,69913,1,8,0:3:0:0:
64,192,70081,1,0,0:0:0:0:
320,192,70249,1,0,0:0:0:0:
448,192,70249,1,8,0:3:0:0:
192,192,70333,1,0,0:0:0:0:
64,192,70417,1,0,0:0:0:0:
448,192,70501,1,0,0:0:0:0:
320,192,70585,1,4,0:0:0:0:
192,192,70585,1,0,0:0:0:0:
64,192,70585,128,0,71930:0:0:0:0:
448,192,70753,1,0,0:0:0:0:
320,192,70837,1,0,0:0:0:0:
448,192,70921,1,0,0:0:0:0:
192,192,71089,1,0,0:0:0:0:
320,192,71089,1,0,1:0:0:0:
448,192,71257,1,0,0:0:0:0:
192,192,71425,1,8,0:3:0:0:
320,192,71509,1,0,0:0:0:0:
192,192,71593,1,0,1:0:0:0:
448,192,71593,1,0,0:0:0:0:
320,192,71677,1,0,0:0:0:0:
448,192,71762,1,8,0:3:0:0:
192,192,71846,1,0,0:0:0:0:
448,192,71930,1,0,0:0:0:0:
320,192,71930,1,8,0:3:0:0:
192,192,72098,1,0,0:0:0:0:
64,192,72182,1,0,0:0:0:0:
320,192,72182,1,0,0:0:0:0:
448,192,72350,1,0,0:0:0:0:
64,192,72434,1,0,0:0:0:0:
192,192,72434,1,0,0:0:0:0:
320,192,72434,1,0,1:0:0:0:
192,192,72602,1,0,0:0:0:0:
448,192,72602,1,0,0:0:0:0:
64,192,72770,1,8,0:3:0:0:
320,192,72770,1,0,0:0:0:0:
192,192,72854,1,0,0:0:0:0:
320,192,72938,1,0,1:0:0:0:
448,192,72938,1,0,0:0:0:0:
192,192,73106,1,0,1:0:0:0:
64,192,73106,1,0,0:0:0:0:
320,192,73190,1,0,0:0:0:0:
320,192,73274,1,8,0:3:0:0:
192,192,73442,1,4,0:0:0:0:
320,192,73442,1,4,0:0:0:0:
448,192,73442,1,0,0:0:0:0:
64,192,73526,1,0,0:0:0:0:
320,192,73610,1,0,0:0:0:0:
64,192,73778,1,0,0:0:0:0:
192,192,73778,1,0,1:0:0:0:
448,192,73862,1,0,0:0:0:0:
64,192,73946,1,0,0:0:0:0:
320,192,74072,1,0,0:0:0:0:
192,192,74198,1,0,0:0:0:0:
64,192,74283,1,0,0:0:0:0:
448,192,74283,1,0,1:0:0:0:
320,192,74409,1,0,0:0:0:0:
192,192,74535,1,0,0:0:0:0:
448,192,74619,1,8,0:3:0:0:
64,192,74787,1,0,0:0:0:0:
192,192,74871,1,0,0:0:0:0:
320,192,74955,1,0,0:0:0:0:
64,192,75123,1,0,1:0:0:0:
448,192,75123,1,0,0:0:0:0:
192,192,75291,1,0,0:0:0:0:
320,192,75291,1,4,0:0:0:0:
448,192,75291,1,0,0:0:0:0:
64,192,75459,1,0,0:0:0:0:
320,192,75459,1,8,0:3:0:0:
192,192,75543,1,0,0:0:0:0:
448,192,75627,1,0,0:0:0:0:
320,192,75627,1,8,0:3:0:0:
192,192,75711,1,0,0:0:0:0:
64,192,75795,1,0,1:0:0:0:
320,192,75795,1,8,0:3:0:0:
192,192,75879,1,0,1:0:0:0:
320,192,75963,1,8,0:3:0:0:
448,192,75963,1,0,0:0:0:0:
192,192,76047,1,0,0:0:0:0:
64,192,76131,1,0,0:0:0:0:
448,192,76131,1,8,0:3:0:0:
320,192,76215,1,8,0:3:0:0:
192,192,76215,1,0,0:0:0:0:
64,192,76299,1,0,0:0:0:0:
448,192,76299,1,8,0:3:0:0:
192,192,76467,1,8,0:3:0:0:
320,192,76467,1,4,0:0:0:0:
448,192,76467,128,0,76972:0:0:0:0:
64,192,76635,1,0,0:0:0:0:
192,192,76804,1,8,0:3:0:0:
320,192,76888,1,0,0:0:0:0:
64,192,76972,1,0,0:0:0:0:
192,192,76972,1,0,1:0:0:0:
320,192,77056,1,0,0:0:0:0:
192,192,77140,1,8,0:3:0:0:
448,192,77224,1,0,0:0:0:0:
64,192,77308,1,0,0:0:0:0:
192,192,77308,1,8,0:3:0:0:
320,192,77476,1,0,0:0:0:0:
192,192,77560,1,0,0:0:0:0:
64,192,77644,1,0,0:0:0:0:
448,192,77644,1,0,0:0:0:0:
192,192,77812,1,0,1:0:0:0:
64,192,77812,1,0,0:0:0:0:
320,192,77896,1,0,0:0:0:0:
64,192,77980,1,0,0:0:0:0:
448,192,77980,1,0,0:0:0:0:
320,192,78148,1,8,0:3:0:0:
448,192,78232,1,0,0:0:0:0:
64,192,78316,1,0,0:0:0:0:
192,192,78316,1,0,1:0:0:0:
64,192,78484,1,0,0:0:0:0:
320,192,78484,1,8,0:3:0:0:
192,192,78652,1,8,0:3:0:0:
448,192,78652,1,0,0:0:0:0:
64,192,78820,1,0,0:0:0:0:
192,192,78904,1,0,0:0:0:0:
320,192,78988,1,0,0:0:0:0:
192,192,79156,1,0,1:0:0:0:
448,192,79156,1,0,0:0:0:0:
320,192,79241,1,0,0:0:0:0:
64,192,79325,1,8,0:3:0:0:
448,192,79493,1,0,0:0:0:0:
320,192,79577,1,0,0:0:0:0:
192,192,79661,1,0,0:0:0:0:
64,192,79661,1,0,1:0:0:0:
320,192,79745,1,0,1:0:0:0:
448,192,79829,1,0,0:0:0:0:
64,192,79829,1,0,1:0:0:0:
64,192,79913,1,0,1:0:0:0:
448,192,79997,1,8,0:3:0:0:
192,192,79997,1,0,0:0:0:0:
320,192,79997,1,4,0:3:0:0:
448,192,80081,1,8,0:3:0:0:
192,192,80081,1,0,0:0:0:0:
320,192,80081,1,4,0:3:0:0:
64,192,80249,1,0,0:0:0:0:
448,192,80249,1,8,0:3:0:0:
192,192,80249,1,4,0:3:0:0:
64,192,80417,1,0,0:0:0:0:
320,192,80417,1,8,0:3:0:0:
192,192,80417,1,4,0:3:0:0:
448,192,80501,1,8,0:3:0:0:
320,192,80501,1,0,0:0:0:0:
192,192,80501,1,4,0:3:0:0:
64,192,80669,1,0,0:0:0:0:
448,192,80669,1,8,0:3:0:0:
192,192,80669,1,4,0:3:0:0:
64,192,80837,1,4,0:0:0:15:drum-hitfinish.wav
192,192,80837,1,4,0:0:0:15:drum-hitfinish.wav
320,192,80837,1,4,0:0:0:15:drum-hitfinish.wav
448,192,80837,1,4,0:0:0:15:drum-hitfinish.wav
64,192,81005,1,0,1:0:0:0:
192,192,81089,1,0,1:0:0:0:
320,192,81173,1,8,0:3:0:0:
448,192,81173,1,0,0:0:0:0:
192,192,81257,1,8,0:3:0:0:
64,192,81257,1,0,0:0:0:0:
192,192,81341,1,4,0:0:0:0:
320,192,81341,1,8,0:3:0:0:
448,192,81341,1,0,0:0:0:0:
64,192,81509,128,0,82350:0:0:0:0:
192,192,81593,1,0,0:0:0:0:
320,192,81677,1,0,0:0:0:0:
192,192,81846,1,0,1:0:0:0:
448,192,81846,1,0,0:0:0:0:
320,192,81930,1,0,0:0:0:0:
448,192,82014,1,0,0:0:0:0:
320,192,82182,1,8,0:3:0:0:
448,192,82266,1,0,0:0:0:0:
192,192,82350,1,0,0:0:0:0:
320,192,82350,1,0,1:0:0:0:
64,192,82518,1,0,0:0:0:0:
448,192,82518,1,8,0:3:0:0:
320,192,82602,1,0,0:0:0:0:
64,192,82686,1,0,0:0:0:0:
192,192,82686,1,8,0:3:0:0:
448,192,82854,1,0,0:0:0:0:
320,192,82938,1,0,0:0:0:0:
64,192,83022,1,0,0:0:0:0:
192,192,83022,1,0,0:0:0:0:
320,192,83190,1,0,1:0:0:0:
448,192,83190,1,0,0:0:0:0:
192,192,83274,1,0,0:0:0:0:
320,192,83358,1,0,0:0:0:0:
64,192,83358,1,0,0:0:0:0:
448,192,83526,1,0,0:0:0:0:
320,192,83610,1,0,0:0:0:0:
64,192,83694,1,0,0:0:0:0:
192,192,83694,1,0,1:0:0:0:
192,192,83862,1,0,1:0:0:0:
320,192,83862,1,0,0:0:0:0:
448,192,83862,1,0,0:0:0:0:
64,192,84030,1,8,0:3:0:0:
448,192,84030,1,0,0:0:0:0:
192,192,84198,1,0,0:0:0:0:
320,192,84283,1,0,0:0:0:0:
448,192,84283,1,0,0:0:0:0:
64,192,84367,1,0,0:0:0:0:
320,192,84535,1,0,1:0:0:0:
448,192,84535,1,0,0:0:0:0:
192,192,84619,1,0,0:0:0:0:
64,192,84703,1,0,0:0:0:0:
192,192,84871,1,8,0:3:0:0:
320,192,84955,1,0,0:0:0:0:
448,192,85039,1,0,0:0:0:0:
64,192,85039,1,0,1:0:0:0:
192,192,85123,1,0,0:0:0:0:
320,192,85207,1,8,0:3:0:0:
64,192,85291,1,0,0:0:0:0:
192,192,85375,1,8,0:3:0:0:
448,192,85375,1,0,0:0:0:0:
64,192,85543,1,0,0:0:0:0:
320,192,85543,1,0,0:0:0:0:
192,192,85627,1,0,0:0:0:0:
320,192,85711,1,0,0:0:0:0:
448,192,85711,1,0,0:0:0:0:
64,192,85879,1,0,0:0:0:0:
192,192,85879,1,0,0:0:0:0:
320,192,85879,1,0,1:0:0:0:
320,192,86047,1,0,0:0:0:0:
448,192,86047,1,0,0:0:0:0:
64,192,86215,1,0,0:0:0:0:
192,192,86215,1,0,0:0:0:0:
320,192,86215,1,8,0:3:0:0:
64,192,86383,1,0,0:0:0:0:
192,192,86383,1,0,0:0:0:0:
448,192,86383,1,8,0:3:0:0:
64,192,86551,1,0,0:0:0:0:
448,192,86551,1,0,0:0:0:0:
320,192,86551,1,0,1:0:0:0:
448,192,86720,1,2,0:3:0:0:
64,192,86720,1,0,0:0:0:0:
64,192,86888,128,0,87728:0:0:0:0:
192,192,86888,1,0,0:0:0:0:
320,192,86972,1,0,0:0:0:0:
448,192,87056,1,0,0:0:0:0:
192,192,87224,1,0,0:0:0:0:
320,192,87224,1,0,1:0:0:0:
448,192,87308,1,0,0:0:0:0:
320,192,87392,1,0,0:0:0:0:
192,192,87476,1,0,0:0:0:0:
320,192,87560,1,8,0:3:0:0:
448,192,87644,1,0,0:0:0:0:
192,192,87728,1,0,0:0:0:0:
320,192,87728,1,0,1:0:0:0:
448,192,87812,1,0,0:0:0:0:
64,192,87896,1,8,0:3:0:0:
320,192,87980,1,0,0:0:0:0:
192,192,88064,1,8,0:3:0:0:
64,192,88064,1,0,0:0:0:0:
448,192,88148,1,0,0:0:0:0:
192,192,88232,1,0,0:0:0:0:
448,192,88316,1,0,0:0:0:0:
64,192,88400,1,0,0:0:0:0:
320,192,88400,1,0,0:0:0:0:
448,192,88484,1,0,0:0:0:0:
64,192,88568,1,0,0:0:0:0:
192,192,88568,1,0,1:0:0:0:
448,192,88652,1,0,0:0:0:0:
320,192,88736,1,0,0:0:0:0:
192,192,88736,1,0,0:0:0:0:
64,192,88820,1,0,0:0:0:0:
192,192,88904,1,0,0:0:0:0:
320,192,88904,1,8,0:3:0:0:
448,192,88988,1,0,0:0:0:0:
64,192,89072,1,0,1:0:0:0:
192,192,89072,1,0,0:0:0:0:
448,192,89156,1,0,0:0:0:0:
320,192,89156,1,0,0:0:0:0:
64,192,89241,1,0,1:0:0:0:
192,192,89241,1,0,0:0:0:0:
448,192,89325,1,0,0:0:0:0:
320,192,89325,1,0,0:0:0:0:
64,192,89409,1,0,0:0:0:0:
192,192,89409,1,8,0:3:0:0:
448,192,89577,1,0,0:0:0:0:
64,192,89577,1,0,0:0:0:0:
320,192,89661,1,0,0:0:0:0:
64,192,89745,1,0,0:0:0:0:
192,192,89829,1,0,0:0:0:0:
320,192,89913,1,0,1:0:0:0:
64,192,89913,1,0,0:0:0:0:
448,192,89997,1,0,0:0:0:0:
192,192,90081,1,0,0:0:0:0:
320,192,90165,1,0,0:0:0:0:
192,192,90249,1,8,0:3:0:0:
320,192,90333,1,0,0:0:0:0:
64,192,90417,1,0,0:0:0:0:
448,192,90417,1,0,1:0:0:0:
320,192,90585,1,8,0:3:0:0:
192,192,90669,1,0,0:0:0:0:
448,192,90753,1,8,0:3:0:0:
320,192,90837,1,0,0:0:0:0:
192,192,90921,1,0,0:0:0:0:
64,192,91005,1,0,0:0:0:0:
192,192,91089,1,0,0:0:0:0:
448,192,91089,1,0,1:0:0:0:
320,192,91173,1,0,0:0:0:0:
192,192,91257,1,2,0:3:0:0:
64,192,91257,1,0,0:0:0:0:
320,192,91341,1,0,0:0:0:0:
64,192,91425,1,0,0:0:0:0:
448,192,91425,1,0,0:0:0:0:
192,192,91593,1,0,0:0:0:0:
320,192,91593,1,0,1:0:0:0:
448,192,91677,1,0,1:0:0:0:
64,192,91762,1,0,0:0:0:0:
320,192,91762,1,0,1:0:0:0:
192,192,91846,1,0,1:0:0:0:
320,192,91930,1,8,0:3:0:0:
448,192,91930,1,0,0:0:0:0:
192,192,92014,1,8,0:3:0:0:
64,192,92014,1,0,0:0:0:0:
320,192,92098,1,4,0:0:0:0:
448,192,92098,1,0,0:0:0:0:
192,192,92098,1,8,0:3:0:0:
64,192,92266,128,0,93106:0:0:0:0:
192,192,92350,1,0,0:0:0:0:
320,192,92434,1,0,0:0:0:0:
192,192,92602,1,0,0:0:0:0:
448,192,92602,1,0,1:0:0:0:
320,192,92686,1,0,0:0:0:0:
192,192,92770,1,0,0:0:0:0:
448,192,92938,1,8,0:3:0:0:
320,192,93022,1,0,0:0:0:0:
192,192,93106,1,0,0:0:0:0:
448,192,93106,1,0,1:0:0:0:
64,192,93274,1,0,0:0:0:0:
320,192,93274,1,8,0:3:0:0:
192,192,93358,1,0,0:0:0:0:
320,192,93442,1,8,0:3:0:0:
448,192,93442,1,0,0:0:0:0:
64,192,93610,1,0,0:0:0:0:
192,192,93694,1,0,0:0:0:0:
320,192,93778,1,0,0:0:0:0:
448,192,93778,1,0,0:0:0:0:
192,192,93946,1,0,1:0:0:0:
64,192,93946,1,0,0:0:0:0:
320,192,94030,1,0,0:0:0:0:
192,192,94114,1,0,0:0:0:0:
448,192,94114,1,0,0:0:0:0:
64,192,94283,1,0,0:0:0:0:
192,192,94367,1,0,0:0:0:0:
320,192,94451,1,0,1:0:0:0:
448,192,94451,1,0,0:0:0:0:
192,192,94619,1,0,0:0:0:0:
320,192,94619,1,0,1:0:0:0:
64,192,94619,1,0,0:0:0:0:
64,192,94787,1,0,0:0:0:0:
448,192,94787,1,8,0:3:0:0:
320,192,94955,1,0,0:0:0:0:
64,192,95039,1,0,0:0:0:0:
192,192,95039,1,0,0:0:0:0:
448,192,95123,1,0,0:0:0:0:
64,192,95291,1,0,0:0:0:0:
192,192,95291,1,0,1:0:0:0:
320,192,95375,1,0,0:0:0:0:
448,192,95459,1,0,0:0:0:0:
320,192,95627,1,8,0:3:0:0:
192,192,95711,1,0,0:0:0:0:
64,192,95795,1,0,0:0:0:0:
448,192,95795,1,0,1:0:0:0:
320,192,95879,1,0,0:0:0:0:
192,192,95963,1,8,0:3:0:0:
448,192,96047,1,0,0:0:0:0:
64,192,96131,1,0,0:0:0:0:
320,192,96131,1,8,0:3:0:0:
192,192,96299,1,0,0:0:0:0:
448,192,96299,1,0,0:0:0:0:
320,192,96383,1,0,0:0:0:0:
64,192,96467,1,0,0:0:0:0:
192,192,96467,1,0,0:0:0:0:
320,192,96635,1,0,0:0:0:0:
448,192,96635,1,0,0:0:0:0:
192,192,96635,1,0,1:0:0:0:
64,192,96804,1,0,0:0:0:0:
192,192,96804,1,0,0:0:0:0:
192,192,96972,1,8,0:3:0:0:
320,192,96972,1,0,0:0:0:0:
448,192,96972,1,0,0:0:0:0:
192,192,97140,1,8,0:3:0:0:
64,192,97140,1,0,0:0:0:0:
448,192,97140,1,0,0:0:0:0:
64,192,97308,1,0,0:0:0:0:
448,192,97308,1,0,0:0:0:0:
320,192,97308,1,0,1:0:0:0:
64,192,97476,1,0,0:0:0:0:
448,192,97476,1,2,0:3:0:0:
192,192,97644,1,0,0:0:0:0:
448,192,97644,128,0,98148:0:0:0:0:
320,192,97728,1,0,0:0:0:0:
64,192,97812,1,0,0:0:0:0:
320,192,97980,1,0,1:0:0:0:
64,192,97980,1,0,0:0:0:0:
192,192,98064,1,0,0:0:0:0:
64,192,98148,1,0,0:0:0:0:
320,192,98148,1,0,0:0:0:0:
192,192,98232,1,0,0:0:0:0:
64,192,98316,1,8,0:3:0:0:
192,192,98400,1,0,0:0:0:0:
320,192,98484,1,0,1:0:0:0:
448,192,98484,1,0,0:0:0:0:
64,192,98568,1,0,0:0:0:0:
192,192,98652,1,8,0:3:0:0:
320,192,98736,1,0,0:0:0:0:
448,192,98820,1,8,0:3:0:0:
64,192,98820,1,0,0:0:0:0:
320,192,98904,1,0,0:0:0:0:
192,192,98904,1,0,0:0:0:0:
448,192,98988,1,0,0:0:0:0:
64,192,98988,1,0,0:0:0:0:
192,192,99072,1,0,0:0:0:0:
320,192,99072,1,0,0:0:0:0:
64,192,99156,1,0,0:0:0:0:
448,192,99156,1,0,0:0:0:0:
64,192,99325,1,0,0:0:0:0:
320,192,99325,1,0,1:0:0:0:
192,192,99409,1,0,0:0:0:0:
448,192,99493,1,0,0:0:0:0:
320,192,99493,1,0,0:0:0:0:
192,192,99661,1,0,0:0:0:0:
320,192,99661,1,8,0:3:0:0:
64,192,99829,1,0,0:0:0:0:
192,192,99829,1,0,1:0:0:0:
320,192,99913,1,0,0:0:0:0:
448,192,99913,1,0,0:0:0:0:
64,192,99997,1,0,0:0:0:0:
192,192,99997,1,0,1:0:0:0:
320,192,100081,1,0,0:0:0:0:
448,192,100081,1,0,0:0:0:0:
64,192,100165,1,0,0:0:0:0:
192,192,100165,1,8,0:3:0:0:
64,192,100333,1,0,0:0:0:0:
320,192,100333,1,4,0:0:0:0:
448,192,100333,128,0,100837:0:0:0:0:
192,192,100417,1,0,0:0:0:0:
320,192,100501,1,0,0:0:0:0:
64,192,100669,1,0,0:0:0:0:
192,192,100669,1,0,1:0:0:0:
320,192,100753,1,0,0:0:0:0:
192,192,100837,1,0,0:0:0:0:
448,192,100921,1,0,0:0:0:0:
64,192,101005,1,8,0:3:0:0:
320,192,101089,1,0,0:0:0:0:
192,192,101173,1,0,1:0:0:0:
448,192,101173,1,0,0:0:0:0:
64,192,101341,1,0,0:0:0:0:
320,192,101341,1,8,0:3:0:0:
192,192,101425,1,0,0:0:0:0:
448,192,101509,1,8,0:3:0:0:
320,192,101593,1,0,0:0:0:0:
192,192,101677,1,0,0:0:0:0:
64,192,101762,1,0,0:0:0:0:
320,192,101846,1,0,1:0:0:0:
448,192,101846,1,0,0:0:0:0:
64,192,102014,1,8,0:3:0:0:
192,192,102014,1,4,0:0:0:0:
320,192,102014,1,4,0:0:0:0:
64,192,102182,1,8,0:3:0:0:
192,192,102182,1,0,0:0:0:0:
320,192,102182,1,0,0:0:0:0:
64,192,102350,1,0,0:0:0:0:
448,192,102350,1,8,0:3:0:0:
192,192,102518,1,8,0:3:0:0:
64,192,102518,1,0,0:0:0:0:
320,192,102602,1,8,0:3:0:0:
448,192,102602,1,0,0:0:0:0:
192,192,102686,1,8,0:3:0:0:
64,192,102686,1,0,0:0:0:0:
320,192,102770,1,8,0:3:0:0:
448,192,102770,1,0,0:0:0:0:
64,192,102854,1,0,0:0:0:0:
192,192,102854,1,8,0:3:0:0:
448,192,102854,1,4,0:0:0:0:
192,192,103022,1,0,0:0:0:0:
320,192,103106,1,0,0:0:0:0:
448,192,103106,1,0,0:0:0:0:
64,192,103190,1,0,0:0:0:0:
192,192,103358,1,0,0:0:0:0:
448,192,103358,1,0,1:0:0:0:
320,192,103442,1,0,0:0:0:0:
64,192,103526,1,0,0:0:0:0:
448,192,103694,1,0,0:0:0:0:
320,192,103778,1,0,0:0:0:0:
64,192,103862,1,0,0:0:0:0:
192,192,103862,1,0,1:0:0:0:
448,192,104030,1,0,0:0:0:0:
192,192,104114,1,0,0:0:0:0:
320,192,104198,1,0,0:0:0:0:
192,192,104367,1,0,0:0:0:0:
320,192,104451,1,0,0:0:0:0:
64,192,104535,1,0,0:0:0:0:
192,192,104703,1,0,1:0:0:0:
448,192,104703,1,0,0:0:0:0:
320,192,104787,1,0,0:0:0:0:
64,192,104871,1,0,0:0:0:0:
320,192,105039,1,0,0:0:0:0:
192,192,105123,1,0,0:0:0:0:
320,192,105207,1,0,1:0:0:0:
448,192,105207,1,0,0:0:0:0:
64,192,105375,1,0,0:0:0:0:
192,192,105375,1,0,1:0:0:0:
192,192,105543,1,0,0:0:0:0:
320,192,105543,1,8,0:3:0:0:
64,192,105711,1,0,0:0:0:0:
192,192,105795,1,0,0:0:0:0:
320,192,105879,1,0,0:0:0:0:
448,192,105963,1,0,0:0:0:0:
64,192,106047,1,0,0:0:0:0:
192,192,106047,1,0,1:0:0:0:
320,192,106131,1,0,0:0:0:0:
448,192,106215,1,0,0:0:0:0:
320,192,106383,1,0,0:0:0:0:
192,192,106467,1,0,0:0:0:0:
320,192,106551,1,0,1:0:0:0:
448,192,106551,1,0,0:0:0:0:
64,192,106720,1,0,0:0:0:0:
320,192,106804,1,0,0:0:0:0:
192,192,106888,1,0,0:0:0:0:
320,192,107056,1,0,0:0:0:0:
192,192,107140,1,0,0:0:0:0:
64,192,107224,1,0,0:0:0:0:
192,192,107308,1,0,0:0:0:0:
448,192,107392,1,0,0:0:0:0:
320,192,107392,1,0,1:0:0:0:
64,192,107476,1,0,0:0:0:0:
192,192,107560,1,0,0:0:0:0:
64,192,107728,1,0,0:0:0:0:
320,192,107728,1,8,0:3:0:0:
192,192,107896,1,0,0:0:0:0:
448,192,107896,1,0,1:0:0:0:
64,192,108064,1,0,0:0:0:0:
192,192,108064,1,8,0:3:0:0:
320,192,108148,1,0,0:0:0:0:
448,192,108148,1,8,0:3:0:0:
320,192,108232,1,0,0:0:0:0:
448,192,108232,1,8,0:3:0:0:
64,192,108400,1,0,0:0:0:0:
192,192,108400,1,4,0:0:0:0:
448,192,108400,1,8,0:3:0:0:
320,192,108484,1,0,0:0:0:0:
448,192,108568,1,0,0:0:0:0:
64,192,108736,1,0,0:0:0:0:
320,192,108820,1,0,1:0:0:0:
448,192,108820,1,0,0:0:0:0:
192,192,108904,1,0,0:0:0:0:
448,192,109072,1,0,0:0:0:0:
320,192,109156,1,0,0:0:0:0:
64,192,109241,1,0,0:0:0:0:
448,192,109241,1,0,1:0:0:0:
192,192,109325,1,0,0:0:0:0:
320,192,109409,1,0,0:0:0:0:
192,192,109493,1,0,0:0:0:0:
448,192,109577,1,0,0:0:0:0:
320,192,109661,1,0,0:0:0:0:
192,192,109745,1,0,0:0:0:0:
64,192,109829,1,0,0:0:0:0:
64,192,109913,1,0,0:0:0:0:
448,192,110081,1,0,0:0:0:0:
320,192,110081,1,0,1:0:0:0:
64,192,110165,1,0,0:0:0:0:
192,192,110165,1,0,0:0:0:0:
64,192,110417,1,0,0:0:0:0:
320,192,110417,1,0,0:0:0:0:
192,192,110585,1,0,0:0:0:0:
448,192,110585,1,0,1:0:0:0:
64,192,110669,1,0,0:0:0:0:
320,192,110753,1,0,0:0:0:0:
448,192,110753,1,0,1:0:0:0:
64,192,110837,1,0,0:0:0:0:
192,192,110921,1,0,0:0:0:0:
448,192,110921,1,8,0:3:0:0:
64,192,111089,1,0,0:0:0:0:
192,192,111173,1,0,0:0:0:0:
320,192,111257,1,0,0:0:0:0:
448,192,111257,1,0,0:0:0:0:
192,192,111425,1,0,0:0:0:0:
320,192,111425,1,0,1:0:0:0:
192,192,111593,1,0,0:0:0:0:
448,192,111593,1,0,0:0:0:0:
64,192,111762,1,0,0:0:0:0:
192,192,111846,1,0,0:0:0:0:
320,192,111930,1,0,0:0:0:0:
448,192,111930,1,0,1:0:0:0:
192,192,112098,1,0,0:0:0:0:
320,192,112098,1,0,0:0:0:0:
448,192,112266,1,0,0:0:0:0:
320,192,112350,1,0,0:0:0:0:
448,192,112434,1,0,0:0:0:0:
192,192,112518,1,0,0:0:0:0:
448,192,112602,1,0,0:0:0:0:
320,192,112686,1,0,0:0:0:0:
448,192,112770,1,0,1:0:0:0:
64,192,112770,1,0,0:0:0:0:
192,192,112854,1,0,0:0:0:0:
448,192,112938,1,0,1:0:0:0:
320,192,112938,1,0,0:0:0:0:
448,192,113022,1,0,1:0:0:0:
320,192,113022,1,0,0:0:0:0:
64,192,113106,1,0,0:0:0:0:
192,192,113106,1,8,0:3:0:0:
448,192,113190,1,0,0:0:0:0:
320,192,113190,1,8,0:3:0:0:
64,192,113274,1,0,0:0:0:0:
448,192,113274,1,8,0:3:0:0:
192,192,113358,1,0,0:0:0:0:
320,192,113358,1,8,0:3:0:0:
448,192,113442,1,8,0:3:0:0:
64,192,113442,1,0,0:0:0:0:
320,192,113526,1,8,0:3:0:0:
192,192,113526,1,0,0:0:0:0:
64,192,113610,1,0,0:0:0:0:
192,192,113610,1,4,0:0:0:0:
448,192,113610,1,8,0:3:0:0:
192,192,113778,1,0,0:0:0:0:
320,192,113862,1,0,0:0:0:0:
448,192,113862,1,0,0:0:0:0:
64,192,113946,1,0,0:0:0:0:
320,192,114114,1,0,1:0:0:0:
448,192,114114,128,0,114619:0:0:0:0:
192,192,114198,1,0,0:0:0:0:
64,192,114283,1,0,0:0:0:0:
192,192,114451,1,8,0:3:0:0:
320,192,114535,1,0,0:0:0:0:
64,192,114619,1,0,0:0:0:0:
192,192,114619,1,0,1:0:0:0:
448,192,114787,1,8,0:3:0:0:
320,192,114871,1,0,0:0:0:0:
64,192,114955,1,0,0:0:0:0:
192,192,114955,1,8,0:3:0:0:
448,192,115039,1,0,0:0:0:0:
64,192,115123,1,0,0:0:0:0:
192,192,115207,1,0,0:0:0:0:
64,192,115291,1,0,0:0:0:0:
320,192,115291,1,0,0:0:0:0:
448,192,115375,1,0,0:0:0:0:
64,192,115459,1,0,1:0:0:0:
192,192,115543,1,0,0:0:0:0:
64,192,115627,1,0,0:0:0:0:
320,192,115627,1,0,0:0:0:0:
448,192,115711,1,0,0:0:0:0:
64,192,115795,1,0,0:0:0:0:
192,192,115879,1,0,0:0:0:0:
64,192,115963,1,0,1:0:0:0:
320,192,115963,1,0,0:0:0:0:
448,192,116047,1,0,0:0:0:0:
64,192,116131,1,0,1:0:0:0:
192,192,116131,1,0,0:0:0:0:
320,192,116215,1,0,0:0:0:0:
64,192,116299,1,8,0:3:0:0:
448,192,116299,1,0,0:0:0:0:
448,192,116467,1,0,0:0:0:0:
320,192,116551,1,0,0:0:0:0:
192,192,116635,1,0,0:0:0:0:
64,192,116720,1,0,0:0:0:0:
320,192,116804,1,0,0:0:0:0:
448,192,116804,1,0,1:0:0:0:
192,192,116888,1,0,0:0:0:0:
64,192,116972,1,0,0:0:0:0:
448,192,117140,1,8,0:3:0:0:
192,192,117224,1,0,0:0:0:0:
448,192,117308,1,0,0:0:0:0:
320,192,117308,1,0,1:0:0:0:
64,192,117392,1,0,0:0:0:0:
192,192,117476,1,8,0:3:0:0:
448,192,117560,1,0,0:0:0:0:
320,192,117644,1,0,0:0:0:0:
192,192,117644,1,8,0:3:0:0:
64,192,117812,1,0,0:0:0:0:
192,192,117896,1,0,0:0:0:0:
320,192,117980,1,0,0:0:0:0:
448,192,118064,1,0,0:0:0:0:
192,192,118064,1,0,0:0:0:0:
320,192,118148,1,0,1:0:0:0:
64,192,118232,1,0,0:0:0:0:
192,192,118232,1,0,0:0:0:0:
448,192,118316,1,0,0:0:0:0:
320,192,118484,1,8,0:3:0:0:
192,192,118568,1,0,0:0:0:0:
64,192,118652,1,0,0:0:0:0:
448,192,118652,1,0,1:0:0:0:
64,192,118820,1,0,0:0:0:0:
192,192,118820,1,8,0:3:0:0:
320,192,118904,1,8,0:3:0:0:
448,192,118904,1,0,0:0:0:0:
448,192,118988,1,0,0:0:0:0:
320,192,118988,1,8,0:3:0:0:
448,192,119156,1,0,0:0:0:0:
64,192,119156,1,4,0:0:0:0:
192,192,119156,1,4,0:0:0:0:
320,192,119241,1,0,0:0:0:0:
192,192,119325,1,0,0:0:0:0:
448,192,119493,1,0,0:0:0:0:
320,192,119577,1,0,1:0:0:0:
192,192,119577,1,0,0:0:0:0:
64,192,119661,1,0,0:0:0:0:
448,192,119661,1,0,0:0:0:0:
448,192,119829,1,8,0:3:0:0:
64,192,119997,1,0,0:0:0:0:
448,192,119997,1,0,1:0:0:0:
320,192,120081,1,0,0:0:0:0:
192,192,120165,1,8,0:3:0:0:
448,192,120249,1,0,0:0:0:0:
192,192,120333,1,8,0:3:0:0:
64,192,120333,1,0,0:0:0:0:
320,192,120417,1,0,0:0:0:0:
448,192,120417,1,0,0:0:0:0:
64,192,120501,1,0,0:0:0:0:
192,192,120501,1,0,0:0:0:0:
320,192,120585,1,0,0:0:0:0:
448,192,120585,1,0,0:0:0:0:
64,192,120669,1,0,0:0:0:0:
192,192,120669,1,0,0:0:0:0:
192,192,120837,1,0,0:0:0:0:
320,192,120837,1,0,1:0:0:0:
64,192,120921,1,0,0:0:0:0:
448,192,120921,1,0,0:0:0:0:
320,192,121005,1,0,0:0:0:0:
64,192,121173,1,0,0:0:0:0:
192,192,121173,1,8,0:3:0:0:
192,192,121341,1,0,0:0:0:0:
448,192,121341,1,0,1:0:0:0:
64,192,121425,1,0,0:0:0:0:
320,192,121425,1,0,0:0:0:0:
192,192,121509,1,0,0:0:0:0:
448,192,121509,1,0,1:0:0:0:
64,192,121593,1,0,0:0:0:0:
320,192,121593,1,0,0:0:0:0:
192,192,121677,1,0,0:0:0:0:
448,192,121677,128,8,122350:0:3:0:0:
320,192,121846,1,0,0:0:0:0:
192,192,121930,1,0,0:0:0:0:
320,192,122014,1,0,0:0:0:0:
64,192,122182,1,0,0:0:0:0:
192,192,122182,1,0,1:0:0:0:
320,192,122266,1,0,0:0:0:0:
192,192,122350,1,0,0:0:0:0:
64,192,122350,128,0,122686:0:0:0:0:
192,192,122518,1,8,0:3:0:0:
448,192,122686,128,0,123022:0:0:0:0:
320,192,122686,1,0,1:0:0:0:
192,192,122854,1,0,0:0:0:0:
320,192,122938,1,0,0:0:0:0:
192,192,123022,1,4,0:0:0:0:
64,192,123022,1,4,0:0:0:0:
320,192,123106,1,0,0:0:0:35:drum-hitfinish.wav
320,192,123190,1,0,0:0:0:35:drum-hitfinish.wav
192,192,123274,1,0,0:0:0:0:
448,192,123274,1,8,0:3:0:0:
320,192,123358,1,0,0:0:0:35:drum-hitfinish.wav
320,192,123442,1,0,0:0:0:35:drum-hitfinish.wav
64,192,123526,1,0,0:0:0:0:
448,192,123526,1,8,0:3:0:0:
320,192,123610,1,0,0:0:0:35:drum-hitfinish.wav
320,192,123694,1,0,0:0:0:35:drum-hitfinish.wav
448,192,123778,1,8,0:3:0:0:
192,192,123778,1,0,0:0:0:0:
320,192,123862,1,0,0:0:0:35:drum-hitfinish.wav
320,192,123946,1,0,0:0:0:35:drum-hitfinish.wav
64,192,124030,1,0,0:0:0:0:
192,192,124030,1,8,3:0:0:0:
448,192,124114,1,0,0:0:0:35:drum-hitfinish.wav
64,192,124198,1,0,0:0:0:0:
192,192,124198,1,8,0:3:0:0:
448,192,124283,1,0,0:0:0:35:drum-hitfinish.wav
64,192,124367,1,0,0:0:0:0:
192,192,124367,1,8,0:3:0:0:
320,192,124451,1,0,0:0:0:35:drum-hitfinish.wav
320,192,124535,1,0,0:0:0:35:drum-hitfinish.wav
64,192,124619,1,0,0:0:0:0:
448,192,124619,1,8,0:3:0:0:
192,192,124703,1,0,0:0:0:35:drum-hitfinish.wav
192,192,124787,1,0,0:0:0:35:drum-hitfinish.wav
64,192,124871,1,8,0:3:0:0:
448,192,124871,1,0,0:0:0:0:
320,192,124955,1,0,0:0:0:35:drum-hitfinish.wav
320,192,125039,1,0,0:0:0:35:drum-hitfinish.wav
64,192,125123,1,0,0:0:0:0:
448,192,125123,1,8,0:3:0:0:
192,192,125207,1,0,0:0:0:35:drum-hitfinish.wav
192,192,125291,1,0,0:0:0:35:drum-hitfinish.wav
320,192,125375,1,8,0:3:0:0:
448,192,125375,1,0,0:0:0:0:
64,192,125459,1,0,0:0:0:0:
192,192,125459,1,0,1:0:0:0:
320,192,125543,1,0,1:0:0:0:
448,192,125543,1,0,0:0:0:0:
64,192,125627,1,0,0:0:0:0:
192,192,125627,1,0,1:0:0:0:
320,192,125711,1,0,1:0:0:0:
448,192,125711,1,0,0:0:0:0:
320,192,125879,1,0,1:0:0:0:
192,192,125879,1,0,0:0:0:0:
64,192,125963,1,0,0:0:0:0:
192,192,126047,1,0,0:0:0:0:
320,192,126131,1,0,0:0:0:0:
448,192,126215,1,0,0:0:0:0:
64,192,126299,1,0,0:0:0:0:
192,192,126299,1,8,0:3:0:0:
448,192,126467,1,0,0:0:0:0:
320,192,126551,1,0,0:0:0:0:
192,192,126635,1,0,0:0:0:0:
64,192,126720,1,8,0:3:0:0:
448,192,126720,1,0,1:0:0:0:
320,192,126804,1,0,1:0:0:0:
192,192,126804,1,0,0:0:0:0:
64,192,126888,1,0,0:0:0:0:
448,192,126888,1,0,1:0:0:0:
192,192,126972,1,0,0:0:0:0:
320,192,126972,1,0,1:0:0:0:
64,192,127056,1,8,0:3:0:0:
448,192,127056,1,0,1:0:0:0:
64,192,127392,1,4,0:0:0:15:drum-hitfinish.wav
192,192,127392,1,4,0:0:0:15:drum-hitfinish.wav
320,192,127392,1,4,0:0:0:15:drum-hitfinish.wav
448,192,127392,1,4,0:0:0:15:drum-hitfinish.wav
