osu file format v14

[General]
AudioFilename: audio.mp3
AudioLeadIn: 0
PreviewTime: 200719
Countdown: 0
SampleSet: Soft
StackLeniency: 0.7
Mode: 0
LetterboxInBreaks: 0
WidescreenStoryboard: 0

[Editor]
Bookmarks: 269705,275524,281342,287160,292978,298796,304615,310433,316251
DistanceSpacing: 2.8
BeatDivisor: 4
GridSize: 8
TimelineZoom: 4.499998

[Metadata]
Title:FREEDOM DiVE
TitleUnicode:FREEDOM DiVE
Artist:xi & R3 Music Box
ArtistUnicode:xi & R3 Music Box
Creator:- Nagatoro -
Version:10^100 DIMENSiONS
Source:BMS
Tags:
BeatmapID:4506935
BeatmapSetID:2141284

[Difficulty]
HPDrainRate:5
CircleSize:4.3
OverallDifficulty:10
ApproachRate:9.8
SliderMultiplier:1.7
SliderTickRate:1

[Events]
//Background and Video events
0,0,"canvas.png",0,0
//Break Periods
2,32573,35613
2,84413,89613
2,149214,152524
2,201054,208415
2,261535,268895
//Storyboard Layer 0 (Background)
//Storyboard Layer 1 (Fail)
//Storyboard Layer 2 (Pass)
//Storyboard Layer 3 (Foreground)
//Storyboard Layer 4 (Overlay)
//Storyboard Sound Samples

[TimingPoints]
2133,270.002700027,4,2,22,70,1,0
4360,-100,4,2,22,10,0,0
4428,-100,4,2,22,70,0,0
4968,-80,4,2,22,70,0,0
5508,-66.6666666666667,4,2,22,70,0,0
5778,-100,4,2,22,70,0,0
6858,-80,4,2,22,70,0,0
7398,-100,4,2,22,70,0,0
7938,-133.333333333333,4,2,22,70,0,0
8613,-100,4,2,22,70,0,0
13878,-80,4,2,22,70,0,0
14283,-100,4,2,22,70,0,0
14485,-100,4,2,22,10,0,0
14553,-100,4,2,22,70,0,0
14688,-100,4,2,22,10,0,0
14755,-100,4,2,22,70,0,0
14890,-100,4,2,22,10,0,0
14958,-100,4,2,22,70,0,0
16240,-100,4,2,22,10,0,0
16308,-100,4,2,22,70,0,0
17185,-100,4,2,22,10,0,0
17253,-100,4,2,22,70,0,0
20965,-100,4,2,22,10,0,0
21033,-100,4,2,22,70,0,0
22248,-80,4,2,22,70,0,0
22923,-100,4,2,22,70,0,0
23125,-100,4,2,22,10,0,0
23193,-100,4,2,22,70,0,0
23328,-100,4,2,22,10,0,0
23395,-100,4,2,22,70,0,0
23530,-100,4,2,22,10,0,0
23598,-100,4,2,22,70,0,0
25825,-100,4,2,22,10,0,0
25893,-80,4,2,22,70,0,0
28053,-144.927536231884,4,2,22,55,0,0
36693,-200,4,2,22,55,0,0
38448,-200,4,2,22,10,0,0
38515,-200,4,2,22,55,0,0
38650,-200,4,2,22,10,0,0
38718,-200,4,2,22,55,0,0
44455,-200,4,2,22,5,0,0
44523,-100,4,2,22,55,0,0
44725,-100,4,2,22,5,0,0
44793,-100,4,2,22,55,0,0
44995,-100,4,2,22,5,0,0
45063,-100,4,2,22,55,0,0
47493,-100,4,2,22,65,0,0
64773,-90.9090909090909,4,2,22,85,0,1
82053,-161.290322580645,4,2,22,70,0,0
90693,-133.333333333333,4,2,22,50,0,0
95013,-133.333333333333,4,2,22,65,0,0
97713,-100,4,2,22,65,0,0
98253,-100,4,2,22,50,0,0
102304,-100,4,2,22,70,0,0
102574,-100,4,2,22,60,0,0
103654,-100,4,2,22,67,0,0
104734,-100,4,2,22,74,0,0
105814,-100,4,2,22,81,0,0
106354,-100,4,2,22,88,0,0
106894,-181.818181818182,4,2,22,95,0,0
107704,-111.111111111111,4,2,22,85,0,0
107974,-90.9090909090909,4,2,22,85,0,1
146854,-112.359550561798,4,2,22,65,0,0
153334,-133.333333333333,4,2,22,65,0,0
159207,-133.333333333333,4,2,22,10,0,0
159274,-133.333333333333,4,2,22,65,0,0
159409,-133.333333333333,4,2,22,10,0,0
159477,-133.333333333333,4,2,22,65,0,0
159612,-133.333333333333,4,2,22,10,0,0
159679,-133.333333333333,4,2,22,65,0,0
163864,-133.333333333333,4,2,22,85,0,0
164134,-95.2380952380952,4,2,22,70,0,0
165417,-95.2380952380952,4,2,22,5,0,0
165484,-95.2380952380952,4,2,22,70,0,0
165619,-95.2380952380952,4,2,22,5,0,0
165687,-95.2380952380952,4,2,22,70,0,0
165822,-95.2380952380952,4,2,22,5,0,0
165889,-95.2380952380952,4,2,22,70,0,0
166024,-95.2380952380952,4,2,22,5,0,0
166092,-95.2380952380952,4,2,22,70,0,0
166227,-95.2380952380952,4,2,22,5,0,0
166294,-95.2380952380952,4,2,22,70,0,0
167847,-95.2380952380952,4,2,22,5,0,0
167914,-95.2380952380952,4,2,22,70,0,0
168049,-95.2380952380952,4,2,22,5,0,0
168117,-95.2380952380952,4,2,22,70,0,0
168252,-95.2380952380952,4,2,22,5,0,0
168319,-95.2380952380952,4,2,22,70,0,0
168387,-95.2380952380952,4,2,22,5,0,0
168454,-95.2380952380952,4,2,22,70,0,0
171627,-95.2380952380952,4,2,22,5,0,0
171694,-95.2380952380952,4,2,22,70,0,0
171897,-95.2380952380952,4,2,22,5,0,0
171964,-95.2380952380952,4,2,22,70,0,0
181414,-95.2380952380952,4,2,22,70,0,1
186409,-95.2380952380952,4,2,22,5,0,1
186477,-95.2380952380952,4,2,22,70,0,1
186612,-95.2380952380952,4,2,22,5,0,1
186679,-95.2380952380952,4,2,22,70,0,1
186814,-95.2380952380952,4,2,22,5,0,1
186882,-95.2380952380952,4,2,22,70,0,1
187017,-95.2380952380952,4,2,22,5,0,1
187084,-95.2380952380952,4,2,22,70,0,1
187219,-95.2380952380952,4,2,22,5,0,1
187287,-95.2380952380952,4,2,22,70,0,1
187422,-95.2380952380952,4,2,22,5,0,1
187489,-95.2380952380952,4,2,22,70,0,1
190054,-95.2380952380952,4,2,22,70,0,0
192214,-95.2380952380952,4,2,22,70,0,0
192282,-95.2380952380952,4,2,22,5,0,0
192349,-95.2380952380952,4,2,22,70,0,0
192417,-95.2380952380952,4,2,22,5,0,0
192484,-95.2380952380952,4,2,22,70,0,0
192687,-95.2380952380952,4,2,22,5,0,0
192754,-95.2380952380952,4,2,22,70,0,0
192889,-95.2380952380952,4,2,22,5,0,0
192957,-95.2380952380952,4,2,22,70,0,0
193092,-95.2380952380952,4,2,22,5,0,0
193159,-95.2380952380952,4,2,22,70,0,0
193227,-95.2380952380952,4,2,22,5,0,0
193294,-95.2380952380952,4,2,22,70,0,0
195792,-95.2380952380952,4,2,22,5,0,0
195859,-95.2380952380952,4,2,22,70,0,0
196534,-95.2380952380952,4,2,22,75,0,1
197614,-95.2380952380952,4,2,22,80,0,1
198694,-95.2380952380952,4,2,22,85,0,1
199774,-95.2380952380952,4,2,22,90,0,1
200854,-243.90243902439,4,2,22,90,0,0
200922,-243.90243902439,4,2,22,75,0,0
209765,-200,4,2,22,75,0,0
211115,-200,4,2,22,75,0,0
211250,-200,4,2,22,10,0,0
211317,-200,4,2,22,75,0,0
211452,-200,4,2,22,10,0,0
211520,-200,4,2,22,75,0,0
211587,-200,4,2,22,10,0,0
211655,-166.666666666667,4,2,22,75,0,0
213815,-142.857142857143,4,2,22,75,0,0
213950,-142.857142857143,4,2,22,10,0,0
214017,-142.857142857143,4,2,22,75,0,0
214152,-142.857142857143,4,2,22,10,0,0
214220,-142.857142857143,4,2,22,75,0,0
214287,-142.857142857143,4,2,22,10,0,0
214355,-142.857142857143,4,2,22,75,0,0
214895,-125,4,2,22,75,0,0
214895,-125,4,2,22,75,0,0
215975,-111.111111111111,4,2,22,80,0,0
217055,-100,4,2,22,70,0,0
217257,-100,4,2,22,5,0,0
217325,-100,4,2,22,70,0,0
217527,-100,4,2,22,5,0,0
217595,-100,4,2,22,70,0,0
217797,-100,4,2,22,5,0,0
217865,-100,4,2,22,70,0,0
218135,-90.0900900900901,4,2,22,85,0,1
235415,-81.9672131147541,4,2,22,90,0,1
240275,-81.9672131147541,4,2,22,100,0,1
244055,-81.9672131147541,4,2,22,90,0,1
252695,-81.9672131147541,4,2,22,60,0,1
253235,-81.9672131147541,4,2,22,65,0,1
253775,-81.9672131147541,4,2,22,70,0,1
254315,-81.9672131147541,4,2,22,75,0,1
254855,-81.9672131147541,4,2,22,80,0,1
255395,-81.9672131147541,4,2,22,85,0,1
255935,-81.9672131147541,4,2,22,90,0,1
256475,-81.9672131147541,4,2,22,95,0,1
257015,-81.9672131147541,4,2,22,100,0,0
257083,-81.9672131147541,4,2,22,60,0,0
269706,727.272727272727,4,2,22,30,1,0
269706,-133.333333333333,4,2,22,30,0,0
316251,-400,4,2,22,30,0,0

[HitObjects]
56,17,2133,6,0,L|77:112,1,85,6|0,1:0|1:0,1:0:0:0:
140,149,2335,1,0,1:0:0:0:
140,149,2403,2,0,L|123:238,1,85,0|0,1:0|1:0,1:0:0:0:
108,309,2605,1,0,1:0:0:0:
102,318,2673,1,0,1:0:0:0:
130,348,2740,1,0,1:0:0:0:
171,355,2808,1,0,1:0:0:0:
208,336,2875,1,0,1:0:0:0:
227,299,2943,1,0,1:0:0:0:
246,262,3011,1,0,1:0:0:0:
283,243,3078,1,0,1:0:0:0:
324,250,3146,1,0,1:0:0:0:
353,281,3213,6,0,L|340:384,1,85,0|0,1:0|1:0,1:0:0:0:
426,350,3415,1,0,1:0:0:0:
426,350,3483,2,0,L|439:247,1,85,0|0,1:0|1:0,1:0:0:0:
426,178,3685,1,0,1:0:0:0:
433,188,3753,1,0,1:0:0:0:
399,213,3820,1,0,1:0:0:0:
358,218,3888,1,0,1:0:0:0:
319,201,3955,1,0,1:0:0:0:
295,167,4023,1,0,1:0:0:0:
292,125,4090,1,0,1:0:0:0:
311,87,4158,1,0,1:0:0:0:
347,65,4225,1,0,1:0:0:0:
389,64,4293,6,0,P|410:72|434:94,1,42.5,6|0,1:0|1:0,1:0:0:0:
512,0,4428,2,0,L|497:94,1,85,0|0,1:0|1:0,1:0:0:0:
347,65,4698,2,0,L|360:148,1,85,0|0,1:0|1:0,1:0:0:0:
170,10,4968,6,0,L|291:-2,1,106.25,0|0,1:0|1:0,1:0:0:0:
106,154,5238,2,0,L|-15:142,1,106.25,0|0,1:0|1:0,1:0:0:0:
270,213,5508,6,0,B|254:154|254:154|256:150|256:150|238:81,1,127.500004863739,0|0,1:0|1:0,1:0:0:0:
72,257,5778,1,0,1:0:0:0:
123,346,5913,1,0,1:0:0:0:
143,342,5980,1,0,1:0:0:0:
164,338,6048,2,0,L|196:329,3,21.25,0|0|0|0,1:0|1:0|1:0|1:0,1:0:0:0:
262,306,6183,1,0,1:0:0:0:
273,356,6250,1,0,1:0:0:0:
316,384,6318,1,0,1:0:0:0:
367,373,6385,1,0,1:0:0:0:
395,330,6453,6,0,L|382:222,1,85,6|0,1:0|1:0,1:0:0:0:
476,197,6723,1,0,1:0:0:0:
289,161,6858,6,0,L|421:149,1,106.25,0|0,1:0|1:0,1:0:0:0:
221,58,7128,2,0,L|89:46,1,106.25,0|0,1:0|1:0,1:0:0:0:
10,210,7398,6,0,L|26:114,1,85,0|0,1:0|1:0,1:0:0:0:
123,301,7668,2,0,L|139:397,1,85,0|0,1:0|1:0,1:0:0:0:
171,139,7938,6,0,L|96:135,1,63.7500024318696,0|0,1:0|1:0,1:0:0:0:
212,254,8208,2,0,L|287:250,1,63.7500024318696,0|0,1:0|1:0,1:0:0:0:
295,348,8478,1,0,1:0:0:0:
448,99,8613,6,0,B|414:66|414:66|429:221,1,170,6|0,1:0|1:0,1:0:0:0:
433,280,9018,1,0,1:0:0:0:
181,144,9153,2,0,B|231:120|277:135|256:148|302:168|344:148,1,170,6|0,1:0|1:0,1:0:0:0:
211,246,9558,1,0,1:0:0:0:
299,35,9693,5,6,1:0:0:0:
299,35,9760,1,0,1:0:0:0:
299,35,9828,2,0,L|304:70,2,21.25,0|0|0,1:0|1:0|1:0,1:0:0:0:
201,116,9963,5,6,1:0:0:0:
201,116,10030,1,0,1:0:0:0:
201,116,10098,2,0,L|196:81,2,21.25,0|0|0,1:0|1:0|1:0,1:0:0:0:
49,91,10233,5,14,1:2:0:0:
59,84,10300,1,8,1:2:0:0:
79,78,10368,1,8,1:2:0:0:
107,86,10435,1,8,1:2:0:0:
125,119,10503,1,14,1:2:0:0:
115,160,10570,1,8,1:2:0:0:
82,190,10638,1,8,1:2:0:0:
33,180,10705,1,8,1:2:0:0:
12,131,10773,6,0,P|8:84|2:13,1,85,14|0,1:2|1:0,0:0:0:0:
128,261,11043,1,10,2:0:0:0:
84,270,11110,1,0,1:0:0:0:
43,255,11178,1,0,1:0:0:0:
211,185,11313,6,0,P|205:233|203:302,1,85,0|0,1:0|1:0,0:0:0:0:
227,299,11515,1,0,1:0:0:0:
242,309,11583,1,10,2:0:0:0:
273,304,11650,1,0,1:0:0:0:
304,299,11718,1,0,1:0:0:0:
336,294,11785,1,0,1:0:0:0:
367,289,11853,6,0,P|382:336|379:373,1,85,0|0,1:0|1:0,0:0:0:0:
275,136,12123,1,10,2:0:0:0:
316,128,12190,1,0,1:0:0:0:
355,144,12258,1,0,1:0:0:0:
392,159,12325,1,0,1:0:0:0:
432,151,12393,6,0,P|454:114|456:72,1,85,0|0,1:0|1:0,0:0:0:0:
331,212,12663,2,0,P|323:253|335:293,1,85,10|0,0:0|1:0,0:0:0:0:
342,49,12933,6,0,B|260:60|260:60|257:65|257:65|158:78,1,170,6|10,1:0|2:0,0:0:0:0:
44,0,13338,6,0,L|57:102,1,85,0|0,0:0|1:0,0:0:0:0:
68,172,13608,2,0,L|81:274,1,85,0|10,0:0|2:0,0:0:0:0:
153,46,13878,6,0,L|166:160,1,106.25,0|0,0:0|1:0,0:0:0:0:
190,282,14148,1,0,0:0:0:0:
305,146,14283,6,0,P|253:138|289:171,1,127.5,14|0,0:0|0:0,0:0:0:0:
358,197,14553,2,0,P|343:143|344:92,1,85,14|0,0:0|0:0,0:0:0:0:
405,78,14755,2,0,B|358:77|358:77|357:80|357:80|300:77,1,85,14|0,0:0|0:0,0:0:0:0:
270,28,14958,1,14,0:0:0:0:
486,0,15093,6,0,L|477:103,1,85,6|0,1:0|1:0,0:0:0:0:
463,214,15363,1,10,1:2:0:0:
464,203,15430,1,0,1:0:0:0:
465,192,15498,1,0,1:0:0:0:
467,182,15565,1,0,1:0:0:0:
468,171,15633,1,0,1:0:0:0:
452,307,15768,1,0,0:0:0:0:
351,185,15903,5,10,0:0:0:0:
337,384,16038,2,0,L|325:242,1,127.5,4|0,1:0|1:0,0:0:0:0:
255,318,16308,1,0,1:0:0:0:
255,318,16375,1,0,1:0:0:0:
255,318,16443,6,0,P|201:309|157:317,1,85,14|0,0:0|1:0,0:0:0:0:
50,384,16713,1,4,1:0:0:0:
78,352,16780,1,0,1:0:0:0:
87,311,16848,1,0,1:0:0:0:
74,271,16915,1,0,1:0:0:0:
44,243,16983,2,0,P|13:180|42:101,1,127.5,14|0,0:0|1:0,0:0:0:0:
81,71,17253,6,0,P|97:115|92:164,1,85,6|0,0:0|1:0,0:0:0:0:
6,31,17523,1,8,2:0:0:0:
6,31,17590,1,0,1:0:0:0:
6,31,17658,1,0,1:0:0:0:
179,173,17793,2,0,P|158:216|121:246,1,85,6|0,1:0|1:0,0:0:0:0:
106,82,18063,1,10,2:0:0:0:
137,77,18130,1,0,1:0:0:0:
169,72,18198,1,0,1:0:0:0:
200,68,18265,1,0,1:0:0:0:
232,63,18333,5,4,1:0:0:0:
235,73,18400,1,0,1:0:0:0:
238,83,18468,1,0,1:0:0:0:
241,93,18535,1,0,1:0:0:0:
244,103,18603,1,12,1:2:0:0:
248,82,18670,1,0,1:0:0:0:
253,61,18738,1,0,1:0:0:0:
257,40,18805,1,0,1:0:0:0:
262,19,18873,5,12,1:2:0:0:
232,48,18940,1,8,1:2:0:0:
221,89,19008,1,8,1:2:0:0:
232,129,19075,1,8,1:2:0:0:
263,159,19143,1,12,1:2:0:0:
293,188,19210,1,8,1:2:0:0:
304,228,19277,1,8,1:2:0:0:
293,269,19345,1,8,1:2:0:0:
264,299,19413,6,0,P|247:302|214:298,3,42.5,12|0|0|0,1:2|1:0|1:0|1:0,1:0:0:0:
127,151,19683,2,0,L|138:264,1,85,10|0,2:0|1:0,2:0:0:0:
48,114,19953,1,0,1:0:0:0:
68,77,20020,1,0,1:0:0:0:
104,57,20088,1,0,1:0:0:0:
146,60,20155,1,0,1:0:0:0:
179,86,20223,5,10,2:0:0:0:
57,308,20358,1,0,2:0:0:0:
57,308,20493,2,0,L|46:195,1,85,0|0,2:0|1:0,2:0:0:0:
229,368,20763,6,0,B|165:372|165:372|161:368|161:368|89:374,1,127.5,10|0,2:0|1:0,2:0:0:0:
157,298,21033,1,0,1:0:0:0:
157,298,21100,1,0,1:0:0:0:
157,298,21168,1,0,1:0:0:0:
288,170,21303,6,0,L|279:275,1,85,10|0,2:0|1:0,2:0:0:0:
394,34,21573,5,6,2:0:0:0:
402,135,21708,2,0,L|394:50,1,85,0|10,2:0|2:0,2:0:0:0:
480,258,21978,2,0,L|487:173,1,85,0|0,2:0|1:0,2:0:0:0:
344,351,22248,6,0,L|473:342,1,106.25,0|10,2:0|2:0,2:0:0:0:
284,185,22518,1,0,1:0:0:0:
257,185,22585,1,0,1:0:0:0:
230,186,22653,1,0,1:0:0:0:
101,191,22788,1,0,2:0:0:0:
180,0,22923,6,0,L|172:151,1,127.5,14|0,2:0|2:0,2:0:0:0:
101,175,23193,2,0,L|191:222,1,85,14|0,2:0|2:0,2:0:0:0:
179,298,23395,2,0,L|266:260,1,85,14|0,2:0|2:0,2:0:0:0:
328,280,23598,1,14,2:0:0:0:
180,382,23733,6,0,L|88:366,1,85,6|0,2:0|1:0,2:0:0:0:
6,190,24003,1,10,1:2:0:0:
47,198,24070,1,0,1:0:0:0:
86,182,24138,1,0,1:0:0:0:
123,167,24205,1,0,1:0:0:0:
163,174,24273,1,0,1:0:0:0:
25,52,24408,1,0,1:0:0:0:
25,52,24475,1,0,1:0:0:0:
25,52,24543,5,10,2:0:0:0:
126,267,24678,2,0,L|316:235,1,170,4|0,2:0|1:0,2:0:0:0:
363,292,25015,1,0,1:0:0:0:
363,292,25083,2,0,L|382:392,1,85,14|0,2:0|1:0,2:0:0:0:
477,303,25353,1,4,1:0:0:0:
469,261,25420,1,0,1:0:0:0:
461,219,25488,1,0,1:0:0:0:
453,177,25555,1,0,1:0:0:0:
445,135,25623,2,0,B|419:40|419:40|408:68,1,127.5,12|0,2:2|2:0,2:0:0:0:
369,128,25893,6,0,P|315:125|263:76,1,106.25,4|0,2:0|1:0,2:0:0:0:
260,261,26163,2,0,P|223:220|221:149,1,106.25,8|0,2:2|1:0,2:0:0:0:
108,221,26433,2,0,P|111:167|160:115,1,106.25,4|0,2:0|1:0,2:0:0:0:
51,85,26703,2,0,P|91:48|162:46,1,106.25,8|0,2:2|1:0,2:0:0:0:
406,363,26973,5,4,1:0:0:0:
411,337,27040,1,0,1:0:0:0:
417,311,27108,1,0,1:0:0:0:
423,285,27175,1,0,1:0:0:0:
429,259,27243,1,12,1:2:0:0:
377,272,27310,1,0,1:0:0:0:
326,285,27378,1,0,1:0:0:0:
274,298,27445,1,0,1:0:0:0:
223,312,27513,5,12,1:2:0:0:
183,277,27580,1,8,1:2:0:0:
168,227,27648,1,8,1:2:0:0:
182,176,27715,1,8,1:2:0:0:
220,140,27783,1,12,1:2:0:0:
216,89,27850,1,8,1:2:0:0:
174,59,27918,1,8,1:2:0:0:
124,73,27985,1,8,1:2:0:0:
104,121,28053,6,0,B|122:227|26:248|-33:210|-52:126|-42:46|26:11|93:20|152:11|238:-60|287:31|344:81|307:74|345:134|471:100|471:100|419:174|345:133|345:133|286:300|364:384|493:356|527:291|507:178|507:178|438:245|360:216|360:216|289:186|237:243|237:243|274:266|279:318|255:361|233:371|233:371|246:338|222:304,1,1876.80000286377,12|6,1:2|1:0,0:0:0:0:
33,328,36558,5,2,1:0:0:0:
33,328,36625,1,0,1:0:0:0:
33,328,36693,2,0,L|91:325,1,42.5,6|0,1:0|0:0,0:0:0:0:
175,274,36963,2,0,L|117:271,1,42.5,2|0,0:0|0:0,0:0:0:0:
32,221,37233,2,0,L|90:218,1,42.5,2|0,0:0|0:0,0:0:0:0:
167,161,37503,2,0,L|109:158,1,42.5,2|0,0:0|0:0,0:0:0:0:
0,79,37773,5,2,0:0:0:0:
17,28,37863,5,2,0:0:0:0:
65,10,37953,5,2,0:0:0:0:
118,68,38043,6,0,P|113:102|105:109,1,42.5,2|0,0:0|0:0,0:0:0:0:
178,0,38313,2,0,L|193:54,1,42.5,2|0,0:0|0:0,0:0:0:0:
260,67,38515,2,0,L|245:115,1,42.5,2|0,0:0|0:0,0:0:0:0:
222,189,38718,1,2,1:0:0:0:
274,254,38853,6,0,L|373:244,2,85,6|2|2,1:0|0:0|0:0,0:0:0:0:
226,339,39663,1,0,0:0:0:0:
136,319,39933,6,0,L|126:377,1,42.5,2|0,0:0|0:0,0:0:0:0:
44,240,40203,2,0,L|36:198,1,42.5,2|0,0:0|0:0,0:0:0:0:
128,229,40473,2,0,L|169:221,1,42.5,2|0,0:0|0:0,0:0:0:0:
53,327,40743,2,0,L|11:319,1,42.5,2|0,0:0|0:0,0:0:0:0:
111,151,41013,1,6,1:0:0:0:
127,144,41958,5,2,1:0:0:0:
119,113,42025,1,0,1:0:0:0:
111,82,42093,1,6,1:0:0:0:
345,20,42633,5,6,1:0:0:0:
323,161,42835,1,2,0:0:0:0:
412,109,43038,1,2,0:0:0:0:
215,119,43173,5,6,1:0:0:0:
218,148,43240,1,0,1:0:0:0:
221,177,43308,1,0,1:0:0:0:
225,206,43375,1,0,1:0:0:0:
228,235,43443,1,0,1:0:0:0:
231,264,43510,1,0,1:0:0:0:
235,293,43578,1,0,1:0:0:0:
238,322,43645,1,0,1:0:0:0:
240,351,43713,5,12,1:2:0:0:
256,347,43780,1,0,1:0:0:0:
272,343,43848,1,0,1:0:0:0:
287,340,43915,1,0,1:0:0:0:
303,336,43983,5,12,1:2:0:0:
345,341,44050,1,12,1:2:0:0:
387,347,44118,1,12,1:2:0:0:
429,352,44185,1,12,1:2:0:0:
471,358,44253,5,12,1:2:0:0:
485,198,44523,2,0,L|477:293,1,85,8|0,1:2|0:0,0:0:0:0:
492,113,44793,2,0,L|484:208,1,85,8|0,1:2|0:0,0:0:0:0:
501,2,45063,1,8,1:2:0:0:
407,172,45198,1,0,1:0:0:0:
407,172,45265,1,0,1:0:0:0:
407,172,45333,5,2,1:0:0:0:
253,92,45468,1,0,1:0:0:0:
372,2,45603,2,0,L|357:98,1,85,8|0,0:0|1:0,0:0:0:0:
148,275,45873,5,2,1:0:0:0:
302,195,46008,1,0,1:0:0:0:
183,105,46143,2,0,L|198:201,1,85,10|0,0:0|1:0,0:0:0:0:
50,130,46413,5,6,1:0:0:0:
18,112,46480,1,0,1:0:0:0:
1,79,46548,1,0,1:0:0:0:
7,43,46615,1,0,1:0:0:0:
32,16,46683,1,14,1:2:0:0:
68,10,46750,1,0,1:0:0:0:
101,23,46818,1,0,1:0:0:0:
121,54,46885,1,0,1:0:0:0:
119,91,46953,5,14,1:2:0:0:
126,142,47020,1,8,1:2:0:0:
162,180,47088,1,8,1:2:0:0:
213,192,47155,1,8,1:2:0:0:
262,172,47223,1,14,1:2:0:0:
291,129,47290,1,8,1:2:0:0:
290,77,47358,1,8,1:2:0:0:
260,34,47425,1,8,1:2:0:0:
210,15,47493,6,0,B|165:-5|112:24|131:34|90:65|42:41,1,170,14|8,1:2|0:0,0:0:0:0:
196,141,47898,1,0,0:0:0:0:
336,12,48033,2,0,P|328:55|328:111,1,85,0|0,1:0|0:0,0:0:0:0:
449,230,48303,2,0,P|457:187|457:131,1,85,8|0,0:0|1:0,0:0:0:0:
310,203,48573,5,0,1:0:0:0:
310,203,48708,1,0,0:0:0:0:
428,325,48843,2,0,L|525:315,1,85,8|0,0:0|0:0,0:0:0:0:
377,181,49113,1,0,1:0:0:0:
323,384,49248,1,0,0:0:0:0:
199,283,49383,2,0,P|245:269|284:271,1,85,8|0,0:0|0:0,0:0:0:0:
100,384,49653,6,0,L|81:286,1,85,0|0,1:0|0:0,0:0:0:0:
193,160,49923,2,0,L|177:244,1,85,8|0,0:0|0:0,0:0:0:0:
83,300,50193,1,0,1:0:0:0:
279,241,50328,1,0,0:0:0:0:
86,107,50463,2,0,L|102:190,1,85,8|0,0:0|1:0,0:0:0:0:
253,9,50733,6,0,P|171:9|140:33,1,85,0|0,1:0|0:0,0:0:0:0:
331,183,51003,2,0,P|413:183|444:159,1,85,8|0,0:0|0:0,0:0:0:0:
254,102,51273,1,0,1:0:0:0:
254,102,51408,1,0,0:0:0:0:
372,314,51543,1,8,0:0:0:0:
430,83,51678,1,0,0:0:0:0:
263,268,51813,6,0,L|167:279,1,85,0|0,1:0|0:0,0:0:0:0:
389,328,52083,2,0,L|485:339,1,85,8|0,0:0|0:0,0:0:0:0:
254,180,52353,1,0,1:0:0:0:
311,376,52488,1,0,0:0:0:0:
381,136,52623,2,0,P|370:219|375:248,1,85,8|0,0:0|1:0,0:0:0:0:
497,56,52893,6,0,L|402:39,1,85,0|0,1:0|0:0,0:0:0:0:
181,165,53163,2,0,L|276:148,1,85,8|0,0:0|0:0,0:0:0:0:
60,65,53433,1,0,1:0:0:0:
142,262,53568,1,0,0:0:0:0:
257,73,53703,2,0,L|173:87,1,85,8|0,0:0|0:0,0:0:0:0:
33,286,53973,6,0,B|46:223|46:223|51:255,1,85,0|0,1:0|0:0,0:0:0:0:
223,360,54243,2,0,B|210:297|210:297|205:329,1,85,8|0,0:0|1:0,0:0:0:0:
349,248,54513,2,0,B|362:185|362:185|367:217,1,85,0|0,1:0|0:0,0:0:0:0:
512,340,54783,2,0,B|499:277|499:277|494:309,1,85,8|0,0:0|1:0,0:0:0:0:
349,273,55053,5,0,1:0:0:0:
471,166,55188,1,0,1:0:0:0:
343,66,55323,1,12,1:2:0:0:
293,51,55390,1,0,1:0:0:0:
247,76,55458,1,0,1:0:0:0:
232,126,55525,1,0,1:0:0:0:
255,172,55593,1,12,1:2:0:0:
257,223,55660,1,8,1:2:0:0:
222,261,55728,1,8,1:2:0:0:
170,262,55795,1,8,1:2:0:0:
132,227,55863,2,0,P|133:201|149:176,3,42.5,12|8|8|8,1:2|1:2|1:2|1:2,0:0:0:0:
13,49,56133,6,0,B|23:134|23:134|27:136|27:136|37:215,1,170,12|8,1:2|0:0,0:0:0:0:
61,331,56538,1,0,0:0:0:0:
181,124,56673,2,0,P|130:116|91:123,1,85,0|0,1:0|0:0,0:0:0:0:
227,274,56943,2,0,P|277:264|311:244,1,85,8|0,0:0|1:0,0:0:0:0:
155,28,57213,6,0,L|136:130,1,85,0|0,1:0|0:0,0:0:0:0:
278,64,57483,2,0,L|259:166,1,85,8|0,0:0|0:0,0:0:0:0:
416,94,57753,2,0,L|397:196,1,85,0|0,1:0|0:0,0:0:0:0:
285,23,58023,1,8,0:0:0:0:
257,185,58158,1,0,0:0:0:0:
1,57,58293,6,0,P|55:40|90:43,1,85,0|0,1:0|0:0,0:0:0:0:
235,118,58563,2,0,P|205:89|166:71,1,85,8|0,0:0|0:0,0:0:0:0:
287,193,58833,2,0,P|304:247|301:282,1,85,0|0,1:0|0:0,0:0:0:0:
225,131,59103,2,0,P|194:101|156:84,1,85,8|0,0:0|1:0,0:0:0:0:
17,337,59373,5,0,1:0:0:0:
17,337,59508,1,0,0:0:0:0:
94,194,59643,2,0,L|105:312,1,85,8|0,0:0|0:0,0:0:0:0:
215,356,59913,2,0,L|204:238,1,85,0|0,1:0|0:0,0:0:0:0:
76,179,60183,2,0,L|87:297,1,85,8|0,0:0|0:0,0:0:0:0:
280,188,60453,6,0,P|232:182|179:192,1,85,0|0,1:0|0:0,0:0:0:0:
314,306,60723,2,0,P|360:298|406:273,1,85,8|0,0:0|0:0,0:0:0:0:
246,104,60993,2,0,P|207:133|177:178,1,85,0|0,1:0|0:0,0:0:0:0:
365,212,61263,1,8,0:0:0:0:
365,212,61398,1,0,1:0:0:0:
469,45,61533,6,0,L|460:144,1,85,0|0,1:0|0:0,0:0:0:0:
366,194,61803,1,8,0:0:0:0:
335,21,61938,1,0,0:0:0:0:
461,152,62073,2,0,L|452:251,1,85,0|0,1:0|0:0,0:0:0:0:
263,111,62343,6,0,P|333:109|381:99,1,85,8|0,0:0|0:0,0:0:0:0:
49,37,62613,1,0,1:0:0:0:
211,224,62748,1,0,1:0:0:0:
170,14,62883,1,8,1:2:0:0:
90,247,63018,1,0,1:0:0:0:
251,107,63153,1,0,1:0:0:0:
9,154,63288,5,0,1:0:0:0:
9,154,63356,1,0,1:0:0:0:
9,154,63423,1,8,1:2:0:0:
236,250,63558,1,0,1:0:0:0:
236,250,63626,1,0,1:0:0:0:
236,250,63693,1,0,1:0:0:0:
169,43,63828,1,0,1:0:0:0:
12,307,63963,5,12,1:2:0:0:
41,263,64030,1,0,1:0:0:0:
90,247,64098,1,0,1:0:0:0:
140,264,64165,1,0,1:0:0:0:
169,307,64233,5,12,1:2:0:0:
206,343,64300,1,8,1:2:0:0:
258,347,64368,1,8,1:2:0:0:
301,317,64435,1,8,1:2:0:0:
315,267,64503,1,12,1:2:0:0:
296,218,64570,1,8,1:2:0:0:
251,192,64638,1,8,1:2:0:0:
199,198,64705,1,8,1:2:0:0:
162,234,64773,6,0,L|175:333,1,93.5000028533936,12|0,1:2|1:0,1:0:0:0:
131,384,64976,1,2,1:0:0:0:
131,384,65043,1,2,1:0:0:0:
46,272,65178,1,2,1:0:0:0:
140,120,65313,5,2,1:0:0:0:
143,137,65381,1,0,1:0:0:0:
125,42,65516,1,2,1:0:0:0:
122,25,65584,1,8,2:0:0:0:
157,217,65718,1,2,0:0:0:0:
0,128,65853,6,0,P|43:89|93:96,1,93.5000028533936,2|0,1:0|1:0,0:0:0:0:
143,137,66056,2,0,P|186:151|228:133,1,93.5000028533936,2|0,1:0|1:0,0:0:0:0:
257,62,66258,1,2,1:0:0:0:
300,149,66393,5,2,1:0:0:0:
313,139,66461,1,0,1:0:0:0:
442,114,66596,1,2,1:0:0:0:
426,110,66664,1,10,2:0:0:0:
340,19,66798,1,2,0:0:0:0:
383,185,66933,6,0,L|398:296,1,93.5000028533936,2|0,1:0|1:0,0:0:0:0:
481,300,67136,2,0,L|469:208,1,93.5000028533936,2|0,1:0|1:0,0:0:0:0:
380,171,67338,1,2,1:0:0:0:
344,347,67473,5,2,1:0:0:0:
351,355,67541,2,0,P|298:358|264:331,1,93.5000028533936,0|0,1:0|1:0,0:0:0:0:
248,251,67743,1,10,0:0:0:0:
175,384,67878,1,2,0:0:0:0:
41,300,68013,2,0,L|143:284,1,93.5000028533936,2|0,1:0|1:0,0:0:0:0:
173,217,68216,1,0,1:0:0:0:
173,217,68283,1,10,2:0:0:0:
64,179,68418,1,2,1:0:0:0:
248,347,68553,5,2,1:0:0:0:
193,105,68688,1,2,1:0:0:0:
110,342,68823,1,10,0:0:0:0:
309,207,68958,1,2,1:0:0:0:
50,185,69093,5,2,1:0:0:0:
170,0,69228,1,0,1:0:0:0:
170,0,69296,1,2,1:0:0:0:
170,0,69363,2,0,L|166:100,1,93.5000028533936,10|2,0:0|1:0,0:0:0:0:
28,69,69633,5,2,1:0:0:0:
61,37,69700,1,0,1:0:0:0:
106,30,69768,1,0,1:0:0:0:
147,52,69835,1,0,1:0:0:0:
166,93,69903,1,10,0:0:0:0:
174,137,69971,1,0,1:0:0:0:
208,168,70038,1,0,1:0:0:0:
254,172,70106,1,0,1:0:0:0:
294,149,70173,6,0,L|299:86,3,46.7500014266968,0|0|0|0,1:0|1:0|1:0|1:0,1:0:0:0:
369,3,70443,2,0,L|364:66,3,46.7500014266968,8|0|0|0,2:0|1:0|1:0|1:0,1:0:0:0:
408,165,70713,2,0,L|413:102,3,46.7500014266968,0|0|0|0,1:0|1:0|1:0|1:0,1:0:0:0:
483,20,70983,2,0,L|478:83,3,46.7500014266968,8|0|0|0,2:0|1:0|2:0|1:0,1:0:0:0:
452,246,71253,5,6,1:0:0:0:
399,239,71320,1,0,1:0:0:0:
347,232,71388,1,0,1:0:0:0:
352,306,71523,1,10,1:2:0:0:
391,311,71591,1,0,1:0:0:0:
431,317,71658,1,0,1:0:0:0:
286,353,71793,5,6,1:0:0:0:
256,357,71861,1,0,1:0:0:0:
226,362,71928,1,0,1:0:0:0:
220,288,72063,1,8,1:2:0:0:
242,284,72130,1,0,1:0:0:0:
265,281,72198,1,0,1:0:0:0:
149,192,72333,5,4,1:0:0:0:
143,226,72400,1,0,1:0:0:0:
137,261,72468,1,0,1:0:0:0:
131,295,72535,1,0,1:0:0:0:
125,330,72603,2,0,L|116:385,3,46.7500014266968,12|0|0|0,1:2|1:0|1:0|1:0,0:0:0:0:
234,188,72873,6,0,L|221:152,6,23.3750007133484,12|0|8|0|8|0|8,1:2|1:0|1:2|1:0|1:2|1:0|1:2,1:0:0:0:
187,75,73143,1,12,1:2:0:0:
142,49,73210,1,8,1:2:0:0:
91,52,73278,1,8,1:2:0:0:
50,85,73345,1,8,1:2:0:0:
36,134,73413,6,0,L|62:242,1,93.5000028533936,12|2,1:2|0:0,0:0:0:0:
303,225,73683,1,8,0:0:0:0:
93,72,73818,1,2,0:0:0:0:
199,329,73953,1,2,1:0:0:0:
253,50,74088,1,0,0:0:0:0:
58,225,74223,2,0,L|83:332,1,93.5000028533936,8|0,0:0|0:0,0:0:0:0:
199,173,74493,5,2,1:0:0:0:
180,160,74583,5,2,0:0:0:0:
180,186,74673,5,2,0:0:0:0:
295,100,74763,6,0,L|182:88,1,93.5000028533936,10|0,0:0|0:0,0:0:0:0:
438,0,75033,2,0,P|423:48|437:96,1,93.5000028533936,2|0,1:0|1:0,0:0:0:0:
496,131,75236,2,0,P|511:179|497:227,1,93.5000028533936,2|0,0:0|1:0,0:0:0:0:
460,280,75438,1,2,0:0:0:0:
284,223,75573,6,0,P|379:204|407:212,1,93.5000028533936,2|0,1:0|0:0,0:0:0:0:
294,361,75843,2,0,B|261:379|197:363|170:350,1,93.5000028533936,10|2,0:0|0:0,0:0:0:0:
116,291,76113,1,2,1:0:0:0:
274,210,76248,1,0,0:0:0:0:
59,112,76383,2,0,L|76:226,1,93.5000028533936,8|0,0:0|1:0,0:0:0:0:
193,18,76653,6,0,P|147:11|132:20,3,46.7500014266968,2|0|2|0,1:0|1:0|1:0|1:0,1:0:0:0:
253,101,76923,2,0,P|290:73|294:56,3,46.7500014266968,10|0|2|0,2:0|1:0|1:1|1:0,1:0:0:0:
166,106,77193,2,0,P|159:152|168:167,3,46.7500014266968,2|0|0|0,1:0|1:0|1:0|1:0,1:0:0:0:
38,99,77463,1,10,2:0:0:0:
44,133,77530,1,8,2:0:0:0:
51,167,77598,1,8,2:0:0:0:
57,202,77665,1,8,2:0:0:0:
64,236,77733,6,0,L|86:357,1,93.5000028533936,10|0,2:0|3:0,0:0:0:0:
147,384,77936,2,0,L|174:286,1,93.5000028533936,0|0,0:0|3:0,0:0:0:0:
216,176,78138,1,2,0:0:0:0:
277,384,78273,1,2,1:0:0:0:
277,384,78341,1,0,1:0:0:0:
277,384,78408,1,0,1:0:0:0:
345,183,78543,1,10,0:0:0:0:
154,276,78678,1,2,0:0:0:0:
372,310,78813,6,0,L|485:291,1,93.5000028533936,2|0,1:0|0:0,0:0:0:0:
267,264,79083,1,10,0:0:0:0:
473,205,79218,1,0,0:0:0:0:
334,37,79353,5,2,1:0:0:0:
340,49,79421,1,0,1:0:0:0:
416,156,79556,1,2,1:0:0:0:
422,144,79624,1,0,1:0:0:0:
485,36,79758,1,2,0:0:0:0:
345,183,79893,5,2,1:0:0:0:
313,149,79960,1,0,1:0:0:0:
268,140,80028,1,0,1:0:0:0:
226,160,80095,1,2,1:2:0:0:
204,200,80163,1,10,1:2:0:0:
188,243,80230,1,0,1:0:0:0:
149,267,80298,1,2,1:0:0:0:
103,261,80365,1,0,1:0:0:0:
71,229,80433,1,2,1:0:0:0:
115,217,80500,1,0,1:0:0:0:
161,226,80568,1,0,1:0:0:0:
198,254,80635,1,0,1:0:0:0:
219,295,80703,1,10,1:2:0:0:
249,330,80770,1,0,1:0:0:0:
293,345,80838,1,2,1:0:0:0:
338,335,80905,1,0,1:0:0:0:
372,305,80973,6,0,L|357:247,3,46.7500014266968,6|0|0|0,1:0|1:0|1:0|1:0,0:0:0:0:
444,165,81243,2,0,L|459:223,3,46.7500014266968,14|0|0|0,1:2|1:2|1:0|1:0,0:0:0:0:
326,99,81513,5,14,1:2:0:0:
326,99,81581,1,8,1:2:0:0:
326,99,81649,2,0,L|262:104,1,46.7500014266968,8|8,1:2|1:2,0:0:0:0:
140,255,81783,1,14,1:2:0:0:
140,255,81850,1,8,1:2:0:0:
140,255,81918,2,0,L|204:260,1,46.7500014266968,8|8,1:2|1:2,0:0:0:0:
13,136,82053,6,0,B|123:32|296:152|216:217|366:317|450:302|499:221|499:221|463:175|370:157|299:226|318:318,1,843.199966547853,6|6,1:2|1:0,0:0:0:0:
464,0,90693,6,0,L|453:72,1,63.7500024318696,4|0,1:0|1:0,0:0:0:0:
369,125,90963,2,0,L|359:61,1,63.7500024318696,0|0,0:0|1:0,0:0:0:0:
486,150,91233,2,0,L|475:222,1,63.7500024318696,0|0,0:0|1:0,0:0:0:0:
391,275,91503,2,0,L|381:211,1,63.7500024318696,0|0,0:0|1:0,0:0:0:0:
236,360,91773,5,2,0:0:0:0:
380,304,91908,1,0,0:0:0:0:
244,193,92043,2,0,P|252:232|258:277,1,63.7500024318696,2|0,0:0|0:0,0:0:0:0:
84,308,92313,1,2,0:0:0:0:
8,253,92448,1,0,0:0:0:0:
2,161,92583,1,2,0:0:0:0:
69,97,92718,1,0,1:0:0:0:
161,107,92853,6,0,P|226:112|248:104,1,63.7500024318696,4|0,1:0|1:0,0:0:0:0:
78,0,93123,2,0,P|13:10|-5:23,1,63.7500024318696,0|0,0:0|1:0,0:0:0:0:
119,183,93393,1,0,0:0:0:0:
219,32,93528,1,0,1:0:0:0:
69,97,93663,2,0,P|38:87|6:87,1,63.7500024318696,0|0,0:0|1:0,0:0:0:0:
39,228,93933,5,2,0:0:0:0:
66,315,94068,1,0,0:0:0:0:
153,345,94203,1,2,0:0:0:0:
229,292,94338,1,0,0:0:0:0:
230,200,94473,2,0,P|227:174|217:136,1,63.7500024318696,2|0,0:0|0:0,0:0:0:0:
309,312,94743,1,2,0:0:0:0:
148,263,94878,1,0,1:0:0:0:
298,93,95013,6,0,P|300:135|311:174,1,63.7500024318696,6|2,1:0|0:0,0:0:0:0:
416,36,95283,2,0,P|414:78|403:117,1,63.7500024318696,2|2,0:0|0:0,0:0:0:0:
428,233,95553,1,2,0:0:0:0:
484,85,95688,1,2,0:0:0:0:
362,294,95823,1,2,0:0:0:0:
307,161,95958,1,2,0:0:0:0:
485,305,96093,6,0,L|474:376,1,63.7500024318696,6|2,1:0|0:0,0:0:0:0:
439,146,96363,1,2,0:0:0:0:
439,146,96498,1,2,0:0:0:0:
349,305,96633,6,0,L|360:376,1,63.7500024318696,6|2,1:0|0:0,0:0:0:0:
286,197,96903,1,2,0:0:0:0:
227,350,97038,1,2,1:0:0:0:
227,350,97106,1,0,1:0:0:0:
227,350,97173,6,0,L|149:340,1,63.7500024318696,6|2,1:0|1:0,0:0:0:0:
9,292,97443,2,0,L|87:282,1,63.7500024318696,10|2,1:2|1:0,0:0:0:0:
271,219,97713,6,0,L|167:207,1,85,6|2,2:0|1:0,0:0:0:0:
0,146,97983,2,0,L|29:142,7,21.25,10|2|2|2|2|2|2|0,2:0|1:0|1:0|1:0|1:0|1:0|1:0|0:0,0:0:0:0:
78,100,98253,5,6,1:0:0:0:
82,58,98320,1,0,1:0:0:0:
105,23,98388,1,0,1:0:0:0:
142,3,98455,1,0,1:0:0:0:
184,3,98523,1,8,1:2:0:0:
221,23,98590,1,0,1:0:0:0:
244,58,98658,1,0,1:0:0:0:
248,100,98725,1,0,1:0:0:0:
232,139,98793,1,0,1:2:0:0:
224,179,98861,1,0,1:0:0:0:
238,219,98928,1,0,1:0:0:0:
274,251,98996,1,0,1:0:0:0:
310,258,99063,1,8,1:2:0:0:
351,248,99131,1,0,1:0:0:0:
382,221,99198,1,0,1:0:0:0:
397,181,99266,1,0,1:0:0:0:
390,139,99333,5,0,1:0:0:0:
365,148,99400,1,0,1:0:0:0:
340,157,99468,1,0,1:0:0:0:
315,167,99535,1,0,1:0:0:0:
290,176,99603,1,8,1:2:0:0:
265,186,99670,1,0,1:0:0:0:
241,195,99738,1,0,1:0:0:0:
216,205,99805,1,0,1:0:0:0:
191,214,99873,2,0,L|171:148,3,42.5,0|0|0|0,1:0|1:0|1:0|1:0,1:0:0:0:
86,245,100143,2,0,L|73:204,3,42.5,8|0|0|0,1:2|1:0|1:0|1:0,1:0:0:0:
61,95,100413,5,0,1:0:0:0:
23,114,100480,1,0,1:0:0:0:
0,151,100548,1,0,1:0:0:0:
1,194,100615,1,0,1:0:0:0:
25,230,100683,1,8,1:2:0:0:
64,248,100750,1,0,1:0:0:0:
107,242,100818,1,0,1:0:0:0:
140,214,100885,1,0,1:0:0:0:
153,173,100953,2,0,L|142:112,3,42.5,0|0|0|0,1:0|1:0|1:0|1:0,1:0:0:0:
306,231,101223,2,0,L|295:170,3,42.5,8|0|0|0,1:2|1:0|1:0|1:0,1:0:0:0:
486,255,101493,5,0,1:0:0:0:
479,223,101560,1,0,1:0:0:0:
473,192,101628,1,0,1:0:0:0:
467,161,101695,1,0,1:0:0:0:
461,129,101763,1,8,1:2:0:0:
455,98,101830,1,0,1:0:0:0:
449,67,101898,1,0,1:0:0:0:
443,36,101965,1,0,1:0:0:0:
436,4,102033,1,0,1:0:0:0:
385,0,102100,1,0,1:0:0:0:
338,16,102168,1,0,1:0:0:0:
311,61,102235,1,0,1:0:0:0:
317,113,102304,6,0,L|339:188,1,42.5,8|0,1:2|1:0,1:0:0:0:
359,266,102439,1,0,1:0:0:0:
175,190,102573,5,0,1:0:0:0:
205,147,102641,1,0,1:0:0:0:
255,131,102709,1,0,1:0:0:0:
304,148,102776,1,0,1:0:0:0:
334,191,102844,1,8,1:2:0:0:
332,243,102911,1,0,1:0:0:0:
299,284,102979,1,0,1:0:0:0:
249,297,103046,1,0,1:0:0:0:
200,278,103114,1,0,1:0:0:0:
153,254,103181,1,0,1:0:0:0:
101,256,103249,1,0,1:2:0:0:
56,284,103316,1,0,1:0:0:0:
31,329,103384,1,8,1:2:0:0:
77,352,103451,1,0,1:0:0:0:
130,350,103519,1,0,1:0:0:0:
174,322,103586,1,0,1:0:0:0:
200,278,103654,5,0,1:0:0:0:
206,220,103721,1,0,1:0:0:0:
243,176,103789,1,0,1:0:0:0:
298,158,103856,1,0,1:0:0:0:
353,173,103924,1,8,1:2:0:0:
391,217,103991,1,0,1:0:0:0:
400,274,104059,1,0,1:0:0:0:
376,326,104126,1,0,1:0:0:0:
327,357,104194,1,0,1:0:0:0:
280,324,104261,1,0,1:0:0:0:
264,269,104329,1,0,1:0:0:0:
284,215,104396,1,0,1:0:0:0:
334,186,104464,1,8,1:2:0:0:
380,152,104531,1,0,1:0:0:0:
397,98,104599,1,0,1:0:0:0:
376,44,104666,1,0,1:0:0:0:
327,15,104734,5,8,1:2:0:0:
279,56,104801,1,0,1:0:0:0:
264,117,104869,1,0,1:0:0:0:
286,176,104936,1,0,1:0:0:0:
338,212,105004,1,8,1:2:0:0:
400,213,105071,1,0,1:0:0:0:
453,178,105139,1,0,1:0:0:0:
476,120,105206,1,0,1:0:0:0:
462,58,105274,1,8,1:2:0:0:
402,41,105341,1,0,1:0:0:0:
343,63,105409,1,0,1:0:0:0:
308,115,105476,1,0,1:0:0:0:
310,177,105544,1,8,1:2:0:0:
286,235,105611,1,0,1:0:0:0:
233,268,105678,1,0,1:0:0:0:
170,263,105746,1,0,1:0:0:0:
122,223,105814,6,0,L|131:161,3,42.5,8|0|8|0,1:2|1:0|1:2|1:0,0:0:0:0:
365,286,106084,2,0,L|371:328,3,42.5,8|0|8|0,1:2|1:0|1:2|1:0,0:0:0:0:
82,106,106354,6,0,P|59:98|34:80,1,42.5,8|8,1:2|1:2,0:0:0:0:
232,346,106489,2,0,P|242:374|247:385,1,42.5,8|8,1:2|1:2,0:0:0:0:
245,65,106624,2,0,P|233:43|229:12,1,42.5,8|8,1:2|1:2,0:0:0:0:
88,324,106759,2,0,P|74:350|71:362,1,42.5,8|8,1:2|1:2,0:0:0:0:
410,93,106894,6,0,P|344:110|440:175,1,257.125007846832,12|0,1:2|1:0,0:0:0:0:
480,124,107704,2,0,P|472:189|485:243,1,114.749996498108,8|0,1:2|1:0,0:0:0:0:
474,313,107974,6,0,P|428:296|365:300,1,93.5000028533936,4|0,1:2|1:0,0:0:0:0:
343,365,108176,2,0,P|268:362|236:350,1,93.5000028533936,2|0,1:0|1:0,0:0:0:0:
189,311,108379,1,2,1:0:0:0:
237,145,108514,5,2,1:0:0:0:
234,160,108581,1,0,1:0:0:0:
117,249,108716,1,2,1:0:0:0:
117,235,108783,1,10,2:0:0:0:
123,84,108919,1,2,0:0:0:0:
239,249,109054,6,0,L|352:233,1,93.5000028533936,2|0,1:0|1:0,0:0:0:0:
402,279,109256,1,2,1:0:0:0:
402,279,109324,1,2,1:0:0:0:
474,182,109459,1,2,0:0:0:0:
353,24,109594,5,2,1:0:0:0:
353,24,109661,2,0,L|379:151,1,93.5000028533936,0|2,1:0|1:0,1:0:0:0:
441,174,109864,2,0,L|459:82,1,93.5000028533936,10|2,0:0|0:0,0:0:0:0:
309,195,110134,2,0,P|266:177|207:189,1,93.5000028533936,2|0,1:0|1:0,0:0:0:0:
162,231,110336,2,0,P|138:271|139:317,1,93.5000028533936,2|0,1:0|1:0,1:0:0:0:
199,366,110539,1,2,1:0:0:0:
0,144,110674,5,2,1:0:0:0:
0,144,110741,2,0,L|104:114,1,93.5000028533936,0|2,1:0|1:0,0:0:0:0:
160,83,110944,1,10,0:0:0:0:
58,28,111079,1,2,0:0:0:0:
112,241,111214,6,0,L|132:360,1,93.5000028533936,2|0,1:0|1:0,0:0:0:0:
203,370,111416,1,0,1:0:0:0:
203,370,111484,1,10,2:0:0:0:
226,165,111619,1,2,1:0:0:0:
302,384,111754,5,2,1:0:0:0:
448,208,111889,1,2,1:0:0:0:
210,265,112024,1,10,0:0:0:0:
445,366,112159,1,2,1:0:0:0:
317,148,112294,5,2,1:0:0:0:
348,281,112429,1,0,1:0:0:0:
348,281,112496,1,2,1:0:0:0:
348,281,112564,1,10,2:0:0:0:
423,123,112699,1,2,0:0:0:0:
288,38,112834,5,2,1:0:0:0:
245,19,112901,1,0,1:0:0:0:
200,29,112969,1,0,1:0:0:0:
168,62,113036,1,0,1:0:0:0:
161,107,113104,1,10,2:0:0:0:
143,149,113171,1,0,1:0:0:0:
105,174,113238,1,0,1:0:0:0:
59,172,113306,1,0,1:0:0:0:
21,145,113373,1,2,1:0:0:0:
60,111,113441,1,0,1:0:0:0:
111,102,113509,1,2,1:0:0:0:
160,120,113576,1,0,1:0:0:0:
193,160,113644,1,10,2:0:0:0:
200,212,113711,1,0,1:0:0:0:
181,260,113779,1,2,1:0:0:0:
139,292,113846,1,0,1:0:0:0:
88,298,113914,6,0,P|79:272|72:233,3,46.7500014266968,2|0|2|0,1:0|1:0|1:0|1:0,1:0:0:0:
249,92,114184,2,0,P|256:113|262:136,3,46.7500014266968,10|0|0|0,2:0|1:0|1:0|1:0,1:0:0:0:
473,29,114454,5,6,1:0:0:0:
436,0,114521,1,0,1:0:0:0:
390,0,114589,1,0,1:0:0:0:
353,27,114656,1,0,1:0:0:0:
341,71,114724,1,10,1:2:0:0:
357,114,114791,1,0,1:0:0:0:
396,139,114859,1,0,1:0:0:0:
442,134,114926,1,0,1:0:0:0:
475,103,114994,5,6,1:0:0:0:
433,120,115061,1,0,1:0:0:0:
407,158,115129,1,0,1:0:0:0:
407,204,115196,1,0,1:0:0:0:
434,241,115264,1,8,1:2:0:0:
476,257,115331,1,0,1:0:0:0:
502,295,115399,1,0,1:0:0:0:
502,341,115466,1,0,1:0:0:0:
475,378,115534,5,4,1:0:0:0:
440,373,115601,1,0,1:0:0:0:
405,369,115669,1,0,1:0:0:0:
370,365,115736,1,0,1:0:0:0:
335,361,115804,2,0,L|351:303,3,46.7500014266968,12|0|0|0,1:2|1:0|1:0|1:0,0:0:0:0:
222,159,116074,6,0,L|228:186,6,23.3750007133484,12|0|8|0|8|0|8,1:2|1:0|1:2|1:0|1:2|1:0|1:2,1:0:0:0:
166,380,116344,1,12,1:2:0:0:
109,384,116411,1,8,1:2:0:0:
64,348,116479,1,8,1:2:0:0:
57,291,116546,1,8,1:2:0:0:
90,245,116614,6,0,P|91:160|79:142,1,93.5000028533936,12|2,1:2|0:0,0:0:0:0:
6,90,116884,1,8,0:0:0:0:
139,308,117019,1,2,0:0:0:0:
160,42,117154,1,2,1:0:0:0:
0,235,117289,1,0,0:0:0:0:
227,181,117424,2,0,L|349:174,1,93.5000028533936,8|0,0:0|0:0,0:0:0:0:
112,140,117694,5,2,1:0:0:0:
112,166,117784,5,2,0:0:0:0:
131,153,117874,5,2,0:0:0:0:
25,70,117964,6,0,L|41:173,1,93.5000028533936,10|0,0:0|0:0,0:0:0:0:
137,31,118234,2,0,P|189:17|249:32,1,93.5000028533936,2|0,1:0|1:0,0:0:0:0:
280,95,118436,2,0,P|326:99|370:87,1,93.5000028533936,2|0,0:0|1:0,0:0:0:0:
422,27,118639,1,2,0:0:0:0:
483,141,118774,6,0,L|477:217,3,46.7500014266968,2|0|0|2,1:0|1:0|1:0|1:0,1:0:0:0:
324,354,119044,2,0,L|320:307,3,46.7500014266968,10|0|2|0,2:0|1:0|1:0|1:0,1:0:0:0:
402,93,119314,2,0,L|396:169,3,46.7500014266968,2|0|0|0,1:0|1:0|1:0|1:0,1:0:0:0:
164,384,119584,2,0,L|160:337,3,46.7500014266968,8|0|0|0,2:0|1:0|1:0|1:0,1:0:0:0:
156,104,119854,5,2,1:0:0:0:
102,82,119921,1,0,1:0:0:0:
46,95,119989,1,0,1:0:0:0:
8,138,120056,1,0,1:0:0:0:
1,195,120124,1,10,2:0:0:0:
29,246,120191,1,0,1:0:0:0:
80,271,120259,1,0,1:0:0:0:
137,262,120326,1,0,1:0:0:0:
179,223,120394,1,2,1:0:0:0:
221,184,120461,1,0,1:0:0:0:
278,173,120529,1,0,1:0:0:0:
332,193,120596,1,0,1:0:0:0:
367,239,120664,2,0,P|365:270|353:302,3,46.7500014266968,8|0|0|0,2:0|1:0|1:0|1:0,1:0:0:0:
476,339,120934,6,0,L|460:246,1,93.5000028533936,2|0,1:0|1:0,0:0:0:0:
418,185,121136,2,0,L|433:92,1,93.5000028533936,2|0,0:0|1:0,0:0:0:0:
494,42,121339,1,2,0:0:0:0:
348,109,121474,5,2,1:0:0:0:
337,116,121541,2,0,P|280:115|226:91,1,93.5000028533936,0|0,1:0|0:0,0:0:0:0:
195,33,121744,1,10,0:0:0:0:
132,222,121879,1,2,0:0:0:0:
0,102,122014,6,0,L|97:88,1,93.5000028533936,2|0,1:0|0:0,0:0:0:0:
216,252,122284,2,0,L|119:238,1,93.5000028533936,10|0,0:0|0:0,0:0:0:0:
333,156,122554,6,0,P|326:217|357:263,1,93.5000028533936,2|0,1:0|1:0,0:0:0:0:
399,300,122756,2,0,P|462:279|475:254,1,93.5000028533936,2|0,0:0|1:0,0:0:0:0:
484,169,122959,1,2,0:0:0:0:
315,178,123094,5,2,1:0:0:0:
304,234,123161,1,0,1:0:0:0:
328,286,123229,1,0,1:0:0:0:
378,314,123296,1,2,1:0:0:0:
435,308,123364,1,10,0:0:0:0:
478,270,123431,1,0,1:0:0:0:
490,214,123499,1,2,1:0:0:0:
468,161,123566,1,0,1:0:0:0:
419,131,123634,5,2,1:0:0:0:
377,171,123701,1,0,1:0:0:0:
321,181,123769,1,0,1:0:0:0:
269,156,123836,1,0,1:0:0:0:
241,106,123904,1,10,0:0:0:0:
201,64,123971,1,0,1:0:0:0:
144,55,124038,1,2,1:0:0:0:
92,78,124106,1,0,1:0:0:0:
63,128,124174,6,0,L|79:198,3,46.7500014266968,6|0|0|0,1:0|1:0|1:0|1:0,0:0:0:0:
305,327,124444,2,0,L|294:281,3,46.7500014266968,12|0|0|0,1:2|1:2|1:0|1:0,0:0:0:0:
512,85,124714,1,8,1:2:0:0:
473,143,124781,1,8,1:2:0:0:
454,210,124849,1,8,1:2:0:0:
457,280,124916,1,8,1:2:0:0:
482,345,124984,5,12,1:2:0:0:
462,294,125051,1,8,1:2:0:0:
415,265,125119,1,8,1:2:0:0:
358,275,125186,1,8,1:2:0:0:
324,322,125254,6,0,P|279:332|220:301,1,93.5000028533936,12|0,1:0|1:0,0:0:0:0:
68,126,125524,1,0,1:0:0:0:
160,382,125659,1,2,1:0:0:0:
287,251,125794,5,2,1:0:0:0:
291,234,125861,2,0,P|293:177|271:122,1,93.5000028533936,0|2,1:0|1:0,0:0:0:0:
219,95,126064,1,10,0:0:0:0:
68,264,126199,1,2,1:0:0:0:
32,44,126334,6,0,L|166:37,1,93.5000028533936,2|0,1:0|1:0,0:0:0:0:
197,88,126536,2,0,L|290:92,1,93.5000028533936,2|0,1:0|1:0,0:0:0:0:
355,45,126739,1,0,1:0:0:0:
465,218,126874,5,2,1:0:0:0:
469,203,126941,1,0,1:0:0:0:
365,132,127076,1,2,1:0:0:0:
369,147,127143,1,10,2:0:0:0:
385,317,127279,1,2,0:0:0:0:
441,75,127414,5,2,1:0:0:0:
305,265,127549,1,0,1:0:0:0:
305,265,127616,2,0,L|187:284,1,93.5000028533936,2|0,1:0|1:0,0:0:0:0:
158,344,127819,1,2,1:0:0:0:
75,191,127954,5,2,1:0:0:0:
75,191,128021,2,0,P|75:240|88:291,1,93.5000028533936,0|2,1:0|1:0,0:0:0:0:
154,327,128224,1,10,0:0:0:0:
231,203,128359,1,2,1:0:0:0:
155,94,128494,6,0,L|47:89,1,93.5000028533936,2|0,1:0|1:0,0:0:0:0:
22,23,128696,1,0,1:0:0:0:
22,23,128764,1,10,2:0:0:0:
152,191,128899,1,2,1:0:0:0:
378,51,129034,5,2,1:0:0:0:
289,313,129169,1,2,1:0:0:0:
237,42,129304,1,10,0:0:0:0:
433,221,129439,1,2,1:0:0:0:
168,205,129574,5,2,1:0:0:0:
297,166,129709,1,0,1:0:0:0:
297,166,129776,1,2,1:0:0:0:
297,166,129844,1,10,2:0:0:0:
202,331,129979,1,0,0:0:0:0:
51,61,130114,5,2,1:0:0:0:
27,100,130181,1,0,1:0:0:0:
29,146,130249,1,0,1:0:0:0:
55,184,130316,1,0,1:0:0:0:
98,201,130384,1,10,2:0:0:0:
130,233,130451,1,0,1:0:0:0:
140,278,130518,1,0,1:0:0:0:
124,321,130586,1,0,1:0:0:0:
86,348,130653,5,2,1:0:0:0:
55,305,130721,1,0,1:0:0:0:
49,254,130789,1,2,1:0:0:0:
68,206,130856,1,0,1:0:0:0:
108,173,130924,1,10,2:0:0:0:
160,164,130991,1,0,1:0:0:0:
209,181,131059,1,2,1:0:0:0:
244,219,131126,1,0,1:0:0:0:
256,270,131194,1,2,1:0:0:0:
286,312,131261,1,0,1:0:0:0:
334,331,131329,1,2,1:0:0:0:
386,323,131396,1,0,1:0:0:0:
425,289,131464,1,10,2:0:0:0:
441,240,131531,1,0,1:0:0:0:
429,189,131599,1,2,1:0:0:0:
392,153,131666,1,0,1:0:0:0:
348,146,131734,6,0,L|280:171,3,46.7500014266968,2|0|0|0,1:0|1:0|1:0|1:0,0:0:0:0:
468,16,132004,2,0,L|536:-9,3,46.7500014266968,8|0|0|0,2:0|1:0|1:0|1:0,1:0:0:0:
330,295,132274,2,0,L|262:320,3,46.7500014266968,2|0|0|0,1:0|1:0|1:0|1:0,0:0:0:0:
469,103,132544,2,0,L|537:78,3,46.7500014266968,8|0|0|0,2:0|1:0|1:0|1:0,1:0:0:0:
223,197,132814,5,8,1:2:0:0:
177,232,132881,1,0,1:0:0:0:
120,233,132949,1,8,1:2:0:0:
72,201,133016,1,0,1:0:0:0:
52,148,133084,2,0,L|68:89,3,46.7500014266968,8|0|8|0,1:2|1:2|1:2|1:2,1:0:0:0:
201,326,133354,6,0,L|194:366,6,23.3750007133484,12|0|8|0|8|0|8,1:2|1:0|1:2|1:0|1:2|1:0|1:2,1:0:0:0:
284,291,133624,1,12,1:2:0:0:
328,301,133691,1,8,0:2:0:0:
377,300,133759,1,8,1:2:0:0:
423,313,133826,1,8,1:2:0:0:
470,309,133894,6,0,P|501:237|491:196,1,93.5000028533936,12|2,1:2|0:0,0:0:0:0:
303,144,134164,1,8,0:0:0:0:
398,384,134299,1,0,0:0:0:0:
491,98,134434,2,0,L|379:85,1,93.5000028533936,2|0,1:0|0:0,0:0:0:0:
199,229,134704,2,0,L|311:216,1,93.5000028533936,8|0,0:0|0:0,0:0:0:0:
138,126,134974,5,2,1:0:0:0:
135,161,135064,5,2,0:0:0:0:
168,146,135154,5,2,0:0:0:0:
68,19,135244,6,0,L|53:136,1,93.5000028533936,10|0,0:0|0:0,0:0:0:0:
0,294,135514,2,0,P|47:291|113:273,1,93.5000028533936,2|0,1:0|1:0,0:0:0:0:
173,229,135716,2,0,P|226:232|264:246,1,93.5000028533936,2|0,0:0|1:0,0:0:0:0:
313,312,135919,1,2,0:0:0:0:
373,87,136054,6,0,L|362:201,1,93.5000028533936,2|0,1:0|0:0,0:0:0:0:
218,20,136324,2,0,L|229:134,1,93.5000028533936,10|2,0:0|0:0,0:0:0:0:
152,277,136594,1,2,1:0:0:0:
335,197,136729,1,0,0:0:0:0:
131,1,136864,2,0,L|142:115,1,93.5000028533936,8|0,1:2|1:0,0:0:0:0:
72,310,137134,5,2,1:0:0:0:
58,265,137201,1,0,1:0:0:0:
68,220,137269,1,0,1:0:0:0:
98,185,137336,1,0,1:0:0:0:
142,169,137404,1,10,2:0:0:0:
188,175,137471,1,0,1:0:0:0:
225,203,137539,1,0,1:0:0:0:
244,245,137606,1,0,1:0:0:0:
241,291,137674,5,2,1:0:0:0:
244,347,137741,1,0,1:0:0:0:
288,383,137809,1,0,1:0:0:0:
344,377,137876,1,0,1:0:0:0:
378,331,137944,1,8,1:2:0:0:
370,273,138011,1,0,1:0:0:0:
362,215,138079,1,0,1:0:0:0:
353,157,138146,1,0,1:0:0:0:
345,100,138214,6,0,L|328:3,1,93.5000028533936,2|0,1:0|1:0,0:0:0:0:
422,43,138416,2,0,L|439:140,1,93.5000028533936,2|0,0:0|1:0,0:0:0:0:
460,214,138619,1,2,0:0:0:0:
258,195,138754,1,2,1:0:0:0:
258,195,138821,1,0,1:0:0:0:
258,195,138889,1,0,1:0:0:0:
417,67,139024,1,8,0:0:0:0:
367,278,139159,1,2,0:0:0:0:
195,61,139294,5,2,1:0:0:0:
353,157,139429,1,0,0:0:0:0:
245,328,139564,2,0,L|223:213,1,93.5000028533936,10|0,0:0|0:0,0:0:0:0:
31,344,139834,6,0,P|119:325|151:343,1,93.5000028533936,2|0,1:0|1:0,0:0:0:0:
191,366,140036,2,0,P|252:377|303:348,1,93.5000028533936,2|0,0:0|1:0,0:0:0:0:
344,314,140239,1,2,0:0:0:0:
458,51,140374,5,2,1:0:0:0:
407,23,140441,1,0,1:0:0:0:
350,32,140509,1,0,1:0:0:0:
310,74,140576,1,2,1:0:0:0:
303,131,140644,1,10,2:0:0:0:
332,180,140711,1,0,1:0:0:0:
385,202,140779,1,0,1:0:0:0:
441,188,140846,1,0,1:0:0:0:
477,143,140914,1,2,1:0:0:0:
431,108,140981,1,0,1:0:0:0:
374,101,141049,1,0,1:0:0:0:
321,124,141116,1,0,1:0:0:0:
288,171,141184,1,10,2:0:0:0:
254,218,141252,1,0,1:0:0:0:
202,241,141319,1,0,1:0:0:0:
145,234,141387,1,0,1:0:0:0:
99,199,141454,6,0,L|86:133,3,46.7500014266968,6|0|0|0,1:0|1:0|1:0|1:0,0:0:0:0:
322,339,141724,2,0,L|309:405,3,46.7500014266968,12|0|0|0,1:2|1:2|1:0|1:0,0:0:0:0:
219,76,141994,2,0,L|206:10,3,46.7500014266968,4|0|0|0,1:0|1:0|1:0|1:0,1:0:0:0:
451,338,142264,2,0,L|438:404,3,46.7500014266968,12|0|4|0,2:0|1:0|1:0|1:0,1:0:0:0:
103,326,142534,5,12,1:2:0:0:
67,297,142601,1,0,1:2:0:0:
51,253,142669,1,0,1:2:0:0:
59,208,142736,1,0,1:2:0:0:
89,173,142804,1,8,1:2:0:0:
133,159,142871,1,0,1:2:0:0:
178,170,142939,1,0,1:2:0:0:
212,202,143006,1,0,1:2:0:0:
224,246,143074,5,4,1:2:0:0:
239,301,143141,1,0,1:2:0:0:
281,341,143208,1,0,1:2:0:0:
337,354,143276,1,0,1:2:0:0:
392,337,143343,1,8,1:2:0:0:
430,293,143411,1,0,1:2:0:0:
440,237,143478,1,0,1:2:0:0:
420,182,143546,1,0,1:2:0:0:
376,147,143613,5,12,1:2:0:0:
341,177,143681,1,0,1:2:0:0:
296,189,143749,1,0,1:2:0:0:
251,180,143816,1,0,1:2:0:0:
214,152,143884,1,8,1:2:0:0:
177,123,143951,1,0,1:2:0:0:
132,114,144018,1,0,1:2:0:0:
87,126,144086,1,0,1:2:0:0:
52,157,144154,5,12,1:2:0:0:
88,201,144221,1,0,1:2:0:0:
143,218,144289,1,0,1:2:0:0:
198,203,144356,1,0,1:2:0:0:
236,159,144424,1,8,1:2:0:0:
274,116,144491,1,0,1:2:0:0:
330,100,144558,1,0,1:2:0:0:
385,118,144626,1,0,1:2:0:0:
421,162,144693,5,12,1:2:0:0:
366,193,144761,1,0,1:2:0:0:
304,183,144829,1,8,1:2:0:0:
264,134,144896,1,0,1:2:0:0:
264,71,144964,1,8,1:2:0:0:
305,23,145031,1,0,1:2:0:0:
367,13,145099,1,8,1:2:0:0:
421,45,145166,1,0,1:2:0:0:
442,105,145234,5,12,1:2:0:0:
411,154,145301,1,0,1:2:0:0:
399,211,145369,1,8,1:2:0:0:
409,268,145436,1,0,1:2:0:0:
438,319,145504,5,8,1:2:0:0:
394,280,145571,1,0,1:2:0:0:
339,264,145639,1,8,1:2:0:0:
281,273,145706,1,0,1:2:0:0:
234,305,145774,5,12,1:2:0:0:
174,341,145841,1,8,1:2:0:0:
106,334,145909,1,8,1:2:0:0:
54,289,145976,1,8,1:2:0:0:
39,221,146044,1,12,1:2:0:0:
67,158,146111,1,8,1:2:0:0:
127,124,146179,1,8,1:2:0:0:
195,131,146246,1,8,1:2:0:0:
246,178,146314,1,12,1:2:0:0:
301,229,146381,1,8,1:2:0:0:
375,235,146449,1,8,1:2:0:0:
437,194,146516,1,8,1:2:0:0:
461,123,146584,1,12,1:2:0:0:
436,53,146651,1,8,1:2:0:0:
372,13,146719,1,8,1:2:0:0:
298,21,146786,1,8,1:2:0:0:
244,74,146854,6,0,B|135:169|7:52|7:52|109:61|168:14|168:14|127:98|164:175|183:134|232:218|181:292|181:292|167:181|22:170|-42:277|9:405|136:372|136:372|91:346|94:289,1,1210.40000092346,12|6,1:2|1:0,0:0:0:0:
332,15,153334,6,0,L|346:99,1,63.7500024318696,4|0,1:0|1:0,0:0:0:0:
445,70,153604,2,0,L|431:154,1,63.7500024318696,10|0,1:2|1:0,0:0:0:0:
315,189,153874,6,0,P|377:189|397:197,1,63.7500024318696,4|0,1:0|1:0,0:0:0:0:
481,290,154144,2,0,P|419:290|399:282,1,63.7500024318696,10|0,1:2|1:0,0:0:0:0:
292,170,154414,6,0,L|306:238,1,63.7500024318696,14|0,1:2|1:0,0:0:0:0:
193,309,154684,2,0,L|205:246,1,63.7500024318696,14|0,1:2|1:0,0:0:0:0:
269,340,154954,1,14,1:2:0:0:
235,373,155021,1,8,1:2:0:0:
189,383,155089,1,8,1:2:0:0:
145,368,155156,1,8,1:2:0:0:
116,330,155224,2,0,L|113:275,3,31.8750012159348,14|8|8|8,1:2|1:2|1:2|1:2,0:0:0:0:
20,239,155494,6,0,L|34:306,1,63.7500024318696,14|0,1:2|0:0,0:0:0:0:
105,161,155764,2,0,L|118:223,1,63.7500024318696,10|0,0:0|0:0,0:0:0:0:
188,53,156034,5,0,1:0:0:0:
25,134,156169,1,0,0:0:0:0:
196,250,156304,2,0,L|182:187,1,63.7500024318696,10|0,0:0|0:0,0:0:0:0:
273,15,156574,6,0,P|266:46|272:97,1,63.7500024318696,0|0,1:0|0:0,0:0:0:0:
360,143,156844,2,0,P|366:111|361:61,1,63.7500024318696,10|0,0:0|0:0,0:0:0:0:
262,180,157114,6,0,L|340:170,1,63.7500024318696,0|0,1:0|0:0,0:0:0:0:
447,278,157384,2,0,L|369:268,1,63.7500024318696,10|0,0:0|0:0,0:0:0:0:
444,110,157654,6,0,P|430:138|434:187,1,63.7500024318696,6|0,0:0|0:0,0:0:0:0:
483,299,157924,2,0,P|494:268|491:235,1,63.7500024318696,10|0,0:0|0:0,0:0:0:0:
331,356,158194,6,0,L|394:355,1,63.7500024318696,0|0,1:0|0:0,0:0:0:0:
247,261,158464,2,0,L|321:260,1,63.7500024318696,10|0,0:0|0:0,0:0:0:0:
157,205,158734,5,0,1:0:0:0:
218,350,158869,1,0,0:0:0:0:
285,181,159004,6,0,L|247:67,1,95.6250036478044,14|0,0:0|0:0,0:0:0:0:
200,44,159274,2,0,P|163:56|121:52,1,63.7500024318696,14|0,1:2|1:0,1:0:0:0:
54,40,159477,2,0,P|72:85|72:112,1,63.7500024318696,14|0,1:2|1:0,1:0:0:0:
48,174,159679,1,12,1:2:0:0:
0,260,159814,6,0,L|72:251,1,63.7500024318696,6|0,1:0|0:0,0:0:0:0:
170,339,160084,2,0,L|98:330,1,63.7500024318696,10|0,0:0|0:0,0:0:0:0:
287,239,160354,5,0,1:0:0:0:
243,377,160489,1,0,0:0:0:0:
164,191,160624,5,10,0:0:0:0:
310,323,160759,2,0,L|451:303,1,127.500004863739,6|0,0:0|1:0,0:0:0:0:
510,296,161097,1,0,1:0:0:0:
510,296,161164,1,14,1:2:0:0:
393,217,161299,1,0,1:0:0:0:
485,111,161434,6,0,L|479:178,1,63.7500024318696,4|0,1:0|1:0,0:0:0:0:
388,86,161704,2,0,L|382:22,1,63.7500024318696,14|0,1:2|1:0,0:0:0:0:
298,190,161974,6,0,L|228:184,1,63.7500024318696,4|0,1:0|1:0,1:0:0:0:
147,101,162244,2,0,L|217:95,1,63.7500024318696,8|0,2:0|1:0,1:0:0:0:
142,203,162514,5,0,1:0:0:0:
53,67,162649,1,0,1:0:0:0:
31,237,162784,2,0,P|43:273|44:314,1,63.7500024318696,8|0,2:0|1:0,1:0:0:0:
92,362,163054,5,0,1:0:0:0:
109,318,163121,1,0,1:0:0:0:
149,292,163189,1,0,1:0:0:0:
196,294,163256,1,0,1:0:0:0:
233,322,163324,1,8,2:0:0:0:
243,333,163391,1,0,1:0:0:0:
257,341,163459,1,0,1:0:0:0:
272,345,163526,1,0,1:0:0:0:
288,344,163594,5,8,2:0:0:0:
329,308,163661,1,0,2:0:0:0:
339,254,163729,1,8,2:0:0:0:
312,206,163796,1,0,2:0:0:0:
261,185,163864,6,8,L|216:198,3,31.8750012159348
130,97,164134,6,0,P|145:136|133:243,1,133.874995914459,6|0,1:2|0:0,0:0:0:0:
98,264,164404,5,8,2:0:0:0:
139,227,164471,1,0,1:0:0:0:
193,221,164539,1,0,1:0:0:0:
241,247,164606,1,0,1:0:0:0:
266,296,164674,1,0,1:0:0:0:
291,345,164742,1,0,1:0:0:0:
339,371,164809,1,0,1:0:0:0:
393,365,164877,1,0,1:0:0:0:
434,328,164944,2,0,P|438:305|429:268,1,44.6249986381531,8|0,2:0|1:0,1:0:0:0:
366,222,165079,2,0,P|361:199|371:162,1,44.6249986381531,0|0,1:0|1:0,1:0:0:0:
441,59,165214,5,2,0:0:0:0:
441,59,165282,2,0,P|397:75|340:68,1,89.2499972763062,2|0,1:0|1:0,1:0:0:0:
290,35,165484,2,0,P|245:33|204:49,1,89.2499972763062,2|0,1:0|1:0,1:0:0:0:
184,120,165687,2,0,P|207:172|197:210,1,89.2499972763062,2|0,1:0|1:0,1:0:0:0:
158,268,165889,2,0,P|99:265|69:237,1,89.2499972763062,2|0,1:0|1:0,1:0:0:0:
43,175,166092,2,0,P|69:122|107:106,1,89.2499972763062,2|0,1:0|1:0,1:0:0:0:
168,142,166294,5,0,1:0:0:0:
186,153,166361,1,0,1:0:0:0:
208,159,166429,1,0,1:0:0:0:
230,158,166496,1,0,1:0:0:0:
251,151,166564,1,8,2:0:0:0:
282,181,166632,1,0,1:0:0:0:
326,187,166700,1,0,1:0:0:0:
365,167,166767,1,0,1:0:0:0:
386,129,166834,6,0,P|383:110|373:84,1,44.6249986381531,0|0,1:0|1:0,0:0:0:0:
480,11,166969,2,0,P|471:28|465:55,1,44.6249986381531,0|0,1:0|1:0,1:0:0:0:
481,195,167104,1,8,0:0:0:0:
310,114,167239,1,0,1:0:0:0:
310,114,167307,1,0,1:0:0:0:
310,114,167374,1,2,1:0:0:0:
474,0,167509,5,2,0:0:0:0:
406,143,167644,2,0,L|428:285,1,133.874995914459,10|0,0:0|1:0,0:0:0:0:
483,325,167914,2,0,P|413:303|365:318,1,89.2499972763062,2|0,1:0|1:0,1:0:0:0:
338,344,168117,2,0,P|262:353|236:342,1,89.2499972763062,2|0,1:0|1:0,1:0:0:0:
191,291,168319,2,0,P|185:320|171:341,1,44.6249986381531,2|0,1:0|1:0,1:0:0:0:
110,377,168454,5,2,1:0:0:0:
69,340,168521,1,0,1:0:0:0:
71,286,168589,1,0,1:0:0:0:
115,253,168656,1,0,1:0:0:0:
156,216,168724,1,8,2:0:0:0:
154,162,168792,1,0,1:0:0:0:
110,129,168859,5,2,1:0:0:0:
77,177,168926,1,0,1:0:0:0:
88,234,168994,1,0,1:0:0:0:
135,267,169061,1,0,1:0:0:0:
192,257,169129,1,0,1:0:0:0:
223,210,169197,1,0,1:0:0:0:
217,152,169264,6,0,L|203:100,1,44.6249986381531,10|0,2:0|1:0,1:0:0:0:
311,3,169399,2,0,L|299:46,1,44.6249986381531,0|0,1:0|1:0,1:0:0:0:
302,204,169534,5,0,1:0:0:0:
347,233,169601,1,0,1:0:0:0:
401,226,169669,1,0,1:0:0:0:
437,185,169736,1,0,1:0:0:0:
438,130,169804,1,8,2:0:0:0:
386,97,169871,1,0,1:0:0:0:
326,92,169939,1,0,1:0:0:0:
270,116,170006,1,0,1:0:0:0:
237,165,170074,5,2,1:0:0:0:
186,208,170141,1,0,1:0:0:0:
121,218,170209,1,0,1:0:0:0:
60,193,170276,1,0,1:0:0:0:
21,139,170344,2,0,P|28:111|48:82,3,44.6249986381531,10|0|0|0,2:0|1:0|1:0|1:0,1:0:0:0:
153,6,170614,5,2,1:0:0:0:
128,43,170681,1,0,1:0:0:0:
122,86,170749,1,0,1:0:0:0:
136,129,170816,1,0,1:0:0:0:
166,161,170884,1,10,2:0:0:0:
196,193,170952,1,0,1:0:0:0:
209,235,171019,1,0,1:0:0:0:
203,279,171087,1,0,1:0:0:0:
179,316,171154,6,0,P|154:330|117:332,2,44.6249986381531,2|0|0,1:0|1:0|1:0,1:0:0:0:
266,256,171357,1,2,1:0:0:0:
276,264,171424,2,0,L|444:256,1,133.874995914459,0|0,1:0|1:0,0:0:0:0:
476,277,171694,1,10,1:2:0:0:
488,276,171762,6,0,P|498:203|476:159,1,89.2499972763062,0|0,1:0|1:0,0:0:0:0:
485,112,171964,5,14,1:2:0:0:
435,143,172031,1,0,1:0:0:0:
376,143,172099,1,0,1:0:0:0:
326,112,172166,1,0,1:0:0:0:
276,81,172234,1,14,1:2:0:0:
217,81,172302,1,0,1:0:0:0:
167,112,172369,2,0,P|149:128|136:154,1,44.6249986381531,0|0,1:0|1:0,0:0:0:0:
124,220,172504,1,14,1:2:0:0:
128,224,172572,2,0,P|127:247|135:275,2,44.6249986381531,0|0|0,1:0|1:0|1:0,0:0:0:0:
205,173,172774,5,14,1:2:0:0:
163,137,172841,1,0,1:0:0:0:
108,132,172909,1,0,1:0:0:0:
60,159,172976,1,0,1:0:0:0:
37,209,173044,1,8,2:0:0:0:
46,263,173111,1,0,1:0:0:0:
84,302,173179,1,0,1:0:0:0:
138,312,173246,1,0,1:0:0:0:
188,290,173314,1,0,1:0:0:0:
234,259,173381,1,0,1:0:0:0:
289,252,173449,1,0,1:0:0:0:
342,269,173516,1,0,1:0:0:0:
381,308,173584,2,0,P|382:330|369:357,1,44.6249986381531,8|0,2:0|1:0,1:0:0:0:
497,350,173719,5,0,1:0:0:0:
453,311,173786,1,0,1:0:0:0:
442,254,173854,1,0,1:0:0:0:
461,199,173922,1,0,1:0:0:0:
487,145,173989,1,2,1:0:0:0:
473,89,174057,1,0,1:0:0:0:
427,53,174124,5,10,2:0:0:0:
384,88,174191,1,0,1:0:0:0:
370,141,174259,1,2,1:0:0:0:
388,193,174326,1,0,1:0:0:0:
433,226,174394,5,2,1:0:0:0:
402,180,174461,1,0,1:0:0:0:
350,163,174529,1,0,1:0:0:0:
299,182,174596,1,0,1:0:0:0:
270,228,174664,1,8,2:0:0:0:
218,269,174731,1,0,1:0:0:0:
153,273,174799,1,0,1:0:0:0:
96,239,174866,1,0,1:0:0:0:
70,179,174934,5,0,1:0:0:0:
110,133,175001,1,0,1:0:0:0:
168,114,175069,1,0,1:0:0:0:
227,127,175136,1,0,1:0:0:0:
272,168,175204,1,8,2:0:0:0:
316,209,175272,1,0,1:0:0:0:
375,221,175339,1,0,1:0:0:0:
433,202,175407,1,0,1:0:0:0:
473,157,175474,5,0,1:0:0:0:
456,98,175541,1,0,1:0:0:0:
410,60,175609,1,0,1:0:0:0:
349,55,175676,1,0,1:0:0:0:
297,86,175744,2,0,L|307:147,1,44.6249986381531,8|0,2:0|1:0,1:0:0:0:
102,155,175879,5,0,1:0:0:0:
56,117,175946,1,0,1:0:0:0:
50,59,176014,1,0,1:0:0:0:
85,13,176081,1,0,1:0:0:0:
143,4,176149,1,2,1:0:0:0:
191,37,176216,1,0,1:0:0:0:
202,95,176284,5,10,2:0:0:0:
222,151,176351,1,0,1:0:0:0:
274,182,176419,1,2,1:0:0:0:
334,173,176486,1,0,1:0:0:0:
374,129,176554,2,0,L|362:64,1,44.6249986381531,2|0,1:0|1:0,1:0:0:0:
445,0,176689,2,0,L|454:43,1,44.6249986381531,0|0,1:0|1:0,1:0:0:0:
490,169,176824,5,8,2:0:0:0:
464,229,176891,1,0,1:0:0:0:
406,259,176959,1,0,1:0:0:0:
342,246,177026,1,0,1:0:0:0:
301,194,177094,5,2,1:0:0:0:
260,142,177161,1,0,1:0:0:0:
198,122,177229,1,0,1:0:0:0:
134,139,177296,1,0,1:0:0:0:
91,190,177364,1,8,2:0:0:0:
84,255,177431,1,0,1:0:0:0:
114,314,177499,5,2,1:0:0:0:
179,322,177566,1,0,1:0:0:0:
238,292,177634,1,0,1:0:0:0:
270,234,177701,1,0,1:0:0:0:
265,169,177769,1,0,1:0:0:0:
224,117,177836,1,0,1:0:0:0:
161,97,177904,6,0,P|136:105|116:121,5,44.6249986381531,10|0|0|0|0|0,2:0|1:0|1:0|1:0|1:0|1:0,1:0:0:0:
195,209,178309,6,0,L|269:199,1,44.6249986381531,2|0,1:0|1:0,1:0:0:0:
329,191,178444,2,0,L|401:181,1,44.6249986381531,10|0,2:0|1:0,1:0:0:0:
452,172,178579,2,0,L|524:162,1,44.6249986381531,0|0,1:0|1:0,1:0:0:0:
343,9,178714,5,2,1:0:0:0:
295,38,178781,1,0,1:0:0:0:
273,88,178849,1,0,1:0:0:0:
281,143,178916,1,0,1:0:0:0:
317,183,178984,2,0,P|347:191|377:186,1,44.6249986381531,10|0,2:0|1:0,1:0:0:0:
444,165,179119,2,0,P|471:149|488:124,1,44.6249986381531,2|0,1:0|1:0,1:0:0:0:
346,61,179254,5,2,1:0:0:0:
295,38,179321,1,0,1:0:0:0:
242,49,179389,1,0,1:0:0:0:
205,89,179456,1,0,1:0:0:0:
198,144,179524,1,10,2:2:0:0:
191,199,179592,1,0,1:0:0:0:
154,239,179659,1,0,1:0:0:0:
101,250,179727,1,0,1:0:0:0:
50,227,179794,5,2,1:0:0:0:
81,175,179861,1,0,1:0:0:0:
137,152,179929,1,0,1:0:0:0:
187,171,179996,1,0,1:0:0:0:
235,212,180064,1,10,2:2:0:0:
281,259,180131,1,0,1:0:0:0:
346,272,180199,1,0,1:0:0:0:
406,246,180266,1,0,1:0:0:0:
442,191,180334,6,0,L|432:131,3,44.6249986381531,14|0|0|0,1:2|1:0|1:0|1:0,0:0:0:0:
289,0,180604,2,0,L|281:43,3,44.6249986381531,14|0|0|0,1:2|1:0|1:0|1:0,0:0:0:0:
20,118,180874,5,14,1:2:0:0:
13,63,180941,1,10,1:2:0:0:
40,15,181009,1,10,1:2:0:0:
90,0,181076,1,10,1:2:0:0:
144,3,181144,1,14,1:2:0:0:
181,43,181211,1,10,1:2:0:0:
188,97,181279,1,10,1:2:0:0:
162,145,181346,1,10,1:2:0:0:
113,169,181414,5,14,1:2:0:0:
85,217,181481,1,0,1:0:0:0:
85,272,181549,1,2,1:0:0:0:
113,319,181616,1,0,1:0:0:0:
161,346,181684,1,10,2:0:0:0:
217,344,181751,1,0,1:0:0:0:
263,314,181819,1,0,1:0:0:0:
288,265,181886,1,0,1:0:0:0:
285,210,181954,6,0,P|268:200|226:196,1,44.6249986381531,0|0,1:0|1:0,1:0:0:0:
362,324,182089,2,0,P|379:313|421:309,3,44.6249986381531,2|2|10|0,1:0|1:0|2:0|1:0,1:0:0:0:
314,209,182359,2,0,P|296:198|254:194,1,44.6249986381531,2|0,1:0|1:0,1:0:0:0:
440,384,182494,5,2,1:0:0:0:
473,340,182561,1,0,1:0:0:0:
478,285,182629,1,0,1:0:0:0:
452,236,182696,1,0,1:0:0:0:
404,209,182764,1,8,2:0:0:0:
370,165,182831,1,0,1:0:0:0:
365,110,182899,1,0,1:0:0:0:
391,61,182966,1,0,1:0:0:0:
439,34,183034,5,0,1:0:0:0:
471,84,183101,1,0,1:0:0:0:
471,145,183169,1,0,1:0:0:0:
437,195,183236,1,0,1:0:0:0:
381,219,183304,1,8,2:0:0:0:
322,208,183371,1,0,1:0:0:0:
278,166,183439,1,0,1:0:0:0:
264,108,183506,1,0,1:0:0:0:
285,51,183574,5,2,1:0:0:0:
245,103,183641,1,0,1:0:0:0:
183,126,183709,1,2,1:0:0:0:
119,110,183776,1,0,1:0:0:0:
74,62,183844,2,0,P|102:44|145:35,3,44.6249986381531,10|0|0|0,2:0|1:0|1:0|1:0,1:0:0:0:
58,150,184114,6,0,P|30:131|-12:122,1,44.6249986381531,0|0,1:0|1:0,1:0:0:0:
83,42,184249,2,0,P|110:23|153:14,3,44.6249986381531,2|2|10|0,1:0|1:0|2:0|1:0,1:0:0:0:
39,228,184519,2,0,P|11:209|-31:200,1,44.6249986381531,2|0,1:0|1:0,1:0:0:0:
12,309,184654,5,0,1:0:0:0:
51,347,184721,1,0,1:0:0:0:
105,350,184789,1,0,1:0:0:0:
149,317,184856,1,0,1:0:0:0:
160,264,184924,1,8,2:0:0:0:
171,211,184992,1,0,1:0:0:0:
215,178,185059,1,0,1:0:0:0:
269,181,185127,1,0,1:0:0:0:
309,220,185194,5,0,1:0:0:0:
357,256,185261,1,0,1:0:0:0:
417,258,185329,1,0,1:0:0:0:
468,225,185396,1,0,1:0:0:0:
490,169,185464,1,8,2:0:0:0:
476,110,185531,1,0,1:0:0:0:
431,70,185599,1,0,1:0:0:0:
371,64,185666,1,0,1:0:0:0:
317,93,185734,6,0,P|296:106|239:109,1,44.6249986381531,2|0,1:0|1:0,1:0:0:0:
158,120,185869,1,2,1:0:0:0:
142,115,185937,1,0,1:0:0:0:
124,111,186004,2,0,P|118:88|115:51,3,44.6249986381531,10|0|0|0,2:0|1:0|1:0|1:0,1:0:0:0:
40,113,186274,6,0,L|68:236,1,89.2499972763062,2|0,1:0|0:0,0:0:0:0:
28,297,186477,2,0,P|120:265|128:265,1,89.2499972763062,2|0,1:0|1:0,1:0:0:0:
170,311,186679,2,0,P|238:323|279:314,1,89.2499972763062,2|0,1:0|1:0,1:0:0:0:
339,260,186882,2,0,P|329:311|350:360,1,89.2499972763062,2|0,1:0|1:0,1:0:0:0:
406,381,187084,2,0,P|470:371|489:348,1,89.2499972763062,2|0,1:0|1:0,1:0:0:0:
462,283,187287,2,0,P|436:206|452:177,1,89.2499972763062,2|0,1:0|1:0,1:0:0:0:
498,158,187489,2,0,P|509:100|505:85,1,44.6249986381531,2|0,1:0|1:0,1:0:0:0:
480,35,187624,5,10,2:0:0:0:
445,8,187691,1,2,1:0:0:0:
401,6,187759,1,2,1:0:0:0:
365,32,187826,1,2,1:0:0:0:
351,73,187894,5,2,1:0:0:0:
362,126,187961,1,0,1:0:0:0:
344,179,188029,1,0,1:0:0:0:
302,214,188096,1,0,1:0:0:0:
247,223,188164,1,8,2:0:0:0:
196,202,188231,1,0,1:0:0:0:
163,158,188299,1,0,1:0:0:0:
157,103,188366,1,0,1:0:0:0:
180,53,188434,1,0,1:0:0:0:
230,31,188501,1,0,1:0:0:0:
285,39,188569,1,0,1:0:0:0:
325,76,188636,1,0,1:0:0:0:
339,129,188704,1,8,2:0:0:0:
369,170,188772,1,0,1:0:0:0:
422,186,188840,1,0,1:0:0:0:
476,171,188907,1,0,1:0:0:0:
510,128,188974,6,0,P|508:102|499:81,3,44.6249986381531,0|0|0|0,1:0|1:0|1:0|1:0,1:0:0:0:
423,19,189244,1,12,2:2:0:0:
423,19,189312,1,0,1:0:0:0:
423,19,189379,2,0,P|415:39|414:62,1,44.6249986381531,0|0,1:0|1:0,1:0:0:0:
309,242,189514,5,12,1:2:0:0:
322,194,189581,1,0,1:0:0:0:
358,160,189649,1,0,1:0:0:0:
407,151,189716,1,0,1:0:0:0:
453,168,189784,1,12,1:2:0:0:
484,207,189851,1,0,1:0:0:0:
489,257,189919,1,0,1:0:0:0:
467,301,189986,1,0,1:0:0:0:
426,328,190054,5,12,1:2:0:0:
387,289,190121,1,0,1:0:0:0:
333,277,190189,1,0,1:0:0:0:
281,296,190256,1,0,1:0:0:0:
248,339,190324,1,8,2:0:0:0:
203,370,190392,1,0,1:0:0:0:
147,372,190459,1,0,1:0:0:0:
100,343,190527,1,0,1:0:0:0:
77,296,190594,1,0,1:0:0:0:
80,241,190661,1,0,1:0:0:0:
114,197,190729,1,0,1:0:0:0:
166,180,190796,1,0,1:0:0:0:
219,194,190864,1,8,2:0:0:0:
256,235,190931,1,0,1:0:0:0:
266,288,190999,2,0,P|267:319|260:352,1,44.6249986381531,2|2,1:0|1:0,1:0:0:0:
192,367,191134,5,2,1:0:0:0:
148,333,191201,1,0,1:0:0:0:
132,280,191269,1,2,1:0:0:0:
149,228,191336,1,2,1:0:0:0:
193,195,191404,1,10,2:0:0:0:
236,160,191471,1,0,1:0:0:0:
252,108,191539,1,2,1:0:0:0:
235,56,191606,1,2,1:0:0:0:
192,23,191674,2,0,P|180:53|182:89,3,44.6249986381531,2|0|2|2,1:0|1:0|1:0|1:0,1:0:0:0:
322,58,191944,6,0,L|317:14,1,44.6249986381531,10|2,2:0|1:0,1:0:0:0:
373,160,192079,2,0,L|369:115,1,44.6249986381531,2|2,1:0|1:0,1:0:0:0:
438,255,192214,6,0,L|434:210,1,44.6249986381531,2|0,1:0|1:0,1:0:0:0:
486,337,192349,2,0,P|467:329|437:332,1,44.6249986381531,2|0,1:0|1:0,1:0:0:0:
370,357,192484,2,0,P|282:362|225:341,1,133.874995914459,10|0,0:0|1:0,0:0:0:0:
200,290,192754,2,0,P|145:272|96:280,1,89.2499972763062,2|0,1:0|1:0,1:0:0:0:
36,288,192957,2,0,P|47:251|39:175,1,89.2499972763062,2|0,1:0|1:0,1:0:0:0:
11,138,193159,2,0,P|5:111|6:81,1,44.6249986381531,0|0,1:0|1:0,0:0:0:0:
61,33,193294,5,2,1:0:0:0:
90,79,193361,1,0,1:0:0:0:
140,103,193429,1,0,1:0:0:0:
195,98,193496,1,0,1:0:0:0:
239,64,193564,1,10,2:0:0:0:
283,30,193632,1,0,1:0:0:0:
337,25,193699,1,0,1:0:0:0:
387,49,193767,1,0,1:0:0:0:
417,95,193834,2,0,L|402:159,3,44.6249986381531,2|0|0|0,1:0|1:0|1:0|1:0,1:0:0:0:
295,240,194104,2,0,L|284:196,3,44.6249986381531,10|0|0|0,2:0|1:0|1:0|1:0,1:0:0:0:
414,306,194374,6,0,L|350:296,1,44.6249986381531,2|0,1:0|1:0,1:0:0:0:
480,200,194509,1,2,1:0:0:0:
480,200,194577,1,0,1:0:0:0:
480,200,194644,2,0,L|472:260,1,44.6249986381531,10|0,2:0|1:0,1:0:0:0:
390,335,194779,2,0,L|326:325,1,44.6249986381531,2|0,1:0|1:0,1:0:0:0:
408,158,194914,1,2,1:0:0:0:
408,158,194982,1,0,1:0:0:0:
408,158,195049,2,0,L|400:218,1,44.6249986381531,2|0,1:0|1:0,1:0:0:0:
369,368,195184,2,0,L|290:359,1,44.6249986381531,10|0,2:0|1:0,1:0:0:0:
248,349,195319,2,0,L|169:340,1,44.6249986381531,0|0,1:0|1:0,1:0:0:0:
124,383,195454,6,0,B|76:328|111:254|111:254|122:263|122:263|146:222|126:182,1,223.124993190766,6|0,1:0|1:0,0:0:0:0:
42,144,195859,1,0,1:0:0:0:
42,144,195927,1,0,1:0:0:0:
42,144,195994,2,0,L|52:205,1,44.6249986381531,6|0,1:0|1:0,1:0:0:0:
57,23,196129,2,0,L|67:84,1,44.6249986381531,0|0,1:0|1:0,1:0:0:0:
150,159,196264,5,10,1:2:0:0:
189,179,196331,1,2,1:2:0:0:
233,176,196399,1,2,1:2:0:0:
268,150,196466,1,2,1:2:0:0:
286,110,196534,5,6,1:0:0:0:
295,169,196601,1,0,1:0:0:0:
337,212,196669,1,0,1:0:0:0:
397,221,196736,1,0,1:0:0:0:
450,193,196804,1,10,1:2:0:0:
477,139,196871,1,0,1:0:0:0:
466,80,196939,1,0,1:0:0:0:
422,38,197006,1,0,1:0:0:0:
368,37,197074,5,4,1:0:0:0:
326,73,197141,1,0,1:0:0:0:
277,94,197209,1,0,1:0:0:0:
223,84,197276,1,0,1:0:0:0:
181,48,197344,1,10,1:2:0:0:
139,12,197412,1,0,1:0:0:0:
85,2,197479,1,0,1:0:0:0:
34,22,197547,1,0,1:0:0:0:
5,66,197614,5,14,1:2:0:0:
0,121,197681,1,0,1:0:0:0:
21,169,197749,1,0,1:0:0:0:
63,200,197816,1,0,1:0:0:0:
114,208,197884,1,10,1:2:0:0:
164,186,197951,1,0,1:0:0:0:
196,141,198019,1,0,1:0:0:0:
201,86,198086,1,0,1:0:0:0:
176,33,198155,5,14,1:2:0:0:
130,64,198222,1,0,1:0:0:0:
108,114,198290,1,0,1:0:0:0:
115,169,198357,1,0,1:0:0:0:
150,212,198425,1,10,1:2:0:0:
174,256,198492,1,0,1:0:0:0:
175,310,198560,1,0,1:0:0:0:
144,357,198627,1,0,1:0:0:0:
91,378,198694,5,14,1:2:0:0:
40,336,198761,1,0,1:0:0:0:
18,274,198829,1,10,1:2:0:0:
32,209,198896,1,0,1:0:0:0:
78,162,198964,1,10,1:2:0:0:
142,146,199031,1,0,1:0:0:0:
205,166,199099,1,10,1:2:0:0:
248,216,199166,1,0,1:0:0:0:
259,281,199234,5,14,1:2:0:0:
300,332,199301,1,0,1:0:0:0:
364,346,199369,1,10,1:2:0:0:
422,315,199436,1,0,1:0:0:0:
447,255,199504,1,10,1:2:0:0:
400,209,199571,1,0,1:0:0:0:
335,199,199639,1,10,1:2:0:0:
276,227,199706,1,0,1:0:0:0:
244,285,199774,5,14,1:2:0:0:
171,310,199842,1,10,1:2:0:0:
97,290,199910,1,10,1:2:0:0:
47,231,199977,1,10,1:2:0:0:
39,155,200045,1,14,1:2:0:0:
76,88,200112,1,10,1:2:0:0:
145,53,200180,1,10,1:2:0:0:
221,63,200247,1,10,1:2:0:0:
274,112,200314,5,14,1:2:0:0:
326,168,200381,1,10,1:2:0:0:
402,171,200449,1,10,1:2:0:0:
458,119,200516,1,10,1:2:0:0:
460,43,200584,1,14,1:2:0:0:
382,33,200651,1,10,1:2:0:0:
310,64,200719,1,10,1:2:0:0:
273,136,200786,1,10,1:2:0:0:
285,212,200854,1,14,1:2:0:0:
85,129,209360,5,2,1:0:0:0:
126,118,209427,1,0,1:0:0:0:
172,110,209495,1,14,1:2:0:0:
172,110,209765,6,0,L|166:155,1,42.5,2|0,1:0|1:0,1:0:0:0:
94,205,210035,2,0,L|100:250,1,42.5,2|0,1:0|1:0,1:0:0:0:
168,342,210305,2,0,L|174:300,1,42.5,2|0,1:0|1:0,1:0:0:0:
18,341,210575,5,2,1:0:0:0:
54,319,210665,5,2,1:0:0:0:
96,320,210755,5,2,1:0:0:0:
169,363,210845,6,0,P|218:361|229:358,1,42.5,2|0,1:0|1:0,1:0:0:0:
289,267,211115,2,0,P|281:291|285:318,1,42.5,2|0,1:0|1:0,1:0:0:0:
327,369,211317,2,0,P|362:359|378:359,1,42.5,2|0,1:0|1:0,1:0:0:0:
435,378,211520,2,0,P|460:382|474:377,1,21.25,2|0,1:0|1:0,1:0:0:0:
499,318,211655,6,0,L|486:258,1,50.9999984436036,14|0,1:2|1:0,1:0:0:0:
398,189,211925,2,0,L|388:239,1,50.9999984436036,2|0,1:0|1:0,1:0:0:0:
512,130,212195,2,0,P|477:121|450:124,1,50.9999984436036,2|0,1:0|1:0,1:0:0:0:
327,56,212465,2,0,P|362:47|389:50,1,50.9999984436036,0|2,1:0|1:0,1:0:0:0:
289,142,212735,6,0,P|248:127|231:118,1,50.9999984436036,2|0,1:0|1:0,1:0:0:0:
181,36,213005,2,0,P|222:21|239:12,1,50.9999984436036,2|0,1:0|1:0,1:0:0:0:
138,136,213275,2,0,P|146:179|145:202,1,50.9999984436036,2|0,1:0|1:0,1:0:0:0:
64,53,213545,2,0,P|66:27|73:3,1,50.9999984436036,2|0,1:0|1:0,1:0:0:0:
20,166,213815,6,0,L|31:228,1,59.4999981842042,14|0,1:2|1:0,1:0:0:0:
77,284,214017,2,0,L|66:346,1,59.4999981842042,2|0,1:0|1:0,1:0:0:0:
127,380,214220,2,0,P|150:376|177:363,1,29.7499990921021,2|0,1:0|1:0,1:0:0:0:
235,295,214355,2,0,L|167:289,1,59.4999981842042,2|0,1:0|1:0,1:0:0:0:
271,371,214625,1,2,1:0:0:0:
340,257,214760,1,2,1:0:0:0:
340,257,214827,1,0,1:0:0:0:
340,257,214895,6,0,L|352:341,1,68,14|0,1:2|1:0,1:0:0:0:
425,384,215165,2,0,L|437:300,1,68,2|0,1:0|1:0,1:0:0:0:
336,166,215435,5,2,1:0:0:0:
431,298,215637,1,2,1:0:0:0:
489,104,215840,1,2,1:2:0:0:
325,265,215975,5,4,1:0:0:0:
293,285,216042,1,0,1:0:0:0:
256,293,216110,1,0,1:0:0:0:
218,287,216177,1,0,1:0:0:0:
186,268,216245,1,0,1:2:0:0:
154,247,216312,1,0,1:0:0:0:
117,239,216380,1,0,1:0:0:0:
79,245,216447,1,0,1:0:0:0:
47,264,216515,5,12,2:0:0:0:
95,309,216582,1,8,2:0:0:0:
160,317,216650,1,8,2:0:0:0:
218,285,216717,1,8,2:0:0:0:
246,226,216785,1,8,2:0:0:0:
234,161,216852,1,8,2:0:0:0:
186,116,216920,1,8,2:0:0:0:
121,107,216987,1,8,2:0:0:0:
63,138,217055,5,14,2:2:0:0:
307,189,217325,1,14,1:2:0:0:
512,228,217595,1,14,1:2:0:0:
504,250,217865,1,14,1:2:0:0:
451,251,217932,1,8,1:2:0:0:
410,219,218000,1,8,1:2:0:0:
399,168,218067,1,8,1:2:0:0:
423,122,218135,6,0,P|438:85|421:12,1,94.3500023034669,12|0,1:2|1:0,1:0:0:0:
357,31,218337,2,0,P|300:14|255:21,1,94.3500023034669,2|0,1:0|1:0,1:0:0:0:
224,89,218540,1,2,1:0:0:0:
45,25,218675,5,2,1:0:0:0:
50,39,218742,1,0,1:0:0:0:
139,128,218877,1,2,1:0:0:0:
144,114,218944,1,10,2:0:0:0:
36,211,219080,1,2,0:0:0:0:
100,272,219215,6,0,L|205:260,1,94.3500023034669,2|0,1:0|1:0,1:0:0:0:
264,310,219417,2,0,L|357:320,1,94.3500023034669,2|0,1:0|1:0,0:0:0:0:
431,286,219620,1,2,1:0:0:0:
296,188,219755,5,2,1:0:0:0:
299,211,219822,1,0,1:0:0:0:
281,98,219957,1,2,1:0:0:0:
277,74,220024,1,10,2:0:0:0:
315,313,220160,1,2,0:0:0:0:
459,152,220295,6,0,P|407:133|353:146,1,94.3500023034669,2|0,1:0|1:0,1:0:0:0:
296,188,220497,2,0,P|249:192|206:174,1,94.3500023034669,2|0,1:0|1:0,1:0:0:0:
143,132,220700,1,2,1:0:0:0:
32,244,220835,5,2,1:0:0:0:
32,244,220902,2,0,L|53:344,1,94.3500023034669,0|2,1:0|1:0,0:0:0:0:
123,374,221105,1,10,0:0:0:0:
250,287,221240,1,2,1:0:0:0:
46,123,221375,5,0,1:0:0:0:
126,288,221510,1,0,1:0:0:0:
126,288,221577,1,0,1:0:0:0:
126,288,221645,1,10,2:0:0:0:
218,61,221780,5,2,1:0:0:0:
24,246,221915,1,2,1:0:0:0:
306,162,222050,1,2,1:0:0:0:
102,32,222185,1,10,0:0:0:0:
194,336,222320,1,2,1:0:0:0:
323,183,222455,6,0,P|342:130|333:67,1,94.3500023034669,0|0,0:0|1:0,0:0:0:0:
276,41,222657,1,0,0:0:0:0:
276,41,222725,1,10,0:0:0:0:
193,195,222860,1,2,0:0:0:0:
466,306,222995,5,2,1:0:0:0:
488,252,223062,1,0,1:0:0:0:
474,195,223130,1,2,1:0:0:0:
430,158,223197,1,0,1:0:0:0:
373,153,223265,1,10,2:0:0:0:
323,183,223332,1,0,1:0:0:0:
300,236,223400,1,2,1:0:0:0:
313,293,223467,1,0,1:0:0:0:
357,331,223535,5,2,1:0:0:0:
344,274,223602,1,0,1:0:0:0:
297,243,223670,1,0,1:0:0:0:
240,253,223737,1,0,1:0:0:0:
207,300,223805,1,10,2:0:0:0:
174,347,223873,1,0,1:0:0:0:
117,357,223940,1,0,1:0:0:0:
70,326,224008,1,0,1:0:0:0:
58,270,224075,5,2,1:0:0:0:
89,220,224142,1,0,1:0:0:0:
103,163,224210,1,0,1:0:0:0:
96,105,224277,1,0,1:0:0:0:
70,52,224345,5,10,2:0:0:0:
105,99,224412,1,0,1:0:0:0:
159,122,224480,1,0,1:0:0:0:
216,116,224547,1,0,1:0:0:0:
264,82,224615,6,0,L|253:21,3,47.1750011517334,0|0|0|0,1:0|1:0|1:0|1:0,1:0:0:0:
360,305,224885,2,0,L|348:366,3,47.1750011517334,8|0|0|0,2:0|1:0|1:0|1:0,1:0:0:0:
415,71,225155,2,0,L|403:9,3,47.1750011517334,0|0|0|0,1:0|1:0|1:0|1:0,1:0:0:0:
512,296,225425,2,0,L|500:357,3,47.1750011517334,8|0|0|0,2:0|1:0|1:0|1:0,1:0:0:0:
429,183,225695,5,0,1:0:0:0:
383,147,225762,1,0,1:0:0:0:
325,146,225830,1,0,1:0:0:0:
278,180,225897,1,0,1:0:0:0:
262,236,225965,2,0,L|278:288,3,47.1750011517334,12|0|0|0,1:2|1:0|1:0|1:0,0:0:0:0:
155,195,226235,6,0,L|143:159,6,23.5875005758667,12|0|8|0|8|0|8,1:2|1:0|1:2|1:0|1:2|1:0|1:2,1:0:0:0:
83,302,226505,1,12,1:2:0:0:
24,264,226572,1,8,1:2:0:0:
0,199,226640,1,8,1:2:0:0:
21,133,226707,1,8,1:2:0:0:
78,93,226775,6,0,P|161:95|188:82,1,94.3500023034669,12|0,1:2|0:0,0:0:0:0:
0,0,227045,1,10,0:0:0:0:
87,225,227180,1,2,0:0:0:0:
227,13,227315,2,0,P|144:11|117:24,1,94.3500023034669,2|0,1:0|0:0,0:0:0:0:
279,203,227585,2,0,P|315:152|320:99,1,94.3500023034669,8|0,0:0|0:0,0:0:0:0:
152,155,227855,5,2,0:0:0:0:
156,193,227945,5,2,0:0:0:0:
188,170,228035,5,2,0:0:0:0:
60,91,228125,6,0,L|72:193,1,94.3500023034669,10|0,0:0|0:0,0:0:0:0:
24,341,228395,2,0,P|66:313|122:315,1,94.3500023034669,2|0,1:0|1:0,0:0:0:0:
167,355,228597,2,0,P|217:361|264:341,1,94.3500023034669,2|0,0:0|1:0,0:0:0:0:
278,273,228800,1,2,0:0:0:0:
376,384,228935,6,0,P|400:340|395:284,1,94.3500023034669,2|0,1:0|0:0,0:0:0:0:
257,142,229205,1,10,0:0:0:0:
295,352,229340,1,0,0:0:0:0:
494,219,229475,2,0,L|392:210,1,94.3500023034669,2|0,1:0|0:0,0:0:0:0:
246,63,229745,2,0,L|348:54,1,94.3500023034669,8|0,0:0|0:0,0:0:0:0:
84,227,230015,5,6,1:0:0:0:
84,227,230082,1,0,1:0:0:0:
84,227,230150,2,0,L|19:212,1,47.1750011517334,2|0,1:0|1:0,0:0:0:0:
178,142,230285,1,10,1:2:0:0:
178,142,230352,1,0,1:0:0:0:
178,142,230420,2,0,L|243:127,1,47.1750011517334,2|0,1:0|1:0,0:0:0:0:
88,55,230555,1,6,1:0:0:0:
88,55,230622,1,0,1:0:0:0:
88,55,230690,2,0,L|23:40,1,47.1750011517334,0|0,1:0|1:0,0:0:0:0:
117,325,230825,5,10,2:2:0:0:
139,283,230892,1,8,2:0:0:0:
178,258,230960,1,8,2:0:0:0:
224,256,231027,1,8,2:0:0:0:
266,276,231095,6,0,P|363:294|381:278,1,94.3500023034669,6|0,1:0|1:0,0:0:0:0:
371,235,231297,2,0,P|368:281|393:320,1,94.3500023034669,2|0,0:0|1:0,0:0:0:0:
463,329,231500,1,2,0:0:0:0:
485,131,231635,5,2,1:0:0:0:
485,131,231702,2,0,L|366:121,1,94.3500023034669,0|0,1:0|1:0,1:0:0:0:
329,78,231905,1,10,0:0:0:0:
465,246,232040,1,2,0:0:0:0:
452,15,232175,5,2,1:0:0:0:
369,248,232310,1,0,1:0:0:0:
369,248,232377,1,0,1:0:0:0:
369,248,232445,2,0,L|270:237,1,94.3500023034669,10|0,0:0|0:0,0:0:0:0:
99,66,232715,6,0,L|229:34,1,94.3500023034669,2|0,1:0|1:0,0:0:0:0:
167,137,232917,2,0,L|37:169,1,94.3500023034669,2|0,0:0|1:0,0:0:0:0:
0,176,233120,1,2,1:0:0:0:
119,367,233255,5,2,1:0:0:0:
66,362,233322,1,0,1:0:0:0:
23,332,233390,1,0,1:0:0:0:
1,285,233457,1,2,1:0:0:0:
6,232,233525,1,10,1:2:0:0:
36,189,233592,1,0,1:0:0:0:
84,168,233660,1,2,1:0:0:0:
136,173,233727,1,0,1:0:0:0:
178,203,233795,5,2,1:0:0:0:
207,259,233862,1,0,1:0:0:0:
262,292,233930,1,0,1:0:0:0:
326,291,233997,1,0,1:0:0:0:
380,256,234065,1,10,1:2:0:0:
407,198,234132,1,0,1:0:0:0:
399,134,234200,1,2,1:0:0:0:
360,84,234267,1,0,1:0:0:0:
299,63,234335,6,0,L|251:78,3,47.1750011517334,14|0|0|0,1:2|1:0|1:0|1:0,0:0:0:0:
467,244,234605,2,0,L|515:229,3,47.1750011517334,14|0|0|0,1:2|1:2|1:0|1:0,0:0:0:0:
264,192,234875,5,14,1:2:0:0:
268,159,234942,1,8,1:2:0:0:
301,152,235010,1,8,1:2:0:0:
318,180,235077,1,8,1:2:0:0:
297,206,235145,5,14,1:2:0:0:
239,216,235212,1,10,1:2:0:0:
181,226,235280,1,10,1:2:0:0:
123,236,235347,1,10,1:2:0:0:
65,246,235415,6,0,P|32:177|41:135,1,103.699995727692,14|0,1:0|1:0,1:0:0:0:
106,118,235617,2,0,P|111:56|94:11,1,103.699995727692,2|0,1:0|1:0,1:0:0:0:
27,0,235820,1,2,1:0:0:0:
188,158,235955,5,2,1:0:0:0:
188,158,236022,2,0,L|294:135,1,103.699995727692,0|2,1:0|1:0,1:0:0:0:
340,75,236225,1,10,0:0:0:0:
208,12,236360,1,2,1:0:0:0:
186,243,236495,6,0,P|180:307|213:370,1,103.699995727692,2|0,1:0|1:0,1:0:0:0:
258,379,236697,2,0,P|335:352|374:355,1,103.699995727692,2|0,1:0|1:0,1:0:0:0:
427,384,236900,1,2,1:0:0:0:
278,211,237035,5,2,1:0:0:0:
286,237,237102,1,0,1:0:0:0:
379,154,237237,1,0,1:0:0:0:
371,128,237304,1,10,2:0:0:0:
404,286,237440,1,2,1:0:0:0:
512,61,237575,6,0,P|439:36|395:49,1,103.699995727692,2|0,1:0|1:0,1:0:0:0:
362,101,237777,2,0,P|293:104|256:83,1,103.699995727692,2|0,1:0|1:0,1:0:0:0:
226,17,237980,1,2,1:0:0:0:
165,220,238115,5,2,1:0:0:0:
165,220,238182,2,0,L|184:347,1,103.699995727692,0|2,1:0|1:0,1:0:0:0:
126,384,238385,1,10,0:0:0:0:
267,262,238520,1,2,1:0:0:0:
53,115,238655,5,2,1:0:0:0:
108,305,238790,1,0,1:0:0:0:
108,305,238857,1,0,1:0:0:0:
108,305,238925,1,10,2:0:0:0:
209,71,239060,5,2,1:0:0:0:
20,285,239195,1,2,1:0:0:0:
220,366,239330,1,2,1:0:0:0:
0,196,239465,1,10,0:0:0:0:
379,110,239600,1,2,1:0:0:0:
89,0,239735,6,0,L|104:123,1,103.699995727692,2|0,1:0|1:0,0:0:0:0:
72,192,239937,2,0,P|140:168|181:168,1,103.699995727692,2|0,0:0|1:0,0:0:0:0:
223,227,240140,1,0,0:0:0:0:
479,80,240275,5,2,1:0:0:0:
445,25,240342,1,0,1:0:0:0:
386,1,240410,1,0,1:0:0:0:
324,15,240477,1,0,1:0:0:0:
283,64,240545,1,10,1:2:0:0:
277,127,240612,1,0,1:0:0:0:
310,182,240680,1,0,1:0:0:0:
369,207,240747,1,0,1:0:0:0:
431,192,240815,5,14,1:2:0:0:
402,136,240882,1,0,1:0:0:0:
343,113,240950,1,0,1:0:0:0:
284,135,241017,1,0,1:0:0:0:
253,190,241085,1,10,1:2:0:0:
224,247,241152,1,0,1:0:0:0:
165,270,241220,1,0,1:0:0:0:
106,248,241287,1,0,1:0:0:0:
76,192,241355,1,10,1:2:0:0:
125,151,241422,1,0,1:0:0:0:
188,146,241490,1,0,1:2:0:0:
243,179,241557,1,0,1:0:0:0:
269,237,241625,1,10,1:2:0:0:
256,300,241692,1,0,1:0:0:0:
209,343,241760,1,0,1:2:0:0:
146,352,241827,1,0,1:0:0:0:
89,322,241895,6,0,L|71:254,3,51.8499978638459,14|0|10|0,1:2|1:0|1:2|1:0,0:0:0:0:
150,17,242165,2,0,L|163:67,3,51.8499978638459,10|0|10|0,1:2|1:0|1:2|1:0,0:0:0:0:
320,307,242435,2,0,L|301:238,3,51.8499978638459,14|0|10|0,1:2|1:0|1:2|1:0,0:0:0:0:
386,2,242705,2,0,L|399:52,3,51.8499978638459,10|0|10|0,1:2|1:0|1:2|1:0,0:0:0:0:
200,239,242975,5,10,1:2:0:0:
230,182,243042,1,10,1:2:0:0:
286,153,243110,1,10,1:2:0:0:
350,162,243177,1,10,1:2:0:0:
397,205,243245,2,0,L|410:268,3,51.8499978638459,10|10|10|10,1:2|1:2|1:2|1:2,1:0:0:0:
479,114,243515,6,0,L|470:81,7,25.924998931923,12|0|8|0|8|0|8|0,1:2|1:0|1:2|1:0|1:2|1:0|1:2|1:0,1:0:0:0:
391,20,243785,1,14,1:2:0:0:
320,31,243852,1,10,1:2:0:0:
250,43,243920,1,10,1:2:0:0:
179,54,243987,1,10,1:2:0:0:
109,66,244055,6,0,P|87:119|103:194,1,103.699995727692,14|0,1:2|0:0,0:0:0:0:
218,333,244325,2,0,P|240:280|224:205,1,103.699995727692,8|2,0:0|0:0,0:0:0:0:
0,98,244595,1,2,1:0:0:0:
117,375,244730,1,0,0:0:0:0:
269,145,244865,2,0,P|191:128|144:146,1,103.699995727692,8|0,0:0|0:0,0:0:0:0:
357,290,245135,5,2,1:0:0:0:
321,266,245225,5,2,0:0:0:0:
317,308,245315,5,2,0:0:0:0:
410,370,245405,6,0,L|527:352,1,103.699995727692,10|0,0:0|0:0,0:0:0:0:
368,113,245675,6,0,P|368:204|388:230,1,103.699995727692,2|0,1:0|1:0,0:0:0:0:
452,243,245877,2,0,P|496:191|496:125,1,103.699995727692,2|0,0:0|1:0,0:0:0:0:
447,96,246080,1,2,0:0:0:0:
319,275,246215,6,0,L|213:259,1,103.699995727692,2|0,1:0|0:0,0:0:0:0:
50,109,246485,2,0,L|156:93,1,103.699995727692,10|0,0:0|0:0,0:0:0:0:
305,74,246755,1,2,1:0:0:0:
187,349,246890,1,0,0:0:0:0:
22,98,247025,2,0,L|128:82,1,103.699995727692,8|0,0:0|0:0,0:0:0:0:
51,325,247295,5,6,1:0:0:0:
51,325,247362,1,0,1:0:0:0:
51,325,247430,2,0,L|39:261,1,51.8499978638459,2|0,1:0|1:0,0:0:0:0:
235,288,247565,1,10,1:2:0:0:
235,288,247632,1,0,1:0:0:0:
235,288,247700,2,0,L|223:224,1,51.8499978638459,2|0,1:0|1:0,0:0:0:0:
412,248,247835,1,6,1:0:0:0:
412,248,247902,1,0,1:0:0:0:
412,248,247970,2,0,L|400:184,1,51.8499978638459,0|0,1:0|1:0,0:0:0:0:
487,79,248105,5,10,2:2:0:0:
440,35,248172,1,8,2:0:0:0:
376,26,248240,1,8,2:0:0:0:
319,54,248307,1,8,2:0:0:0:
288,110,248375,6,0,P|230:136|167:116,1,103.699995727692,6|0,1:0|1:0,0:0:0:0:
148,62,248577,2,0,P|73:52|12:90,1,103.699995727692,2|0,0:0|1:0,0:0:0:0:
13,136,248780,1,2,0:0:0:0:
155,336,248915,5,2,1:0:0:0:
155,336,248982,2,0,L|135:212,1,103.699995727692,0|0,1:0|1:0,1:0:0:0:
123,155,249185,1,10,0:0:0:0:
52,380,249320,1,2,1:0:0:0:
52,380,249387,1,0,1:0:0:0:
52,380,249455,1,2,1:0:0:0:
248,263,249590,1,0,0:0:0:0:
24,147,249725,6,0,L|41:253,1,103.699995727692,10|0,0:0|0:0,0:0:0:0:
140,38,249995,2,0,P|196:19|257:27,1,103.699995727692,2|0,1:0|1:0,0:0:0:0:
296,81,250197,2,0,P|350:90|407:68,1,103.699995727692,2|0,0:0|1:0,0:0:0:0:
453,23,250400,1,2,1:0:0:0:
212,125,250535,5,6,1:0:0:0:
171,165,250602,1,0,1:0:0:0:
160,222,250670,1,0,1:0:0:0:
183,274,250737,1,2,1:0:0:0:
231,305,250805,1,8,1:2:0:0:
289,304,250872,1,0,1:0:0:0:
335,270,250940,1,2,1:0:0:0:
355,216,251007,1,0,1:0:0:0:
341,160,251075,5,6,1:0:0:0:
303,171,251142,1,0,1:0:0:0:
266,181,251210,1,0,1:0:0:0:
228,192,251277,1,0,1:0:0:0:
191,202,251345,1,8,1:2:0:0:
154,212,251412,1,0,1:0:0:0:
116,223,251480,1,2,1:0:0:0:
79,233,251547,1,0,1:0:0:0:
41,244,251615,5,14,1:2:0:0:
82,308,251682,1,0,1:0:0:0:
153,334,251750,1,0,1:0:0:0:
226,311,251817,1,0,1:0:0:0:
270,248,251885,1,14,1:2:0:0:
265,172,251952,1,0,1:2:0:0:
215,114,252020,1,0,1:0:0:0:
140,100,252087,1,0,1:0:0:0:
72,134,252155,6,0,P|51:161|36:199,3,51.8499978638459,14|8|8|8,1:2|1:2|1:2|1:2,0:0:0:0:
161,23,252425,2,0,P|126:26|89:43,3,51.8499978638459,14|8|8|8,1:2|1:2|1:2|1:2,0:0:0:0:
155,193,252695,5,14,1:2:0:0:
208,227,252762,1,0,1:0:0:0:
272,224,252830,1,0,1:0:0:0:
323,185,252897,1,0,1:0:0:0:
341,124,252965,1,10,1:2:0:0:
322,63,253032,1,0,1:0:0:0:
271,25,253100,1,0,1:0:0:0:
207,23,253167,1,0,1:0:0:0:
154,58,253235,5,10,1:2:0:0:
173,118,253302,1,0,1:0:0:0:
227,153,253370,1,0,1:0:0:0:
289,144,253437,1,0,1:0:0:0:
332,96,253505,1,10,1:2:0:0:
375,49,253573,1,0,1:0:0:0:
438,40,253640,1,0,1:0:0:0:
491,74,253708,1,0,1:0:0:0:
511,135,253775,5,14,1:2:0:0:
464,179,253842,1,0,1:0:0:0:
437,238,253910,1,0,1:0:0:0:
434,302,253977,1,0,1:0:0:0:
456,363,254045,5,10,1:2:0:0:
417,311,254112,1,0,1:0:0:0:
361,281,254180,1,0,1:0:0:0:
297,277,254247,1,0,1:0:0:0:
237,301,254315,5,10,1:2:0:0:
181,353,254382,1,0,1:0:0:0:
105,363,254450,1,0,1:0:0:0:
38,326,254517,1,0,1:0:0:0:
4,257,254585,1,10,1:2:0:0:
18,182,254652,1,0,1:0:0:0:
72,128,254720,1,0,1:0:0:0:
148,116,254787,1,0,1:0:0:0:
216,151,254855,5,14,1:2:0:0:
228,214,254922,1,0,1:0:0:0:
273,259,254990,1,10,1:2:0:0:
335,272,255057,1,0,1:0:0:0:
394,247,255125,1,10,1:2:0:0:
430,194,255192,1,0,1:0:0:0:
429,130,255260,1,10,1:2:0:0:
393,78,255327,1,0,1:0:0:0:
334,54,255395,5,14,1:2:0:0:
335,93,255462,1,0,1:0:0:0:
335,132,255530,1,10,1:2:0:0:
336,170,255597,1,0,1:0:0:0:
336,209,255665,1,10,1:2:0:0:
337,248,255732,1,0,1:0:0:0:
337,287,255800,1,10,1:2:0:0:
338,326,255867,1,0,1:0:0:0:
338,365,255935,5,14,1:2:0:0:
414,360,256002,1,10,1:2:0:0:
473,312,256070,1,10,1:2:0:0:
494,238,256137,1,10,1:2:0:0:
469,166,256205,1,14,1:2:0:0:
407,121,256272,1,10,1:2:0:0:
330,121,256340,1,10,1:2:0:0:
267,165,256407,1,10,1:2:0:0:
242,237,256475,5,14,1:2:0:0:
178,279,256542,1,10,1:2:0:0:
101,277,256610,1,10,1:2:0:0:
39,233,256677,1,10,1:2:0:0:
12,161,256745,1,14,1:2:0:0:
32,87,256812,1,10,1:2:0:0:
89,36,256880,1,10,1:2:0:0:
165,28,256947,1,10,1:2:0:0:
233,63,257015,1,14,1:2:0:0:
256,192,257083,12,2,261335,0:0:0:0:
70,33,269706,6,0,L|86:114,1,63.7500024318696,4|8,1:0|2:0,1:0:0:0:
124,170,270433,2,0,L|108:251,1,63.7500024318696,0|8,1:0|2:0,1:0:0:0:
15,328,271160,5,0,1:0:0:0:
105,313,271524,1,8,2:0:0:0:
191,294,271887,2,0,L|273:276,1,63.7500024318696,0|8,1:0|2:0,1:0:0:0:
352,384,272615,6,0,P|371:349|366:313,1,63.7500024318696,0|8,1:0|2:0,1:0:0:0:
451,279,273342,2,0,P|432:244|437:208,1,63.7500024318696,0|8,1:0|2:0,1:0:0:0:
485,145,274069,2,0,P|440:115|380:133,1,95.6250036478044,0|0,1:0|1:0,1:0:0:0:
318,185,274796,2,0,L|350:184,3,31.8750012159348,4|0|4|0,1:0|1:0|1:0|1:0,1:0:0:0:
228,47,275524,5,4,1:0:0:0:
242,159,275887,1,8,2:0:0:0:
132,12,276251,5,0,1:0:0:0:
128,145,276615,1,8,2:0:0:0:
46,85,276978,5,0,1:0:0:0:
79,220,277342,1,8,2:0:0:0:
119,348,277706,2,0,P|150:346|182:326,1,63.7500024318696,0|8,1:0|2:0,1:0:0:0:
291,237,278433,5,0,1:0:0:0:
158,131,278796,1,8,2:0:0:0:
205,296,279160,1,0,1:0:0:0:
278,132,279524,1,8,2:0:0:0:
111,240,279887,2,0,P|77:247|40:238,1,63.7500024318696,0|8,1:0|2:0,1:0:0:0:
153,100,280615,2,0,P|186:92|224:102,1,63.7500024318696,0|8,1:0|2:0,1:0:0:0:
312,217,281342,6,0,P|344:167|343:141,1,63.7500024318696,4|8,1:0|2:0,1:0:0:0:
297,72,282069,1,0,1:0:0:0:
191,66,282433,1,8,2:0:0:0:
224,201,282796,2,0,L|243:292,1,63.7500024318696,0|8,1:0|2:0,1:0:0:0:
316,384,283524,2,0,L|335:293,1,63.7500024318696,0|8,1:0|2:0,1:0:0:0:
336,213,284251,5,0,1:0:0:0:
410,349,284615,1,8,2:0:0:0:
453,218,284978,2,0,L|442:142,1,63.7500024318696,0|8,1:0|2:0,1:0:0:0:
319,62,285706,5,0,1:0:0:0:
351,221,286069,1,8,2:0:0:0:
423,35,286433,1,0,1:0:0:0:
335,145,286796,1,8,2:0:0:0:
243,39,287160,6,0,L|331:24,1,63.7500024318696,4|8,1:0|2:0,1:0:0:0:
226,140,287887,2,0,L|156:132,1,63.7500024318696,0|8,1:0|2:0,1:0:0:0:
46,114,288615,5,0,1:0:0:0:
133,63,288978,1,8,2:0:0:0:
218,112,289342,1,0,1:0:0:0:
207,217,289706,1,8,2:0:0:0:
122,255,290069,6,0,P|89:264|49:253,1,63.7500024318696,0|8,1:0|2:0,1:0:0:0:
172,360,290796,2,0,P|204:350|245:362,1,63.7500024318696,0|8,1:0|2:0,1:0:0:0:
318,263,291524,5,0,1:0:0:0:
196,131,291887,1,8,2:0:0:0:
241,308,292251,1,0,1:0:0:0:
273,94,292615,1,8,2:0:0:0:
158,258,292978,6,0,P|116:262|83:254,1,63.7500024318696,4|8,1:0|2:0,1:0:0:0:
10,186,293706,1,0,1:0:0:0:
38,94,294069,1,8,2:0:0:0:
69,5,294433,2,0,L|142:20,1,63.7500024318696,0|8,1:0|2:0,1:0:0:0:
206,126,295160,2,0,L|129:115,1,63.7500024318696,0|8,1:0|2:0,1:0:0:0:
286,0,295887,6,0,P|278:44|282:65,1,63.7500024318696,0|8,1:0|2:0,1:0:0:0:
382,144,296615,2,0,P|390:100|386:79,1,63.7500024318696,0|8,1:0|2:0,1:0:0:0:
255,231,297342,2,0,L|358:214,1,95.6250036478044,0|0,1:0|1:0,1:0:0:0:
429,228,298069,2,0,L|436:263,3,31.8750012159348,4|0|4|0,1:0|1:0|1:0|1:0,1:0:0:0:
375,333,298796,6,0,P|326:323|298:327,1,63.7500024318696,4|8,1:0|2:0,1:0:0:0:
231,374,299524,2,0,P|174:376|149:367,1,63.7500024318696,0|8,1:0|2:0,1:0:0:0:
88,328,300251,5,0,1:0:0:0:
189,261,300615,1,8,2:0:0:0:
39,188,300978,5,0,1:0:0:0:
174,183,301342,1,8,2:0:0:0:
74,63,301706,6,0,L|137:94,1,63.7500024318696,0|8,1:0|2:0,1:0:0:0:
266,0,302433,2,0,L|194:14,1,63.7500024318696,0|8,1:0|2:0,1:0:0:0:
274,129,303160,6,0,P|325:129|354:114,1,63.7500024318696,0|8,1:0|2:0,1:0:0:0:
406,8,303887,2,0,P|400:45|407:81,1,63.7500024318696,0|8,1:0|2:0,1:0:0:0:
476,134,304615,5,4,1:0:0:0:
452,236,304978,1,8,2:0:0:0:
422,338,305342,2,0,L|344:329,1,63.7500024318696,0|8,1:0|2:0,1:0:0:0:
228,285,306069,5,0,1:0:0:0:
243,163,306433,1,8,2:0:0:0:
355,179,306796,1,0,1:0:0:0:
348,303,307160,1,8,2:0:0:0:
214,306,307524,6,0,L|146:294,1,63.7500024318696,0|8,1:0|2:0,1:0:0:0:
64,273,308251,1,0,1:0:0:0:
152,182,308615,1,8,2:0:0:0:
10,102,308978,6,0,L|23:171,1,63.7500024318696,0|8,1:0|2:0,1:0:0:0:
134,63,309706,2,0,L|62:54,1,63.7500024318696,0|8,1:0|2:0,1:0:0:0:
182,171,310433,6,0,P|213:171|250:160,1,63.7500024318696,4|8,1:0|2:0,1:0:0:0:
296,56,311160,2,0,P|335:71|358:91,1,63.7500024318696,0|8,1:0|2:0,1:0:0:0:
403,184,311887,5,0,1:0:0:0:
373,280,312251,1,8,2:0:0:0:
338,370,312615,2,0,L|268:351,1,63.7500024318696,0|8,1:0|2:0,1:0:0:0:
149,267,313342,6,0,P|179:251|223:251,1,63.7500024318696,0|8,1:0|2:0,1:0:0:0:
138,359,314069,2,0,P|106:355|78:340,1,63.7500024318696,0|8,1:0|2:0,1:0:0:0:
34,251,314796,5,0,1:0:0:0:
66,157,315160,1,8,2:0:0:0:
164,119,315524,1,0,1:0:0:0:
260,135,315887,1,8,2:0:0:0:
310,229,316251,6,0,B|359:213|419:232|387:254|445:277|498:251,1,198.333333333333,6|4,0:0|1:2,0:0:0:0:
