osu file format v14

[General]
AudioFilename: audio.MP3
AudioLeadIn: 0
PreviewTime: -1
Countdown: 1
SampleSet: None
StackLeniency: 0.7
Mode: 0
LetterboxInBreaks: 0
WidescreenStoryboard: 0

[Editor]
DistanceSpacing: 0.3
BeatDivisor: 4
GridSize: 4
TimelineZoom: 1

[Metadata]
Title:HIATAI
TitleUnicode:HIATAI
Artist:xddddd
ArtistUnicode:xddddd
Creator:lolsnoodles
Version:I want death
Source:
Tags:
BeatmapID:1477151
BeatmapSetID:697339

[Difficulty]
HPDrainRate:6
CircleSize:4
OverallDifficulty:8
ApproachRate:10
SliderMultiplier:1.4
SliderTickRate:1

[Events]
//Background and Video events
//Break Periods
//Storyboard Layer 0 (Background)
//Storyboard Layer 1 (Fail)
//Storyboard Layer 2 (Pass)
//Storyboard Layer 3 (Foreground)
//Storyboard Sound Samples

[TimingPoints]
918.075377115374,361.44578313253,4,1,0,100,1,0

[HitObjects]
132,120,737,6,0,B|164:192|184:144|184:164,1,70
188,104,1098,2,0,P|212:76|244:112,1,70
296,128,1460,2,0,B|340:88|352:100|340:112,1,35
376,156,1731,1,0,0:0:0:0:
444,384,1912,1,0,0:0:0:0:
316,212,2092,5,0,0:0:0:0:
288,320,2363,2,0,B|196:280|460:68|416:8,1,350
144,64,3448,1,0,0:0:0:0:
120,208,3809,1,0,0:0:0:0:
244,128,3990,1,0,0:0:0:0:
344,204,4261,1,0,0:0:0:0:
380,296,4622,2,0,B|224:360|268:324,1,140
216,208,5165,2,0,B|232:176|240:216|248:208,1,35
224,212,5526,6,0,B|248:184|248:232|232:208,1,35
224,216,5797,2,0,B|256:204|232:244|248:244,1,35
203,90,6159,2,0,B|344:104|-8:200|192:192,1,210
232,200,6881,1,0,0:0:0:0:
296,152,7062,1,0,0:0:0:0:
332,64,7243,1,0,0:0:0:0:
392,68,7424,2,0,B|440:88|392:-44|400:-40,1,105
416,132,7875,2,0,P|420:244|376:144,1,280
380,132,8598,5,0,0:0:0:0:
96,68,8779,5,0,0:0:0:0:
140,112,9050,1,0,0:0:0:0:
180,160,9502,1,0,0:0:0:0:
216,216,9863,2,0,P|304:240|160:128,1,735
280,112,11942,1,0,0:0:0:0:
296,132,12032,1,0,0:0:0:0:
296,132,12122,1,0,0:0:0:0:
296,136,12213,1,0,0:0:0:0:
296,136,12393,1,0,0:0:0:0:
296,144,12484,1,0,0:0:0:0:
292,144,12574,1,0,0:0:0:0:
292,144,12755,1,0,0:0:0:0:
292,144,12845,1,0,0:0:0:0:
292,148,12936,1,0,0:0:0:0:
196,32,13568,6,0,B|292:104|-128:-64,1,385
100,108,14743,1,0,0:0:0:0:
136,180,15104,1,0,0:0:0:0:
200,232,15375,1,0,0:0:0:0:
228,288,15827,2,0,B|392:272|340:176|228:184|184:252|224:356|408:336|436:196|304:100|168:208|120:340|8:180|176:28|432:80|588:176|440:260|368:384,1,805
340,184,18177,2,0,L|336:260,1,70
280,192,18628,2,0,B|176:112|244:176|276:188,1,105
296,156,19080,2,0,L|308:120,1,35
352,80,19532,1,0,0:0:0:0:
80,144,19713,2,0,B|200:288|48:196|248:164|324:192,1,280
392,256,20616,1,0,0:0:0:0:
468,88,21520,5,0,0:0:0:0:
128,224,21791,1,0,0:0:0:0:
464,264,22243,1,0,0:0:0:0:
36,216,22604,1,0,0:0:0:0:
380,192,22875,1,0,0:0:0:0:
68,116,23146,1,0,0:0:0:0:
260,124,23418,2,0,B|256:236|292:232|336:256,1,140
388,228,23960,1,0,0:0:0:0:
400,196,24050,1,0,0:0:0:0:
412,152,24140,1,0,0:0:0:0:
400,104,24321,2,0,L|356:96,1,35
88,108,24683,5,0,0:0:0:0:
464,128,24863,1,0,0:0:0:0:
256,348,25225,1,0,0:0:0:0:
256,28,25496,1,0,0:0:0:0:
188,88,26128,1,0,0:0:0:0:
232,112,26309,1,0,0:0:0:0:
272,152,26490,1,0,0:0:0:0:
308,192,26761,1,0,0:0:0:0:
344,240,26942,1,0,0:0:0:0:
112,128,27122,5,0,0:0:0:0:
140,104,27213,1,0,0:0:0:0:
164,100,27303,1,0,0:0:0:0:
196,96,27393,1,0,0:0:0:0:
204,96,27484,1,0,0:0:0:0:
240,104,27574,1,0,0:0:0:0:
280,312,27665,1,0,0:0:0:0:
280,304,27755,1,0,0:0:0:0:
288,300,27845,1,0,0:0:0:0:
300,292,27936,1,0,0:0:0:0:
308,288,28026,1,0,0:0:0:0:
320,288,28116,1,0,0:0:0:0:
348,272,28207,1,0,0:0:0:0:
412,112,28478,5,0,0:0:0:0:
384,160,28659,1,0,0:0:0:0:
340,176,28839,1,0,0:0:0:0:
308,180,28930,1,0,0:0:0:0:
260,168,29110,1,0,0:0:0:0:
136,120,29743,1,0,0:0:0:0:
472,156,30104,1,0,0:0:0:0:
152,312,30375,1,0,0:0:0:0:
416,328,30556,1,0,0:0:0:0:
240,128,30827,1,0,0:0:0:0:
276,128,31098,6,0,L|276:256,1,105
472,136,31550,2,0,L|432:128,1,35
40,176,31821,2,0,L|84:160,1,35
240,80,32183,2,0,L|236:116,1,35
64,64,32725,1,0,0:0:0:0:
432,312,32996,1,0,0:0:0:0:
452,48,33448,1,0,0:0:0:0:
68,320,33719,1,0,0:0:0:0:
236,216,33900,2,0,P|104:104|412:168,1,980
368,188,36610,5,0,0:0:0:0:
320,208,36701,1,0,0:0:0:0:
296,228,36791,1,0,0:0:0:0:
280,236,36972,1,0,0:0:0:0:
244,248,37062,1,0,0:0:0:0:
228,256,37243,1,0,0:0:0:0:
48,36,37695,5,0,0:0:0:0:
456,164,37875,1,0,0:0:0:0:
416,208,38146,2,0,L|384:256,1,35
348,284,38418,1,0,0:0:0:0:
292,308,38598,1,0,0:0:0:0:
236,324,38779,1,0,0:0:0:0:
204,216,39231,1,0,0:0:0:0:
256,204,39502,1,0,0:0:0:0:
296,188,39773,1,0,0:0:0:0:
332,168,39954,1,0,0:0:0:0:
356,140,40134,1,0,0:0:0:0:
368,112,40225,1,0,0:0:0:0:
392,80,40406,1,0,0:0:0:0:
416,36,40496,1,0,0:0:0:0:
68,48,40677,5,0,0:0:0:0:
128,92,40767,1,0,0:0:0:0:
168,100,40857,1,0,0:0:0:0:
196,112,41038,2,0,P|308:52|344:264,1,420
256,192,42303,12,0,43861,0:0:0:0:
