osu file format v14

[General]
AudioFilename: audio.mp3
AudioLeadIn: 0
PreviewTime: 44891
Countdown: 1
SampleSet: Soft
StackLeniency: 0.7
Mode: 0
LetterboxInBreaks: 0
WidescreenStoryboard: 0

[Editor]
DistanceSpacing: 0.9
BeatDivisor: 4
GridSize: 4
TimelineZoom: 1

[Metadata]
Title:xd
TitleUnicode:xd
Artist:xd
ArtistUnicode:xd
Creator:desireofpainx
Version:lmao
Source:
Tags:
BeatmapID:1637760
BeatmapSetID:779988

[Difficulty]
HPDrainRate:8
CircleSize:4.2
OverallDifficulty:8
ApproachRate:9
SliderMultiplier:1.7
SliderTickRate:1

[Events]
//Background and Video events
0,0,"41062758_p0.jpg",0,0
//Break Periods
//Storyboard Layer 0 (Background)
//Storyboard Layer 1 (Fail)
//Storyboard Layer 2 (Pass)
//Storyboard Layer 3 (Foreground)
//Storyboard Sound Samples

[TimingPoints]
1558,333.333333333333,4,2,0,100,1,0
1558,-133.333333333333,4,2,0,100,0,0
7724,-83.3333333333333,4,2,0,100,0,0
13557,-100,4,2,0,100,0,0
45557,-83.3333333333333,4,2,0,100,0,1
66891,-100,4,2,0,100,0,0
90891,-100,4,2,0,100,0,1
112224,-100,4,2,0,100,0,0
136224,-100,4,2,0,100,0,1
178891,-100,4,2,0,100,0,0

[HitObjects]
104,176,1558,6,0,L|228:120,1,127.500004863739
212,212,2224,2,0,L|95:264,1,127.500004863739
164,328,2891,1,0,0:0:0:0:
164,328,3557,1,0,0:0:0:0:
180,328,3891,1,0,0:0:0:0:
196,328,4224,6,0,L|332:328,1,127.500004863739
272,256,4891,2,0,L|140:256,1,127.500004863739
228,180,5557,1,0,0:0:0:0:
76,52,7724,5,0,0:0:0:0:
68,76,7807,1,0,0:0:0:0:
60,100,7891,2,0,L|20:220,1,101.999996887207
104,304,8224,5,0,0:0:0:0:
232,168,8391,2,0,L|356:148,1,101.999996887207
244,256,8724,2,0,P|172:232|168:112,1,203.999993774414
288,44,9224,1,0,0:0:0:0:
464,176,9391,2,0,P|383:123|268:132,1,203.999993774414
104,304,9891,1,0,0:0:0:0:
344,184,10057,2,0,P|359:100|236:52,1,203.999993774414
120,128,10557,1,0,0:0:0:0:
172,40,10724,1,0,0:0:0:0:
344,184,10891,5,0,0:0:0:0:
279,127,11057,1,0,0:0:0:0:
104,304,11224,1,0,0:0:0:0:
156,216,11391,2,0,P|144:168|104:124,1,101.999996887207
196,304,11724,2,0,P|240:336|308:332,1,101.999996887207
408,116,12057,6,0,P|360:72|280:68,1,101.999996887207
248,120,12391,1,0,0:0:0:0:
192,40,12557,1,0,0:0:0:0:
56,264,12724,1,0,0:0:0:0:
16,8,13057,5,0,0:0:0:0:
24,28,13223,1,0,0:0:0:0:
336,188,13557,6,0,P|280:140|184:176,1,170
256,228,14057,1,0,0:0:0:0:
324,272,14224,2,0,P|396:252|408:220,1,85
472,208,14557,2,0,P|433:182|418:141,1,85
416,60,14891,6,0,P|348:92|345:197,1,170
412,276,15391,1,0,0:0:0:0:
248,148,15557,2,0,L|174:105,1,85
148,24,15891,2,0,P|104:52|92:112,1,85
64,272,16224,6,0,P|104:232|148:228,1,85
188,288,16557,1,0,0:0:0:0:
264,232,16724,1,0,0:0:0:0:
280,352,16891,1,0,0:0:0:0:
144,256,17057,1,0,0:0:0:0:
332,264,17224,1,0,0:0:0:0:
112,336,17391,1,0,0:0:0:0:
328,184,17557,6,0,P|384:204|404:232,2,85
276,116,18057,1,0,0:0:0:0:
224,48,18224,2,0,L|193:127,1,85
240,196,18557,1,0,0:0:0:0:
360,108,18724,1,0,0:0:0:0:
496,228,18891,6,0,P|444:192|332:196,1,170
292,264,19391,1,0,0:0:0:0:
240,196,19557,2,0,P|204:168|144:160,1,85
224,316,19891,2,0,P|256:342|297:353,1,85
388,244,20224,6,0,L|336:72,1,170
248,36,20724,1,0,0:0:0:0:
176,104,20891,2,0,L|272:164,1,85
384,244,21224,1,0,0:0:0:0:
312,288,21391,1,0,0:0:0:0:
304,196,21557,5,0,0:0:0:0:
400,292,21724,1,0,0:0:0:0:
240,336,21891,1,0,0:0:0:0:
424,196,22057,1,0,0:0:0:0:
344,356,22224,1,0,0:0:0:0:
188,200,22391,1,0,0:0:0:0:
72,356,22557,1,0,0:0:0:0:
268,224,22724,6,0,P|232:128|144:128,1,170
96,280,23224,1,0,0:0:0:0:
292,304,23391,2,0,P|332:275|352:228,1,85
216,296,23725,2,0,P|243:367|273:382,2,85
432,116,24224,6,0,B|436:89|452:72|452:72|390:58|316:76,1,170
248,128,24724,1,0,0:0:0:0:
312,192,24891,2,0,P|248:216|212:208,1,85
160,168,25224,1,0,0:0:0:0:
120,244,25391,1,0,0:0:0:0:
104,112,25557,6,0,P|152:88|200:104,1,85
288,200,25891,1,0,0:0:0:0:
248,128,26057,1,0,0:0:0:0:
120,244,26224,2,0,P|160:208|200:200,1,85
184,332,26557,2,0,P|154:362|114:375,1,85
44,264,26891,5,0,0:0:0:0:
120,240,27057,1,0,0:0:0:0:
40,184,27224,1,0,0:0:0:0:
120,300,27391,1,0,0:0:0:0:
120,140,27557,1,0,0:0:0:0:
44,344,27724,1,0,0:0:0:0:
4,136,27891,1,0,0:0:0:0:
212,208,28057,1,0,0:0:0:0:
104,40,28224,6,0,P|32:32|-4:60,1,85
168,276,28557,2,0,P|240:284|276:256,1,85
396,120,28891,2,0,P|376:117|304:144,1,85
408,244,29224,2,0,P|425:261|495:280,1,85
276,68,29557,6,0,B|220:48|156:96|100:56,1,170
44,0,30057,1,0,0:0:0:0:
68,124,30224,2,0,P|120:148|164:144,1,85
260,216,30557,2,0,P|224:238|182:242,1,85
412,104,30891,6,0,B|436:160|436:160|404:268,1,170
340,168,31391,2,0,L|304:88,2,85
256,324,31891,1,0,0:0:0:0:
304,252,32057,1,0,0:0:0:0:
216,236,32224,5,0,0:0:0:0:
352,312,32391,1,0,0:0:0:0:
172,340,32557,1,0,0:0:0:0:
344,268,32724,1,0,0:0:0:0:
96,248,32891,1,0,0:0:0:0:
392,288,33057,1,0,0:0:0:0:
56,348,33224,1,0,0:0:0:0:
256,144,33391,6,0,B|268:84|268:84|333:217,1,170
236,340,33891,1,0,0:0:0:0:
404,96,34057,1,0,0:0:0:0:
404,96,34141,1,0,0:0:0:0:
404,96,34224,1,0,0:0:0:0:
168,224,34391,1,0,0:0:0:0:
268,84,34557,1,0,0:0:0:0:
132,116,34724,1,0,0:0:0:0:
152,68,34891,5,0,0:0:0:0:
152,68,35391,1,0,0:0:0:0:
232,88,35557,2,0,P|200:132|140:156,2,85
280,16,36057,2,0,L|344:92,1,85
416,100,36391,2,0,P|388:148|340:168,1,85
288,144,36724,1,0,0:0:0:0:
276,264,36891,6,0,P|252:224|212:204,1,85
232,336,37224,2,0,P|296:348|336:320,1,85
436,281,37557,6,0,L|384:120,1,170
120,180,38224,2,0,L|84:346,1,170
212,136,38891,2,0,P|176:92|140:84,1,85
316,328,39391,1,0,0:0:0:0:
396,300,39557,2,0,P|432:268|480:260,2,85
84,200,40224,6,0,L|152:120,1,85
220,88,40557,1,0,0:0:0:0:
236,244,40724,1,0,0:0:0:0:
380,140,40891,2,0,L|444:72,1,85
400,232,41224,2,0,P|344:224|304:184,1,85
296,128,41557,5,0,0:0:0:0:
236,244,41724,1,0,0:0:0:0:
212,108,41891,1,0,0:0:0:0:
324,212,42057,1,0,0:0:0:0:
124,124,42224,1,0,0:0:0:0:
368,144,42391,1,0,0:0:0:0:
216,32,42557,1,0,0:0:0:0:
264,296,42724,1,0,0:0:0:0:
460,176,42891,6,0,L|488:8,1,170
384,220,43391,2,0,P|445:286|521:242,1,170
360,88,43891,1,0,0:0:0:0:
264,269,44057,2,0,P|282:183|245:94,1,170
180,68,44557,1,0,0:0:0:0:
56,256,44724,1,0,0:0:0:0:
328,336,45557,6,0,P|368:296|368:224,1,101.999996887207
324,64,45891,2,0,P|284:104|284:176,1,101.999996887207
480,160,46224,2,0,L|376:184,1,101.999996887207
200,232,46557,2,0,L|328:268,1,101.999996887207
480,232,46891,2,0,P|384:276|340:372,1,203.999993774414
304,176,47391,1,0,0:0:0:0:
258,311,47557,6,0,L|194:219,1,101.999996887207
152,44,47891,2,0,P|124:108|80:144,1,101.999996887207
84,320,48224,2,0,P|120:256|168:224,1,101.999996887207
304,176,48557,2,0,P|252:160|212:120,1,101.999996887207
152,44,48891,1,0,0:0:0:0:
72,108,49057,1,0,0:0:0:0:
296,98,49224,1,0,0:0:0:0:
372,148,49390,1,0,0:0:0:0:
140,204,49557,6,0,P|92:228|40:216,1,101.999996887207
72,108,49891,1,0,0:0:0:0:
112,336,50057,1,0,0:0:0:0:
222,186,50224,2,0,P|201:140|160:112,1,101.999996887207
188,292,50557,2,0,P|244:308|296:280,1,101.999996887207
352,140,50891,5,0,0:0:0:0:
408,232,51057,1,0,0:0:0:0:
280,92,51224,1,0,0:0:0:0:
222,186,51391,1,0,0:0:0:0:
400,80,51557,5,0,0:0:0:0:
464,292,51724,1,0,0:0:0:0:
304,48,51891,1,0,0:0:0:0:
220,272,52057,1,0,0:0:0:0:
136,72,52224,6,0,P|76:52|16:80,1,101.999996887207
172,340,52557,2,0,P|220:356|270:336,1,101.999996887207
352,132,52891,2,0,L|240:120,1,101.999996887207
340,232,53224,2,0,L|441:221,1,101.999996887207
172,64,53557,6,0,L|156:168,1,101.999996887207
236,336,53891,1,0,0:0:0:0:
220,248,54057,1,0,0:0:0:0:
412,16,54224,6,0,L|393:116,1,101.999996887207
352,256,54558,1,0,0:0:0:0:
324,168,54724,1,0,0:0:0:0:
240,56,54891,6,0,P|148:40|104:56,1,101.999996887207
293,313,55224,2,0,P|385:329|429:313,1,101.999996887207
416,320,55474,1,0,0:0:0:0:
436,304,55557,1,0,0:0:0:0:
324,168,55724,1,0,0:0:0:0:
192,312,55891,1,0,0:0:0:0:
104,36,56224,6,0,L|152:148,1,101.999996887207
116,312,56557,2,0,P|137:258|199:227,1,101.999996887207
392,232,56891,2,0,P|305:235|204:146,1,203.999993774414
236,60,57391,1,0,0:0:0:0:
124,96,57557,2,0,L|156:236,1,101.999996887207
151,341,57891,2,0,L|192:248,1,101.999996887207
352,148,58224,5,0,0:0:0:0:
392,232,58391,1,0,0:0:0:0:
260,140,58557,1,0,0:0:0:0:
308,60,58724,1,0,0:0:0:0:
352,148,58891,2,0,P|332:204|268:244,1,101.999996887207
220,248,59224,2,0,P|243:292|292:312,1,101.999996887207
260,140,59557,2,0,P|208:116|144:140,1,101.999996887207
152,300,59891,2,0,P|132:244|92:204,1,101.999996887207
36,32,60224,6,0,P|108:96|228:72,1,203.999993774414
312,0,60724,1,0,0:0:0:0:
444,80,60891,2,0,P|401:104|360:156,1,101.999996887207
376,340,61224,2,0,P|351:297|300:256,1,101.999996887207
176,120,61557,5,0,0:0:0:0:
224,200,61724,1,0,0:0:0:0:
112,176,61891,1,0,0:0:0:0:
284,156,62057,1,0,0:0:0:0:
152,52,62224,1,0,0:0:0:0:
164,244,62391,1,0,0:0:0:0:
268,76,62557,1,0,0:0:0:0:
312,262,62724,1,0,0:0:0:0:
96,108,62891,6,0,P|72:52|88:4,1,101.999996887207
192,32,63224,1,0,0:0:0:0:
224,176,63391,1,0,0:0:0:0:
344,48,63557,2,0,P|352:112|336:152,1,101.999996887207
268,352,63891,2,0,P|228:312|212:256,1,101.999996887207
140,116,64224,6,0,P|92:80|40:88,1,101.999996887207
220,32,64557,1,0,0:0:0:0:
296,232,64724,2,0,P|351:168|466:153,1,203.999993774414
340,308,65224,2,0,P|252:304|220:196,1,203.999993774414
300,56,65724,1,0,0:0:0:0:
256,128,65891,1,0,0:0:0:0:
192,56,66057,2,0,L|176:8,2,50.9999984436036
256,128,66391,1,0,0:0:0:0:
300,56,66557,1,0,0:0:0:0:
