osu file format v14

[General]
AudioFilename: audio.ogg
AudioLeadIn: 0
PreviewTime: 71194
Countdown: 0
SampleSet: Soft
StackLeniency: 0.4
Mode: 0
LetterboxInBreaks: 0
WidescreenStoryboard: 1

[Editor]
Bookmarks: 9012,23194,40648,58103,75557,92875,114694,132285,136648,145375,154103,162830,171557,174012
DistanceSpacing: 2
BeatDivisor: 4
GridSize: 16
TimelineZoom: 2.599999

[Metadata]
Title:rog-unlimitation
TitleUnicode:rog-unlimitation
Artist:xaki
ArtistUnicode:xaki
Creator:Remilie
Version:take's hard
Source:うみねこのなく頃に
Tags:Umineko no Naku Koro ni When the Seagulls Cry 07th Expansion Visual Novel VN Instrumental Video Game sbsonic -tynamo urition take sprixx your stary your_stary axilotl
BeatmapID:4556371
BeatmapSetID:1895918

[Difficulty]
HPDrainRate:4
CircleSize:3.6
OverallDifficulty:6
ApproachRate:8
SliderMultiplier:1.23
SliderTickRate:1

[Events]
//Background and Video events
0,0,"bg.jpg",0,0
//Break Periods
2,114895,122807
2,136713,144625
//Storyboard Layer 0 (Background)
//Storyboard Layer 1 (Fail)
//Storyboard Layer 2 (Pass)
//Storyboard Layer 3 (Foreground)
//Storyboard Layer 4 (Overlay)
//Storyboard Sound Samples

[TimingPoints]
-805,272.727272727273,4,2,1,100,1,0
285,-103.092783505155,4,2,1,50,0,0
136444,-103.092783505155,4,2,1,5,0,0
136513,-103.092783505155,4,2,1,50,0,0

[Colours]
Combo1 : 225,23,89
Combo2 : 218,155,69
Combo3 : 56,136,150
Combo4 : 160,22,22

[HitObjects]
355,64,285,6,0,P|297:49|237:43,1,119.31,0|0,2:0|2:0,2:0:0:0:
223,121,695,2,0,P|282:127|340:141,1,119.31,0|0,2:0|2:0,2:0:0:0:
418,124,1104,2,0,P|475:129|501:180,1,119.31,0|0,2:0|2:0,2:0:0:0:
480,257,1513,1,0,2:0:0:0:
266,361,1922,2,0,P|252:336|251:306,1,59.6549999999998,0|0,2:0|2:0,2:0:0:0:
330,312,2195,1,0,2:0:0:0:
272,169,2467,6,0,B|228:155|228:155|156:173,1,119.31,0|0,2:0|2:0,2:0:0:0:
92,219,2876,2,0,B|78:175|78:175|95:104,1,119.31,0|0,2:0|2:0,2:0:0:0:
158,53,3285,2,0,P|108:21|52:35,1,119.31,0|0,2:0|2:0,2:0:0:0:
9,102,3695,1,0,2:0:0:0:
51,254,3967,1,0,2:0:0:0:
51,254,4104,2,0,L|40:317,1,59.6549999999998,0|0,2:0|2:0,2:0:0:0:
89,374,4376,1,0,2:0:0:0:
242,337,4649,6,0,P|271:286|251:232,1,119.31,0|0,2:0|2:0,2:0:0:0:
172,228,5058,2,0,P|143:278|163:332,1,119.31,0|0,2:0|2:0,2:0:0:0:
233,369,5467,2,0,L|351:348,1,119.31,0|0,2:0|2:0,2:0:0:0:
429,336,5876,1,0,2:0:0:0:
507,110,6285,2,0,P|481:95|451:95,1,59.6549999999998,0|0,2:0|2:0,2:0:0:0:
460,173,6558,1,0,2:0:0:0:
307,127,6831,5,0,2:0:0:0:
307,127,6967,2,0,P|292:69|284:10,1,119.31,0|0,2:0|2:0,2:0:0:0:
205,24,7376,1,0,2:0:0:0:
123,161,7649,1,0,2:0:0:0:
123,161,7785,1,0,2:0:0:0:
23,38,8058,6,0,L|30:6,2,29.8274999999999,0|0|0,2:0|2:0|2:0,2:0:0:0:
9,116,8331,1,0,2:0:0:0:
9,116,8467,2,0,L|21:174,1,59.6549999999998,0|0,2:0|2:0,2:0:0:0:
44,255,8740,1,0,2:0:0:0:
44,255,8876,1,0,2:0:0:0:
116,223,9013,6,0,P|173:213|212:255,1,119.31,0|0,2:0|2:0,2:0:0:0:
174,326,9422,2,0,P|218:289|273:306,1,119.31,0|0,2:0|2:0,2:0:0:0:
342,354,9831,1,0,2:0:0:0:
342,354,9967,2,0,L|458:330,1,119.31,0|0,2:0|2:0,2:0:0:0:
504,264,10376,1,0,2:0:0:0:
450,113,10649,2,0,P|458:84|474:60,1,59.6549999999998,0|0,2:0|2:0,2:0:0:0:
416,5,10922,1,0,2:0:0:0:
284,94,11195,6,0,L|168:70,1,119.31,0|0,2:0|2:0,2:0:0:0:
97,31,11604,2,0,P|39:35|6:82,1,119.31,0|0,2:0|2:0,2:0:0:0:
20,165,12013,1,0,2:0:0:0:
20,165,12149,2,0,P|74:147|121:181,1,119.31,0|0,2:0|2:0,2:0:0:0:
171,243,12558,1,0,2:0:0:0:
328,224,12831,2,0,P|335:194|352:170,1,59.6549999999998,0|0,2:0|2:0,2:0:0:0:
409,226,13104,1,0,2:0:0:0:
341,369,13376,6,0,P|283:353|224:346,1,119.31,0|0,2:0|2:0,2:0:0:0:
145,363,13785,2,0,P|129:305|122:246,1,119.31,0|0,2:0|2:0,2:0:0:0:
63,201,14195,1,0,2:0:0:0:
63,201,14331,2,0,P|112:170|173:192,1,119.31,0|0,2:0|2:0,2:0:0:0:
218,248,14740,1,0,2:0:0:0:
365,189,15013,2,0,P|389:172|418:164,1,59.6549999999998,0|0,2:0|2:0,2:0:0:0:
427,243,15285,1,0,2:0:0:0:
496,101,15558,6,0,P|451:64|393:69,1,119.31,0|0,2:0|2:0,2:0:0:0:
315,88,15967,2,0,P|270:51|213:61,1,119.31,0|0,2:0|2:0,2:0:0:0:
144,32,16376,1,0,2:0:0:0:
144,32,16513,2,0,L|120:148,1,119.31,0|0,2:0|2:0,2:0:0:0:
60,201,16922,1,0,2:0:0:0:
106,352,17195,2,0,P|130:335|159:327,1,59.6549999999998,0|0,2:0|2:0,2:0:0:0:
234,349,17467,1,0,2:0:0:0:
256,192,17740,6,0,B|316:171|378:174|378:174|334:181|314:208,1,178.964999999999,0|0,2:0|2:0,2:0:0:0:
256,192,18285,12,0,19922,2:0:0:0:
256,192,20331,12,0,21558,2:0:0:0:
256,192,22104,6,0,L|225:307,2,119.31,0|0|0,2:0|2:0|2:0,2:0:0:0:
283,117,22785,1,0,2:0:0:0:
337,174,22922,2,0,L|368:165,3,29.8274999999999,0|0|0|0,2:0|2:0|2:0|2:0,2:0:0:0:
393,159,23195,6,0,P|450:154|485:199,1,119.31,0|0,2:0|2:0,2:0:0:0:
501,277,23604,2,0,P|469:280|441:288,1,59.6549999999998,0|0,2:0|2:0,2:0:0:0:
365,269,23876,2,0,P|307:253|248:248,1,119.31,0|0,2:0|2:0,2:0:0:0:
182,294,24285,1,0,2:0:0:0:
35,353,24558,1,0,2:0:0:0:
35,353,24695,2,0,P|22:326|18:296,1,59.6549999999998,0|0,2:0|2:0,2:0:0:0:
49,223,24967,2,0,P|74:169|82:110,1,119.31,0|0,2:0|2:0,2:0:0:0:
49,37,25376,5,0,2:0:0:0:
203,1,25649,1,0,2:0:0:0:
203,1,25785,2,0,P|260:14|322:21,1,119.31,0|0,2:0|2:0,2:0:0:0:
399,31,26195,1,0,2:0:0:0:
446,181,26467,2,0,P|475:184|504:190,2,59.6549999999998,0|0|0,2:0|2:0|2:0,2:0:0:0:
382,133,26876,2,0,P|326:116|280:151,1,119.31,0|0,2:0|2:0,2:0:0:0:
233,217,27285,1,0,2:0:0:0:
233,217,27422,1,0,2:0:0:0:
276,283,27558,6,0,P|335:289|393:302,1,119.31,0|0,2:0|2:0,2:0:0:0:
351,370,27967,2,0,P|321:363|292:360,1,59.6549999999998,0|0,2:0|2:0,2:0:0:0:
214,341,28240,2,0,P|188:288|206:233,1,119.31,0|0,2:0|2:0,2:0:0:0:
254,170,28649,1,0,2:0:0:0:
207,18,28922,1,0,2:0:0:0:
207,18,29058,2,0,P|149:9|105:46,1,119.31,0|0,2:0|2:0,2:0:0:0:
69,117,29467,1,0,2:0:0:0:
29,269,29740,6,0,P|18:297|20:327,2,59.6549999999998,0|0|0,2:0|2:0|2:0,2:0:0:0:
98,306,30149,2,0,P|154:325|206:299,1,119.31,0|0,2:0|2:0,2:0:0:0:
273,256,30558,2,0,L|260:193,1,59.6549999999998,0|0,2:0|2:0,2:0:0:0:
248,118,30831,5,0,2:0:0:0:
323,139,30967,2,0,P|377:115|432:134,1,119.31,0|0,2:0|2:0,2:0:0:0:
498,179,31376,1,0,2:0:0:0:
463,334,31649,1,0,2:0:0:0:
463,334,31785,1,0,2:0:0:0:
392,370,31922,6,0,P|333:356|274:350,1,119.31,0|0,2:0|2:0,2:0:0:0:
198,374,32331,2,0,P|191:345|200:317,1,59.6549999999998,0|0,2:0|2:0,2:0:0:0:
263,268,32604,2,0,P|276:210|257:154,1,119.31,0|0,2:0|2:0,2:0:0:0:
208,92,33013,1,0,2:0:0:0:
59,36,33285,1,0,2:0:0:0:
59,35,33422,2,0,P|12:70|7:128,1,119.31,0|0,2:0|2:0,2:0:0:0:
85,109,33831,1,0,2:0:0:0:
239,71,34104,6,0,B|298:55|298:55|352:75,1,119.31,0|0,2:0|2:0,2:0:0:0:
424,40,34513,2,0,L|434:99,1,59.6549999999998,0|0,2:0|2:0,2:0:0:0:
499,143,34785,2,0,L|381:163,1,119.31,0|0,2:0|2:0,2:0:0:0:
309,197,35195,2,0,L|250:187,1,59.6549999999998,0|0,2:0|2:0,2:0:0:0:
172,171,35467,1,0,2:0:0:0:
172,171,35604,2,0,P|129:209|137:266,1,119.31,0|0,2:0|2:0,2:0:0:0:
184,331,36013,1,0,2:0:0:0:
340,355,36285,6,0,L|401:342,1,59.6549999999998,0|0,2:0|2:0,2:0:0:0:
472,369,36558,2,0,P|476:312|431:271,1,119.31,0|0,2:0|2:0,2:0:0:0:
295,204,37104,1,0,2:0:0:0:
295,204,37240,1,0,2:0:0:0:
315,127,37376,2,0,L|328:66,1,59.6549999999998,0|0,2:0|2:0,2:0:0:0:
388,18,37649,2,0,P|444:4|488:41,1,119.31,0|0,2:0|2:0,2:0:0:0:
433,191,38195,2,0,L|374:203,1,59.6549999999998,0|0,2:0|2:0,2:0:0:0:
295,204,38467,5,0,2:0:0:0:
205,72,38740,2,0,P|175:72|149:86,1,59.6549999999998,0|0,2:0|2:0,2:0:0:0:
86,135,39013,2,0,P|64:188|89:241,1,119.31,0|0,2:0|2:0,2:0:0:0:
219,344,39558,1,0,2:0:0:0:
219,344,39695,1,0,2:0:0:0:
288,306,39831,2,0,P|313:292|343:293,1,59.6549999999998,0|0,2:0|2:0,2:0:0:0:
334,372,40104,2,0,L|218:343,1,119.31,0|0,2:0|2:0,2:0:0:0:
62,373,40649,6,0,L|48:311,2,59.6549999999998,0|0|0,2:0|2:0|2:0,2:0:0:0:
137,342,41058,1,0,2:0:0:0:
137,342,41195,2,0,L|110:225,1,119.31,0|0,2:0|2:0,2:0:0:0:
23,92,41740,2,0,P|9:65|13:36,2,59.6549999999998,0|0|0,2:0|2:0|2:0,2:0:0:0:
94,53,42149,1,0,2:0:0:0:
94,53,42285,2,0,P|149:36|199:65,1,119.31,0|0,2:0|2:0,2:0:0:0:
355,34,42831,6,0,L|413:20,1,59.6549999999998,0|0,2:0|2:0,2:0:0:0:
452,90,43104,2,0,L|335:117,1,119.31,0|0,2:0|2:0,2:0:0:0:
297,188,43513,1,0,2:0:0:0:
297,188,43649,1,0,2:0:0:0:
203,316,43922,2,0,B|174:307|145:325|145:325|117:340|88:331,1,119.31,0|0,2:0|2:0,2:0:0:0:
21,288,44331,1,0,2:0:0:0:
21,288,44467,2,0,B|11:257|11:257|20:232,1,59.6549999999998,0|0,2:0|2:0,2:0:0:0:
76,175,44740,2,0,B|107:165|107:165|132:174,1,59.6549999999998,0|0,2:0|2:0,2:0:0:0:
207,200,45013,6,0,B|265:216|265:216|319:192,1,119.31,0|0,2:0|2:0,2:0:0:0:
401,207,45422,1,0,2:0:0:0:
401,207,45558,2,0,L|374:84,1,119.31,0|0,2:0|2:0,2:0:0:0:
510,6,46104,2,0,L|497:64,1,59.6549999999998,0|0,2:0|2:0,2:0:0:0:
475,140,46376,2,0,L|500:256,1,119.31,0|0,2:0|2:0,2:0:0:0:
461,326,46785,2,0,P|489:333|510:354,2,59.6549999999998,0|0|0,2:0|2:0|2:0,2:0:0:0:
386,355,47195,6,0,P|330:373|279:345,1,119.31,0|0,2:0|2:0,2:0:0:0:
211,304,47604,2,0,P|268:307|311:267,1,119.31,0|0,2:0|2:0,2:0:0:0:
363,207,48013,1,0,2:0:0:0:
308,63,48285,5,0,2:0:0:0:
308,63,48422,1,0,2:0:0:0:
163,11,48695,1,0,2:0:0:0:
163,11,48831,1,0,2:0:0:0:
59,131,49104,1,0,2:0:0:0:
59,131,49240,1,0,2:0:0:0:
108,190,49376,6,0,P|166:197|207:150,2,119.31,0|0|0,2:0|2:0|2:0,2:0:0:0:
4,310,50195,2,0,L|19:376,1,59.6549999999998,0|0,2:0|2:0,2:0:0:0:
94,353,50467,2,0,L|210:326,1,119.31,0|0,2:0|2:0,2:0:0:0:
365,363,51013,2,0,P|387:308|363:255,1,119.31,0|0,2:0|2:0,2:0:0:0:
305,210,51422,1,0,2:0:0:0:
305,210,51558,6,0,P|283:155|307:102,2,119.31,0|0|0,2:0|2:0|2:0,2:0:0:0:
459,246,52376,2,0,L|472:187,1,59.6549999999998,0|0,2:0|2:0,2:0:0:0:
425,123,52649,2,0,L|398:6,1,119.31,0|0,2:0|2:0,2:0:0:0:
243,46,53195,2,0,P|217:34|187:35,1,59.6549999999998,0|0,2:0|2:0,2:0:0:0:
123,81,53467,2,0,P|122:110|134:137,1,59.6549999999998,0|0,2:0|2:0,2:0:0:0:
201,181,53740,6,0,B|226:165|258:164|258:164|283:181|313:184,2,119.31,0|0|0,2:0|2:0|2:0,2:0:0:0:
50,234,54558,2,0,P|40:261|45:290,1,59.6549999999998,0|0,2:0|2:0,2:0:0:0:
121,268,54831,2,0,P|179:259|222:297,2,119.31,0|0|0,2:0|2:0|2:0,2:0:0:0:
245,169,55649,2,0,L|303:155,1,59.6549999999998,0|0,2:0|2:0,2:0:0:0:
381,138,55922,1,0,2:0:0:0:
474,266,56195,2,0,P|417:259|377:301,1,119.31,0|0,2:0|2:0,2:0:0:0:
323,360,56604,1,0,2:0:0:0:
323,360,56740,2,0,L|265:346,1,59.6549999999998,0|0,2:0|2:0,2:0:0:0:
188,366,57013,6,0,P|185:337|175:309,1,59.6549999999998,0|0,2:0|2:0,2:0:0:0:
98,290,57285,2,0,P|88:318|85:347,1,59.6549999999998,0|0,2:0|2:0,2:0:0:0:
10,322,57558,1,0,2:0:0:0:
34,165,57831,2,0,L|69:156,3,29.8274999999999,0|0|0|0,2:0|2:0|2:0|2:0,2:0:0:0:
85,151,58104,6,0,P|141:141|184:183,1,119.31,0|0,2:0|2:0,2:0:0:0:
230,246,58513,2,0,L|292:235,1,59.6549999999998,0|0,2:0|2:0,2:0:0:0:
351,187,58785,2,0,P|403:161|456:184,1,119.31,0|0,2:0|2:0,2:0:0:0:
511,242,59195,1,0,2:0:0:0:
412,366,59467,1,0,2:0:0:0:
412,366,59604,2,0,L|350:355,1,59.6549999999998,0|0,2:0|2:0,2:0:0:0:
288,310,59876,2,0,P|233:289|182:317,1,119.31,0|0,2:0|2:0,2:0:0:0:
110,351,60285,6,0,P|102:291|87:232,1,119.31,0|0,2:0|2:0,2:0:0:0:
23,187,60695,2,0,P|27:157|34:127,1,59.6549999999998,0|0,2:0|2:0,2:0:0:0:
6,54,60967,2,0,P|45:42|106:87,1,119.31,0|0,2:0|2:0,2:0:0:0:
181,107,61376,2,0,P|183:76|193:48,2,59.6549999999998,0|0|0,2:0|2:0|2:0,2:0:0:0:
259,91,61785,2,0,L|388:70,1,119.31,0|0,2:0|2:0,2:0:0:0:
444,28,62195,1,0,2:0:0:0:
444,28,62331,1,0,2:0:0:0:
511,68,62467,5,0,2:0:0:0:
465,220,62740,1,0,2:0:0:0:
465,220,62876,2,0,P|436:210|407:206,1,59.6549999999998,0|0,2:0|2:0,2:0:0:0:
348,260,63149,2,0,P|288:266|232:286,1,119.31,0|0,2:0|2:0,2:0:0:0:
172,338,63558,1,0,2:0:0:0:
24,294,63831,1,0,2:0:0:0:
24,294,63967,2,0,L|39:231,1,59.6549999999998,0|0,2:0|2:0,2:0:0:0:
104,191,64240,2,0,P|157:214|209:190,1,119.31,0|0,2:0|2:0,2:0:0:0:
274,143,64649,5,0,2:0:0:0:
274,143,64785,2,0,P|272:111|284:82,1,59.6549999999998,0|0,2:0|2:0,2:0:0:0:
245,15,65058,2,0,L|305:6,1,59.6549999999998,0|0,2:0|2:0,2:0:0:0:
383,8,65331,2,0,L|365:125,1,119.31,0|0,2:0|2:0,2:0:0:0:
357,208,65740,5,0,2:0:0:0:
357,208,65876,1,0,2:0:0:0:
497,291,66149,1,0,2:0:0:0:
497,291,66285,1,0,2:0:0:0:
363,374,66558,1,0,2:0:0:0:
363,374,66695,1,0,2:0:0:0:
294,333,66831,6,0,P|238:313|184:336,1,119.31,0|0,2:0|2:0,2:0:0:0:
115,375,67240,2,0,P|105:343|111:312,1,59.6549999999998,0|0,2:0|2:0,2:0:0:0:
160,257,67513,2,0,L|42:274,1,119.31,0|0,2:0|2:0,2:0:0:0:
10,201,67922,2,0,P|7:171|17:142,1,59.6549999999998,0|0,2:0|2:0,2:0:0:0:
92,177,68195,1,0,2:0:0:0:
91,176,68331,2,0,P|149:178|181:130,1,119.31,0|0,2:0|2:0,2:0:0:0:
212,57,68740,1,0,2:0:0:0:
364,14,69013,6,0,L|381:131,1,119.31,0|0,2:0|2:0,2:0:0:0:
461,131,69422,2,0,P|473:157|470:186,1,59.6549999999998,0|0,2:0|2:0,2:0:0:0:
431,256,69695,2,0,P|375:272|327:239,1,119.31,0|0,2:0|2:0,2:0:0:0:
287,176,70104,1,0,2:0:0:0:
287,176,70240,2,0,P|256:176|229:189,1,59.6549999999998,0|0,2:0|2:0,2:0:0:0:
163,144,70513,2,0,L|146:261,1,119.31,0|0,2:0|2:0,2:0:0:0:
131,340,70922,1,0,2:0:0:0:
287,309,71195,6,0,P|315:303|346:314,1,59.6549999999998,0|0,2:0|2:0,2:0:0:0:
416,341,71467,2,0,P|473:350|513:309,1,119.31,0|0,2:0|2:0,2:0:0:0:
479,158,72013,1,0,2:0:0:0:
479,158,72149,1,0,2:0:0:0:
414,111,72285,2,0,L|355:123,1,59.6549999999998,0|0,2:0|2:0,2:0:0:0:
300,180,72558,2,0,P|278:144|301:69,1,119.31,0|0,2:0|2:0,2:0:0:0:
151,6,73104,2,0,L|92:18,1,59.6549999999998,0|0,2:0|2:0,2:0:0:0:
20,52,73376,6,0,P|8:78|12:107,1,59.6549999999998,0|0,2:0|2:0,2:0:0:0:
78,152,73649,2,0,P|90:125|86:96,1,59.6549999999998,0|0,2:0|2:0,2:0:0:0:
169,89,73922,1,0,2:0:0:0:
169,89,74058,2,0,P|225:80|264:123,1,119.31,0|0,2:0|2:0,2:0:0:0:
334,170,74467,5,0,2:0:0:0:
334,170,74604,2,0,L|216:193,1,119.31,0|0,2:0|2:0,2:0:0:0:
139,211,75013,1,0,2:0:0:0:
139,211,75558,6,0,B|106:195|83:206|83:206|60:184|26:192,2,119.31,0|0|0,2:0|2:0|2:0,2:0:0:0:
213,238,76240,1,0,2:0:0:0:
212,237,76376,2,0,P|226:264|219:292,1,59.6549999999998,0|0,2:0|2:0,2:0:0:0:
177,360,76649,2,0,L|117:349,2,59.6549999999998,0|0|0,2:0|2:0|2:0,2:0:0:0:
255,371,77058,2,0,L|375:349,1,119.31,0|0,2:0|2:0,2:0:0:0:
451,336,77467,1,0,2:0:0:0:
508,187,77740,6,0,L|446:174,1,59.6549999999998,0|0,2:0|2:0,2:0:0:0:
374,201,78013,2,0,L|362:142,1,59.6549999999998,0|0,2:0|2:0,2:0:0:0:
385,66,78285,2,0,L|355:60,3,29.8274999999999,0|0|0|0,2:0|2:0|2:0|2:0,2:0:0:0:
338,39,78558,2,0,L|308:45,3,29.8274999999999,0|0|0|0,2:0|2:0|2:0|2:0,2:0:0:0:
282,32,78831,2,0,P|226:17|182:54,1,119.31,0|0,2:0|2:0,2:0:0:0:
120,102,79240,1,0,2:0:0:0:
120,102,79376,2,0,L|131:168,1,59.6549999999998,0|0,2:0|2:0,2:0:0:0:
84,226,79649,2,0,L|93:284,1,59.6549999999998,0|0,2:0|2:0,2:0:0:0:
145,345,79922,6,0,P|94:366|34:333,2,119.31,0|0|0,2:0|2:0|2:0,2:0:0:0:
278,259,80740,2,0,P|307:255|335:265,1,59.6549999999998,0|0,2:0|2:0,2:0:0:0:
409,294,81013,2,0,P|465:302|504:260,1,119.31,0|0,2:0|2:0,2:0:0:0:
500,185,81422,1,0,2:0:0:0:
500,185,81558,2,0,P|492:156|473:133,1,59.6549999999998,0|0,2:0|2:0,2:0:0:0:
407,89,81831,2,0,P|378:81|349:85,1,59.6549999999998,0|0,2:0|2:0,2:0:0:0:
274,58,82104,6,0,L|268:87,7,29.8274999999999,0|0|0|0|0|0|0|0,2:0|2:0|2:0|2:0|2:0|2:0|2:0|2:0,2:0:0:0:
239,82,82649,2,0,L|233:111,7,29.8274999999999,0|0|0|0|0|0|0|0,2:0|2:0|2:0|2:0|2:0|2:0|2:0|2:0,2:0:0:0:
206,118,83195,1,0,2:0:0:0:
136,80,83331,2,0,P|78:70|33:105,1,119.31,0|0,2:0|2:0,2:0:0:0:
10,182,83740,1,0,2:0:0:0:
63,336,84013,1,0,2:0:0:0:
63,336,84149,1,0,2:0:0:0:
136,304,84285,6,0,L|147:365,2,59.6549999999998,0|0|0,2:0|2:0|2:0,2:0:0:0:
203,263,84695,2,0,P|259:243|313:268,2,119.31,0|0|0,2:0|2:0|2:0,2:0:0:0:
254,324,85376,1,0,2:0:0:0:
407,366,85649,1,0,2:0:0:0:
407,366,85785,2,0,P|464:368|500:323,2,119.31,0|0|0,2:0|2:0|2:0,2:0:0:0:
425,289,86467,6,0,L|442:232,1,59.6549999999998,0|0,2:0|2:0,2:0:0:0:
497,174,86740,2,0,L|480:117,1,59.6549999999998,0|0,2:0|2:0,2:0:0:0:
448,43,87013,2,0,P|391:33|348:73,1,119.31,0|0,2:0|2:0,2:0:0:0:
235,184,87558,2,0,P|178:193|135:153,1,119.31,0|0,2:0|2:0,2:0:0:0:
85,92,87967,1,0,2:0:0:0:
85,92,88104,2,0,P|55:93|33:113,1,59.6549999999998,0|0,2:0|2:0,2:0:0:0:
3,186,88376,2,0,L|20:243,1,59.6549999999998,0|0,2:0|2:0,2:0:0:0:
49,317,88649,6,0,B|83:310|83:310|106:317,1,59.6549999999998,0|0,2:0|2:0,2:0:0:0:
181,341,88922,2,0,P|236:359|282:325,1,119.31,0|0,2:0|2:0,2:0:0:0:
391,209,89467,1,0,2:0:0:0:
391,209,89604,1,0,2:0:0:0:
456,253,89740,2,0,P|465:281|458:309,1,59.6549999999998,0|0,2:0|2:0,2:0:0:0:
389,348,90013,2,0,P|331:356|281:324,1,119.31,0|0,2:0|2:0,2:0:0:0:
186,197,90558,2,0,L|203:140,1,59.6549999999998,0|0,2:0|2:0,2:0:0:0:
230,65,90831,5,0,2:0:0:0:
382,19,91104,2,0,P|438:9|480:48,1,119.31,0|0,2:0|2:0,2:0:0:0:
508,123,91513,1,0,2:0:0:0:
451,177,91649,1,0,2:0:0:0:
451,177,91785,1,0,2:0:0:0:
385,132,91922,6,0,B|338:117|338:117|269:141,1,119.31,0|0,2:0|2:0,2:0:0:0:
192,138,92331,2,0,L|206:195,1,59.6549999999998,0|0,2:0|2:0,2:0:0:0:
263,259,92604,1,0,2:0:0:0:
263,259,92740,1,0,2:0:0:0:
218,325,92876,6,0,P|160:311|101:305,1,119.31,0|0,2:0|2:0,2:0:0:0:
39,254,93285,1,0,2:0:0:0:
4,104,93558,1,0,2:0:0:0:
4,104,93695,1,0,2:0:0:0:
142,28,93967,2,0,L|202:15,2,59.6549999999998,0|0|0,2:0|2:0|2:0,2:0:0:0:
129,106,94376,2,0,L|249:80,1,119.31,0|0,2:0|2:0,2:0:0:0:
306,28,94785,1,0,2:0:0:0:
306,28,94922,2,0,L|364:40,1,59.6549999999998,0|0,2:0|2:0,2:0:0:0:
443,26,95195,6,0,P|480:36|497:109,1,119.31,0|0,2:0|2:0,2:0:0:0:
463,179,95604,1,0,2:0:0:0:
308,146,95876,1,0,2:0:0:0:
308,146,96013,2,0,P|293:173|295:204,1,59.6549999999998,0|0,2:0|2:0,2:0:0:0:
337,268,96285,2,0,L|399:254,2,59.6549999999998,0|0|0,2:0|2:0|2:0,2:0:0:0:
280,323,96695,2,0,L|163:347,1,119.31,0|0,2:0|2:0,2:0:0:0:
88,365,97104,1,0,2:0:0:0:
17,328,97240,6,0,P|0:273|32:226,1,119.31,0|0,2:0|2:0,2:0:0:0:
99,183,97649,1,0,2:0:0:0:
255,230,97922,1,0,2:0:0:0:
255,230,98058,1,0,2:0:0:0:
374,125,98331,1,0,2:0:0:0:
374,125,98467,2,0,L|362:64,1,59.6549999999998,0|0,2:0|2:0,2:0:0:0:
431,27,98740,2,0,P|468:77|450:135,1,119.31,0|0,2:0|2:0,2:0:0:0:
416,199,99149,1,0,2:0:0:0:
416,199,99285,2,0,L|427:257,1,59.6549999999998,0|0,2:0|2:0,2:0:0:0:
487,308,99558,6,0,P|458:314|435:333,1,59.6549999999998,0|0,2:0|2:0,2:0:0:0:
365,371,99831,2,0,P|329:377|273:322,1,119.31,0|0,2:0|2:0,2:0:0:0:
246,248,100240,1,0,2:0:0:0:
297,97,100513,2,0,B|239:114|239:114|182:91,1,119.31,0|8,2:0|2:0,2:0:0:0:
129,41,100922,1,8,2:0:0:0:
129,41,101058,1,8,2:0:0:0:
53,66,101195,2,0,L|36:8,2,59.6549999999998,8|8|8,2:0|2:0|2:0,2:0:0:0:
13,135,101604,6,0,P|54:177|49:234,1,119.31,6|0,3:2|2:0,2:0:0:0:
5,301,102013,1,8,2:0:0:0:
146,371,102285,2,0,P|166:314|170:255,1,119.31,0|8,3:2|2:0,2:0:0:0:
305,172,102831,2,0,P|324:228|328:287,1,119.31,0|8,3:2|2:0,2:0:0:0:
474,348,103376,1,0,3:0:0:0:
474,348,103513,2,0,P|484:317|486:289,1,59.6549999999998,0|8,3:2|2:0,2:0:0:0:
449,219,103785,6,0,P|429:162|425:103,1,119.31,0|0,2:0|2:0,2:0:0:0:
454,28,104195,1,0,2:0:0:0:
296,12,104467,2,0,P|238:6|199:48,1,119.31,0|0,2:0|2:0,2:0:0:0:
84,158,105013,2,0,P|141:152|180:194,2,119.31,0|0|0,2:0|2:0|2:0,2:0:0:0:
30,217,105695,1,0,2:0:0:0:
30,217,105831,2,0,P|20:251|27:275,1,59.6549999999998,0|0,2:0|2:0,2:0:0:0:
101,246,106104,6,0,L|113:304,1,59.6549999999998,0|0,2:0|2:0,2:0:0:0:
171,357,106376,1,0,2:0:0:0:
323,313,106649,2,0,L|335:255,1,59.6549999999998,0|0,2:0|2:0,2:0:0:0:
296,184,106922,1,0,2:0:0:0:
296,184,107058,2,0,P|273:126|307:77,1,119.31,0|0,2:0|2:0,2:0:0:0:
361,29,107467,1,0,2:0:0:0:
508,87,107740,1,0,2:0:0:0:
508,87,107876,2,0,L|496:145,1,59.6549999999998,0|0,2:0|2:0,2:0:0:0:
477,222,108149,6,0,P|421:204|375:238,1,119.31,0|0,2:0|2:0,2:0:0:0:
329,303,108558,2,0,L|213:327,1,119.31,0|0,2:0|2:0,2:0:0:0:
60,364,109104,1,0,2:0:0:0:
60,364,109240,2,0,P|24:325|37:265,1,119.31,0|0,2:0|2:0,2:0:0:0:
86,202,109649,1,0,2:0:0:0:
241,234,109922,2,0,P|269:243|298:237,1,59.6549999999998,0|0,2:0|2:0,2:0:0:0:
371,206,110195,2,0,P|416:191|458:212,1,89.4824999999997,0|0,2:0|2:0,2:0:0:0:
475,217,110467,6,0,L|446:340,1,119.31,0|0,2:0|2:0,2:0:0:0:
373,361,110876,2,0,L|256:333,1,119.31,0|0,2:0|2:0,2:0:0:0:
176,339,111285,2,0,L|203:222,1,119.31,0|0,2:0|2:0,2:0:0:0:
192,143,111695,2,0,L|308:170,1,119.31,0|0,2:0|2:0,2:0:0:0:
382,140,112104,2,0,P|397:116|397:86,1,59.6549999999998,0|0,2:0|2:0,2:0:0:0:
351,22,112376,2,0,P|325:6|296:8,1,59.6549999999998,0|0,2:0|2:0,2:0:0:0:
218,25,112649,6,0,P|169:57|112:46,1,119.31,0|0,2:0|2:0,2:0:0:0:
36,22,113058,2,0,P|3:70|14:127,1,119.31,0|0,2:0|2:0,2:0:0:0:
66,187,113467,2,0,P|114:154|171:165,1,119.31,0|0,2:0|2:0,2:0:0:0:
240,205,113876,2,0,P|272:253|261:310,1,119.31,0|0,2:0|2:0,2:0:0:0:
189,273,114285,2,0,P|159:276|133:290,2,59.6549999999998,0|0|0,2:0|2:0|2:0,2:0:0:0:
261,310,114695,5,0,2:0:0:0:
261,310,123558,6,0,P|318:300|363:335,1,119.31,0|0,2:0|2:0,2:0:0:0:
435,370,123967,2,0,L|460:253,1,119.31,0|0,2:0|2:0,2:0:0:0:
505,188,124376,1,0,2:0:0:0:
505,188,124513,2,0,L|479:71,1,119.31,0|0,2:0|2:0,2:0:0:0:
423,14,124922,1,0,2:0:0:0:
271,61,125195,2,0,P|258:87|261:117,1,59.6549999999998,0|0,2:0|2:0,2:0:0:0:
340,114,125467,2,0,P|342:143|330:170,1,59.6549999999998,0|0,2:0|2:0,2:0:0:0:
283,234,125740,6,0,P|226:219|175:247,1,119.31,0|0,2:0|2:0,2:0:0:0:
106,287,126149,2,0,L|81:170,1,119.31,0|0,2:0|2:0,2:0:0:0:
21,126,126558,1,0,2:0:0:0:
21,126,126695,2,0,P|2:71|36:25,1,119.31,0|0,2:0|2:0,2:0:0:0:
113,5,127104,1,0,2:0:0:0:
265,48,127376,2,0,L|277:106,1,59.6549999999998,0|0,2:0|2:0,2:0:0:0:
230,170,127649,2,0,L|217:228,1,59.6549999999998,0|0,2:0|2:0,2:0:0:0:
154,276,127922,6,0,P|209:261|255:297,1,119.31,0|0,2:0|2:0,2:0:0:0:
317,346,128331,2,0,P|372:360|418:324,1,119.31,0|0,2:0|2:0,2:0:0:0:
356,274,128740,1,0,2:0:0:0:
356,274,128876,2,0,L|331:157,1,119.31,0|0,2:0|2:0,2:0:0:0:
311,79,129285,1,0,2:0:0:0:
454,12,129558,2,0,P|483:13|505:32,1,59.6549999999998,0|0,2:0|2:0,2:0:0:0:
451,90,129831,2,0,P|421:91|399:110,1,59.6549999999998,0|0,2:0|2:0,2:0:0:0:
331,157,130104,6,0,L|214:132,1,119.31,0|0,2:0|2:0,2:0:0:0:
147,89,130513,2,0,P|89:82|45:120,1,119.31,0|0,2:0|2:0,2:0:0:0:
17,196,130922,1,0,2:0:0:0:
17,196,131058,2,0,L|134:221,1,119.31,0|0,2:0|2:0,2:0:0:0:
365,208,131740,2,0,B|382:240|382:240|376:269,1,59.6549999999998,0|0,2:0|2:0,2:0:0:0:
351,338,132013,1,0,2:0:0:0:
213,244,132285,6,0,B|196:290|191:357|191:357|181:315|165:292,1,178.964999999999,0|0,2:0|2:0,2:0:0:0:
256,192,132831,12,0,134467,2:0:0:0:
256,192,134876,12,0,136513,2:0:0:0:
256,192,145376,12,0,148240,2:0:0:0:
256,192,148785,12,0,152876,2:0:0:0:
303,101,153558,6,0,L|270:106,7,29.8274999999999,0|0|0|0|0|0|0|0,2:0|2:0|2:0|2:0|2:0|2:0|2:0|2:0,2:0:0:0:
245,108,154104,6,0,P|142:68|82:161,1,238.619999999999,0|0,2:0|2:0,2:0:0:0:
25,309,154922,2,0,P|54:310|82:320,1,59.6549999999998,0|0,2:0|2:0,2:0:0:0:
154,351,155195,2,0,P|212:361|255:322,1,119.31,0|0,2:0|2:0,2:0:0:0:
353,198,155740,2,0,L|411:209,1,59.6549999999998,0|0,2:0|2:0,2:0:0:0:
485,179,156013,2,0,L|474:121,1,59.6549999999998,0|0,2:0|2:0,2:0:0:0:
502,45,156285,6,0,P|460:16|393:31,1,119.31,0|0,2:0|2:0,2:0:0:0:
318,9,156695,1,0,2:0:0:0:
265,68,156831,1,0,2:0:0:0:
264,67,156967,2,0,P|282:125|292:183,2,119.31,0|0|0,2:0|2:0|2:0,2:0:0:0:
193,33,157649,1,0,2:0:0:0:
193,33,157785,2,0,L|130:48,1,59.6549999999998,0|0,2:0|2:0,2:0:0:0:
63,81,158058,2,0,L|4:67,2,59.6549999999998,0|0|0,2:0|2:0|2:0,2:0:0:0:
128,126,158467,6,0,P|162:171|146:227,1,119.31,0|0,2:0|2:0,2:0:0:0:
85,278,158876,2,0,P|141:264|187:298,1,119.31,0|0,2:0|2:0,2:0:0:0:
255,351,159285,1,0,2:0:0:0:
255,351,159422,1,0,2:0:0:0:
330,328,159558,2,0,L|389:340,1,59.6549999999998,0|0,2:0|2:0,2:0:0:0:
466,357,159831,2,0,L|442:238,1,119.31,0|0,2:0|2:0,2:0:0:0:
486,87,160376,2,0,P|500:51|495:25,1,59.6549999999998,0|0,2:0|2:0,2:0:0:0:
418,44,160649,6,0,P|363:24|313:53,1,119.31,0|0,2:0|2:0,2:0:0:0:
175,132,161195,1,0,2:0:0:0:
175,132,161331,2,0,P|186:159|189:192,1,59.6549999999998,0|0,2:0|2:0,2:0:0:0:
253,236,161604,2,0,P|242:263|239:296,1,59.6549999999998,0|0,2:0|2:0,2:0:0:0:
183,349,161876,2,0,P|119:369|72:347,1,119.31,0|0,2:0|2:0,2:0:0:0:
9,300,162285,2,0,L|14:267,7,29.8274999999999,0|0|0|0|0|0|0|0,2:0|2:0|2:0|2:0|2:0|2:0|2:0|2:0,2:0:0:0:
31,250,162831,6,0,L|11:131,1,119.31,0|0,2:0|2:0,2:0:0:0:
57,67,163240,1,0,2:0:0:0:
57,67,163376,2,0,P|86:51|115:51,1,59.6549999999998,0|0,2:0|2:0,2:0:0:0:
188,26,163649,1,0,2:0:0:0:
333,88,163922,2,0,L|313:205,1,119.31,0|0,2:0|2:0,2:0:0:0:
157,172,164467,2,0,P|140:197|136:227,1,59.6549999999998,0|0,2:0|2:0,2:0:0:0:
96,296,164740,2,0,P|109:322|132:340,1,59.6549999999998,0|0,2:0|2:0,2:0:0:0:
207,369,165013,6,0,P|259:356|324:349,1,119.31,0|0,2:0|2:0,2:0:0:0:
402,364,165422,2,0,P|433:365|458:351,1,59.6549999999998,0|0,2:0|2:0,2:0:0:0:
507,289,165695,2,0,P|492:231|487:171,2,119.31,0|0|0,2:0|2:0|2:0,2:0:0:0:
457,351,166376,1,0,2:0:0:0:
326,270,166649,1,0,2:0:0:0:
326,270,166785,2,0,L|313:204,2,59.6549999999998,0|0|0,2:0|2:0|2:0,2:0:0:0:
256,308,167195,6,0,L|232:190,1,119.31,0|0,2:0|2:0,2:0:0:0:
160,158,167604,2,0,P|186:121|257:114,1,119.31,0|0,2:0|2:0,2:0:0:0:
321,66,168013,1,0,2:0:0:0:
321,66,168149,1,0,2:0:0:0:
391,102,168285,2,0,P|376:159|371:219,1,119.31,0|0,2:0|2:0,2:0:0:0:
270,342,168831,2,0,P|245:356|215:358,1,59.6549999999998,0|0,2:0|2:0,2:0:0:0:
148,314,169104,2,0,P|142:285|149:256,1,59.6549999999998,0|0,2:0|2:0,2:0:0:0:
179,183,169376,6,0,B|149:173|121:184|121:184|89:195|61:186,2,119.31,0|0|0,2:0|2:0|2:0,2:0:0:0:
252,214,170058,1,0,2:0:0:0:
398,152,170331,1,0,2:0:0:0:
398,152,170467,2,0,L|382:89,1,59.6549999999998,0|0,2:0|2:0,2:0:0:0:
334,30,170740,2,0,B|308:43|308:43|276:44,1,59.6549999999998,0|0,2:0|2:0,2:0:0:0:
200,23,171013,2,0,L|157:13,7,29.8274999999999,0|0|0|0|0|0|0|0,2:0|2:0|2:0|2:0|2:0|2:0|2:0|2:0,2:0:0:0:
138,7,171558,6,0,B|112:50|112:50|126:119,1,119.31,0|0,2:0|2:0,2:0:0:0:
184,171,171967,2,0,B|141:145|141:145|72:159,1,119.31,0|0,2:0|2:0,2:0:0:0:
19,218,172376,1,0,2:0:0:0:
19,218,172513,2,0,L|33:275,1,59.6549999999998,0|0,2:0|2:0,2:0:0:0:
12,352,172785,2,0,P|58:356|109:308,1,119.31,0|0,2:0|2:0,2:0:0:0:
184,285,173195,2,0,L|241:299,1,59.6549999999998,0|0,2:0|2:0,2:0:0:0:
298,354,173467,2,0,L|355:340,1,59.6549999999998,0|0,2:0|2:0,2:0:0:0:
433,321,173740,2,0,P|449:326|484:337,2,39.7700009406052,0|0|0,2:0|2:0|2:0,2:0:0:0:
376,265,174013,6,0,B|362:197|362:197|388:154,1,119.31,0|0,2:0|2:0,2:0:0:0:
446,99,174422,2,0,B|403:73|403:73|335:86,1,119.31,0|0,2:0|2:0,2:0:0:0:
261,70,174831,1,0,2:0:0:0:
261,70,174967,2,0,L|247:127,1,59.6549999999998,0|0,2:0|2:0,2:0:0:0:
182,174,175240,2,0,L|212:289,1,119.31,0|0,2:0|2:0,2:0:0:0:
238,364,175649,5,0,2:0:0:0:
