osu file format v14

[General]
AudioFilename: audio.ogg
AudioLeadIn: 0
PreviewTime: 30844
Countdown: 0
SampleSet: Normal
StackLeniency: 0.7
Mode: 1
LetterboxInBreaks: 0
WidescreenStoryboard: 1

[Editor]
DistanceSpacing: 0.5
BeatDivisor: 8
GridSize: 32
TimelineZoom: 3.399998

[Metadata]
Title:the elon musk soundcloud acquisition (Cut Ver.)
TitleUnicode:the elon musk soundcloud acquisition (Cut Ver.)
Artist:xaev
ArtistUnicode:xaev
Creator:Dusk-
Version:Xoundcloud
Source:
Tags:berdlycore chapter 3 dariacore english electronic version yasuho gigachad dako hyperflip love me harder ariana grande the weeknd
BeatmapID:4504633
BeatmapSetID:2140349

[Difficulty]
HPDrainRate:7
CircleSize:5
OverallDifficulty:7
ApproachRate:9
SliderMultiplier:1.42
SliderTickRate:1

[Events]
//Background and Video events
0,0,"xaevbg.png",0,0
//Break Periods
//Storyboard Layer 0 (Background)
//Storyboard Layer 1 (Fail)
//Storyboard Layer 2 (Pass)
//Storyboard Layer 3 (Foreground)
//Storyboard Layer 4 (Overlay)
//Storyboard Sound Samples

[TimingPoints]
4436,422.535211267606,4,1,0,100,1,0
4436,-33.3333333333333,4,1,0,100,0,0
4488,-100,4,1,0,100,0,0
11087,-97.5722543352601,4,1,0,100,0,0
11193,-95.2380952380952,4,1,0,100,0,0
16475,-89.8757038138744,4,1,0,100,0,0
16580,-87.437341739445,4,1,0,100,0,0
16686,-85.1063829787234,4,1,0,100,0,0
16792,-82.8964773896428,4,1,0,100,0,0
16897,-80.817730225449,4,1,0,100,0,0
17003,-78.8223236746483,4,1,0,100,0,0
17109,-76.9230769230769,4,1,0,100,0,0
17323,-142.857142857143,4,1,0,100,0,0
17745,-144.927536231884,4,1,0,100,0,0
17798,-147.058823529412,4,1,0,100,0,0
17851,-149.253731343284,4,1,0,100,0,0
17957,-20,4,1,0,100,0,0
18168,-80,4,1,0,100,0,0
24767,-79.7143434615644,4,1,0,100,0,0
24820,-79.4307196562836,4,1,0,100,0,0
24925,-78.8747416838877,4,1,0,100,0,0
25031,-78.3213080029126,4,1,0,100,0,0
25137,-77.775586669296,4,1,0,100,0,0
25348,-76.7116182572614,4,1,0,100,0,0
25559,-75.67636712504,4,1,0,100,0,0
25771,-74.663974253802,4,1,0,100,0,0
25876,-74.172517552658,4,1,0,100,0,0
25982,-73.6828994893511,4,1,0,100,0,0
26193,-72.7272727272727,4,1,0,100,0,0
26404,-71.7961165048544,4,1,0,100,0,0
26510,-71.3372723984083,4,1,0,100,0,0
26616,-70.8842559309849,4,1,0,100,0,0
26721,-70.4411502053938,4,1,0,100,0,0
26827,-69.9994083890434,4,1,0,100,0,0
27038,-69.13637957228,4,1,0,100,0,0
27144,-68.7108013937282,4,1,0,100,0,0
27249,-68.2943722943723,4,1,0,100,0,0
27355,-67.8790660317825,4,1,0,100,0,0
27461,-67.4687802930946,4,1,0,100,0,0
27566,-67.0672259381023,4,1,0,100,0,0
27672,-66.6666666666667,4,1,0,100,0,0
27883,-65.8834010802383,4,1,0,100,0,0
28094,-65.1183269124931,4,1,0,100,0,0
28147,-64.9289359600505,4,1,0,100,0,0
28200,-64.7406434668418,4,1,0,100,0,0
28306,-64.3673158524644,4,1,0,100,0,0
28411,-64.0017309460702,4,1,0,100,0,0
28517,-63.6368525789275,4,1,0,100,0,0
28728,-62.9227823867262,4,1,0,100,0,0
28940,-62.2212873369794,4,1,0,100,0,0
29151,-61.5384615384615,4,1,0,100,0,0
29256,-61.2042209807573,4,1,0,100,0,0
29362,-60.8704599238605,4,1,0,100,0,0
29573,-60.2168049264594,4,1,0,100,0,0
29785,-59.5740395750466,4,1,0,100,0,0
29890,-59.260743263548,4,1,0,100,0,0
29996,-58.947787963332,4,1,0,100,0,0
30102,-58.6381207255427,4,1,0,100,0,0
30207,-58.3345658926194,4,1,0,100,0,0
30313,-58.0312913826083,4,1,0,100,0,0
30418,-57.7339709183176,4,1,0,100,0,0
30524,-57.4368932038835,4,1,0,100,0,0
30630,-57.1428571428571,4,1,0,100,0,0
30841,-63.1578947368421,4,1,0,100,0,0
31052,-70.5882352941176,4,1,0,100,0,0
31263,-80,4,1,0,100,0,0
31478,-50,4,1,0,100,0,1
44256,-51.0569760418764,4,1,0,100,0,1
44309,-51.6076516076516,4,1,0,100,0,1
44362,-52.1703353219502,4,1,0,100,0,1
44468,-53.3333333333333,4,1,0,100,0,1
44573,-54.5376344086022,4,1,0,100,0,1
44576,-54.5376344086022,4,1,0,100,0,0
44785,-57.1428571428571,4,1,0,100,0,0
44999,-50,4,1,0,100,0,1
51337,-50,4,1,0,100,0,0
51548,-57.1428571428571,4,1,0,100,0,0
51598,-56.4684925406368,4,1,0,100,0,0
51651,-55.8098591549296,4,1,0,100,0,0
51756,-54.5493654549365,4,1,0,100,0,0
51862,-53.3333333333333,4,1,0,100,0,0
51968,-52.1703353219502,4,1,0,100,0,0
52073,-51.0672573499799,4,1,0,100,0,0
52179,-50,4,1,0,100,0,0
52182,-50,4,1,0,100,0,1
58520,-20,4,1,0,100,0,0

[HitObjects]
256,192,4436,5,12,0:0:0:0:
256,192,4752,1,0,0:0:0:0:
256,192,5069,1,8,0:0:0:0:
256,192,5518,1,8,0:0:0:0:
256,192,5914,1,0,0:0:0:0:
256,192,6126,1,0,0:0:0:0:
256,192,6443,1,8,0:0:0:0:
256,192,6759,1,8,0:0:0:0:
256,192,7182,1,0,0:0:0:0:
256,192,7393,1,8,0:0:0:0:
256,192,7499,1,0,0:0:0:0:
256,192,7605,1,8,0:0:0:0:
256,192,7710,1,8,0:0:0:0:
256,192,7816,1,0,0:0:0:0:
256,192,8133,1,8,0:0:0:0:
256,192,8238,1,0,0:0:0:0:
256,192,8450,1,0,0:0:0:0:
256,192,8896,1,8,0:0:0:0:
256,192,9295,1,8,0:0:0:0:
256,192,9400,1,0,0:0:0:0:
256,192,9453,1,0,0:0:0:0:
256,192,9506,1,8,0:0:0:0:
256,192,9717,1,8,0:0:0:0:
256,192,9823,1,8,0:0:0:0:
256,192,9928,1,0,0:0:0:0:
256,192,10034,1,8,0:0:0:0:
256,192,10140,1,8,0:0:0:0:
256,192,10457,1,0,0:0:0:0:
256,192,10562,1,8,0:0:0:0:
256,192,10668,1,0,0:0:0:0:
256,192,10985,1,8,0:0:0:0:
256,192,11090,1,8,0:0:0:0:
256,192,11196,1,0,0:0:0:0:
256,192,11513,1,0,0:0:0:0:
256,192,11619,1,8,0:0:0:0:
256,192,11830,1,0,0:0:0:0:
256,192,12041,1,8,0:0:0:0:
256,192,12252,1,8,0:0:0:0:
256,192,12358,1,8,0:0:0:0:
256,192,12464,1,8,0:0:0:0:
256,192,12675,1,8,0:0:0:0:
256,192,12886,1,0,0:0:0:0:
256,192,12992,1,0,0:0:0:0:
256,192,13203,1,0,0:0:0:0:
256,192,13309,1,8,0:0:0:0:
256,192,13520,1,0,0:0:0:0:
256,192,13626,1,0,0:0:0:0:
256,192,13731,1,8,0:0:0:0:
256,192,13943,1,0,0:0:0:0:
256,192,14154,1,8,0:0:0:0:
256,192,14259,1,0,0:0:0:0:
256,192,14365,1,8,0:0:0:0:
256,192,14471,1,8,0:0:0:0:
256,192,14576,1,0,0:0:0:0:
256,192,14893,1,0,0:0:0:0:
256,192,14999,1,8,0:0:0:0:
256,192,15210,1,0,0:0:0:0:
256,192,15421,1,8,0:0:0:0:
256,192,15633,1,8,0:0:0:0:
256,192,15738,1,8,0:0:0:0:
256,192,15844,1,8,0:0:0:0:
256,192,16055,1,8,0:0:0:0:
256,192,16161,1,0,0:0:0:0:
256,192,16214,1,0,0:0:0:0:
256,192,16266,1,8,0:0:0:0:
256,192,16478,1,8,0:0:0:0:
256,192,16583,1,0,0:0:0:0:
256,192,16689,1,8,0:0:0:0:
256,192,16795,1,0,0:0:0:0:
256,192,16900,1,8,0:0:0:0:
256,192,17006,1,8,0:0:0:0:
256,192,17112,1,0,0:0:0:0:
256,192,17428,1,8,0:0:0:0:
256,192,17745,1,0,0:0:0:0:
256,192,17816,1,0,0:0:0:0:
256,192,17886,1,0,0:0:0:0:
256,192,17957,1,12,0:0:0:0:
256,192,18168,1,8,0:0:0:0:
256,192,18274,1,8,0:0:0:0:
256,192,18379,1,0,0:0:0:0:
256,192,18590,1,0,0:0:0:0:
256,192,18802,1,8,0:0:0:0:
256,192,19013,1,0,0:0:0:0:
256,192,19224,1,8,0:0:0:0:
256,192,19277,1,8,0:0:0:0:
256,192,19436,1,0,0:0:0:0:
256,192,19647,1,8,0:0:0:0:
256,192,19752,1,0,0:0:0:0:
256,192,19858,1,0,0:0:0:0:
256,192,19964,1,8,0:0:0:0:
256,192,20069,1,8,0:0:0:0:
256,192,20281,1,0,0:0:0:0:
256,192,20492,1,8,0:0:0:0:
256,192,20703,1,0,0:0:0:0:
256,192,20809,1,0,0:0:0:0:
256,192,20914,1,8,0:0:0:0:
256,192,21020,1,0,0:0:0:0:
256,192,21126,1,8,0:0:0:0:
256,192,21337,1,0,0:0:0:0:
256,192,21390,1,0,0:0:0:0:
256,192,21443,1,8,0:0:0:0:
256,192,21548,1,8,0:0:0:0:
256,192,21654,1,0,0:0:0:0:
256,192,21759,1,8,0:0:0:0:
256,192,21971,1,0,0:0:0:0:
256,192,22182,1,8,0:0:0:0:
256,192,22393,1,0,0:0:0:0:
256,192,22605,1,8,0:0:0:0:
256,192,22657,1,8,0:0:0:0:
256,192,22816,1,0,0:0:0:0:
256,192,23238,1,0,0:0:0:0:
256,192,23344,1,0,0:0:0:0:
256,192,23450,1,8,0:0:0:0:
256,192,23555,1,0,0:0:0:0:
256,192,23661,1,0,0:0:0:0:
256,192,23872,1,8,0:0:0:0:
256,192,24083,1,0,0:0:0:0:
256,192,24189,1,8,0:0:0:0:
256,192,24295,1,8,0:0:0:0:
256,192,24400,1,0,0:0:0:0:
256,192,24506,1,8,0:0:0:0:
256,192,24717,1,0,0:0:0:0:
256,192,24770,1,0,0:0:0:0:
256,192,24823,1,8,0:0:0:0:
256,192,24928,1,8,0:0:0:0:
256,192,25034,1,0,0:0:0:0:
256,192,25140,1,8,0:0:0:0:
256,192,25351,1,0,0:0:0:0:
256,192,25562,1,8,0:0:0:0:
256,192,25774,1,0,0:0:0:0:
256,192,25879,1,0,0:0:0:0:
256,192,25985,1,8,0:0:0:0:
256,192,26196,1,8,0:0:0:0:
256,192,26407,1,0,0:0:0:0:
256,192,26513,1,0,0:0:0:0:
256,192,26619,1,8,0:0:0:0:
256,192,26724,1,0,0:0:0:0:
256,192,26830,1,8,0:0:0:0:
256,192,27041,1,8,0:0:0:0:
256,192,27147,1,8,0:0:0:0:
256,192,27252,1,0,0:0:0:0:
256,192,27358,1,8,0:0:0:0:
256,192,27464,1,0,0:0:0:0:
256,192,27569,1,0,0:0:0:0:
256,192,27675,1,8,0:0:0:0:
256,192,27886,1,8,0:0:0:0:
256,192,28097,1,0,0:0:0:0:
256,192,28150,1,0,0:0:0:0:
256,192,28203,1,8,0:0:0:0:
256,192,28309,1,8,0:0:0:0:
256,192,28414,1,0,0:0:0:0:
256,192,28520,1,8,0:0:0:0:
256,192,28731,1,0,0:0:0:0:
256,192,28943,1,8,0:0:0:0:
256,192,29154,1,0,0:0:0:0:
256,192,29259,1,0,0:0:0:0:
256,192,29365,1,8,0:0:0:0:
256,192,29576,1,8,0:0:0:0:
256,192,29788,1,0,0:0:0:0:
256,192,29893,1,0,0:0:0:0:
256,192,29999,1,8,0:0:0:0:
256,192,30105,1,0,0:0:0:0:
256,192,30210,1,8,0:0:0:0:
256,192,30316,1,8,0:0:0:0:
256,192,30421,1,0,0:0:0:0:
256,192,30527,1,0,0:0:0:0:
256,192,30633,5,8,0:0:0:0:
256,192,30844,1,0,0:0:0:0:
256,192,31055,1,8,0:0:0:0:
256,192,31266,1,0,0:0:0:0:
256,192,31478,1,8,0:0:0:0:
256,192,31583,1,0,0:0:0:0:
256,192,31636,1,0,0:0:0:0:
256,192,31689,1,8,0:0:0:0:
256,192,31795,1,0,0:0:0:0:
256,192,31900,1,8,0:0:0:0:
256,192,31953,1,8,0:0:0:0:
256,192,32006,1,0,0:0:0:0:
256,192,32112,1,8,0:0:0:0:
256,192,32164,1,8,0:0:0:0:
256,192,32217,1,0,0:0:0:0:
256,192,32270,1,0,0:0:0:0:
256,192,32323,1,8,0:0:0:0:
256,192,32428,1,0,0:0:0:0:
256,192,32534,1,8,0:0:0:0:
256,192,32587,1,0,0:0:0:0:
256,192,32640,1,0,0:0:0:0:
256,192,32745,1,8,0:0:0:0:
256,192,32851,1,0,0:0:0:0:
256,192,32957,1,8,0:0:0:0:
256,192,33009,1,8,0:0:0:0:
256,192,33062,1,8,0:0:0:0:
256,192,33168,1,0,0:0:0:0:
256,192,33221,1,8,0:0:0:0:
256,192,33274,1,0,0:0:0:0:
256,192,33326,1,0,0:0:0:0:
256,192,33379,1,8,0:0:0:0:
256,192,33485,1,0,0:0:0:0:
256,192,33590,1,8,0:0:0:0:
256,192,33643,1,0,0:0:0:0:
256,192,33696,1,8,0:0:0:0:
256,192,33749,1,8,0:0:0:0:
256,192,33802,1,0,0:0:0:0:
256,192,33907,1,0,0:0:0:0:
256,192,34013,1,8,0:0:0:0:
256,192,34066,1,8,0:0:0:0:
256,192,34119,1,0,0:0:0:0:
256,192,34171,1,0,0:0:0:0:
256,192,34224,1,8,0:0:0:0:
256,192,34330,1,0,0:0:0:0:
256,192,34436,1,8,0:0:0:0:
256,192,34488,1,8,0:0:0:0:
256,192,34541,1,0,0:0:0:0:
256,192,34594,1,0,0:0:0:0:
256,192,34647,1,8,0:0:0:0:
256,192,34682,1,0,0:0:0:0:
256,192,34717,1,0,0:0:0:0:
256,192,34752,1,8,0:0:0:0:
256,192,34858,1,0,0:0:0:0:
256,192,34911,1,8,0:0:0:0:
256,192,34964,1,0,0:0:0:0:
256,192,35069,1,8,0:0:0:0:
256,192,35175,1,0,0:0:0:0:
256,192,35281,1,8,0:0:0:0:
256,192,35333,1,0,0:0:0:0:
256,192,35386,1,0,0:0:0:0:
256,192,35492,1,8,0:0:0:0:
256,192,35545,1,0,0:0:0:0:
256,192,35597,1,8,0:0:0:0:
256,192,35650,1,8,0:0:0:0:
256,192,35703,1,0,0:0:0:0:
256,192,35809,1,0,0:0:0:0:
256,192,35914,1,8,0:0:0:0:
256,192,35967,1,8,0:0:0:0:
256,192,36020,1,0,0:0:0:0:
256,192,36073,1,0,0:0:0:0:
256,192,36126,1,8,0:0:0:0:
256,192,36231,1,0,0:0:0:0:
256,192,36337,1,8,0:0:0:0:
256,192,36390,1,0,0:0:0:0:
256,192,36443,1,0,0:0:0:0:
256,192,36495,1,0,0:0:0:0:
256,192,36548,1,8,0:0:0:0:
256,192,36654,1,0,0:0:0:0:
256,192,36759,1,8,0:0:0:0:
256,192,36865,1,8,0:0:0:0:
256,192,36971,1,0,0:0:0:0:
256,192,37024,1,0,0:0:0:0:
256,192,37076,1,8,0:0:0:0:
256,192,37129,1,8,0:0:0:0:
256,192,37182,1,0,0:0:0:0:
256,192,37235,1,8,0:0:0:0:
256,192,37288,1,0,0:0:0:0:
256,192,37393,1,8,0:0:0:0:
256,192,37499,1,0,0:0:0:0:
256,192,37552,1,0,0:0:0:0:
256,192,37605,1,8,0:0:0:0:
256,192,37710,1,0,0:0:0:0:
256,192,37763,1,8,0:0:0:0:
256,192,37816,1,0,0:0:0:0:
256,192,37869,1,8,0:0:0:0:
256,192,37921,1,8,0:0:0:0:
256,192,38027,1,0,0:0:0:0:
256,192,38133,1,0,0:0:0:0:
256,192,38238,1,8,0:0:0:0:
256,192,38291,1,8,0:0:0:0:
256,192,38344,1,0,0:0:0:0:
256,192,38450,1,0,0:0:0:0:
256,192,38555,1,8,0:0:0:0:
256,192,38661,1,0,0:0:0:0:
256,192,38714,1,0,0:0:0:0:
256,192,38766,1,8,0:0:0:0:
256,192,38872,1,8,0:0:0:0:
256,192,38925,1,0,0:0:0:0:
256,192,38978,1,8,0:0:0:0:
256,192,39031,1,8,0:0:0:0:
256,192,39083,1,0,0:0:0:0:
256,192,39189,1,0,0:0:0:0:
256,192,39295,1,8,0:0:0:0:
256,192,39347,1,0,0:0:0:0:
256,192,39400,1,0,0:0:0:0:
256,192,39506,1,8,0:0:0:0:
256,192,39612,1,8,0:0:0:0:
256,192,39717,1,0,0:0:0:0:
256,192,39770,1,0,0:0:0:0:
256,192,39823,1,0,0:0:0:0:
256,192,39928,1,8,0:0:0:0:
256,192,39981,1,0,0:0:0:0:
256,192,40034,1,8,0:0:0:0:
256,192,40087,1,8,0:0:0:0:
256,192,40140,1,0,0:0:0:0:
256,192,40245,1,0,0:0:0:0:
256,192,40351,1,8,0:0:0:0:
256,192,40404,1,8,0:0:0:0:
256,192,40457,1,0,0:0:0:0:
256,192,40509,1,0,0:0:0:0:
256,192,40562,1,8,0:0:0:0:
256,192,40668,1,0,0:0:0:0:
256,192,40774,1,8,0:0:0:0:
256,192,40826,1,8,0:0:0:0:
256,192,40879,1,0,0:0:0:0:
256,192,40932,1,8,0:0:0:0:
256,192,40985,1,0,0:0:0:0:
256,192,41090,1,8,0:0:0:0:
256,192,41196,1,8,0:0:0:0:
256,192,41249,1,8,0:0:0:0:
256,192,41302,1,0,0:0:0:0:
256,192,41355,1,0,0:0:0:0:
256,192,41407,1,8,0:0:0:0:
256,192,41443,1,8,0:0:0:0:
256,192,41478,1,8,0:0:0:0:
256,192,41513,1,0,0:0:0:0:
256,192,41619,1,0,0:0:0:0:
256,192,41671,1,8,0:0:0:0:
256,192,41724,1,0,0:0:0:0:
256,192,41830,1,8,0:0:0:0:
256,192,41936,1,0,0:0:0:0:
256,192,42041,1,8,0:0:0:0:
256,192,42094,1,0,0:0:0:0:
256,192,42147,1,0,0:0:0:0:
256,192,42252,1,8,0:0:0:0:
256,192,42305,1,8,0:0:0:0:
256,192,42358,1,8,0:0:0:0:
256,192,42411,1,8,0:0:0:0:
256,192,42464,1,0,0:0:0:0:
256,192,42569,1,0,0:0:0:0:
256,192,42675,1,8,0:0:0:0:
256,192,42728,1,0,0:0:0:0:
256,192,42781,1,0,0:0:0:0:
256,192,42886,1,8,0:0:0:0:
256,192,42992,1,8,0:0:0:0:
256,192,43097,1,0,0:0:0:0:
256,192,43150,1,0,0:0:0:0:
256,192,43203,1,8,0:0:0:0:
256,192,43256,1,8,0:0:0:0:
256,192,43309,1,0,0:0:0:0:
256,192,43520,1,8,0:0:0:0:
256,192,43626,1,8,0:0:0:0:
256,192,43731,1,0,0:0:0:0:
256,192,43837,1,8,0:0:0:0:
256,192,43890,1,8,0:0:0:0:
256,192,43943,1,0,0:0:0:0:
256,192,44048,1,0,0:0:0:0:
256,192,44154,1,8,0:0:0:0:
256,192,44259,1,0,0:0:0:0:
256,192,44312,1,0,0:0:0:0:
256,192,44365,1,8,0:0:0:0:
256,192,44471,1,0,0:0:0:0:
256,192,44576,1,8,0:0:0:0:
256,192,44788,1,0,0:0:0:0:
256,192,44999,1,8,0:0:0:0:
256,192,45052,1,8,0:0:0:0:
256,192,45105,1,0,0:0:0:0:
256,192,45157,1,0,0:0:0:0:
256,192,45210,1,8,0:0:0:0:
256,192,45263,1,0,0:0:0:0:
256,192,45316,1,8,0:0:0:0:
256,192,45421,1,0,0:0:0:0:
256,192,45474,1,0,0:0:0:0:
256,192,45527,1,8,0:0:0:0:
256,192,45580,1,8,0:0:0:0:
256,192,45633,1,0,0:0:0:0:
256,192,45686,1,8,0:0:0:0:
256,192,45738,1,0,0:0:0:0:
256,192,45844,1,8,0:0:0:0:
256,192,45897,1,8,0:0:0:0:
256,192,45950,1,0,0:0:0:0:
256,192,46055,1,8,0:0:0:0:
256,192,46161,1,0,0:0:0:0:
256,192,46214,1,0,0:0:0:0:
256,192,46266,1,8,0:0:0:0:
256,192,46319,1,8,0:0:0:0:
256,192,46372,1,0,0:0:0:0:
256,192,46478,1,8,0:0:0:0:
256,192,46531,1,8,0:0:0:0:
256,192,46583,1,8,0:0:0:0:
256,192,46636,1,8,0:0:0:0:
256,192,46689,1,0,0:0:0:0:
256,192,46795,1,0,0:0:0:0:
256,192,46847,1,0,0:0:0:0:
256,192,46900,1,8,0:0:0:0:
256,192,46953,1,0,0:0:0:0:
256,192,47006,1,8,0:0:0:0:
256,192,47059,1,8,0:0:0:0:
256,192,47112,1,0,0:0:0:0:
256,192,47217,1,8,0:0:0:0:
256,192,47270,1,8,0:0:0:0:
256,192,47323,1,0,0:0:0:0:
256,192,47376,1,8,0:0:0:0:
256,192,47428,1,0,0:0:0:0:
256,192,47481,1,0,0:0:0:0:
256,192,47534,1,8,0:0:0:0:
256,192,47640,1,0,0:0:0:0:
256,192,47693,1,0,0:0:0:0:
256,192,47745,1,8,0:0:0:0:
256,192,47798,1,8,0:0:0:0:
256,192,47851,1,8,0:0:0:0:
256,192,47904,1,8,0:0:0:0:
256,192,47957,1,0,0:0:0:0:
256,192,48062,1,8,0:0:0:0:
256,192,48115,1,8,0:0:0:0:
256,192,48168,1,0,0:0:0:0:
256,192,48203,1,0,0:0:0:0:
256,192,48238,1,0,0:0:0:0:
256,192,48274,1,8,0:0:0:0:
256,192,48379,1,0,0:0:0:0:
256,192,48432,1,0,0:0:0:0:
256,192,48485,1,8,0:0:0:0:
256,192,48537,1,8,0:0:0:0:
256,192,48590,1,0,0:0:0:0:
256,192,48643,1,0,0:0:0:0:
256,192,48696,1,0,0:0:0:0:
256,192,48802,1,8,0:0:0:0:
256,192,48855,1,8,0:0:0:0:
256,192,48907,1,0,0:0:0:0:
256,192,48960,1,0,0:0:0:0:
256,192,49013,1,8,0:0:0:0:
256,192,49066,1,8,0:0:0:0:
256,192,49119,1,8,0:0:0:0:
256,192,49224,1,0,0:0:0:0:
256,192,49277,1,0,0:0:0:0:
256,192,49330,1,8,0:0:0:0:
256,192,49436,1,8,0:0:0:0:
256,192,49541,1,0,0:0:0:0:
256,192,49594,1,0,0:0:0:0:
256,192,49647,1,8,0:0:0:0:
256,192,49700,1,8,0:0:0:0:
256,192,49752,1,0,0:0:0:0:
256,192,49858,1,8,0:0:0:0:
256,192,49911,1,8,0:0:0:0:
256,192,49964,1,0,0:0:0:0:
256,192,50016,1,0,0:0:0:0:
256,192,50069,1,0,0:0:0:0:
256,192,50175,1,8,0:0:0:0:
256,192,50228,1,0,0:0:0:0:
256,192,50281,1,8,0:0:0:0:
256,192,50333,1,0,0:0:0:0:
256,192,50386,1,8,0:0:0:0:
256,192,50439,1,8,0:0:0:0:
256,192,50492,1,0,0:0:0:0:
256,192,50597,1,0,0:0:0:0:
256,192,50650,1,8,0:0:0:0:
256,192,50703,1,0,0:0:0:0:
256,192,50756,1,8,0:0:0:0:
256,192,50809,1,0,0:0:0:0:
256,192,50862,1,0,0:0:0:0:
256,192,50914,1,8,0:0:0:0:
256,192,51020,1,8,0:0:0:0:
256,192,51073,1,0,0:0:0:0:
256,192,51126,1,0,0:0:0:0:
256,192,51178,1,8,0:0:0:0:
256,192,51231,1,0,0:0:0:0:
256,192,51284,1,0,0:0:0:0:
256,192,51337,1,8,0:0:0:0:
256,192,51548,1,0,0:0:0:0:
256,192,51601,1,0,0:0:0:0:
256,192,51654,1,0,0:0:0:0:
256,192,51759,1,8,0:0:0:0:
256,192,51865,1,0,0:0:0:0:
256,192,51971,1,8,0:0:0:0:
256,192,52076,1,0,0:0:0:0:
256,192,52182,1,8,0:0:0:0:
256,192,52235,1,8,0:0:0:0:
256,192,52288,1,0,0:0:0:0:
256,192,52340,1,0,0:0:0:0:
256,192,52393,1,8,0:0:0:0:
256,192,52446,1,0,0:0:0:0:
256,192,52499,1,8,0:0:0:0:
256,192,52605,1,0,0:0:0:0:
256,192,52657,1,0,0:0:0:0:
256,192,52710,1,8,0:0:0:0:
256,192,52763,1,8,0:0:0:0:
256,192,52816,1,0,0:0:0:0:
256,192,52869,1,8,0:0:0:0:
256,192,52921,1,0,0:0:0:0:
256,192,53027,1,8,0:0:0:0:
256,192,53080,1,0,0:0:0:0:
256,192,53133,1,0,0:0:0:0:
256,192,53238,1,8,0:0:0:0:
256,192,53291,1,8,0:0:0:0:
256,192,53344,1,8,0:0:0:0:
256,192,53397,1,8,0:0:0:0:
256,192,53450,1,0,0:0:0:0:
256,192,53555,1,8,0:0:0:0:
256,192,53608,1,8,0:0:0:0:
256,192,53661,1,0,0:0:0:0:
256,192,53714,1,0,0:0:0:0:
256,192,53766,1,8,0:0:0:0:
256,192,53819,1,8,0:0:0:0:
256,192,53872,1,0,0:0:0:0:
256,192,53978,1,0,0:0:0:0:
256,192,54031,1,0,0:0:0:0:
256,192,54083,1,8,0:0:0:0:
256,192,54136,1,8,0:0:0:0:
256,192,54189,1,0,0:0:0:0:
256,192,54242,1,0,0:0:0:0:
256,192,54295,1,8,0:0:0:0:
256,192,54400,1,8,0:0:0:0:
256,192,54453,1,8,0:0:0:0:
256,192,54506,1,0,0:0:0:0:
256,192,54559,1,8,0:0:0:0:
256,192,54612,1,0,0:0:0:0:
256,192,54664,1,0,0:0:0:0:
256,192,54717,1,8,0:0:0:0:
256,192,54823,1,0,0:0:0:0:
256,192,54876,1,0,0:0:0:0:
256,192,54928,1,8,0:0:0:0:
256,192,54964,1,8,0:0:0:0:
256,192,54999,1,8,0:0:0:0:
256,192,55034,1,0,0:0:0:0:
256,192,55140,1,8,0:0:0:0:
256,192,55193,1,8,0:0:0:0:
256,192,55245,1,0,0:0:0:0:
256,192,55298,1,0,0:0:0:0:
256,192,55351,1,8,0:0:0:0:
256,192,55404,1,0,0:0:0:0:
256,192,55457,1,8,0:0:0:0:
256,192,55562,1,0,0:0:0:0:
256,192,55615,1,0,0:0:0:0:
256,192,55668,1,8,0:0:0:0:
256,192,55721,1,0,0:0:0:0:
256,192,55774,1,8,0:0:0:0:
256,192,55826,1,8,0:0:0:0:
256,192,55879,1,0,0:0:0:0:
256,192,55985,1,0,0:0:0:0:
256,192,56038,1,0,0:0:0:0:
256,192,56090,1,8,0:0:0:0:
256,192,56196,1,8,0:0:0:0:
256,192,56302,1,0,0:0:0:0:
256,192,56355,1,0,0:0:0:0:
256,192,56407,1,8,0:0:0:0:
256,192,56460,1,8,0:0:0:0:
256,192,56513,1,8,0:0:0:0:
256,192,56566,1,0,0:0:0:0:
256,192,56619,1,8,0:0:0:0:
256,192,56671,1,0,0:0:0:0:
256,192,56724,1,8,0:0:0:0:
256,192,56777,1,8,0:0:0:0:
256,192,56830,1,0,0:0:0:0:
256,192,56936,1,0,0:0:0:0:
256,192,56988,1,0,0:0:0:0:
256,192,57041,1,8,0:0:0:0:
256,192,57094,1,0,0:0:0:0:
256,192,57147,1,8,0:0:0:0:
256,192,57200,1,8,0:0:0:0:
256,192,57252,1,0,0:0:0:0:
256,192,57358,1,8,0:0:0:0:
256,192,57411,1,8,0:0:0:0:
256,192,57464,1,0,0:0:0:0:
256,192,57516,1,8,0:0:0:0:
256,192,57569,1,0,0:0:0:0:
256,192,57622,1,0,0:0:0:0:
256,192,57675,1,8,0:0:0:0:
256,192,57781,1,0,0:0:0:0:
256,192,57833,1,0,0:0:0:0:
256,192,57886,1,8,0:0:0:0:
256,192,57939,1,8,0:0:0:0:
256,192,57992,1,0,0:0:0:0:
256,192,58045,1,0,0:0:0:0:
256,192,58097,1,8,0:0:0:0:
256,192,58150,1,8,0:0:0:0:
256,192,58203,1,8,0:0:0:0:
256,192,58256,1,8,0:0:0:0:
256,192,58309,1,0,0:0:0:0:
256,192,58520,1,12,0:0:0:0:
