osu file format v14

[General]
AudioFilename: audio.ogg
AudioLeadIn: 0
PreviewTime: 30844
Countdown: 0
SampleSet: Normal
StackLeniency: 0.7
Mode: 1
LetterboxInBreaks: 0
WidescreenStoryboard: 1

[Editor]
DistanceSpacing: 0.5
BeatDivisor: 8
GridSize: 32
TimelineZoom: 2.9

[Metadata]
Title:the elon musk soundcloud acquisition (Cut Ver.)
TitleUnicode:the elon musk soundcloud acquisition (Cut Ver.)
Artist:xaev
ArtistUnicode:xaev
Creator:Dusk-
Version:Inner Oni
Source:
Tags:berdlycore chapter 3 dariacore english electronic version yasuho gigachad dako hyperflip love me harder ariana grande the weeknd
BeatmapID:4506070
BeatmapSetID:2140349

[Difficulty]
HPDrainRate:6.5
CircleSize:5
OverallDifficulty:6.5
ApproachRate:9
SliderMultiplier:1.4
SliderTickRate:1

[Events]
//Background and Video events
0,0,"xaevbg.png",0,0
//Break Periods
//Storyboard Layer 0 (Background)
//Storyboard Layer 1 (Fail)
//Storyboard Layer 2 (Pass)
//Storyboard Layer 3 (Foreground)
//Storyboard Layer 4 (Overlay)
//Storyboard Sound Samples

[TimingPoints]
4436,422.535211267606,4,1,0,100,1,0
4436,-50,4,1,0,100,0,0
4488,-100,4,1,0,100,0,0
11087,-97.5722543352601,4,1,0,100,0,0
11193,-95.2380952380952,4,1,0,100,0,0
16475,-89.8757038138744,4,1,0,100,0,0
16580,-87.437341739445,4,1,0,100,0,0
16686,-85.1063829787234,4,1,0,100,0,0
16792,-82.8964773896428,4,1,0,100,0,0
16897,-80.817730225449,4,1,0,100,0,0
17003,-78.8223236746483,4,1,0,100,0,0
17109,-76.9230769230769,4,1,0,100,0,0
17323,-142.857142857143,4,1,0,100,0,0
17745,-144.927536231884,4,1,0,100,0,0
17798,-147.058823529412,4,1,0,100,0,0
17851,-149.253731343284,4,1,0,100,0,0
17957,-33.3333333333333,4,1,0,100,0,0
18168,-80,4,1,0,100,0,0
25031,-78.26027303286,4,1,0,100,0,0
25137,-77.695293877273,4,1,0,100,0,0
25348,-76.5946018530952,4,1,0,100,0,0
25559,-75.5246607083747,4,1,0,100,0,0
25771,-74.4793366847294,4,1,0,100,0,0
25876,-73.9722474387239,4,1,0,100,0,0
25982,-73.4672849046883,4,1,0,100,0,0
26193,-72.4823686384141,4,1,0,100,0,0
26404,-71.5235109717868,4,1,0,100,0,0
26510,-71.0513203786746,4,1,0,100,0,0
26721,-70.1297104567529,4,1,0,100,0,0
26827,-69.6756855799182,4,1,0,100,0,0
27038,-68.7891944042451,4,1,0,100,0,0
27249,-67.9249776719262,4,1,0,100,0,0
27461,-67.078261892162,4,1,0,100,0,0
27566,-66.6666666666667,4,1,0,100,0,0
27672,-66.2562434661401,4,1,0,100,0,0
27778,-65.8508427614869,4,1,0,100,0,0
27883,-65.454128177176,4,1,0,100,0,0
27989,-65.0584545195324,4,1,0,100,0,0
28094,-64.671201814059,4,1,0,100,0,0
28147,-64.4774769682925,4,1,0,100,0,0
28200,-64.2849092753297,4,1,0,100,0,0
28306,-63.9032041227874,4,1,0,100,0,0
28411,-63.529542796681,4,1,0,100,0,0
28517,-63.1567292254886,4,1,0,100,0,0
28728,-62.4274926124548,4,1,0,100,0,0
28940,-61.7115655090339,4,1,0,100,0,0
29151,-61.0151361180938,4,1,0,100,0,0
29256,-60.6743963408148,4,1,0,100,0,0
29362,-60.3342500528877,4,1,0,100,0,0
29573,-59.6683926983629,4,1,0,100,0,0
29785,-59.0140189333195,4,1,0,100,0,0
29996,-58.376829393102,4,1,0,100,0,0
30102,-58.0618892508143,4,1,0,100,0,0
30207,-57.7532526704804,4,1,0,100,0,0
30313,-57.4449871594743,4,1,0,100,0,0
30418,-57.1428571428571,4,1,0,100,0,0
30630,-60.6060606060606,4,1,0,100,0,0
30841,-64.5161290322581,4,1,0,100,0,0
31052,-68.9655172413793,4,1,0,100,0,0
31263,-74.0740740740741,4,1,0,100,0,0
31478,-50,4,1,0,100,0,1
44256,-51.0569760418764,4,1,0,100,0,1
44309,-51.6076516076516,4,1,0,100,0,1
44362,-52.1703353219502,4,1,0,100,0,1
44468,-53.3333333333333,4,1,0,100,0,1
44573,-54.5376344086022,4,1,0,100,0,1
44576,-54.5376344086022,4,1,0,100,0,0
44785,-57.1428571428571,4,1,0,100,0,0
44999,-50,4,1,0,100,0,1
51337,-50,4,1,0,100,0,0
51548,-57.1428571428571,4,1,0,100,0,0
51598,-56.4684925406368,4,1,0,100,0,0
51651,-55.8098591549296,4,1,0,100,0,0
51756,-54.5493654549365,4,1,0,100,0,0
51862,-53.3333333333333,4,1,0,100,0,0
51968,-52.1703353219502,4,1,0,100,0,0
52073,-51.0672573499799,4,1,0,100,0,0
52179,-50,4,1,0,100,0,0
52182,-50,4,1,0,100,0,1
58520,-33.3333333333333,4,1,0,100,0,0

[HitObjects]
256,192,4436,5,12,0:0:0:0:
256,192,4752,1,0,0:0:0:0:
256,192,5069,1,8,0:0:0:0:
256,192,5518,1,8,0:0:0:0:
256,192,5914,1,0,0:0:0:0:
256,192,6126,1,0,0:0:0:0:
256,192,6443,1,8,0:0:0:0:
256,192,6759,1,8,0:0:0:0:
256,192,7182,1,0,0:0:0:0:
256,192,7393,1,8,0:0:0:0:
256,192,7499,1,0,0:0:0:0:
256,192,7605,1,8,0:0:0:0:
256,192,7710,1,8,0:0:0:0:
256,192,7816,1,0,0:0:0:0:
256,192,8133,1,8,0:0:0:0:
256,192,8238,1,0,0:0:0:0:
256,192,8450,1,0,0:0:0:0:
256,192,8896,1,8,0:0:0:0:
256,192,9295,1,8,0:0:0:0:
256,192,9400,1,0,0:0:0:0:
256,192,9453,1,0,0:0:0:0:
256,192,9506,1,8,0:0:0:0:
256,192,9717,1,8,0:0:0:0:
256,192,9823,1,8,0:0:0:0:
256,192,9928,1,0,0:0:0:0:
256,192,10034,1,8,0:0:0:0:
256,192,10140,1,8,0:0:0:0:
256,192,10457,1,0,0:0:0:0:
256,192,10562,1,8,0:0:0:0:
256,192,10668,1,0,0:0:0:0:
256,192,10985,1,8,0:0:0:0:
256,192,11090,1,8,0:0:0:0:
256,192,11196,1,0,0:0:0:0:
256,192,11513,1,0,0:0:0:0:
256,192,11619,1,8,0:0:0:0:
256,192,11830,1,0,0:0:0:0:
256,192,12041,1,8,0:0:0:0:
256,192,12252,1,8,0:0:0:0:
256,192,12358,1,8,0:0:0:0:
256,192,12464,1,8,0:0:0:0:
256,192,12675,1,8,0:0:0:0:
256,192,12886,1,0,0:0:0:0:
256,192,12992,1,0,0:0:0:0:
256,192,13203,1,0,0:0:0:0:
256,192,13309,1,8,0:0:0:0:
256,192,13520,1,0,0:0:0:0:
256,192,13626,1,0,0:0:0:0:
256,192,13731,1,8,0:0:0:0:
256,192,13943,1,0,0:0:0:0:
256,192,14154,1,8,0:0:0:0:
256,192,14259,1,0,0:0:0:0:
256,192,14365,1,8,0:0:0:0:
256,192,14471,1,8,0:0:0:0:
256,192,14576,1,0,0:0:0:0:
256,192,14893,1,0,0:0:0:0:
256,192,14999,1,8,0:0:0:0:
256,192,15210,1,0,0:0:0:0:
256,192,15421,1,8,0:0:0:0:
256,192,15633,1,8,0:0:0:0:
256,192,15738,1,8,0:0:0:0:
256,192,15844,1,8,0:0:0:0:
256,192,16055,1,8,0:0:0:0:
256,192,16161,1,0,0:0:0:0:
256,192,16214,1,0,0:0:0:0:
256,192,16266,1,8,0:0:0:0:
256,192,16478,1,8,0:0:0:0:
256,192,16583,1,0,0:0:0:0:
256,192,16689,1,8,0:0:0:0:
256,192,16795,1,0,0:0:0:0:
256,192,16900,1,8,0:0:0:0:
256,192,17006,1,8,0:0:0:0:
256,192,17112,1,0,0:0:0:0:
256,192,17428,1,8,0:0:0:0:
256,192,17745,1,0,0:0:0:0:
256,192,17816,1,0,0:0:0:0:
256,192,17886,1,0,0:0:0:0:
256,192,17957,1,12,0:0:0:0:
256,192,18274,1,8,0:0:0:0:
256,192,18379,1,0,0:0:0:0:
256,192,18590,1,8,0:0:0:0:
256,192,18802,1,0,0:0:0:0:
256,192,18907,1,0,0:0:0:0:
256,192,19013,1,8,0:0:0:0:
256,192,19224,1,0,0:0:0:0:
256,192,19436,1,8,0:0:0:0:
256,192,19647,1,0,0:0:0:0:
256,192,19752,1,0,0:0:0:0:
256,192,19964,1,0,0:0:0:0:
256,192,20069,1,8,0:0:0:0:
256,192,20281,1,0,0:0:0:0:
256,192,20492,1,8,0:0:0:0:
256,192,20703,1,0,0:0:0:0:
256,192,20809,1,0,0:0:0:0:
256,192,20914,1,8,0:0:0:0:
256,192,21020,1,0,0:0:0:0:
256,192,21126,1,8,0:0:0:0:
256,192,21231,1,8,0:0:0:0:
256,192,21337,1,0,0:0:0:0:
256,192,21548,1,8,0:0:0:0:
256,192,21654,1,0,0:0:0:0:
256,192,21759,1,0,0:0:0:0:
256,192,21971,1,8,0:0:0:0:
256,192,22182,1,0,0:0:0:0:
256,192,22393,1,8,0:0:0:0:
256,192,22499,1,8,0:0:0:0:
256,192,22605,1,0,0:0:0:0:
256,192,22816,1,8,0:0:0:0:
256,192,23238,1,0,0:0:0:0:
256,192,23344,1,0,0:0:0:0:
256,192,23450,1,8,0:0:0:0:
256,192,23555,1,0,0:0:0:0:
256,192,23661,1,0,0:0:0:0:
256,192,23872,1,8,0:0:0:0:
256,192,24083,1,8,0:0:0:0:
256,192,24189,1,8,0:0:0:0:
256,192,24295,1,0,0:0:0:0:
256,192,24400,1,8,0:0:0:0:
256,192,24506,1,0,0:0:0:0:
256,192,24612,1,0,0:0:0:0:
256,192,24717,1,8,0:0:0:0:
256,192,25034,1,0,0:0:0:0:
256,192,25140,1,8,0:0:0:0:
256,192,25351,1,0,0:0:0:0:
256,192,25562,1,8,0:0:0:0:
256,192,25774,1,0,0:0:0:0:
256,192,25879,1,0,0:0:0:0:
256,192,25985,1,8,0:0:0:0:
256,192,26196,1,0,0:0:0:0:
256,192,26407,1,8,0:0:0:0:
256,192,26513,1,0,0:0:0:0:
256,192,26724,1,0,0:0:0:0:
256,192,26830,1,8,0:0:0:0:
256,192,27041,1,0,0:0:0:0:
256,192,27252,1,8,0:0:0:0:
256,192,27464,1,0,0:0:0:0:
256,192,27569,1,8,0:0:0:0:
256,192,27675,1,8,0:0:0:0:
256,192,27781,1,0,0:0:0:0:
256,192,27886,1,8,0:0:0:0:
256,192,27992,1,0,0:0:0:0:
256,192,28097,1,8,0:0:0:0:
256,192,28309,1,8,0:0:0:0:
256,192,28414,1,8,0:0:0:0:
256,192,28520,1,0,0:0:0:0:
256,192,28731,1,8,0:0:0:0:
256,192,28943,1,0,0:0:0:0:
256,192,29154,1,0,0:0:0:0:
256,192,29259,1,0,0:0:0:0:
256,192,29365,1,8,0:0:0:0:
256,192,29576,1,8,0:0:0:0:
256,192,29788,1,0,0:0:0:0:
256,192,29999,1,8,0:0:0:0:
256,192,30105,1,8,0:0:0:0:
256,192,30210,1,0,0:0:0:0:
256,192,30316,1,8,0:0:0:0:
256,192,30421,1,0,0:0:0:0:
256,192,30633,1,8,0:0:0:0:
256,192,30844,1,0,0:0:0:0:
256,192,31055,1,8,0:0:0:0:
256,192,31266,1,0,0:0:0:0:
256,192,31478,1,8,0:0:0:0:
256,192,31583,1,0,0:0:0:0:
256,192,31636,1,0,0:0:0:0:
256,192,31689,1,8,0:0:0:0:
256,192,31795,1,0,0:0:0:0:
256,192,31900,1,8,0:0:0:0:
256,192,32006,1,8,0:0:0:0:
256,192,32112,1,0,0:0:0:0:
256,192,32217,1,8,0:0:0:0:
256,192,32323,1,0,0:0:0:0:
256,192,32376,1,0,0:0:0:0:
256,192,32428,1,0,0:0:0:0:
256,192,32534,1,8,0:0:0:0:
256,192,32640,1,0,0:0:0:0:
256,192,32745,1,8,0:0:0:0:
256,192,32851,1,8,0:0:0:0:
256,192,32957,1,0,0:0:0:0:
256,192,33168,1,0,0:0:0:0:
256,192,33221,1,0,0:0:0:0:
256,192,33274,1,8,0:0:0:0:
256,192,33379,1,8,0:0:0:0:
256,192,33485,1,0,0:0:0:0:
256,192,33590,1,8,0:0:0:0:
256,192,33643,1,8,0:0:0:0:
256,192,33696,1,0,0:0:0:0:
256,192,33802,1,8,0:0:0:0:
256,192,33907,1,0,0:0:0:0:
256,192,34013,1,8,0:0:0:0:
256,192,34066,1,8,0:0:0:0:
256,192,34119,1,8,0:0:0:0:
256,192,34224,1,0,0:0:0:0:
256,192,34330,1,0,0:0:0:0:
256,192,34436,1,8,0:0:0:0:
256,192,34488,1,8,0:0:0:0:
256,192,34541,1,0,0:0:0:0:
256,192,34647,1,0,0:0:0:0:
256,192,34700,1,0,0:0:0:0:
256,192,34752,1,8,0:0:0:0:
256,192,34805,1,8,0:0:0:0:
256,192,34858,1,0,0:0:0:0:
256,192,35069,1,8,0:0:0:0:
256,192,35175,1,0,0:0:0:0:
256,192,35228,1,0,0:0:0:0:
256,192,35281,1,8,0:0:0:0:
256,192,35386,1,0,0:0:0:0:
256,192,35492,1,8,0:0:0:0:
256,192,35597,1,8,0:0:0:0:
256,192,35703,1,0,0:0:0:0:
256,192,35756,1,0,0:0:0:0:
256,192,35809,1,0,0:0:0:0:
256,192,35914,1,8,0:0:0:0:
256,192,36020,1,0,0:0:0:0:
256,192,36126,1,8,0:0:0:0:
256,192,36231,1,8,0:0:0:0:
256,192,36337,1,0,0:0:0:0:
256,192,36548,1,0,0:0:0:0:
256,192,36654,1,8,0:0:0:0:
256,192,36759,1,0,0:0:0:0:
256,192,36812,1,0,0:0:0:0:
256,192,36865,1,8,0:0:0:0:
256,192,36971,1,0,0:0:0:0:
256,192,37076,1,8,0:0:0:0:
256,192,37129,1,8,0:0:0:0:
256,192,37182,1,0,0:0:0:0:
256,192,37288,1,0,0:0:0:0:
256,192,37393,1,8,0:0:0:0:
256,192,37499,1,0,0:0:0:0:
256,192,37552,1,0,0:0:0:0:
256,192,37605,1,8,0:0:0:0:
256,192,37710,1,0,0:0:0:0:
256,192,37816,1,8,0:0:0:0:
256,192,37869,1,8,0:0:0:0:
256,192,37921,1,8,0:0:0:0:
256,192,38027,1,0,0:0:0:0:
256,192,38133,1,8,0:0:0:0:
256,192,38238,1,0,0:0:0:0:
256,192,38343,1,8,0:0:0:0:
256,192,38396,1,0,0:0:0:0:
256,192,38449,1,8,0:0:0:0:
256,192,38555,1,0,0:0:0:0:
256,192,38660,1,8,0:0:0:0:
256,192,38766,1,8,0:0:0:0:
256,192,38872,1,0,0:0:0:0:
256,192,38977,1,0,0:0:0:0:
256,192,39083,1,8,0:0:0:0:
256,192,39136,1,8,0:0:0:0:
256,192,39188,1,0,0:0:0:0:
256,192,39294,1,8,0:0:0:0:
256,192,39400,1,0,0:0:0:0:
256,192,39505,1,8,0:0:0:0:
256,192,39611,1,8,0:0:0:0:
256,192,39717,1,0,0:0:0:0:
256,192,39928,1,0,0:0:0:0:
256,192,39981,1,0,0:0:0:0:
256,192,40034,1,0,0:0:0:0:
256,192,40139,1,8,0:0:0:0:
256,192,40245,1,0,0:0:0:0:
256,192,40350,1,8,0:0:0:0:
256,192,40403,1,8,0:0:0:0:
256,192,40456,1,0,0:0:0:0:
256,192,40562,1,8,0:0:0:0:
256,192,40667,1,0,0:0:0:0:
256,192,40773,1,8,0:0:0:0:
256,192,40826,1,0,0:0:0:0:
256,192,40879,1,8,0:0:0:0:
256,192,40984,1,0,0:0:0:0:
256,192,41090,1,0,0:0:0:0:
256,192,41196,1,8,0:0:0:0:
256,192,41248,1,8,0:0:0:0:
256,192,41301,1,0,0:0:0:0:
256,192,41407,1,0,0:0:0:0:
256,192,41460,1,0,0:0:0:0:
256,192,41512,1,8,0:0:0:0:
256,192,41565,1,8,0:0:0:0:
256,192,41618,1,0,0:0:0:0:
256,192,41829,1,8,0:0:0:0:
256,192,41935,1,0,0:0:0:0:
256,192,41988,1,0,0:0:0:0:
256,192,42041,1,8,0:0:0:0:
256,192,42146,1,0,0:0:0:0:
256,192,42252,1,8,0:0:0:0:
256,192,42357,1,8,0:0:0:0:
256,192,42463,1,0,0:0:0:0:
256,192,42516,1,8,0:0:0:0:
256,192,42569,1,0,0:0:0:0:
256,192,42674,1,8,0:0:0:0:
256,192,42780,1,0,0:0:0:0:
256,192,42886,1,8,0:0:0:0:
256,192,42991,1,8,0:0:0:0:
256,192,43097,1,0,0:0:0:0:
256,192,43308,1,0,0:0:0:0:
256,192,43414,1,8,0:0:0:0:
256,192,43519,1,0,0:0:0:0:
256,192,43572,1,0,0:0:0:0:
256,192,43625,1,8,0:0:0:0:
256,192,43731,1,0,0:0:0:0:
256,192,43836,1,8,0:0:0:0:
256,192,43889,1,8,0:0:0:0:
256,192,43942,1,0,0:0:0:0:
256,192,44048,1,0,0:0:0:0:
256,192,44153,1,8,0:0:0:0:
256,192,44259,1,0,0:0:0:0:
256,192,44312,1,0,0:0:0:0:
256,192,44365,1,8,0:0:0:0:
256,192,44471,1,0,0:0:0:0:
256,192,44576,1,8,0:0:0:0:
256,192,44788,1,0,0:0:0:0:
256,192,44999,1,0,0:0:0:0:
256,192,45052,1,0,0:0:0:0:
256,192,45105,1,8,0:0:0:0:
256,192,45210,1,8,0:0:0:0:
256,192,45316,1,0,0:0:0:0:
256,192,45421,1,8,0:0:0:0:
256,192,45474,1,8,0:0:0:0:
256,192,45527,1,0,0:0:0:0:
256,192,45633,1,0,0:0:0:0:
256,192,45738,1,8,0:0:0:0:
256,192,45844,1,0,0:0:0:0:
256,192,45897,1,0,0:0:0:0:
256,192,45950,1,0,0:0:0:0:
256,192,46055,1,8,0:0:0:0:
256,192,46161,1,0,0:0:0:0:
256,192,46266,1,8,0:0:0:0:
256,192,46319,1,8,0:0:0:0:
256,192,46372,1,8,0:0:0:0:
256,192,46478,1,0,0:0:0:0:
256,192,46689,1,8,0:0:0:0:
256,192,46795,1,0,0:0:0:0:
256,192,46847,1,0,0:0:0:0:
256,192,46900,1,8,0:0:0:0:
256,192,47006,1,0,0:0:0:0:
256,192,47112,1,8,0:0:0:0:
256,192,47217,1,0,0:0:0:0:
256,192,47270,1,0,0:0:0:0:
256,192,47323,1,8,0:0:0:0:
256,192,47428,1,0,0:0:0:0:
256,192,47534,1,8,0:0:0:0:
256,192,47640,1,0,0:0:0:0:
256,192,47693,1,0,0:0:0:0:
256,192,47745,1,8,0:0:0:0:
256,192,47851,1,0,0:0:0:0:
256,192,47957,1,8,0:0:0:0:
256,192,48062,1,0,0:0:0:0:
256,192,48168,1,8,0:0:0:0:
256,192,48221,1,8,0:0:0:0:
256,192,48274,1,8,0:0:0:0:
256,192,48326,1,8,0:0:0:0:
256,192,48379,1,0,0:0:0:0:
256,192,48590,1,8,0:0:0:0:
256,192,48696,1,0,0:0:0:0:
256,192,48802,1,8,0:0:0:0:
256,192,48855,1,8,0:0:0:0:
256,192,48907,1,0,0:0:0:0:
256,192,49013,1,8,0:0:0:0:
256,192,49119,1,8,0:0:0:0:
256,192,49224,1,0,0:0:0:0:
256,192,49277,1,8,0:0:0:0:
256,192,49330,1,0,0:0:0:0:
256,192,49436,1,8,0:0:0:0:
256,192,49541,1,0,0:0:0:0:
256,192,49647,1,8,0:0:0:0:
256,192,49700,1,8,0:0:0:0:
256,192,49752,1,8,0:0:0:0:
256,192,49858,1,0,0:0:0:0:
256,192,50069,1,0,0:0:0:0:
256,192,50175,1,8,0:0:0:0:
256,192,50228,1,8,0:0:0:0:
256,192,50281,1,0,0:0:0:0:
256,192,50386,1,8,0:0:0:0:
256,192,50492,1,0,0:0:0:0:
256,192,50597,1,8,0:0:0:0:
256,192,50650,1,8,0:0:0:0:
256,192,50703,1,0,0:0:0:0:
256,192,50809,1,8,0:0:0:0:
256,192,50914,1,0,0:0:0:0:
256,192,51020,1,8,0:0:0:0:
256,192,51073,1,8,0:0:0:0:
256,192,51126,1,0,0:0:0:0:
256,192,51231,1,0,0:0:0:0:
256,192,51337,1,8,0:0:0:0:
256,192,51548,1,0,0:0:0:0:
256,192,51759,1,8,0:0:0:0:
256,192,51865,1,0,0:0:0:0:
256,192,51971,1,8,0:0:0:0:
256,192,52076,1,0,0:0:0:0:
256,192,52182,1,8,0:0:0:0:
256,192,52235,1,8,0:0:0:0:
256,192,52288,1,0,0:0:0:0:
256,192,52393,1,8,0:0:0:0:
256,192,52499,1,8,0:0:0:0:
256,192,52605,1,0,0:0:0:0:
256,192,52657,1,8,0:0:0:0:
256,192,52710,1,0,0:0:0:0:
256,192,52816,1,8,0:0:0:0:
256,192,52921,1,0,0:0:0:0:
256,192,53027,1,8,0:0:0:0:
256,192,53080,1,8,0:0:0:0:
256,192,53133,1,0,0:0:0:0:
256,192,53238,1,8,0:0:0:0:
256,192,53450,1,8,0:0:0:0:
256,192,53555,1,0,0:0:0:0:
256,192,53608,1,0,0:0:0:0:
256,192,53661,1,8,0:0:0:0:
256,192,53766,1,8,0:0:0:0:
256,192,53872,1,0,0:0:0:0:
256,192,53978,1,8,0:0:0:0:
256,192,54031,1,8,0:0:0:0:
256,192,54083,1,0,0:0:0:0:
256,192,54189,1,0,0:0:0:0:
256,192,54295,1,8,0:0:0:0:
256,192,54400,1,0,0:0:0:0:
256,192,54453,1,0,0:0:0:0:
256,192,54506,1,8,0:0:0:0:
256,192,54612,1,8,0:0:0:0:
256,192,54717,1,0,0:0:0:0:
256,192,54823,1,8,0:0:0:0:
256,192,54928,1,0,0:0:0:0:
256,192,54981,1,0,0:0:0:0:
256,192,55034,1,0,0:0:0:0:
256,192,55087,1,0,0:0:0:0:
256,192,55140,1,8,0:0:0:0:
256,192,55351,1,8,0:0:0:0:
256,192,55457,1,0,0:0:0:0:
256,192,55562,1,8,0:0:0:0:
256,192,55615,1,8,0:0:0:0:
256,192,55668,1,0,0:0:0:0:
256,192,55774,1,8,0:0:0:0:
256,192,55879,1,0,0:0:0:0:
256,192,55985,1,0,0:0:0:0:
256,192,56038,1,8,0:0:0:0:
256,192,56090,1,0,0:0:0:0:
256,192,56196,1,8,0:0:0:0:
256,192,56302,1,0,0:0:0:0:
256,192,56407,1,8,0:0:0:0:
256,192,56460,1,8,0:0:0:0:
256,192,56513,1,8,0:0:0:0:
256,192,56619,1,0,0:0:0:0:
256,192,56830,1,0,0:0:0:0:
256,192,56936,1,8,0:0:0:0:
256,192,56988,1,8,0:0:0:0:
256,192,57041,1,0,0:0:0:0:
256,192,57147,1,0,0:0:0:0:
256,192,57252,1,8,0:0:0:0:
256,192,57358,1,0,0:0:0:0:
256,192,57411,1,0,0:0:0:0:
256,192,57464,1,8,0:0:0:0:
256,192,57569,1,8,0:0:0:0:
256,192,57675,1,0,0:0:0:0:
256,192,57781,1,8,0:0:0:0:
256,192,57833,1,8,0:0:0:0:
256,192,57886,5,8,0:0:0:0:
256,192,57992,1,0,0:0:0:0:
256,192,58097,1,8,0:0:0:0:
256,192,58203,1,8,0:0:0:0:
256,192,58309,1,0,0:0:0:0:
256,192,58520,1,12,0:0:0:0:
