osu file format v14

[General]
AudioFilename: audio.mp3
AudioLeadIn: 0
PreviewTime: 82533
Countdown: 0
SampleSet: Soft
StackLeniency: 0.7
Mode: 0
LetterboxInBreaks: 0
WidescreenStoryboard: 1
SamplesMatchPlaybackRate: 1

[Editor]
Bookmarks: 14069,27783,41069,54355,55212,62069,67212,68926,82640,109640,110086,123371,123800,137086,137514,151336,157228
DistanceSpacing: 1.5
BeatDivisor: 4
GridSize: 8
TimelineZoom: 2.5

[Metadata]
Title:pronoun picker sing berdlycore
TitleUnicode:pronoun picker sing berdlycore
Artist:xaev
ArtistUnicode:xaev
Creator:wafer
Version:ins/ane shiny braixen -> quite the crazy guy
Source:
Tags:english edm electronic hyperpop pop hyper dariacore edm glitchpop glitch hardstyle hard style bass rave undertale snitcher Titanium David Guetta Sia, Stay the Night Zedd Hayley Williams, Fuji Opener Skrillex Alvin Risk & Love Yourself Justin Bieber ⁣virgin aspiring VGM musician vs. chad hyperflip producer goopert kami no kotoba nik nikolomara shiny braixen berdlycore chapter 3
BeatmapID:4127347
BeatmapSetID:1961676

[Difficulty]
HPDrainRate:5
CircleSize:4
OverallDifficulty:8.2
ApproachRate:9
SliderMultiplier:2.79999990463257
SliderTickRate:1

[Events]
//Background and Video events
0,0,"jeberdi.jpg",0,0
//Break Periods
2,86926,94640
//Storyboard Layer 0 (Background)
//Storyboard Layer 1 (Fail)
//Storyboard Layer 2 (Pass)
//Storyboard Layer 3 (Foreground)
//Storyboard Layer 4 (Overlay)
//Storyboard Sound Samples
Sample,14069,0,"tornado.wav",85
Sample,27355,0,"fuck.wav",90
Sample,41069,0,"yoshi.wav",90
Sample,54355,0,"SHUT.wav",80
Sample,54783,0,"UP.wav",85
Sample,55640,0,"scoobylaugh.wav",50
Sample,62069,0,"yoda.wav",80
Sample,67212,0,"holy1.wav",100
Sample,67640,0,"holy2.wav",100
Sample,68069,0,"holy3.wav",100
Sample,68497,0,"chaos.wav",65
Sample,68926,0,"cheercutshort.wav",100
Sample,69783,0,"song.wav",55
Sample,110069,0,"naenae.wav",30
Sample,110926,0,"nowwatchme.wav",60
Sample,111569,0,"whip.wav",60
Sample,123371,0,"BOI.wav",90
Sample,137086,0,"HUH.wav",90
Sample,158112,0,"expand.wav",70

[TimingPoints]
355,428.571428571429,4,2,1,40,1,0
355,-100,4,2,1,40,0,0
997,-250,4,2,1,40,0,0
1640,-1000,4,2,1,40,0,0
4426,-250,4,2,1,40,0,0
8495,-500,4,2,1,40,0,0
14069,-83.3333333333333,4,2,2,55,0,0
14926,-125,4,2,2,55,0,0
20926,-166.666666666667,4,2,2,65,0,0
22212,-166.666666666667,4,2,2,65,0,0
23069,-166.666666666667,4,2,2,68,0,0
23926,-166.666666666667,4,2,2,70,0,0
24355,-166.666666666667,4,2,2,75,0,0
24408,-166.666666666667,4,2,2,75,0,0
24783,-166.666666666667,4,2,2,78,0,0
24837,-166.666666666667,4,2,2,78,0,0
25212,-166.666666666667,4,2,2,80,0,0
25265,-166.666666666667,4,2,2,80,0,0
25640,-166.666666666667,4,2,2,82,0,0
25694,-166.666666666667,4,2,2,82,0,0
26069,-166.666666666667,4,2,2,82,0,0
26926,-166.666666666667,4,2,1,70,0,0
27355,-125,4,2,1,70,0,0
27783,-71.4285714285715,4,2,3,90,0,0
28212,-90.9090909090909,4,2,3,90,0,0
28640,-111.111111111111,4,2,3,90,0,0
31212,-71.4285714285714,4,2,3,90,0,0
31640,-111.111111111111,4,2,3,90,0,0
32926,-83.3333333333333,4,2,3,90,0,0
34640,-71.4285714285714,4,2,3,90,0,0
35176,-90.9090909090909,4,2,3,90,0,0
35926,-100,4,2,3,90,0,0
36355,-111.111111111111,4,2,3,90,0,0
41069,-500,4,2,3,90,0,0
41497,-500,4,2,3,70,0,0
42355,-500,4,2,3,90,0,0
42569,-90.9090909090909,4,2,3,90,0,0
43212,-111.111111111111,4,2,3,90,0,0
46640,-83.3333333333333,4,2,3,90,0,0
48355,-71.4285714285714,4,2,3,90,0,0
49212,-90.9090909090909,4,2,3,90,0,0
49640,-111.111111111111,4,2,3,90,0,0
55212,-111.111111111111,4,2,4,80,0,0
56069,-71.4285714285714,4,2,4,90,0,0
61640,-90.9090909090908,4,2,4,90,0,0
62069,-90.9090909090908,4,2,4,90,0,0
62926,-71.4285714285714,4,2,4,90,0,0
65069,-90.9090909090908,4,2,4,90,0,0
65497,-71.4285714285714,4,2,4,90,0,0
68497,-333.333333333333,4,2,2,90,0,0
68926,-125,4,2,4,90,0,0
69783,-71.4285714285714,4,2,4,90,0,0
71926,-90.9090909090909,4,2,4,90,0,0
72783,-71.4285714285714,4,2,4,90,0,0
75355,-90.9090909090909,4,2,4,90,0,0
75783,-333.333333333333,4,2,4,90,0,0
76640,-71.4285714285714,4,2,4,90,0,0
78783,-90.9090909090909,4,2,4,90,0,0
79212,-71.4285714285714,4,2,4,90,0,0
82212,-90.9090909090909,4,2,4,90,0,0
82640,-200,4,2,5,70,0,0
84783,-250,4,2,5,70,0,0
89497,-250,4,2,5,50,0,0
94212,-250,4,2,5,60,0,0
95497,-250,4,2,5,70,0,0
95926,-100,4,2,5,70,0,0
95962,-100,4,2,5,5,0,0
96355,-83.3333333333333,4,2,2,60,0,0
97212,-100,4,2,2,60,0,0
101926,-125,4,2,2,60,0,0
103212,-166.666666666667,4,2,2,65,0,0
108783,-166.666666666667,4,2,2,55,0,0
110086,428.571428571429,4,2,6,95,1,0
110086,-100,4,2,6,95,0,0
110300,-71.4285714285714,4,2,6,95,0,0
110943,-90.9090909090909,4,2,6,95,0,0
111693,-71.4285714285714,4,2,6,95,0,0
113675,-71.4285714285714,4,2,0,5,0,0
113702,-71.4285714285714,4,2,6,95,0,0
113755,-71.4285714285714,4,2,6,95,0,0
113782,-71.4285714285714,4,2,0,5,0,0
113809,-71.4285714285714,4,2,6,95,0,0
113836,-71.4285714285714,4,2,0,5,0,0
113863,-71.4285714285714,4,2,6,95,0,0
115603,-71.4285714285714,4,2,1,50,0,0
115657,-55.5555555555556,4,2,1,50,0,0
115764,-55.5555555555556,4,2,6,95,0,0
116193,-100,4,2,6,95,0,0
116943,-71.4285714285714,4,2,2,95,0,0
116996,-71.4285714285714,4,2,6,95,0,0
117478,-90.9090909090909,4,2,6,95,0,0
118550,-71.4285714285714,4,2,6,95,0,0
122005,-71.4285714285714,4,2,1,5,0,0
122086,-71.4285714285714,4,2,6,95,0,0
122112,-71.4285714285714,4,2,1,5,0,0
122139,-71.4285714285714,4,2,6,95,0,0
122165,-71.4285714285714,4,2,1,5,0,0
122193,-71.4285714285714,4,2,6,95,0,0
122219,-71.4285714285714,4,2,1,5,0,0
122246,-71.4285714285714,4,2,6,95,0,0
122272,-71.4285714285714,4,2,1,5,0,0
122300,-71.4285714285714,4,2,6,95,0,0
122943,-333.333333333333,4,2,6,95,0,0
123371,-62.5,4,2,6,95,0,0
123800,-100,4,2,6,95,0,0
124014,-71.4285714285714,4,2,6,95,0,0
124657,-90.9090909090909,4,2,6,95,0,0
125407,-71.4285714285714,4,2,6,95,0,0
128782,-71.4285714285714,4,2,1,5,0,0
128836,-71.4285714285714,4,2,6,95,0,0
128889,-71.4285714285714,4,2,1,5,0,0
128943,-71.4285714285714,4,2,6,95,0,0
128996,-71.4285714285714,4,2,1,5,0,0
129050,-71.4285714285714,4,2,6,95,0,0
129103,-71.4285714285714,4,2,1,5,0,0
129157,-71.4285714285714,4,2,6,95,0,0
129317,-71.4285714285714,4,2,1,50,0,0
129371,-55.5555555555556,4,2,1,50,0,0
129478,-55.5555555555556,4,2,6,95,0,0
129907,-100,4,2,6,95,0,0
130657,-71.4285714285714,4,2,2,95,0,0
130710,-71.4285714285714,4,2,6,95,0,0
131192,-90.9090909090909,4,2,6,95,0,0
132264,-71.4285714285714,4,2,6,95,0,0
135800,-71.4285714285714,4,2,2,95,0,0
136014,-71.4285714285714,4,2,6,95,0,0
136657,-333.333333333333,4,2,6,95,0,0
137085,-83.3333333333333,4,2,2,60,0,0
137514,-166.666666666667,4,2,2,60,0,0
149728,-166.666666666667,4,2,2,40,0,0
151228,-166.666666666667,4,2,2,40,0,0
157336,-166.666666666667,4,2,0,40,0,0
158112,-166.666666666667,4,2,0,5,0,0
158836,-166.666666666667,4,2,0,20,0,0
159264,-166.666666666667,4,2,1,5,0,0

[Colours]
Combo1 : 243,254,107
Combo2 : 98,86,243

[HitObjects]
271,161,355,6,0,P|285:175|261:165,2,69.9999976158143,2|2|2,0:0|0:0|0:0,0:0:0:0:
239,11,997,5,2,0:0:0:0:
232,7,1426,1,0,0:0:0:0:
133,0,1640,2,0,P|109:14|148:63,1,111.999996185303
334,188,3783,5,2,0:0:0:0:
423,151,3997,1,0,0:0:0:0:
499,185,4212,1,0,0:0:0:0:
413,224,4426,2,0,B|392:178|451:173,2,55.9999980926514,2|0|0,0:0|0:0|0:0,0:0:0:0:
469,275,5069,1,2,0:0:0:0:
171,318,5712,5,2,0:0:0:0:
165,331,6140,1,0,0:0:0:0:
190,381,6569,1,2,0:0:0:0:
177,253,7212,1,2,0:0:0:0:
281,272,7426,1,0,0:0:0:0:
273,270,7855,1,2,0:0:0:0:
268,265,8283,5,0,0:0:0:0:
360,245,8497,2,0,B|360:200|360:200|342:132,1,111.999996185303,4|10,0:0|0:0,0:0:0:0:
339,130,9997,1,2,0:0:0:0:
367,217,10212,2,0,L|360:278,1,55.9999980926514,2|2,0:0|3:0,0:0:0:0:
328,347,10855,6,0,P|338:352|338:367,2,27.9999990463257,0|10|6,0:0|0:0|0:0,0:0:0:0:
236,237,11497,2,0,P|225:239|215:228,2,27.9999990463257,2|0|2,0:0|0:0|0:0,0:0:0:0:
256,192,12140,12,0,13855,3:0:0:0:
291,226,14069,6,0,B|255:203|255:203|268:315|268:315|178:138,1,335.999978302003,4|8,1:0|0:2,0:0:0:0:
189,80,14605,1,0,0:0:0:0:
213,76,14712,1,2,0:0:0:0:
228,72,14819,1,0,0:0:0:0:
245,69,14926,5,10,0:2:0:0:
255,59,15355,1,10,0:2:0:0:
277,63,15783,1,8,0:2:0:0:
315,40,16212,1,8,0:0:0:0:
355,57,16640,1,8,0:0:0:0:
405,38,17069,1,10,0:2:0:0:
482,83,17497,5,12,0:0:0:0:
508,162,17926,1,8,0:0:0:0:
466,234,18355,1,8,0:0:0:0:
434,211,18783,1,10,0:0:0:0:
434,180,19212,1,8,0:0:0:0:
447,127,19640,2,0,L|461:9,1,111.999996185303,8|2,0:0|0:0,0:0:0:0:
469,6,20069,2,0,L|455:117,1,111.999996185303,8|0,0:0|0:0,0:0:0:0:
413,188,20497,5,8,0:0:0:0:
415,204,20605,1,0,0:0:0:0:
416,220,20712,1,2,0:0:0:0:
417,236,20819,1,0,0:0:0:0:
420,252,20926,6,0,L|424:299,3,41.9999972877504,12|0|0|0,1:2|0:2|0:2|0:0,0:0:0:0:
494,326,21355,2,0,L|487:372,3,41.9999972877504,8|0|0|0,0:0|0:0|0:0|0:0,0:0:0:0:
439,264,21783,2,0,L|430:192,3,41.9999972877504,8|0|0|0,0:0|0:0|0:0|0:0,0:0:0:0:
512,124,22212,2,0,L|506:165,3,41.9999972877504,10|2|2|2,0:2|0:3|0:3|0:3,0:0:0:0:
425,222,22640,1,10,0:2:0:0:
421,233,22747,1,2,0:3:0:0:
417,246,22855,1,2,0:3:0:0:
414,259,22962,1,2,0:3:0:0:
411,271,23069,2,0,L|405:312,3,41.9999972877504,10|2|2|2,2:0|0:3|0:3|0:3,0:0:0:0:
351,194,23497,2,0,L|328:121,3,41.9999972877504,10|2|2|2,2:2|0:3|0:3|0:3,0:0:0:0:
306,275,23926,1,10,2:2:0:0:
294,279,24033,1,2,0:3:0:0:
282,283,24140,1,2,0:3:0:0:
270,288,24247,1,2,0:3:0:0:
258,292,24355,6,8,L|248:236,1,41.9999972877504
252,286,24569,2,0,L|242:230,1,41.9999972877504,8|8,0:0|0:0,0:0:0:0:
148,189,24783,6,8,L|160:244,1,41.9999972877504
144,196,24997,2,0,L|156:251,1,41.9999972877504,8|8,0:0|0:0,0:0:0:0:
122,364,25212,6,8,L|109:308,1,41.9999972877504
126,357,25426,2,0,L|113:301,1,41.9999972877504,8|8,0:0|0:0,0:0:0:0:
55,169,25640,6,8,B|19:132|19:132|46:255,1,167.999989151001,8|8,0:0|1:0,0:0:0:0:
299,185,27355,6,0,P|322:160|291:186,1,167.999994277954,12|0,1:0|0:0,0:0:0:0:
214,121,27783,6,0,B|310:59|348:99|372:163|363:217|277:237|223:211|224:170|231:102|258:78,1,391.99997468567,4|8,1:0|0:0,0:0:0:0:
406,174,28319,2,2,P|393:210|368:239,2,76.9999997272492,2|2|2,0:0|0:0|0:0,0:1:0:0:
384,51,28640,1,0,1:0:0:0:
384,51,28747,2,0,L|448:33,1,62.9999959316255,0|2,0:0|0:0,0:0:0:0:
450,116,28962,1,2,0:0:0:0:
450,116,29069,2,0,L|514:118,1,62.9999959316255,8|0,0:0|0:0,0:0:0:0:
512,128,29283,2,0,L|447:125,1,62.9999959316255,2|0,0:1|0:0,0:0:0:0:
264,118,29497,6,0,P|232:126|185:184,3,62.9999959316255,4|0|0|0,1:0|3:0|3:0|3:0,0:0:0:0:
281,308,29926,2,0,P|313:300|360:242,3,62.9999959316255,8|2|2|2,0:0|0:0|0:0|0:0,0:0:0:0:
285,212,30355,5,0,1:0:0:0:
277,196,30462,1,2,0:0:0:0:
267,221,30569,1,2,0:0:0:0:
260,205,30676,1,0,0:0:0:0:
191,244,30783,5,8,0:0:0:0:
191,244,30890,2,0,B|161:260|161:260|105:263,2,62.9999959316255,0|2|0,0:0|0:1|0:0,0:0:0:0:
267,221,31212,6,0,B|322:195|322:195|342:115|342:115|299:82|299:82|206:172,1,293.999981014252,4|0,1:0|3:0,0:0:0:0:
247,293,31640,2,0,B|221:371|221:371|289:363|289:363|324:329,1,188.999987794877,8|0,0:0|0:0,0:0:0:0:
191,244,32069,2,0,L|91:220,3,62.9999959316255,0|0|0|2,1:0|3:0|3:0|0:1,0:0:0:0:
108,133,32497,2,0,L|25:94,1,62.9999959316255,8|0,0:0|0:0,0:0:0:0:
2,0,32712,2,0,L|82:28,1,62.9999959316255,2|0,0:1|0:0,0:0:0:0:
182,77,32926,6,0,P|244:67|347:-28,1,167.999989151001,0|0,1:0|3:0,0:0:0:0:
401,80,33247,1,0,3:0:0:0:
401,80,33355,2,0,P|437:100|467:242,1,167.999989151001,8|0,0:0|0:0,0:0:0:0:
453,289,33676,5,0,0:0:0:0:
453,289,33783,1,0,1:0:0:0:
379,250,33997,1,4,3:0:0:0:
379,250,34105,1,4,3:0:0:0:
379,250,34212,2,0,L|274:269,1,83.9999945755007
224,224,34426,2,0,P|204:214|223:239,1,83.9999945755007
224,224,34640,6,0,B|274:173|326:12|140:-8|160:78|145:110|197:164|269:205,1,391.99997468567,4|8,1:0|0:0,0:0:0:0:
299,260,35176,2,0,P|288:306|237:346,2,76.9999997272492,0|0|4,0:0|0:0|3:0,0:0:0:0:
220,111,35497,1,4,3:0:0:0:
223,123,35926,6,0,P|209:73|346:31,1,209.999992847443,8|0,0:0|0:0,0:0:0:0:
375,82,36355,2,0,P|406:103|461:94,3,62.9999959316255,0|0|2|0,1:0|3:0|3:0|3:0,0:0:0:0:
309,168,36783,2,0,P|307:206|344:247,3,62.9999959316255,8|0|0|2,0:0|3:0|3:0|0:1,0:0:0:0:
385,90,37212,5,0,1:0:0:0:
402,84,37319,1,0,3:0:0:0:
420,81,37426,1,0,3:0:0:0:
438,79,37533,1,0,3:0:0:0:
456,80,37640,2,0,L|483:177,1,62.9999959316255,8|0,0:0|0:0,0:0:0:0:
493,241,37855,2,0,L|409:261,1,62.9999959316255,2|0,0:1|0:0,0:0:0:0:
340,165,38069,5,4,1:0:0:0:
340,165,38176,2,0,B|281:136|281:136|184:162,1,125.999991863251,0|0,3:0|3:0,0:0:0:0:
61,273,38497,2,0,B|86:357|86:357|202:325,1,188.999987794877,8|0,0:0|0:0,0:0:0:0:
272,258,38926,1,0,1:0:0:0:
272,258,39033,6,0,P|310:259|321:319,1,62.9999959316255,0|0,3:0|3:0,0:0:0:0:
365,365,39247,1,2,0:1:0:0:
446,336,39355,2,0,P|373:303|367:197,1,188.999987794877,8|0,0:0|0:0,0:0:0:0:
467,89,39783,6,0,L|542:67,3,62.9999959316255,0|0|0|0,1:0|3:0|3:0|3:0,0:0:0:0:
430,186,40212,2,0,L|352:195,3,62.9999959316255,8|2|2|2,0:0|0:0|0:0|0:0,0:0:0:0:
512,34,40640,1,0,1:0:0:0:
512,34,40747,2,0,B|486:37|486:37|422:80|422:80|368:85,1,125.999991863251,0|2,0:0|0:0,0:0:0:0:
217,113,41069,6,0,P|197:133|209:160,1,55.9999980926514,6|2,3:0|1:2,0:0:0:0:
220,172,41926,1,2,0:2:0:0:
220,172,42033,1,0,0:0:0:0:
220,172,42140,1,2,0:2:0:0:
221,172,42247,1,0,0:0:0:0:
220,172,42355,1,4,1:0:0:0:
316,117,42569,6,0,B|358:221|286:219|298:277|225:293|197:242|220:172|254:150|339:125|288:62,1,384.999998636246,0|2,3:0|0:0,0:0:0:0:
172,166,43212,2,0,P|160:205|163:252,3,62.9999959316255,0|0|2|2,1:0|0:0|0:0|0:0,0:0:0:0:
203,58,43640,2,0,L|170:-19,3,62.9999959316255,8|0|2|0,0:0|0:0|0:1|0:0,0:0:0:0:
81,9,44069,1,4,1:0:0:0:
71,25,44176,1,0,3:0:0:0:
62,41,44283,1,0,3:0:0:0:
53,57,44390,1,0,3:0:0:0:
42,72,44497,2,0,P|29:95|22:157,1,62.9999959316255,8|0,0:0|0:0,0:0:0:0:
81,260,44712,2,0,L|87:313,2,41.9999972877504,2|0|0,0:1|0:0|0:0,0:0:0:0:
66,187,44926,6,0,B|110:184|140:215|140:215|232:207,1,125.999991863251,4|2,1:0|0:1,0:0:0:0:
196,310,45247,1,0,3:0:0:0:
196,310,45355,2,0,P|93:267|40:231,1,125.999991863251,8|2,0:0|0:1,0:0:0:0:
252,166,45676,1,0,0:0:0:0:
252,166,45783,2,0,B|280:184|280:184|321:244,2,62.9999959316255,0|0|0,1:0|3:0|3:0,0:0:0:0:
260,56,46105,1,2,0:1:0:0:
260,56,46212,2,0,L|212:282,1,188.999987794877,8|0,0:0|0:0,0:0:0:0:
254,374,46640,6,0,P|314:349|385:235,1,167.999989151001,0|0,1:0|3:0,0:0:0:0:
474,300,46962,1,0,3:0:0:0:
474,300,47069,2,0,P|397:231|366:133,1,167.999989151001,8|0,0:0|0:0,0:0:0:0:
394,86,47390,5,0,0:0:0:0:
394,86,47497,1,0,1:0:0:0:
355,12,47712,1,4,3:0:0:0:
355,12,47819,1,4,3:0:0:0:
355,12,47926,2,0,P|302:-5|261:6,1,83.9999945755007
192,23,48140,2,0,P|163:46|150:120,1,83.9999945755007
192,23,48355,6,0,B|138:43|110:115|142:178|223:234|327:119|234:38|170:34|126:5|41:2,1,391.99997468567,4|0,1:0|0:0,0:0:0:0:
12,195,48997,2,0,P|27:193|72:109,1,97.9999936714175,0|4,0:0|3:0,0:0:0:0:
136,45,49212,6,0,B|147:40|178:60|223:63|289:120|216:201|158:162|136:117|155:67|193:52,1,230.999999181748,4|0,3:0|0:0,1:1:0:0:
303,17,49640,2,0,P|338:2|389:4,3,62.9999959316255,8|0|2|0,0:0|0:0|0:1|0:0,0:0:0:0:
417,72,50069,2,0,P|446:48|468:2,3,62.9999959316255,0|0|0|0,1:0|3:0|3:0|3:0,0:0:0:0:
304,2,50497,1,8,0:0:0:0:
293,18,50605,1,0,0:0:0:0:
287,36,50712,1,0,3:0:0:0:
285,54,50819,1,2,0:1:0:0:
287,72,50926,6,0,L|317:213,1,125.999991863251,0|0,1:0|3:0,0:0:0:0:
223,293,51247,1,0,3:0:0:0:
223,293,51355,2,0,P|259:316|306:316,1,62.9999959316255,8|0,0:0|0:0,0:0:0:0:
431,248,51569,2,0,L|487:239,2,41.9999972877504,2|0|0,0:1|0:0|0:0,0:0:0:0:
375,200,51783,6,0,B|347:240|363:278|363:278|341:354,1,125.999991863251,4|2,1:0|0:1,0:0:0:0:
448,370,52105,1,0,3:0:0:0:
448,370,52212,2,0,B|453:338|438:308|438:308|449:271|414:221,1,125.999991863251,8|2,0:0|0:1,0:0:0:0:
234,257,52533,1,0,0:0:0:0:
234,257,52640,2,0,P|250:325|291:422,1,125.999991863251,0|0,1:0|3:0,0:0:0:0:
506,223,52962,1,2,0:1:0:0:
506,223,53069,2,0,P|496:184|471:152,1,62.9999959316255,8|0,0:0|3:0,0:0:0:0:
495,80,53283,2,0,P|463:55|423:45,1,62.9999959316255,2|0,0:1|0:0,0:0:0:0:
311,26,53497,6,0,B|269:34|207:6|207:6|173:58|173:119|173:119|197:133|223:128|223:128|244:94|244:94|248:128|248:128|260:140|290:140|290:140|315:113|317:39,1,503.999967453004,0|2,1:0|0:0,0:0:0:0:
75,335,55212,5,4,1:0:0:0:
48,237,55640,1,2,3:0:0:0:
56,310,55747,1,2,3:0:0:0:
66,384,55854,1,2,3:0:0:0:
71,189,56069,6,0,B|82:227|82:227|59:418,1,195.999987342835,0|0,1:0|0:0,0:0:0:0:
142,200,56497,2,0,B|122:224|122:224|81:402,1,195.999987342835,0|0,1:0|0:0,0:0:0:0:
77,188,56926,2,0,B|103:327|103:327|88:400,1,195.999987342835,0|0,1:0|0:0,0:0:0:0:
144,271,57247,1,0,0:0:0:0:
138,172,57355,2,0,B|100:255|100:255|102:375,2,195.999987342835,0|2|0,1:0|3:0|1:0,0:0:0:0:
274,226,57890,1,0,0:0:0:0:
265,229,57997,1,0,0:0:0:0:
238,241,58105,1,0,0:0:0:0:
206,198,58212,6,0,L|222:322,1,97.9999936714175,0|0,1:0|1:0,0:0:0:0:
233,376,58426,1,0,1:0:0:0:
286,193,58640,5,0,1:0:0:0:
286,193,59069,2,0,B|262:285|262:285|267:436,1,195.999987342835,0|0,1:0|0:0,0:0:0:0:
315,179,59497,2,0,B|340:282|340:282|332:390,1,195.999987342835,0|0,1:0|0:0,3:0:0:0:
296,170,59926,2,0,B|230:245|230:245|296:368,1,195.999987342835,0|2,1:0|0:1,0:0:0:0:
358,229,60355,2,0,B|289:325|289:325|224:388,1,195.999987342835,0|0,1:0|0:0,0:0:0:0:
321,189,60676,1,0,0:0:0:0:
321,189,60783,2,0,B|381:259|381:259|484:331,1,195.999987342835,0|2,1:0|3:0,0:0:0:0:
389,189,61212,2,0,L|349:391,1,195.999987342835,0|0,1:0|0:0,0:0:0:0:
473,280,61533,1,0,1:0:0:0:
410,194,61640,6,0,B|418:241|418:241|450:300,1,76.9999997272492,0|0,1:0|0:0,0:0:0:0:
498,384,61855,2,0,B|507:336|507:336|498:270,1,76.9999997272492,0|0,1:0|0:0,0:0:0:0:
501,163,62069,6,2,B|474:168|452:182|416:247|432:318|512:340|550:282|434:235,1,230.999999181748,2|2,0:3|3:0,0:1:0:0:
454,246,62497,1,2,3:0:0:0:
377,230,62605,1,0,1:0:0:0:
302,213,62712,1,2,0:1:0:0:
292,175,62926,6,0,B|297:304|297:304|317:372,1,195.999987342835,0|0,1:0|0:0,0:0:0:0:
438,197,63355,2,0,B|483:329|483:329|516:387,1,195.999987342835,0|0,1:0|0:0,0:0:0:0:
369,188,63783,2,0,B|334:297|334:297|288:380,1,195.999987342835,0|0,1:0|0:0,0:0:0:0:
214,223,64105,1,0,0:0:0:0:
214,223,64212,2,0,B|145:287|145:287|118:414,1,195.999987342835,0|2,1:0|3:0,0:0:0:0:
111,207,64640,2,0,L|250:397,1,195.999987342835,0|2,1:0|0:0,0:0:0:0:
313,212,64962,1,0,0:0:0:0:
313,212,65069,6,0,B|293:243|293:243|268:306,1,76.9999997272492,0|0,1:0|1:0,0:0:0:0:
155,382,65283,1,0,1:0:0:0:
228,198,65497,6,0,B|200:322|200:322|171:392,1,195.999987342835,0|0,1:0|0:0,0:0:0:0:
2,222,65926,1,2,3:0:0:0:
35,287,66033,1,2,3:0:0:0:
66,355,66140,1,0,1:0:0:0:
228,198,66355,2,0,B|200:322|200:322|171:392,1,195.999987342835,0|0,1:0|0:0,0:0:0:0:
0,212,66783,2,0,B|0:314|0:314|61:392,1,195.999987342835,0|2,1:0|0:1,0:0:0:0:
346,206,67212,2,0,L|265:395,1,195.999987342835,2|0,1:0|0:0,0:1:0:0:
75,212,67533,1,0,0:0:0:0:
75,212,67640,5,2,1:0:0:0:
507,241,68069,1,2,1:0:0:0:
165,171,68497,6,0,B|167:165|174:154|201:145|217:182,1,62.9999959316255,12|0,0:0|0:0,0:0:0:0:
347,213,68926,6,0,B|345:219|338:230|311:239|295:202,1,55.9999980926514,4|2,1:0|0:0,0:0:0:0:
165,171,69355,5,2,3:0:0:0:
257,192,69462,1,2,3:0:0:0:
347,213,69569,1,2,3:0:0:0:
350,223,69783,6,0,B|343:203|343:203|265:37,1,195.999987342835,0|0,1:0|0:0,0:0:0:0:
305,195,70212,2,0,B|315:135|315:135|363:-1,1,195.999987342835,0|0,1:0|0:0,0:0:0:0:
344,144,70640,2,2,B|333:54|333:54|255:-15,1,195.999987342835,0|0,1:2|0:0,0:1:0:0:
288,89,70962,1,2,0:0:0:0:
328,184,71069,2,0,L|405:-2,2,195.999987342835,2|2|2,1:2|3:0|1:2,0:0:0:0:
435,149,71605,1,0,0:0:0:0:
449,144,71712,1,0,0:0:0:0:
463,139,71819,1,0,0:0:0:0:
478,167,71926,6,0,L|449:55,1,76.9999997272492,0|0,1:0|1:0,0:0:0:0:
374,0,72140,1,0,1:0:0:0:
279,172,72355,5,0,1:0:0:0:
279,172,72783,2,0,B|259:79|259:79|216:-28,1,195.999987342835,0|0,1:0|0:0,0:0:0:0:
194,145,73212,2,0,B|215:60|215:60|320:-21,1,195.999987342835,0|2,1:0|0:0,0:0:0:0:
267,172,73640,2,0,L|132:0,1,195.999987342835,0|0,1:1|0:0,0:1:0:0:
199,197,74069,2,0,B|238:113|238:113|297:18,1,195.999987342835,0|0,1:1|0:0,0:1:0:0:
303,192,74390,1,0,0:1:0:0:
303,192,74497,2,0,L|267:-5,1,195.999987342835,0|2,1:0|3:0,0:0:0:0:
202,171,74926,2,0,B|259:91|259:91|362:51,1,195.999987342835,0|0,1:0|0:0,0:0:0:0:
259,182,75247,1,0,1:0:0:0:
206,93,75355,6,0,B|196:55|196:55|139:-9,1,76.9999997272492,0|0,1:0|0:0,0:0:0:0:
29,0,75569,2,0,B|47:34|47:34|116:85,1,76.9999997272492,0|0,1:0|0:0,0:0:0:0:
202,171,75783,6,0,B|166:158|134:195,1,62.9999959316255,2|2,0:1|3:0,0:0:0:0:
50,142,76212,1,2,3:0:0:0:
127,157,76320,1,2,3:0:0:0:
202,171,76427,1,0,1:0:0:0:
209,191,76640,6,0,B|214:180|214:180|175:-6,1,195.999987342835,0|0,1:0|0:0,0:0:0:0:
25,175,77069,2,0,B|5:86|5:86|83:-30,1,195.999987342835,0|0,1:0|0:0,0:0:0:0:
312,148,77497,2,2,L|143:15,1,195.999987342835,2|0,1:2|0:0,0:1:0:0:
57,202,77819,1,2,0:0:0:0:
57,202,77926,2,0,B|155:158|155:158|261:195,1,195.999987342835,2|2,1:2|3:0,0:0:0:0:
161,211,78355,2,0,L|210:7,1,195.999987342835,2|0,1:2|0:0,0:0:0:0:
364,160,78676,1,0,0:0:0:0:
364,160,78783,6,0,B|348:116|348:116|311:62,1,76.9999997272492,0|0,1:0|1:0,0:0:0:0:
280,9,78997,1,0,1:0:0:0:
311,182,79212,6,0,B|313:115|313:115|357:-24,1,195.999987342835,2|0,1:2|0:0,0:0:0:0:
512,205,79640,2,0,B|481:105|481:105|408:46,1,195.999987342835,0|0,1:0|0:0,0:0:0:0:
223,215,80069,2,0,B|259:121|259:121|386:82,1,195.999987342835,0|2,1:0|0:0,0:0:0:0:
351,180,80390,1,2,3:0:0:0:
351,180,80497,2,0,L|160:86,1,195.999987342835,2|0,1:2|0:0,0:1:0:0:
140,182,80819,1,0,0:1:0:0:
140,182,80926,2,0,B|156:145|156:145|215:-32,1,195.999987342835,0|0,1:1|0:1,0:1:0:0:
129,95,81247,1,0,1:0:0:0:
212,155,81355,2,0,B|180:122|180:122|74:2,1,195.999987342835,0|0,1:0|0:0,0:0:0:0:
32,178,81783,5,0,1:0:0:0:
506,204,82212,2,0,P|402:194|254:262,1,230.999999181748,14|0,0:0|0:0,0:0:0:0:
246,307,82640,6,0,B|205:316|197:370|150:376|115:374|92:368|53:342|28:308|-19:286|113:-58|332:267|155:304|122:355,1,559.999980926514,4|0,1:2|0:0,0:0:0:0:
30,112,84569,1,0,0:0:0:0:
30,112,84783,2,0,B|89:93|115:134|118:207|75:266|-31:233|-58:167|-11:119|39:98|85:138|88:172,1,335.999988555908
223,195,95926,6,0,L|230:229,10,23.3333325386048,4|0|0|0|0|0|0|0|0|0|0,0:3|0:0|0:0|0:0|0:0|0:0|0:0|0:0|0:0|0:0|0:0,0:0:0:0:
223,195,96355,6,0,B|193:214|193:214|249:247|249:247|128:309|128:309|216:386,1,335.999978302003,4|10,1:0|0:1,0:0:0:0:
285,384,96890,1,0,0:0:0:0:
298,362,96997,1,2,0:0:0:0:
311,340,97105,1,0,0:0:0:0:
319,324,97212,6,0,P|328:300|344:278,7,34.9999988079071,8|0|0|0|0|0|0|0,0:0|1:0|1:0|1:0|1:0|1:0|1:0|1:0,0:0:0:0:
358,263,97640,1,8,0:0:0:0:
399,251,98069,1,8,0:0:0:0:
459,263,98497,1,10,0:0:0:0:
480,327,98926,2,0,P|491:335|521:345,7,34.9999988079071,8|0|0|0|0|0|0|0,0:0|1:0|1:0|1:0|1:0|1:0|1:0|1:0,0:0:0:0:
449,261,99355,1,10,0:1:0:0:
435,204,99783,5,10,0:0:0:0:
387,134,100212,1,8,0:0:0:0:
306,69,100640,2,0,P|281:64|244:64,7,34.9999988079071,8|0|0|0|0|0|0|0,0:0|1:0|1:0|1:0|1:0|1:0|1:0|1:0,0:0:0:0:
174,113,101069,1,8,0:0:0:0:
145,201,101497,1,10,0:0:0:0:
215,287,101926,6,0,P|227:227|229:146,1,111.999996185303,10|0,0:1|1:0,0:0:0:0:
242,165,102355,2,8,P|238:220|226:275,1,111.999996185303
217,373,102783,1,10,0:1:0:0:
131,356,102997,1,2,1:0:0:0:
115,361,103105,1,2,0:3:0:0:
102,364,103212,6,0,L|51:354,3,41.9999972877504,10|0|2|0,0:0|0:0|0:0|0:0,0:0:0:0:
171,342,103640,2,0,L|222:348,3,41.9999972877504,8|0|2|2,0:0|0:0|0:0|0:3,0:0:0:0:
92,374,104069,2,0,L|41:364,3,41.9999972877504,8|0|0|0,1:0|0:0|1:0|0:0,1:0:0:0:
219,348,104497,2,0,L|201:298,3,41.9999972877504,10|0|2|0,0:0|0:0|0:0|0:0,0:0:0:0:
46,255,104926,5,8,0:0:0:0:
58,258,105033,1,2,0:0:0:0:
70,261,105140,1,2,0:0:0:0:
82,264,105247,1,0,0:0:0:0:
94,266,105355,2,0,L|147:250,3,41.9999972877504,8|10|0|0,0:0|0:0|0:0|1:0,0:0:0:0:
259,360,105783,2,0,L|206:344,3,41.9999972877504,0|0|0|0,1:0|1:0|1:0|1:0,0:0:0:0:
330,316,106212,1,10,0:0:0:0:
331,303,106319,1,2,0:0:0:0:
325,291,106426,1,2,0:0:0:0:
316,281,106533,1,2,0:0:0:0:
306,272,106640,6,8,L|251:242,1,41.9999972877504,8|0,0:0|0:0,0:0:0:0:
298,261,106855,2,0,L|243:231,1,41.9999972877504,10|0,0:1|0:0,0:0:0:0:
272,121,107069,6,8,L|310:170,1,41.9999972877504,10|0,0:1|0:0,0:0:0:0:
275,134,107284,2,0,L|313:183,1,41.9999972877504,8|0,0:0|0:0,0:0:0:0:
408,240,107497,6,8,L|397:178,1,41.9999972877504
411,227,107712,2,0,L|400:165,1,41.9999972877504,8|8,0:0|0:0,0:0:0:0:
503,12,107926,5,2,0:0:0:0:
512,43,108033,1,2,0:0:0:0:
492,79,108140,1,2,0:0:0:0:
506,128,108247,1,2,0:0:0:0:
479,185,108355,1,8,0:0:0:0:
283,384,110086,5,4,1:0:0:0:
185,144,110300,2,2,B|268:117|268:117|288:51|288:51|370:96|370:96|348:199|348:199|245:218,1,391.99997468567,0|0,3:0|3:0,0:1:0:0:
231,216,110836,1,2,3:0:0:0:
231,216,110943,2,0,B|201:240|201:240|224:289,2,76.9999997272492,4|2|0,3:0|0:1|0:0,0:0:0:0:
307,153,111264,1,0,0:0:0:0:
307,153,111371,2,0,B|206:185|206:185|118:184,1,153.999999454498,0|0,0:0|1:0,0:0:0:0:
43,95,111693,6,0,B|75:96|75:96|84:95|84:95|93:82|93:82|93:102|93:102|230:146,1,195.999987342835,2|0,0:1|0:0,0:0:0:0:
333,218,112014,1,0,0:0:0:0:
373,221,112121,1,2,3:0:0:0:
409,221,112228,2,0,B|450:194|450:194|425:113,3,97.9999936714175,0|4|4|4,1:0|3:0|3:0|3:0,0:0:0:0:
258,67,112657,2,0,B|224:77|224:77|188:193,1,97.9999936714175,8|0,3:0|0:0,0:0:0:0:
339,92,112871,2,0,B|305:103|305:103|251:18|251:18|181:-1,2,195.999987342835,2|2|2,0:0|0:0|0:0,0:0:0:0:
395,38,113407,1,0,0:0:0:0:
472,94,113514,6,2,B|499:44|499:44|484:22|484:22|495:-59,1,97.9999936714175,0|0,1:0|0:0,1:0:0:0:
339,92,113728,2,0,B|333:101|333:101|315:107|315:107|310:149,2,48.9999968357087
397,15,113943,2,0,P|386:-14|395:17,3,97.9999936714175,2|0|2|0,0:0|3:0|0:0|3:0,0:0:0:0:
419,148,114371,5,4,3:0:0:0:
419,148,114478,2,0,B|382:145|382:145|364:119|364:119|274:61|274:61|219:99,1,195.999987342835,2|0,0:1|0:0,0:0:0:0:
137,0,114800,2,0,B|94:21|94:21|38:28|38:28|3:62|3:62|114:94|114:94|123:182,1,293.999981014252,2|0,0:3|0:0,0:0:0:0:
23,307,115228,2,0,L|159:322,1,97.9999936714175,0|2,0:0|0:0,0:0:0:0:
507,209,115550,5,0,0:0:0:0:
507,209,115657,2,0,B|480:203|480:203|455:216|455:216|372:184|372:184|403:385|403:385|295:313|295:313|264:385,1,503.999967453004,0|8,0:0|3:0,0:0:0:0:
205,364,116193,2,0,B|175:383|175:383|112:385,2,69.9999976158143,2|0|2,1:0|0:0|0:3,0:0:0:0:
283,224,116514,6,0,L|296:192,9,23.3333325386048,0|0|0|4|0|0|4|0|0|4,1:0|0:0|0:0|3:0|0:0|0:0|3:0|0:0|0:0|3:0,0:0:0:0:
280,122,116943,6,0,B|252:75|252:75|178:98|178:98|198:161|198:161|114:228|114:228|105:326,1,391.99997468567,4|0,1:0|0:0,0:0:0:0:
168,384,117478,2,0,B|216:356|216:356|180:320,2,76.9999997272492,0|0|4,0:0|0:0|3:0,0:0:0:0:
28,353,117800,1,2,1:0:0:0:
28,353,117907,2,0,B|-7:338|-7:338|133:309,1,153.999999454498,0|2,0:0|0:0,0:0:0:0:
202,268,118228,1,0,0:0:0:0:
202,268,118336,2,0,B|244:245|244:245|250:169,1,76.9999997272492,2|4,3:3|3:0,0:0:0:0:
161,106,118550,6,0,B|173:137|173:137|264:200|264:200|262:270|262:270|276:275|276:275|296:342,1,293.999981014252,2|0,0:1|0:0,0:0:0:0:
295,337,118978,1,2,0:0:0:0:
136,219,119193,2,0,B|144:162|144:162|178:165|178:165|180:150|180:150|232:132|232:132|302:-4,1,293.999981014252,4|8,3:0|3:0,0:0:0:0:
348,103,119621,1,2,1:0:0:0:
348,103,119728,2,0,B|295:99|295:99|219:36|219:36|119:-2,2,195.999987342835,2|2|6,0:0|0:0|3:0,0:0:0:0:
452,186,120264,1,0,0:0:0:0:
452,186,120371,6,0,B|509:206|509:206|380:229,1,97.9999936714175,4|0,3:0|3:0,0:0:0:0:
397,259,120586,1,4,3:0:0:0:
397,259,120693,2,0,B|379:255|349:247|304:253|264:281|275:318|309:339|345:342|387:305|370:285|351:278|329:273|290:278|274:300|303:354|352:363|387:309|332:262|258:256|210:278|197:311|218:353|286:344|283:300|221:287|167:297|159:317|94:353|227:364|194:330|159:326|133:351|112:362,1,391.99997468567,2|4,0:0|3:0,0:0:0:0:
18,288,121228,1,2,1:0:0:0:
18,288,121336,2,0,B|29:268|29:268|0:182|0:182|79:110,2,195.999987342835
78,353,121871,1,4,3:0:0:0:
78,353,121978,6,2,L|93:409,6,32.6666645571392,0|0|0|0|0|0|0,0:0|0:0|0:0|0:0|0:0|0:0|0:0,0:1:0:0:
127,280,122300,1,4,3:0:0:0:
130,285,122407,2,0,B|164:291|164:291|240:241|240:241|234:311,1,195.999987342835,2|4,0:1|3:0,0:0:0:0:
185,371,122728,1,10,3:0:0:0:
213,363,122836,1,0,0:0:0:0:
234,311,122943,6,2,L|297:298,1,62.9999959316255,8|0,3:0|0:0,0:1:0:0:
367,271,123371,6,2,L|289:253,1,74.6666641235352,2|0,0:1|0:0,0:0:0:0:
249,190,123800,5,4,1:0:0:0:
444,347,124014,2,2,B|471:264|471:264|518:217|518:217|493:120|493:120|389:184|389:184|349:155,1,391.99997468567,0|0,3:0|0:0,0:1:0:0:
306,99,124550,1,2,3:0:0:0:
306,99,124657,2,0,B|268:98|268:98|243:137,2,76.9999997272492,4|2|0,3:0|1:0|0:0,0:0:0:0:
292,14,124978,1,2,0:0:0:0:
292,14,125085,2,0,B|336:69|336:69|454:114,1,153.999999454498,0|0,3:0|1:0,0:0:0:0:
510,249,125407,6,0,B|484:267|484:267|477:274|477:274|473:277|473:277|463:262|463:262|331:323,1,195.999987342835
221,371,125728,1,2,0:1:0:0:
181,374,125835,1,2,0:0:0:0:
145,374,125942,2,0,B|119:337|119:337|129:266,3,97.9999936714175,4|4|4|4,3:0|3:0|3:0|3:0,0:0:0:0:
343,318,126371,2,0,B|309:330|309:330|211:259,1,97.9999936714175,8|0,3:0|0:0,0:0:0:0:
151,170,126585,2,0,B|184:175|184:175|265:155|265:155|327:250,2,195.999987342835,2|2|2,0:0|0:0|0:0,0:0:0:0:
90,113,127121,1,0,0:0:0:0:
30,187,127228,6,0,B|31:232|31:232|42:259|42:259|53:340,1,97.9999936714175,0|0,1:0|0:0,0:0:0:0:
145,374,127442,2,2,B|161:356|161:356|174:317,2,48.9999968357087,2|0|0,0:1|0:0|0:0,0:1:0:0:
180,254,127657,2,0,B|178:226|178:226|138:237|138:237|126:270,3,97.9999936714175,2|0|2|0,0:1|0:0|0:0|3:0,0:0:0:0:
67,365,128085,5,4,3:0:0:0:
67,365,128193,2,0,B|88:356|88:356|107:371|107:371|181:358|181:358|265:376,1,195.999987342835,2|0,0:1|0:0,0:0:0:0:
404,294,128514,2,0,B|447:273|447:273|503:266|503:266|538:232|538:232|474:158|474:158|481:88,2,293.999981014252,2|0|2,0:3|0:0|0:0,0:0:0:0:
275,272,129264,5,2,3:0:0:0:
275,272,129371,2,0,B|251:250|251:250|320:219|320:219|176:128|176:128|424:74,1,503.999967453004,4|8,3:0|3:0,0:0:0:0:
485,66,129907,2,0,B|506:37|506:37|514:-24,2,69.9999976158143,2|0|2,1:0|0:0|0:0,0:0:0:0:
401,165,130228,6,2,L|392:186,9,23.3333325386048,2|0|0|0|0|0|0|0|0|0,1:0|0:0|0:0|0:0|0:0|0:0|0:0|0:0|0:0|0:0,0:1:0:0:
474,201,130657,6,0,B|506:245|506:245|456:304|456:304|406:261|406:261|311:312|311:312|217:282,1,391.99997468567,4|0,1:0|0:0,0:0:0:0:
183,221,131192,2,0,B|219:205|219:205|271:211,2,76.9999997272492,0|0|4,0:0|0:0|3:0,0:0:0:0:
147,299,131514,1,2,1:0:0:0:
146,298,131621,2,0,B|60:219|60:219|98:224,1,153.999999454498,0|2,0:0|0:0,0:0:0:0:
256,209,131943,1,0,0:0:0:0:
256,209,132050,2,0,L|132:233,1,76.9999997272492,2|4,3:3|3:0,0:0:0:0:
180,91,132264,6,0,B|169:66|169:66|235:50|235:50|264:123|264:123|425:197,1,293.999981014252,2|0,0:1|0:0,0:0:0:0:
374,174,132692,1,2,0:0:0:0:
228,285,132907,2,0,B|199:329|199:329|131:316|131:316|126:260|126:260|-13:189,1,293.999981014252,4|8,3:0|3:0,0:0:0:0:
75,145,133336,1,2,1:0:0:0:
75,145,133443,2,0,B|53:231|53:231|56:282|56:282|-23:407,2,195.999987342835,2|2|4,0:0|0:0|3:0,0:0:0:0:
13,94,133978,1,2,0:0:0:0:
13,94,134085,6,4,B|26:35|26:35|63:161,1,97.9999936714175,4|4,3:0|3:0,3:0:0:0:
75,145,134300,2,0,L|119:130,6,32.6666645571392,0|0|0|0|0|0|2,1:0|1:0|1:0|1:0|1:0|0:0|0:1,1:0:0:0:
134,53,134621,1,0,0:0:0:0:
151,75,134728,1,2,0:1:0:0:
178,88,134836,1,4,3:0:0:0:
200,108,134943,1,2,1:0:0:0:
251,100,135050,6,0,B|306:84|306:84|337:43,2,97.9999936714175,0|0|2,0:0|0:0|3:0,0:0:0:0:
162,183,135371,1,0,0:0:0:0:
152,210,135478,1,2,0:3:0:0:
169,245,135585,1,2,1:0:0:0:
182,268,135692,6,0,L|197:324,6,32.6666645571392,0|0|0|4|0|0|0,0:0|0:0|0:0|1:0|0:0|0:0|0:0,0:0:0:0:
266,214,136014,1,4,3:0:0:0:
269,219,136121,2,0,B|303:225|303:225|342:218|342:218|373:245,1,97.9999936714175,2|0,1:1|1:0,0:0:0:0:
431,306,136336,1,4,3:0:0:0:
348,349,136443,2,2,P|302:367|250:379,1,97.9999936714175,2|0,0:1|0:0,0:1:0:0:
201,316,136657,1,8,3:0:0:0:
216,277,136764,1,0,3:0:0:0:
228,227,136871,1,2,0:1:0:0:
243,175,136978,1,0,3:0:0:0:
263,99,137086,6,0,P|277:61|246:113,1,335.999978302003,12|4,0:0|1:0,0:0:0:0:
232,119,138157,1,2,0:0:0:0:
318,133,138371,1,0,0:0:0:0:
325,128,138800,1,2,0:0:0:0:
175,170,139014,1,0,0:0:0:0:
363,280,139657,1,0,0:0:0:0:
368,285,140514,1,0,0:0:0:0:
368,285,140728,1,0,0:0:0:0:
349,368,140943,5,2,0:0:0:0:
326,259,141157,1,0,0:0:0:0:
346,236,141586,1,0,0:0:0:0:
211,275,141800,1,0,0:0:0:0:
198,297,142014,1,2,0:0:0:0:
194,354,142228,1,2,0:0:0:0:
226,53,142871,1,2,0:0:0:0:
220,28,143300,1,2,0:0:0:0:
41,222,143728,5,2,0:0:0:0:
51,244,144371,1,4,0:0:0:0:
54,132,144586,1,0,0:0:0:0:
35,100,145014,1,2,0:0:0:0:
34,24,145228,1,0,0:0:0:0:
59,10,145443,1,2,0:0:0:0:
91,25,145657,1,0,0:0:0:0:
345,9,146514,5,2,0:0:0:0:
417,70,146728,1,0,0:0:0:0:
347,0,147157,5,0,0:0:0:0:
375,195,147371,1,0,0:0:0:0:
395,177,147800,1,2,0:0:0:0:
298,140,148014,1,0,0:0:0:0:
250,154,148228,1,0,0:0:0:0:
239,181,148443,5,2,0:0:0:0:
304,297,148657,1,0,0:0:0:0:
295,343,148871,1,2,0:0:0:0:
284,359,149086,1,2,0:0:0:0:
134,378,149728,5,2,0:0:0:0:
122,382,150157,1,0,0:0:0:0:
101,379,150371,1,0,0:0:0:0:
74,372,150586,1,0,0:0:0:0:
63,366,150693,2,0,P|51:356|42:342,2,20.9999986438752
43,339,151014,1,2,0:0:0:0:
0,191,151228,5,4,1:0:0:0:
0,191,151443,1,2,0:0:0:0:
0,191,151657,1,0,0:0:0:0:
0,191,152086,1,2,0:0:0:0:
0,191,152301,1,0,0:0:0:0:
0,191,152515,1,0,0:0:0:0:
0,191,152943,1,0,0:0:0:0:
0,191,153158,1,2,0:0:0:0:
0,191,153372,1,0,0:0:0:0:
0,191,153800,1,0,0:0:0:0:
0,191,154015,1,0,0:0:0:0:
0,191,154229,1,0,0:0:0:0:
0,56,154764,5,0,0:0:0:0:
0,56,154979,1,0,0:0:0:0:
0,56,155193,1,0,0:0:0:0:
512,66,156478,1,0,0:0:0:0:
512,66,156693,1,0,0:0:0:0:
512,66,156907,1,0,0:0:0:0:
256,192,157228,12,0,158086,0:0:0:0:
