osu file format v14

[General]
AudioFilename: audio.mp3
AudioLeadIn: 0
PreviewTime: 82533
Countdown: 0
SampleSet: Soft
StackLeniency: 0.4
Mode: 0
LetterboxInBreaks: 0
WidescreenStoryboard: 1
SamplesMatchPlaybackRate: 1

[Editor]
Bookmarks: 14069,27783,41069,54355,55212,62069,67212,68926,82640,109640,110086,123371,123800,137086,137514,151336,157228
DistanceSpacing: 1
BeatDivisor: 4
GridSize: 32
TimelineZoom: 2.5

[Metadata]
Title:pronoun picker sing berdlycore
TitleUnicode:pronoun picker sing berdlycore
Artist:xaev
ArtistUnicode:xaev
Creator:wafer
Version:ha/rd picked by nik, congratulations!!!
Source:
Tags:english edm electronic hyperpop pop hyper dariacore edm glitchpop glitch hardstyle hard style bass rave undertale snitcher Titanium David Guetta Sia, Stay the Night Zedd Hayley Williams, Fuji Opener Skrillex Alvin Risk & Love Yourself Justin Bieber ⁣virgin aspiring VGM musician vs. chad hyperflip producer goopert kami no kotoba nik nikolomara shiny braixen berdlycore chapter 3
BeatmapID:4123127
BeatmapSetID:1961676

[Difficulty]
HPDrainRate:4
CircleSize:3.3
OverallDifficulty:6
ApproachRate:8
SliderMultiplier:1.79999990463257
SliderTickRate:1

[Events]
//Background and Video events
0,0,"jeberdi.jpg",0,0
//Break Periods
2,82840,93462
//Storyboard Layer 0 (Background)
//Storyboard Layer 1 (Fail)
//Storyboard Layer 2 (Pass)
//Storyboard Layer 3 (Foreground)
//Storyboard Layer 4 (Overlay)
//Storyboard Sound Samples
Sample,14069,0,"tornado.wav",85
Sample,27355,0,"fuck.wav",90
Sample,41069,0,"yoshi.wav",90
Sample,54355,0,"SHUT.wav",80
Sample,54783,0,"UP.wav",85
Sample,55640,0,"scoobylaugh.wav",50
Sample,62069,0,"yoda.wav",80
Sample,67212,0,"holy1.wav",100
Sample,67640,0,"holy2.wav",100
Sample,68069,0,"holy3.wav",100
Sample,68497,0,"chaos.wav",65
Sample,68926,0,"cheercutshort.wav",100
Sample,69783,0,"song.wav",55
Sample,110069,0,"naenae.wav",30
Sample,110926,0,"nowwatchme.wav",60
Sample,111569,0,"whip.wav",60
Sample,123371,0,"BOI.wav",90
Sample,137086,0,"HUH.wav",90
Sample,158112,0,"expand.wav",70

[TimingPoints]
355,428.571428571429,4,2,1,40,1,0
355,-125,4,2,1,40,0,0
14069,-125,4,2,2,55,0,0
20926,-125,4,2,2,65,0,0
22212,-125,4,2,2,65,0,0
23069,-125,4,2,2,68,0,0
23926,-125,4,2,2,70,0,0
24355,-125,4,2,2,75,0,0
24408,-125,4,2,1,75,0,0
24783,-125,4,2,2,78,0,0
24837,-125,4,2,1,78,0,0
25212,-125,4,2,2,80,0,0
25265,-125,4,2,1,80,0,0
25640,-125,4,2,2,82,0,0
25694,-125,4,2,1,82,0,0
26069,-125,4,2,2,82,0,0
26926,-125,4,2,1,70,0,0
27783,-100,4,2,3,90,0,0
41497,-100,4,2,3,70,0,0
42355,-100,4,2,3,90,0,0
55212,-100,4,2,4,80,0,0
56069,-83.3333333333333,4,2,4,90,0,0
68497,-83.3333333333333,4,2,2,90,0,0
68926,-83.3333333333333,4,2,4,90,0,0
82640,-83.3333333333333,4,2,5,70,0,0
89497,-83.3333333333333,4,2,5,50,0,0
94212,-83.3333333333333,4,2,5,60,0,0
95497,-83.3333333333333,4,2,5,70,0,0
96355,-125,4,2,2,60,0,0
103212,-125,4,2,2,65,0,0
108783,-125,4,2,2,55,0,0
110086,428.571428571429,4,2,6,95,1,0
110086,-62.5,4,2,6,95,0,0
113675,-62.5,4,2,0,5,0,0
113702,-62.5,4,2,6,95,0,0
113728,-62.5,4,2,0,5,0,0
113755,-62.5,4,2,6,95,0,0
113782,-62.5,4,2,0,5,0,0
113809,-62.5,4,2,6,95,0,0
113836,-62.5,4,2,0,5,0,0
113863,-62.5,4,2,6,95,0,0
115603,-62.5,4,2,1,50,0,0
115764,-62.5,4,2,6,95,0,0
116943,-62.5,4,2,2,95,0,0
116996,-62.5,4,2,6,95,0,0
122005,-62.5,4,2,1,5,0,0
122086,-62.5,4,2,6,95,0,0
122112,-62.5,4,2,1,5,0,0
122139,-62.5,4,2,6,95,0,0
122165,-62.5,4,2,1,5,0,0
122193,-62.5,4,2,6,95,0,0
122219,-62.5,4,2,1,5,0,0
122246,-62.5,4,2,6,95,0,0
122272,-62.5,4,2,1,5,0,0
122300,-62.5,4,2,6,95,0,0
128782,-62.5,4,2,1,5,0,0
128836,-62.5,4,2,6,95,0,0
128889,-62.5,4,2,1,5,0,0
128943,-62.5,4,2,6,95,0,0
128996,-62.5,4,2,1,5,0,0
129050,-62.5,4,2,6,95,0,0
129103,-62.5,4,2,1,5,0,0
129157,-62.5,4,2,6,95,0,0
129317,-62.5,4,2,1,50,0,0
129478,-62.5,4,2,6,95,0,0
130657,-62.5,4,2,2,95,0,0
130710,-62.5,4,2,6,95,0,0
135800,-62.5,4,2,2,95,0,0
136014,-62.5,4,2,6,95,0,0
137086,-62.5,4,2,2,60,0,0
137514,-166.666666666667,4,2,2,60,0,0
149728,-166.666666666667,4,2,2,40,0,0
157336,-166.666666666667,4,2,0,40,0,0
158112,-166.666666666667,4,2,0,5,0,0
158836,-166.666666666667,4,2,0,20,0,0
159264,-166.666666666667,4,2,1,5,0,0

[Colours]
Combo1 : 243,254,107
Combo2 : 98,86,243

[HitObjects]
71,291,355,6,0,L|-2:304,2,71.9999961853028,2|2|2,0:0|0:0|0:0,0:0:0:0:
139,351,997,2,0,B|223:336|177:288|269:279,1,143.999992370606,2|0,0:0|0:0,0:0:0:0:
315,351,1640,2,0,P|429:345|437:190,1,287.999984741211
478,384,3355,5,0,0:0:0:0:
354,283,3783,2,0,P|291:282|238:352,1,143.999992370606,2|0,0:0|0:0,0:0:0:0:
239,363,4426,2,0,P|254:292|225:218,1,143.999992370606,2|0,0:0|0:0,0:0:0:0:
152,204,5069,1,2,0:0:0:0:
0,371,5712,6,0,L|163:342,2,143.999992370606,2|0|2,0:0|0:0|0:0,0:0:0:0:
270,215,7212,5,2,0:0:0:0:
270,215,7426,2,0,P|319:229|377:304,2,143.999992370606,0|2|0,0:0|0:0|0:0,0:0:0:0:
209,289,8497,2,0,B|156:266|94:306|149:352|53:368|53:368|59:342|30:319,1,215.999988555908,4|0,0:0|0:0,0:0:0:0:
0,274,9355,1,10,0:0:0:0:
197,374,9997,5,2,0:0:0:0:
276,384,10212,2,0,P|219:360|191:338,1,71.9999961853028,2|0,0:0|0:0,0:0:0:0:
180,268,10640,6,0,P|167:223|144:169,2,71.9999961853028,2|0|10,3:0|0:0|0:0,0:0:0:0:
270,291,11283,2,0,P|283:246|306:192,2,71.9999961853028,6|2|0,0:0|0:0|0:0,0:0:0:0:
309,374,11926,1,2,0:0:0:0:
495,187,12569,5,0,0:0:0:0:
365,102,12997,1,2,3:0:0:0:
398,172,13212,2,0,P|400:101|429:30,1,143.999992370606,2|0,0:0|1:0,0:0:0:0:
512,300,14069,6,0,B|440:283|440:283|353:315,3,143.999992370606,4|8|10|10,1:0|0:2|0:2|0:2,0:0:0:0:
138,231,15783,2,0,B|72:206|72:206|1:223,3,143.999992370606,8|8|8|10,0:2|0:0|0:0|0:2,0:0:0:0:
266,384,17497,6,0,L|252:237,1,143.999992370606,12|8,0:0|0:0,0:0:0:0:
301,165,18140,1,2,0:0:0:0:
301,165,18355,2,0,L|294:93,1,71.9999961853028,12|0,0:0|0:0,0:0:0:0:
231,34,18783,1,8,0:0:0:0:
231,34,18997,2,0,L|67:48,3,143.999992370606,2|0|2|0,0:0|0:0|0:0|0:0,0:0:0:0:
34,116,20497,1,8,0:0:0:0:
36,262,20926,6,0,B|24:245|24:245|-4:227,2,35.9999980926514,10|0|2,0:0|0:0|0:0,0:0:0:0:
111,218,21355,2,0,B|109:198|109:198|93:167,2,35.9999980926514,10|0|2,0:0|0:0|0:0,0:0:0:0:
197,217,21783,2,0,B|205:199|205:199|207:164,2,35.9999980926514,10|0|2,0:0|0:0|0:0,0:0:0:0:
272,259,22212,2,0,B|288:247|288:247|306:218,2,35.9999980926514,10|0|2,0:0|0:0|0:0,0:0:0:0:
251,365,22640,2,0,B|239:348|239:348|210:330,2,35.9999980926514,10|0|2,0:0|0:0|0:0,0:0:0:0:
326,321,23069,2,0,B|324:301|324:301|308:270,2,35.9999980926514,10|0|2,0:0|0:0|0:0,0:0:0:0:
412,320,23497,2,0,B|420:302|420:302|422:267,2,35.9999980926514,10|0|2,0:0|0:0|0:0,0:0:0:0:
487,362,23926,2,0,B|503:350|503:350|521:321,2,35.9999980926514,10|0|2,0:0|0:0|0:0,0:0:0:0:
256,192,24355,12,8,26069,1:0:0:0:
491,23,27355,5,12,1:0:0:0:
429,288,27783,6,0,P|409:236|419:185,1,89.9999952316285,4|0,1:0|3:0,0:0:0:0:
445,187,28105,1,0,3:0:0:0:
445,187,28212,2,0,B|451:141|451:141|414:83,1,89.9999952316285,8|2,0:0|0:0,0:0:0:0:
261,10,28640,6,0,P|243:67|275:106,1,89.9999952316285,0|2,1:0|0:0,0:0:0:0:
279,110,28962,1,2,0:0:0:0:
309,101,29069,1,8,0:0:0:0:
397,24,29283,1,2,0:1:0:0:
506,86,29497,6,0,B|512:110|512:110|506:135,3,44.9999976158143,4|0|0|0,1:0|3:0|3:0|3:0,0:0:0:0:
472,161,29926,2,0,B|410:161|445:133|365:136,1,89.9999952316285,8|2,0:0|0:0,0:0:0:0:
294,203,30355,1,0,1:0:0:0:
294,203,30462,1,2,0:0:0:0:
294,203,30569,2,2,L|182:190,2,89.9999952316285,2|8|2,0:0|0:0|0:1,0:1:0:0:
426,287,31212,5,4,1:0:0:0:
484,222,31426,1,2,0:1:0:0:
453,136,31640,2,0,P|434:88|432:34,1,89.9999952316285,8|2,0:0|0:1,0:0:0:0:
332,6,32069,5,0,1:0:0:0:
332,6,32176,1,0,3:0:0:0:
332,6,32283,2,0,P|327:50|309:91,2,89.9999952316285,0|8|2,3:0|0:0|0:1,0:0:0:0:
225,37,32926,5,0,1:0:0:0:
207,126,33140,1,0,3:0:0:0:
115,114,33355,2,0,P|96:66|94:12,1,89.9999952316285,8|0,0:0|0:0,0:0:0:0:
22,139,33783,6,0,P|17:183|0:224,1,89.9999952316285,0|4,1:0|3:0,0:0:0:0:
0,249,34105,1,4,3:0:0:0:
22,263,34212,1,8,0:0:0:0:
123,249,34426,1,4,3:0:0:0:
189,330,34640,6,0,P|248:329|370:299,1,179.999990463257,4|8,1:0|0:0,0:0:0:0:
483,349,35283,1,4,3:0:0:0:
483,349,35390,1,4,3:0:0:0:
483,349,35497,2,0,B|483:297|511:313|508:257,1,89.9999952316285,4|0,3:0|3:0,1:1:0:0:
503,168,35926,2,0,L|513:74,1,89.9999952316285,8|2,0:0|0:1,0:0:0:0:
413,1,36355,6,0,B|429:14|429:14|431:40,3,44.9999976158143,0|0|2|0,1:0|3:0|3:0|3:0,0:0:0:0:
420,70,36783,2,0,P|370:81|344:140,1,89.9999952316285,8|0,0:0|3:0,0:0:0:0:
256,46,37212,5,0,1:0:0:0:
256,46,37319,1,0,3:0:0:0:
256,46,37426,2,0,L|166:36,2,89.9999952316285,0|8|2,3:0|0:0|0:1,0:0:0:0:
363,9,38069,5,4,1:0:0:0:
406,92,38283,1,2,0:1:0:0:
350,176,38497,2,0,P|350:219|333:265,1,89.9999952316285,8|2,0:0|0:1,0:0:0:0:
243,258,38926,5,0,1:0:0:0:
243,258,39033,1,0,3:0:0:0:
243,258,39140,2,0,P|258:301|258:345,2,89.9999952316285,0|8|2,3:0|0:0|0:1,0:0:0:0:
134,309,39783,5,0,1:0:0:0:
84,234,39997,1,0,3:0:0:0:
129,158,40212,2,0,P|128:113|113:71,1,89.9999952316285,8|2,0:0|0:0,0:0:0:0:
15,33,40640,5,0,1:0:0:0:
139,164,41069,1,6,3:0:0:0:
308,96,41497,1,2,1:2:0:0:
308,96,42355,5,4,1:0:0:0:
308,96,42462,2,0,B|219:115|257:71|159:84,1,134.999992847443,0|8,3:0|0:0,0:0:0:0:
98,157,42997,1,2,0:0:0:0:
5,108,43212,5,0,1:0:0:0:
5,108,43319,1,0,0:0:0:0:
5,108,43426,2,0,P|11:56|2:9,2,89.9999952316285,2|8|2,0:0|0:0|0:1,0:0:0:0:
30,205,44069,6,0,B|41:223|41:223|35:251,3,44.9999976158143,4|0|0|0,1:0|3:0|3:0|3:0,0:0:0:0:
17,276,44497,2,0,P|71:273|118:326,1,89.9999952316285,8|2,0:0|0:1,0:0:0:0:
172,374,44926,5,4,1:0:0:0:
229,299,45140,1,2,0:1:0:0:
192,209,45355,2,0,P|184:157|168:105,1,89.9999952316285,8|2,0:0|0:1,0:0:0:0:
288,81,45783,5,0,1:0:0:0:
288,81,45890,1,0,3:0:0:0:
288,81,45997,2,0,P|276:124|269:168,2,89.9999952316285,0|8|2,3:0|0:0|0:1,0:0:0:0:
378,21,46640,5,0,1:0:0:0:
423,107,46855,1,0,3:0:0:0:
368,189,47069,2,0,P|379:232|386:276,1,89.9999952316285,8|0,0:0|0:0,0:0:0:0:
485,240,47497,6,0,P|491:195|503:152,1,89.9999952316285,0|4,1:0|3:0,0:0:0:0:
512,122,47819,1,4,3:0:0:0:
505,90,47926,1,8,0:0:0:0:
400,38,48140,1,4,3:0:0:0:
297,105,48355,6,0,P|177:83|111:49,1,179.999990463257,4|0,1:0|0:0,0:0:0:0:
19,14,48997,1,4,3:0:0:0:
19,14,49105,1,4,3:0:0:0:
19,14,49212,2,0,B|23:72|-10:46|-6:132,1,89.9999952316285,4|0,3:0|3:0,1:1:0:0:
31,191,49640,2,0,L|21:287,1,89.9999952316285,8|2,0:0|0:1,0:0:0:0:
119,375,50069,6,0,B|131:356|131:356|132:329,3,44.9999976158143,0|0|0|0,1:0|3:0|3:0|3:0,0:0:0:0:
146,301,50497,2,0,P|192:294|221:362,1,89.9999952316285,8|0,0:0|3:0,0:0:0:0:
334,356,50926,1,0,1:0:0:0:
334,356,51033,1,0,0:0:0:0:
334,356,51140,2,0,L|442:345,2,89.9999952316285,0|8|2,3:0|0:0|0:1,0:0:0:0:
220,367,51783,5,4,1:0:0:0:
167,289,51997,1,2,0:1:0:0:
223,208,52212,2,0,P|230:155|248:113,1,89.9999952316285,8|2,0:0|0:1,0:0:0:0:
119,70,52640,1,0,1:0:0:0:
119,70,52747,1,0,3:0:0:0:
119,70,52855,2,0,P|134:112|139:156,2,89.9999952316285,0|8|2,3:0|0:0|0:1,0:0:0:0:
0,32,53497,5,0,1:0:0:0:
49,138,53712,1,2,0:0:0:0:
49,138,53819,1,2,0:0:0:0:
49,138,53926,2,0,P|42:191|24:233,1,89.9999952316285,2|2,0:0|0:0,0:0:0:0:
0,14,55212,5,4,1:0:0:0:
211,106,55640,1,2,3:0:0:0:
42,170,56069,6,0,B|6:198|6:198|50:81,1,161.999986473084,0|0,1:0|0:0,0:0:0:0:
62,79,56497,2,0,L|183:60,1,107.999990982056,0|0,1:0|0:0,0:0:0:0:
298,148,56926,2,0,L|476:175,1,161.999986473084,0|0,1:0|0:0,0:0:0:0:
488,155,57355,2,0,L|465:41,1,107.999990982056,0|2,1:0|3:0,0:0:0:0:
329,17,57783,6,0,B|280:3|280:3|317:78,1,107.999990982056,0|0,1:0|0:0,0:0:0:0:
377,197,58212,1,0,1:0:0:0:
377,197,58319,1,0,1:0:0:0:
377,197,58426,1,0,1:0:0:0:
482,303,58640,6,0,B|526:288|526:288|405:389,1,161.999986473084,0|0,1:0|0:0,0:0:0:0:
404,364,59069,2,0,L|275:342,1,107.999990982056,0|0,1:0|0:0,0:0:0:0:
195,262,59497,2,0,L|18:292,1,161.999986473084,0|0,1:0|3:0,3:0:0:0:
19,304,59926,2,0,B|12:349|12:349|64:302,1,107.999990982056,0|2,1:0|0:1,0:0:0:0:
69,168,60355,6,0,L|46:50,1,107.999990982056,0|0,1:0|0:0,0:0:0:0:
189,3,60783,2,0,L|166:121,1,107.999990982056,0|2,1:0|3:0,0:0:0:0:
309,172,61212,2,0,L|286:54,1,107.999990982056,0|0,1:0|0:0,0:0:0:0:
280,31,61533,1,0,1:0:0:0:
280,31,61640,1,0,1:0:0:0:
182,111,61855,1,0,1:0:0:0:
64,65,62069,1,2,0:3:0:0:
210,236,62497,5,2,1:0:0:0:
210,236,62605,1,0,3:0:0:0:
210,236,62712,1,2,0:1:0:0:
119,347,62926,2,0,B|3:379|3:379|16:319,1,161.999986473084,0|0,1:0|0:0,0:0:0:0:
17,320,63355,2,0,L|42:210,1,107.999990982056,0|0,1:0|0:0,0:0:0:0:
92,59,63783,2,0,L|273:101,1,161.999986473084,0|0,1:0|0:0,0:0:0:0:
271,93,64212,2,0,B|318:76|318:76|241:57,1,107.999990982056,0|2,1:0|3:0,0:0:0:0:
162,202,64640,6,0,L|186:307,1,107.999990982056,0|2,1:0|0:0,0:0:0:0:
307,369,65069,1,0,1:0:0:0:
307,369,65176,1,0,1:0:0:0:
307,369,65283,1,0,1:0:0:0:
393,283,65497,1,0,1:0:0:0:
205,384,66140,5,0,1:0:0:0:
319,361,66355,2,0,B|346:306|346:306|287:201,1,161.999986473084,0|0,1:0|0:0,0:0:0:0:
279,216,66783,2,0,L|152:239,1,107.999990982056,0|2,1:0|0:1,0:0:0:0:
43,339,67212,2,0,L|248:376,1,161.999986473084,2|0,1:0|0:0,0:1:0:0:
220,361,67640,2,0,B|259:339|259:339|186:339,1,107.999990982056,2|2,1:0|3:0,1:0:0:0:
75,377,68069,5,2,1:0:0:0:
220,297,68497,1,12,0:0:0:0:
392,368,68926,5,4,1:0:0:0:
222,273,69355,1,2,3:0:0:0:
222,273,69463,1,2,3:0:0:0:
222,273,69570,1,2,3:0:0:0:
45,370,69783,6,0,P|29:317|17:243,1,107.999990982056,0|0,1:0|0:0,0:0:0:0:
140,201,70212,2,0,P|130:254|114:305,1,107.999990982056,0|0,1:0|0:0,0:0:0:0:
216,384,70640,2,2,B|255:373|255:373|285:343|285:343|334:333,1,107.999990982056,0|0,1:2|0:0,0:1:0:0:
443,371,71069,2,0,B|497:355|497:355|516:270,1,107.999990982056,2|2,1:2|3:0,0:0:0:0:
440,210,71497,2,0,L|321:218,1,107.999990982056,2|0,1:2|0:0,0:0:0:0:
229,274,71926,1,0,1:0:0:0:
229,274,72033,1,0,1:0:0:0:
229,274,72140,1,0,1:0:0:0:
136,188,72355,6,0,P|141:118|153:57,1,107.999990982056,0|0,1:0|0:0,0:0:0:0:
39,25,72783,2,0,P|47:78|50:132,1,107.999990982056,0|0,1:0|0:0,0:0:0:0:
0,249,73212,2,0,B|11:310|11:310|45:245,1,107.999990982056,0|2,1:0|0:0,0:0:0:0:
148,199,73640,2,0,L|262:184,1,107.999990982056,0|0,1:1|0:0,0:1:0:0:
357,246,74069,2,0,B|392:241|392:241|419:209|419:209|454:205,1,107.999990982056,0|0,1:1|0:0,0:1:0:0:
512,109,74497,2,0,B|523:57|523:57|490:4,1,107.999990982056,0|2,1:0|3:0,0:0:0:0:
382,48,74926,2,0,L|276:64,1,107.999990982056,0|0,1:0|0:0,0:0:0:0:
242,82,75247,1,0,1:0:0:0:
242,82,75355,2,0,B|224:107|224:107|325:94,1,107.999990982056,0|0,1:0|1:0,0:0:0:0:
393,21,75783,1,2,0:1:0:0:
244,384,76640,6,0,L|237:260,1,107.999990982056,0|0,1:0|0:0,0:0:0:0:
319,191,77069,1,0,1:0:0:0:
319,191,77176,1,0,3:0:0:0:
319,191,77283,1,0,3:0:0:0:
429,226,77497,2,2,B|463:220|463:220|496:129,1,107.999990982056,2|0,1:2|0:0,0:1:0:0:
460,32,77926,2,0,L|320:51,1,107.999990982056,2|2,1:2|3:0,0:0:0:0:
257,104,78355,2,0,B|192:83|192:83|276:88,1,107.999990982056,2|0,1:2|0:0,0:0:0:0:
390,141,78783,1,0,1:0:0:0:
390,141,78890,1,0,1:0:0:0:
390,141,78997,1,0,1:0:0:0:
336,269,79212,6,0,B|295:232|295:232|230:252,1,107.999990982056,2|0,1:2|0:0,0:0:0:0:
156,344,79640,2,0,B|61:360|61:360|57:328,1,107.999990982056,0|0,1:0|0:0,0:0:0:0:
99,240,80069,2,0,L|106:91,1,107.999990982056,0|2,1:0|0:0,0:0:0:0:
19,31,80497,2,0,B|-8:4|-8:4|18:94,1,107.999990982056,2|0,1:2|0:0,0:1:0:0:
122,152,80926,2,0,B|166:147|166:147|197:117|197:117|254:105,1,107.999990982056,0|0,1:1|0:1,0:1:0:0:
248,128,81247,1,0,1:0:0:0:
248,128,81355,2,0,L|356:116,1,107.999990982056,0|0,1:0|0:0,0:0:0:0:
437,26,81783,1,0,1:0:0:0:
251,33,82212,1,14,0:0:0:0:
189,207,82640,1,4,1:2:0:0:
256,192,94212,12,4,95926,0:3:0:0:
141,264,96355,6,0,B|88:222|88:222|14:238,3,143.999992370606,4|10|8|8,1:0|0:1|0:0|0:0,0:0:0:0:
376,354,98069,6,0,B|429:311|429:311|503:327,3,143.999992370606,8|10|8|10,0:0|0:0|0:0|0:1,0:0:0:0:
247,378,99783,6,0,L|274:220,1,143.999992370606,10|8,0:0|0:0,0:0:0:0:
220,154,100426,2,0,P|151:161|148:294,1,215.999988555908,2|8,0:0|0:0,0:0:0:0:
220,344,101283,2,0,B|360:289|250:276|401:215,1,215.999988555908,2|10,0:0|0:1,0:0:0:0:
482,253,102140,2,0,P|513:165|491:30,1,215.999988555908,0|10,1:0|0:1,0:0:0:0:
483,152,103212,6,0,B|494:135|494:135|523:117,2,35.9999980926514,10|0|2,0:0|0:0|0:0,0:0:0:0:
408,108,103641,2,0,B|409:88|409:88|425:57,2,35.9999980926514,10|0|2,0:0|0:0|0:0,0:0:0:0:
322,107,104069,2,0,B|313:89|313:89|311:54,2,35.9999980926514,10|0|2,0:0|0:0|0:0,0:0:0:0:
247,149,104498,2,0,B|230:137|230:137|212:108,2,35.9999980926514,10|0|2,0:0|0:0|0:0,0:0:0:0:
268,255,104926,2,0,B|279:238|279:238|308:220,2,35.9999980926514,10|0|2,0:0|0:0|0:0,0:0:0:0:
193,211,105355,2,0,B|194:191|194:191|210:160,2,35.9999980926514,10|0|2,0:0|0:0|0:0,0:0:0:0:
107,210,105783,2,0,B|98:192|98:192|96:157,2,35.9999980926514,10|0|2,0:0|0:0|0:0,0:0:0:0:
32,252,106212,2,0,B|15:240|15:240|-2:211,2,35.9999980926514,10|0|2,0:0|0:0|0:0,0:0:0:0:
256,192,106640,12,12,108355,1:2:0:0:
303,85,109640,5,2,3:2:0:0:
166,202,110086,2,0,B|103:197|103:197|108:190|108:190|34:212|34:212|-1:157|-1:157|-11:158|-11:158|16:43|16:43|83:26|83:26|62:46|62:46|74:69,1,431.999977111817,4|0,1:0|3:0,0:0:0:0:
119,113,110943,1,4,3:0:0:0:
63,190,111157,2,0,B|31:265|31:265|21:194,1,143.999992370606
0,66,111586,6,0,B|-26:65|-26:65|112:26,1,143.999992370606,0|0,1:0|0:0,0:0:0:0:
86,4,111907,2,0,B|106:-5|106:-5|80:95,1,71.9999961853028
119,136,112228,2,0,B|103:259|103:259|104:257|104:257|91:353,1,215.999988555908,0|4,1:0|3:0,0:0:0:0:
109,362,112657,2,0,B|182:381|182:381|96:312,2,143.999992370606,8|2|2,3:0|0:0|0:0,0:0:0:0:
78,254,113300,1,2,0:0:0:0:
6,330,113514,6,2,B|84:312|84:312|119:279|119:279|212:259,1,215.999988555908,0|0,1:0|0:0,1:0:0:0:
230,246,113943,2,0,B|291:215|291:215|245:285,1,143.999992370606,2|2,0:0|0:0,0:0:0:0:
180,361,114371,1,4,3:0:0:0:
69,295,114586,2,0,L|42:138,1,143.999992370606,0|2,0:0|0:3,0:0:0:0:
127,37,115014,6,0,P|53:27|48:182,1,251.99998664856,0|2,1:0|0:0,0:0:0:0:
143,221,115657,2,0,B|238:210|184:177|282:167,1,143.999992370606,0|0,1:0|0:0,0:0:0:0:
320,84,116086,1,8,3:0:0:0:
255,285,116514,1,0,1:0:0:0:
459,384,116943,6,0,B|497:361|497:361|514:363|514:363|483:247|483:247|507:134|507:134|504:141|504:141|411:117|411:117|442:145,1,431.999977111817,4|0,1:0|0:0,0:0:0:0:
428,19,117800,1,2,1:0:0:0:
321,52,118014,2,0,B|239:65|239:65|224:133,1,143.999992370606
178,212,118443,6,0,B|152:231|152:231|179:115,1,143.999992370606,4|0,3:0|0:0,0:0:0:0:
156,122,118764,2,0,B|145:148|145:148|212:128,1,71.9999961853028
278,206,119086,2,0,B|345:199|345:199|355:203|355:203|495:186,1,215.999988555908,0|4,1:0|3:0,0:0:0:0:
512,167,119514,2,0,B|536:88|536:88|469:141,2,143.999992370606,8|2|2,3:0|0:0|0:0,0:0:0:0:
410,233,120157,5,6,3:0:0:0:
302,170,120371,2,0,L|120:150,1,143.999992370606,4|4,3:0|3:0,0:0:0:0:
132,185,120693,1,2,0:0:0:0:
132,185,120800,2,0,B|13:198|13:198|4:122,1,143.999992370606,2|0,0:1|0:0,0:0:0:0:
39,76,121228,2,0,B|63:19|63:19|64:114,2,143.999992370606,2|2|2,1:0|0:0|0:0,0:0:0:0:
1,210,121871,6,0,B|44:207|44:207|48:210|48:210|96:207|96:207|100:210|100:210|150:208|150:208|156:212|156:212|188:210|188:210|199:213|199:213|240:213|240:213|247:217|247:217|289:213,1,287.999984741211,4|4,3:0|3:0,0:0:0:0:
302,196,122407,2,0,B|307:156|307:156|303:145|303:145|306:92|306:92|292:87|292:87|205:111|205:111|191:94|191:94|121:83,1,287.999984741211,2|0,0:1|0:0,0:0:0:0:
107,67,122943,1,8,3:0:0:0:
17,220,123371,6,2,B|34:142|34:142|-6:78,1,143.999992370606,2|2,0:1|0:0,0:0:0:0:
109,240,123800,6,0,B|211:222|211:222|215:225|215:225|283:167|283:167|287:169|287:169|259:20|259:20|248:24|248:24|217:17|217:17|177:44,1,431.999977111817,4|0,1:0|0:0,0:0:0:0:
112,122,124657,1,4,3:0:0:0:
0,104,124871,2,0,B|-5:11|-5:11|40:119,1,143.999992370606,0|0,0:0|3:0,0:0:0:0:
5,211,125300,6,0,B|22:321|22:321|39:240,1,143.999992370606,0|0,1:0|0:0,0:0:0:0:
45,325,125621,2,0,B|75:332|75:332|38:290,1,71.9999961853028,0|2,0:0|0:1,0:0:0:0:
133,248,125943,2,0,B|217:258|217:258|247:281|247:281|396:301,1,215.999988555908,4|4,3:0|3:0,0:0:0:0:
359,311,126371,2,0,B|418:315|418:315|322:245,2,143.999992370606,8|2|2,3:0|0:0|0:0,0:0:0:0:
265,298,127014,1,2,0:0:0:0:
316,384,127228,6,0,L|284:108,1,215.999988555908,0|0,1:0|0:0,0:0:0:0:
293,139,127657,2,0,B|368:95|368:95|338:174,1,143.999992370606,2|2,0:1|0:0,0:0:0:0:
265,258,128086,2,0,B|176:289|176:289|80:225,2,143.999992370606,4|0|2,3:0|0:0|0:3,0:0:0:0:
375,330,128728,6,2,B|448:336|448:336|472:108,1,287.999984741211,0|2,1:0|0:0,0:1:0:0:
461,13,129371,2,0,B|519:22|519:22|312:57,1,215.999988555908,4|0,3:0|0:0,0:0:0:0:
319,27,129800,1,8,3:0:0:0:
146,116,130228,2,2,P|44:85|83:0,1,215.999988555908,2|0,1:0|0:0,0:1:0:0:
108,6,130657,6,0,B|84:130|84:130|80:134|80:134|62:234|62:234|64:244|64:244|35:348|35:348|154:313,1,431.999977111817,4|0,1:0|0:0,0:0:0:0:
214,364,131514,1,2,1:0:0:0:
287,288,131728,2,0,L|257:147,1,143.999992370606
141,70,132157,6,0,B|-1:37|-1:37|137:124,1,287.999984741211,4|0,3:0|0:0,0:0:0:0:
268,160,132800,2,0,B|379:157|379:157|491:101,1,215.999988555908,4|4,3:0|3:0,0:0:0:0:
488,83,133228,2,0,B|497:6|497:6|447:122,2,143.999992370606,8|2|2,3:0|0:0|0:0,0:0:0:0:
512,177,133871,1,6,3:3:0:0:
444,231,134086,5,4,3:0:0:0:
444,231,134193,1,4,3:0:0:0:
444,231,134300,2,0,L|325:205,1,71.9999961853028,0|0,1:0|1:0,1:0:0:0:
342,222,134514,2,0,B|314:215|314:215|297:79,1,143.999992370606,2|2,0:1|0:1,0:0:0:0:
391,16,134943,2,0,B|472:12|472:12|366:57,2,143.999992370606,2|0|0,1:0|0:0|0:0,0:0:0:0:
302,99,135586,6,0,B|203:81|203:81|185:63|185:63|112:52,1,143.999992370606,2|4,1:0|1:0,0:0:0:0:
139,25,135907,1,0,0:0:0:0:
139,25,136014,2,0,B|30:39|30:39|59:70,1,143.999992370606,4|0,3:0|1:0,0:0:0:0:
67,97,136336,2,0,B|32:344,1,215.999988555908,4|8,3:0|3:0,0:0:0:0:
7,148,137086,1,12,0:0:0:0:
124,40,137514,6,0,P|111:167|44:293,1,269.99997745514,4|0,1:0|0:0,0:0:0:0:
0,374,138800,2,0,B|118:390|67:322|212:335,2,215.999981964112,2|0|0,0:0|0:0|0:0,0:0:0:0:
153,383,140943,6,0,P|176:315|182:266,1,107.999990982056,2|0,0:0|0:0,0:0:0:0:
238,221,141586,2,0,P|228:167|209:117,1,107.999990982056,0|2,0:0|0:0,0:0:0:0:
135,60,142228,2,0,P|63:72|39:170,1,161.999986473084,2|2,0:0|0:0,0:0:0:0:
175,163,143300,1,2,0:0:0:0:
219,15,143728,1,2,0:0:0:0:
509,217,144371,5,4,0:0:0:0:
440,168,144586,2,0,P|382:191|318:209,1,107.999990982056,0|2,0:0|0:0,0:0:0:0:
178,86,145443,1,2,0:0:0:0:
115,26,145658,2,0,P|57:136|68:235,1,215.999981964112,0|2,0:0|0:0,0:0:0:0:
191,347,147157,1,0,0:0:0:0:
267,286,147371,2,0,L|320:293,1,53.999995491028
384,348,147800,6,0,L|452:339,2,53.999995491028,2|0|0,0:0|0:0|0:0,0:0:0:0:
315,283,148443,2,0,L|262:291,2,53.999995491028,2|0|2,0:0|0:0|0:0,0:0:0:0:
367,198,149086,1,2,0:0:0:0:
256,192,149514,12,4,151228,1:0:0:0:
