osu file format v14

[General]
AudioFilename: audio.mp3
AudioLeadIn: 0
PreviewTime: 66450
Countdown: 0
SampleSet: Soft
StackLeniency: 0.7
Mode: 0
LetterboxInBreaks: 0
WidescreenStoryboard: 1

[Editor]
Bookmarks: 22488,29873,44642,52027,59411,63104,74181,81508,87046,88027,88950
DistanceSpacing: 1.4
BeatDivisor: 8
GridSize: 32
TimelineZoom: 2.2

[Metadata]
Title:its always a good time
TitleUnicode:its always a good time
Artist:xaev
ArtistUnicode:xaev
Creator:dakiwii
Version:insane
Source:
Tags:electronic english edm glitchcore glitch core hyper pop hyperpop dariacore daria mashup electro house dance music hyperflip flip plunderphonics berdlycore chapter 1 party in the U.S.A USA Miley Cyrus owl city carly rae jepsen all we know the chainsmokers phoebe ryan deltarune
BeatmapID:4332595
BeatmapSetID:2070047

[Difficulty]
HPDrainRate:5
CircleSize:3.9
OverallDifficulty:8
ApproachRate:8.8
SliderMultiplier:2.49999990463257
SliderTickRate:1

[Events]
//Background and Video events
0,0,"xaMIvuorPgfCqjlhWPZ79qqn.jpg",0,0
//Break Periods
2,88303,92445
//Storyboard Layer 0 (Background)
//Storyboard Layer 1 (Fail)
//Storyboard Layer 2 (Pass)
//Storyboard Layer 3 (Foreground)
//Storyboard Layer 4 (Overlay)
//Storyboard Sound Samples

[TimingPoints]
335,461.538461538462,4,2,0,59,1,0
335,-125,4,2,0,59,0,0
5642,-90.9090909090909,4,2,0,59,0,0
6046,-90.9090909090909,4,2,0,5,0,0
6104,-125,4,2,0,59,0,0
7719,-111.111111111111,4,2,0,69,0,0
14642,-76.9230769230769,4,2,0,69,0,0
15046,-76.9230769230769,4,2,0,5,0,0
15104,-133.333333333333,4,2,0,79,0,0
15335,-90.9090909090909,4,2,0,79,0,0
15565,-90.9090909090909,4,2,0,79,0,0
16027,-76.9230769230769,4,2,0,79,0,0
16488,-83.3333333333333,4,2,0,79,0,0
16719,-76.9230769230769,4,2,0,79,0,0
17873,-83.3333333333333,4,2,0,79,0,0
18565,-111.111111111111,4,2,0,79,0,0
18795,-133.333333333333,4,2,0,79,0,0
19026,-100,4,2,0,79,0,0
19256,-90.9090909090909,4,2,0,79,0,0
19718,-76.9230769230769,4,2,0,79,0,0
20179,-83.3333333333333,4,2,0,79,0,0
20410,-76.9230769230769,4,2,0,79,0,0
21564,-83.3333333333333,4,2,0,79,0,0
22256,-111.111111111111,4,2,0,79,0,0
22486,-133.333333333333,4,2,0,79,0,0
22719,-90.9090909090909,4,2,0,79,0,0
22947,-90.9090909090909,4,2,0,79,0,0
23409,-76.9230769230769,4,2,0,79,0,0
23870,-83.3333333333333,4,2,0,79,0,0
24101,-76.9230769230769,4,2,0,79,0,0
25255,-83.3333333333333,4,2,0,79,0,0
25947,-100,4,2,0,79,0,0
26181,-76.9230769230769,4,2,0,79,0,0
28142,-90.9090909090909,4,2,0,79,0,0
28488,-100,4,2,0,79,0,0
28835,-250,4,2,0,79,0,0
29181,-100,4,2,0,79,0,0
29238,-100,4,2,0,5,0,0
29296,-100,4,2,0,79,0,0
29354,-100,4,2,0,5,0,0
29411,-100,4,2,0,79,0,0
29469,-100,4,2,0,5,0,0
29527,-100,4,2,0,79,0,0
29585,-100,4,2,0,5,0,0
29642,-200,4,2,0,79,0,0
29815,-200,4,2,0,5,0,0
29871,-133.333333333333,4,2,0,79,0,0
30102,-83.3333333333333,4,2,0,79,0,0
30332,-83.3333333333333,4,2,0,79,0,0
30563,-100,4,2,0,79,0,0
30794,-71.4285714285714,4,2,0,79,0,0
31255,-76.9230769230769,4,2,0,79,0,0
31486,-71.4285714285714,4,2,0,79,0,0
32640,-76.9230769230769,4,2,0,79,0,0
33332,-100,4,2,0,79,0,0
33562,-133.333333333333,4,2,0,79,0,0
33793,-90.9090909090909,4,2,0,79,0,0
34023,-83.3333333333333,4,2,0,79,0,0
34254,-100,4,2,0,79,0,0
34485,-71.4285714285714,4,2,0,79,0,0
34946,-76.9230769230769,4,2,0,79,0,0
35177,-71.4285714285714,4,2,0,79,0,0
36331,-76.9230769230769,4,2,0,79,0,0
37023,-100,4,2,0,79,0,0
37253,-133.333333333333,4,2,0,79,0,0
37486,-83.3333333333333,4,2,0,79,0,0
37714,-83.3333333333333,4,2,0,79,0,0
37945,-100,4,2,0,79,0,0
38176,-71.4285714285714,4,2,0,79,0,0
38637,-76.9230769230769,4,2,0,79,0,0
38868,-71.4285714285714,4,2,0,79,0,0
40022,-76.9230769230769,4,2,0,79,0,0
40714,-100,4,2,0,79,0,0
40948,-76.9230769230769,4,2,0,79,0,0
41238,-76.9230769230769,4,2,0,5,0,0
41296,-76.9230769230769,4,2,0,79,0,0
42796,-125,4,2,0,79,0,0
44585,-125,4,2,0,5,0,0
44642,-133.333333333333,4,2,0,69,0,0
52027,-117.647058823529,4,2,0,69,0,0
57565,-133.333333333333,4,2,0,69,0,0
57950,-100,4,2,0,69,0,0
58181,-100,4,2,0,5,0,0
58258,-100,4,2,0,69,0,0
58758,-100,4,2,0,5,0,0
58835,-100,4,2,0,69,0,0
59123,-100,4,2,0,5,0,0
59181,-100,4,2,0,69,0,0
59411,-83.3333333333333,4,2,0,79,0,0
66508,-83.3333333333333,4,2,0,5,0,0
66565,-83.3333333333333,4,2,0,79,0,0
67258,-71.4285714285714,4,2,0,79,0,0
67488,-83.3333333333333,4,2,0,79,0,0
68181,-71.4285714285714,4,2,0,79,0,0
68411,-83.3333333333333,4,2,0,79,0,0
69104,-71.4285714285714,4,2,0,79,0,0
69277,-71.4285714285714,4,2,0,5,0,0
69335,-83.3333333333333,4,2,0,79,0,0
70027,-71.4285714285714,4,2,0,79,0,0
70200,-71.4285714285714,4,2,0,5,0,0
70258,-83.3333333333333,4,2,0,79,0,0
70950,-71.4285714285714,4,2,0,79,0,0
71181,-83.3333333333333,4,2,0,79,0,0
71873,-71.4285714285714,4,2,0,79,0,0
72104,-83.3333333333333,4,2,0,79,0,0
72796,-71.4285714285714,4,2,0,79,0,0
72969,-71.4285714285714,4,2,0,5,0,0
73027,-83.3333333333333,4,2,0,79,0,0
73258,-133.333333333333,4,2,0,79,0,0
74181,-76.9230769230769,4,2,0,79,0,0
80815,-76.9230769230769,4,2,0,5,0,0
80844,-76.9230769230769,4,2,0,79,0,0
81508,-76.9230769230769,4,2,0,5,0,0
81565,-76.9230769230769,4,2,0,69,0,0
88104,-76.9230769230769,4,2,0,5,0,0
88142,-76.9230769230769,4,2,0,5,0,0
88258,-76.9230769230769,4,2,0,69,0,0
93104,-100,4,2,0,69,0,0
94258,-100,4,2,0,64,0,0

[Colours]
Combo1 : 255,255,255
Combo2 : 57,189,213

[HitObjects]
0,266,335,6,0,B|103:294,1,99.9999961853028,2|2,0:0|0:0,0:0:0:0:
132,277,681,1,2,0:0:0:0:
149,297,796,1,2,3:3:0:0:
271,291,1027,1,2,0:0:0:0:
193,382,1258,2,0,B|252:273|205:301|245:223,1,149.999994277954,2|2,3:0|3:0,0:0:0:0:
237,241,1835,1,2,0:0:0:0:
268,214,1950,1,2,0:0:0:0:
316,220,2065,1,2,0:0:0:0:
352,208,2181,6,0,P|384:224|447:258,1,99.9999961853028,2|0,3:0|0:0,0:0:0:0:
440,254,2527,1,2,0:0:0:0:
482,191,2642,2,0,P|518:153|497:92,1,99.9999961853028,2|0,3:0|0:0,0:0:0:0:
352,208,2988,2,0,B|247:229|180:93|255:173|186:67|115:108,1,249.999990463257,2|2,3:0|0:0,0:0:0:0:
142,99,3911,5,2,3:0:0:0:
175,65,4027,1,2,0:0:0:0:
220,58,4142,1,2,3:0:0:0:
258,77,4258,2,0,L|303:57,1,49.9999980926514,2|2,0:0|0:0,0:0:0:0:
398,71,4488,2,0,B|368:90|378:113|320:151,1,99.9999961853028,2|0,3:0|0:0,0:0:0:0:
330,143,4950,1,2,3:0:0:0:
313,132,5065,1,2,3:0:0:0:
356,228,5296,2,0,B|424:257|405:267|456:282,1,99.9999961853028,2|0,3:0|0:0,0:0:0:0:
451,294,5642,6,0,B|388:291|311:320|311:320|385:273|395:241,1,240.624998164177,2|0,3:2|0:0,0:0:0:0:
402,248,6104,6,2,L|379:177,1,49.9999980926514,2|2,3:0|0:0,0:0:0:0:
447,139,6335,2,2,L|464:189,1,49.9999980926514,2|2,3:0|0:0,0:0:0:0:
491,268,6565,1,2,0:0:0:0:
404,352,6796,2,0,B|277:329|329:281|220:260,1,199.999992370606,2|2,3:0|3:0,0:0:0:0:
232,264,7719,6,0,B|179:278|202:298|113:317,1,112.499992275238,6|0,0:2|0:0,0:0:0:0:
132,313,8065,1,2,3:0:0:0:
57,263,8181,2,0,B|37:374,1,112.499992275238,8|0,0:0|0:0,0:0:0:0:
37,374,8527,1,2,3:0:0:0:
138,320,8642,2,0,B|182:326|187:364|257:358,1,112.499992275238,2|2,3:0|3:0,0:0:0:0:
241,358,8988,1,2,3:0:0:0:
333,280,9104,6,0,L|347:217,1,56.2499961376192,8|0,0:0|0:0,0:0:0:0:
200,128,9335,2,0,L|210:186,1,56.2499961376192,2|0,3:2|0:0,0:0:0:0:
300,141,9565,2,0,L|335:12,1,112.499992275238,2|0,3:0|3:0,3:0:0:0:
209,183,10027,5,8,0:0:0:0:
244,201,10142,1,2,3:0:0:0:
297,191,10258,1,2,0:0:0:0:
318,150,10373,1,2,3:0:0:0:
319,98,10488,2,0,P|303:53|281:37,1,56.2499961376192,2|2,3:0|0:3,0:0:0:0:
203,0,10719,2,0,P|180:20|177:77,1,56.2499961376192,2|2,3:2|0:3,0:0:0:0:
240,114,10950,1,8,0:0:0:0:
240,114,11181,1,2,3:3:0:0:
108,108,11411,5,2,3:0:0:0:
108,108,11527,2,0,P|102:156|140:219,1,112.499992275238,2|2,3:0|3:0,0:0:0:0:
133,365,11873,2,0,P|168:339|182:241,1,112.499992275238,10|2,0:0|0:0,0:0:0:0:
189,275,12335,2,0,B|268:299|233:303|299:325,1,112.499992275238,2|0,3:0|0:0,0:0:0:0:
319,250,12681,2,0,B|417:268|383:285|487:312,1,168.749988412858,2|2,3:0|3:0,0:0:0:0:
476,309,13258,5,2,3:0:0:0:
512,280,13373,1,2,3:0:0:0:
512,237,13488,1,10,0:0:0:0:
484,196,13604,1,2,3:0:0:0:
442,184,13719,2,0,P|421:187|360:216,1,56.2499961376192,8|0,0:0|0:0,0:0:0:0:
464,109,13950,1,10,0:0:0:0:
356,0,14181,5,2,3:0:0:0:
342,10,14296,1,2,3:0:0:0:
345,24,14411,1,2,3:0:0:0:
337,35,14527,1,2,3:0:0:0:
266,90,14642,6,2,B|214:91|142:8|142:8|182:54|172:106,1,243.749979543687,10|0,0:1|0:0,0:1:0:0:
209,191,15104,5,4,3:0:0:0:
3,66,15335,2,0,L|31:-11,1,68.7499994754792,2|0,3:3|0:0,0:0:0:0:
147,110,15565,2,0,L|121:182,1,68.7499994754792,10|0,1:2|0:0,0:0:0:0:
28,271,15796,2,0,L|17:199,1,68.7499994754792,2|2,3:3|3:0,0:0:0:0:
157,119,16027,2,0,B|238:149|224:184|305:206,1,162.499986362458,4|2,3:0|3:3,0:0:0:0:
294,202,16373,1,2,3:3:0:0:
367,159,16488,2,0,P|387:124|387:85,1,74.9999948501589,10|0,3:2|3:0,0:0:0:0:
176,29,16719,6,0,B|221:37|221:37|267:20|267:20|339:41,1,162.499986362458,10|4,1:1|3:0,0:0:0:0:
436,12,17065,6,0,B|410:64|410:64|456:125|456:125|453:166,1,162.499986362458,10|0,1:0|0:0,0:0:0:0:
505,213,17411,2,0,P|492:250|426:268,1,81.249993181229,10|2,1:2|3:3,0:0:0:0:
372,229,17642,1,10,0:2:0:0:
458,356,17873,1,4,3:0:0:0:
423,337,17988,2,0,B|248:370,1,149.999989700318,10|0,2:1|0:0,0:0:0:0:
209,322,18335,1,10,1:2:0:0:
306,160,18565,2,4,L|320:123,3,28.1249980688096,4|4|4|4,3:0|3:0|3:0|3:0,0:0:0:0:
277,184,18796,5,4,3:0:0:0:
200,121,19027,2,0,P|167:130|133:148,1,62.4999976158143,2|0,3:3|0:0,0:0:0:0:
80,278,19258,2,0,P|99:256|115:211,1,68.7499994754792,10|0,1:2|0:0,0:0:0:0:
62,141,19488,2,0,P|34:159|18:200,1,68.7499994754792,2|2,3:3|3:0,0:0:0:0:
197,209,19719,2,0,B|224:205|245:173|271:190|271:190|290:120|345:123,1,162.499986362458,4|2,3:0|3:3,0:0:0:0:
318,127,20065,1,2,3:3:0:0:
389,185,20180,2,0,L|367:265,1,74.9999948501589,10|0,1:2|0:0,0:0:0:0:
230,225,20411,6,0,B|256:290|256:290|305:315|305:315|337:363,1,162.499986362458,10|4,1:1|3:0,0:0:0:0:
406,384,20758,6,0,B|435:351|435:351|439:271|439:271|484:237,1,162.499986362458,10|4,1:1|3:0,0:0:0:0:
512,177,21104,2,0,L|482:101,1,81.249993181229,10|2,1:2|3:0,0:0:0:0:
409,189,21334,1,10,0:2:0:0:
296,42,21565,1,4,3:0:0:0:
322,19,21680,2,2,P|392:39|392:137,1,149.999989700318,10|0,2:1|0:0,0:0:0:0:
335,151,22027,1,10,0:0:0:0:
335,151,22258,6,0,L|352:97,1,56.2499961376192,10|0,1:0|1:0,0:0:0:0:
396,18,22488,5,4,3:0:0:0:
193,0,22719,2,0,L|115:34,1,68.7499994754792,2|0,3:3|0:0,0:0:0:0:
161,158,22950,2,0,L|180:86,1,68.7499994754792,10|0,1:2|0:0,0:0:0:0:
45,72,23181,2,0,L|74:141,1,68.7499994754792,2|2,3:3|0:3,0:0:0:0:
130,249,23411,2,0,P|221:224|273:149,1,162.499986362458,4|2,3:0|3:3,0:0:0:0:
263,174,23757,1,2,3:3:0:0:
334,239,23872,2,0,P|330:278|292:321,1,74.9999948501589,10|0,1:2|0:0,0:0:0:0:
164,379,24103,6,0,B|158:339|158:339|184:297|184:297|125:244|125:244|117:205,1,162.499986362458,10|4,1:1|3:0,0:0:0:0:
43,248,24450,6,0,B|34:292|34:292|77:312|77:312|63:341|63:341|81:399,1,162.499986362458,10|4,1:1|3:0,0:0:0:0:
164,379,24796,2,0,P|203:364|235:301,1,81.249993181229,10|2,1:2|3:0,0:0:0:0:
237,228,25026,1,10,0:2:0:0:
310,365,25257,1,4,3:0:0:0:
342,335,25372,2,2,L|490:387,1,149.999989700318,10|0,2:1|0:0,0:0:0:0:
480,293,25719,1,10,1:2:0:0:
330,141,25950,6,4,L|352:96,3,31.2499988079071,4|4|4|4,3:0|3:0|3:0|3:0,0:0:0:0:
315,154,26181,2,0,P|267:160|211:176,1,81.249993181229,4|0,3:0|0:0,0:0:0:0:
165,228,26411,2,0,P|124:212|86:184,1,81.249993181229,2|0,3:3|0:0,0:0:0:0:
235,167,26642,2,0,P|312:206|278:311,1,162.499986362458,10|2,1:2|3:0,0:0:0:0:
314,274,26988,1,2,3:3:0:0:
218,313,27104,2,0,B|303:342|277:365|379:387,1,162.499986362458,4|2,1:3|3:0,0:0:0:0:
363,383,27450,1,2,3:3:0:0:
436,339,27565,5,10,1:2:0:0:
319,186,27796,1,10,3:2:0:0:
413,133,28027,1,12,3:3:0:0:
436,156,28142,2,0,P|456:210|384:260,1,137.499998950958,10|0,2:0|0:0,0:0:0:0:
404,260,28488,1,10,1:2:0:0:
319,186,28719,1,2,1:3:0:0:
270,130,28835,6,0,B|283:100|283:100|283:92|283:92|290:81,1,49.9999980926514,10|2,0:0|0:3,0:0:0:0:
244,20,29181,6,0,L|200:9,1,31.2499988079071,2|0,0:3|0:0,0:0:0:0:
226,22,29296,2,0,L|180:33,1,31.2499988079071,2|2,0:0|0:0,0:0:0:0:
186,25,29411,2,0,L|137:11,1,31.2499988079071,2|0,0:0|0:0,0:0:0:0:
148,29,29527,2,0,L|99:19,1,31.2499988079071,2|0,0:0|0:0,0:0:0:0:
76,20,29642,2,0,P|57:34|47:67,1,46.8749982118607,2|0,0:0|0:0,0:0:0:0:
47,54,29873,5,4,3:0:0:0:
16,291,30104,2,0,L|-6:194,1,74.9999948501589,2|0,3:3|0:0,0:0:0:0:
162,65,30334,2,0,L|135:154,1,74.9999948501589,8|2,1:2|3:0,0:0:0:0:
69,167,30565,1,2,3:3:0:0:
81,193,30680,1,2,3:0:0:0:
154,216,30796,2,0,B|234:244|239:272|335:321,1,174.999987983704,2|2,3:1|3:3,0:0:0:0:
422,183,31142,1,2,3:3:0:0:
343,149,31257,2,0,P|315:178|306:216,1,81.249993181229,10|0,1:2|0:0,0:0:0:0:
351,379,31488,6,0,B|387:325|387:325|388:255|388:255|416:281|416:281|447:303,1,174.999987983704,10|4,1:1|3:0,0:0:0:0:
431,135,31834,6,0,B|467:189|467:189|540:219|540:219|497:232|497:232|498:230,1,174.999987983704,10|4,1:1|3:0,0:0:0:0:
417,282,32180,2,0,P|382:263|376:195,1,87.4999939918521,10|2,1:2|3:0,0:0:0:0:
431,135,32411,1,10,0:2:0:0:
332,44,32642,1,4,3:0:0:0:
308,75,32757,2,0,B|226:86|234:143|145:173,1,162.499986362458,10|0,2:1|0:0,0:0:0:0:
101,122,33104,1,10,1:2:0:0:
291,217,33334,2,4,L|325:203,3,31.2499988079071,4|4|4|4,3:0|3:0|3:0|3:0,0:0:0:0:
267,249,33565,5,4,3:0:0:0:
394,214,33796,2,0,L|468:183,1,68.7499994754792,2|0,3:3|0:0,0:0:0:0:
512,345,34027,2,0,L|442:321,1,74.9999948501589,10|2,3:2|3:0,0:0:0:0:
371,383,34257,1,2,3:3:0:0:
348,355,34373,1,2,3:0:0:0:
264,360,34488,2,0,B|237:354|219:324|219:324|180:262|125:259,1,174.999987983704,2|2,3:1|3:3,0:0:0:0:
56,307,34834,1,2,3:3:0:0:
127,239,34949,2,0,P|159:206|203:199,1,81.249993181229,10|0,1:2|0:0,0:0:0:0:
397,222,35180,6,0,B|330:172|345:104|345:104|290:84,1,174.999987983704,10|4,1:1|3:0,0:0:0:0:
193,17,35527,6,0,B|241:67|226:130|226:130|257:143|271:164,1,174.999987983704,10|4,1:1|3:0,0:0:0:0:
309,91,35873,2,0,P|342:64|391:56,1,87.4999939918521,10|2,1:2|3:0,0:0:0:0:
459,94,36103,1,10,0:2:0:0:
397,222,36334,1,4,3:0:0:0:
420,186,36449,2,2,P|483:194|500:302,1,162.499986362458,10|0,2:1|0:0,0:0:0:0:
456,338,36796,1,10,0:0:0:0:
456,338,37027,5,10,1:0:0:0:
375,316,37142,1,0,1:0:0:0:
294,294,37257,5,4,3:0:0:0:
298,159,37488,2,0,L|376:125,1,74.9999948501589,2|0,3:3|0:0,0:0:0:0:
294,11,37719,2,0,L|275:83,1,74.9999948501589,10|2,3:2|3:3,0:0:0:0:
212,131,37949,1,2,3:3:0:0:
192,111,38064,1,2,3:0:0:0:
118,132,38180,2,0,B|56:176|27:266|76:307,1,174.999987983704,2|2,3:1|3:3,0:0:0:0:
110,380,38526,1,2,3:3:0:0:
171,321,38641,2,0,P|169:272|128:235,1,81.249993181229,10|0,1:2|0:0,0:0:0:0:
3,136,38872,6,0,B|11:175|11:175|70:228|70:228|43:337,1,174.999987983704,10|4,1:1|3:0,0:0:0:0:
146,384,39219,6,0,B|144:304|144:304|179:275|179:275|132:186,1,174.999987983704,10|4,1:1|3:0,0:0:0:0:
115,167,39565,2,0,P|127:127|187:90,1,87.4999939918521,10|2,1:2|3:0,0:0:0:0:
242,132,39795,1,10,0:2:0:0:
384,80,40026,1,4,3:0:0:0:
350,57,40141,2,2,B|267:43|294:18|180:-1,1,162.499986362458,10|0,2:1|0:0,0:0:0:0:
129,34,40488,1,10,1:2:0:0:
250,155,40719,2,4,L|227:212,3,31.2499988079071,4|4|4|4,3:0|3:0|3:0|3:0,0:0:0:0:
222,127,40950,5,4,3:0:0:0:
315,100,41065,2,0,P|376:126|391:200,1,121.874989771844,2|0,3:3|0:0,0:0:0:0:
384,196,41296,1,2,3:0:0:0:
313,252,41411,2,0,B|212:228|260:209|138:181,1,162.499986362458,10|2,1:2|3:0,0:0:0:0:
164,188,41758,1,2,3:0:0:0:
111,267,41873,2,0,P|111:310|208:354,1,162.499986362458,4|2,3:0|3:0,0:0:0:0:
329,246,42219,1,2,3:0:0:0:
315,360,42335,2,0,P|276:333|283:272,1,81.249993181229,10|0,1:2|0:0,0:0:0:0:
421,238,42565,2,0,L|396:326,1,81.249993181229,2|0,3:0|0:0,0:0:0:0:
450,384,42796,6,2,B|428:367|428:367|400:369|400:369|392:338|392:338|359:333|359:333|343:295|343:295|296:293|296:293|313:255|313:255|271:247|271:247|268:213|268:213|228:207|228:207|228:185|228:185|193:203|193:203|179:160|179:160|152:146|152:146|163:119|163:119|148:114|148:114|145:83|145:83|131:74|131:74|111:84|111:84|99:57|99:57|60:53|60:53|48:15|48:15|27:6|27:6|3:7,1,774.999970436097,2|0,1:1|0:0,2:1:0:0:
22,13,44642,6,0,P|91:35|86:116,1,140.625,4|0,3:1|0:0,0:0:0:0:
34,174,45104,2,0,L|62:282,1,93.7500000000001,8|2,1:0|3:0,0:0:0:0:
135,209,45450,1,8,1:2:0:0:
135,209,45565,2,0,P|183:184|265:184,1,93.7500000000001,2|6,3:0|3:0,0:0:0:0:
221,178,46027,1,8,1:2:0:0:
250,189,46142,1,2,3:0:0:0:
279,198,46258,1,8,1:2:0:0:
305,206,46373,1,2,3:0:0:0:
338,226,46488,6,0,P|377:210|390:143,1,93.7500000000001,6|2,3:0|3:0,0:0:0:0:
344,17,46950,2,0,L|323:118,1,93.7500000000001,8|2,1:0|3:0,0:0:0:0:
436,50,47296,1,8,1:2:0:0:
436,50,47411,2,0,L|446:121,1,46.875,2|2,3:0|3:0,0:0:0:0:
496,157,47642,1,6,3:0:0:0:
379,368,47873,6,0,L|355:303,1,46.875,2|2,1:2|1:2,0:0:0:0:
490,176,48104,2,0,L|526:255,1,46.875,2|2,1:2|1:2,0:0:0:0:
444,278,48335,6,0,P|398:249|346:228,1,93.7500000000001,6|2,3:3|3:0,0:0:0:0:
268,126,48796,2,0,P|224:151|233:215,1,93.7500000000001,10|2,1:2|3:0,0:0:0:0:
279,253,49142,1,10,1:2:0:0:
279,253,49258,2,0,L|302:188,2,46.875,2|10|6,3:0|1:2|3:0,0:0:0:0:
142,353,49719,1,10,1:2:0:0:
118,311,49835,2,0,B|143:201,1,93.7500000000001,2|10,3:3|1:2,0:0:0:0:
241,384,50181,6,0,B|213:273,1,93.7500000000001,6|2,3:3|3:0,0:0:0:0:
125,132,50642,2,0,P|76:151|20:167,1,93.7500000000001,8|2,1:2|3:0,0:0:0:0:
18,153,50988,1,2,1:2:0:0:
0,127,51104,2,0,P|2:76|38:50,1,93.7500000000001,2|4,3:3|3:0,0:0:0:0:
267,0,51565,6,0,L|247:63,1,46.875,2|2,1:2|1:2,0:0:0:0:
183,178,51796,2,2,L|202:217,3,23.4375,2|2|2|2,1:2|1:2|1:2|1:2,0:0:0:0:
214,148,52027,5,6,3:3:0:0:
214,148,52258,2,0,L|282:126,1,53.1249989867211,2|0,3:0|0:0,0:0:0:0:
343,174,52488,2,0,L|321:224,1,53.1249989867211,10|0,1:2|0:0,0:0:0:0:
261,315,52719,2,0,L|234:257,1,53.1249989867211,2|0,3:0|0:0,0:0:0:0:
398,233,52950,2,0,P|446:245|480:301,1,106.249997973442,6|4,3:0|3:0,0:0:0:0:
424,361,53296,1,2,3:0:0:0:
401,318,53411,2,0,P|367:352|301:358,1,106.249997973442,10|2,1:2|3:0,0:0:0:0:
311,360,53758,1,2,3:0:0:0:
292,282,53873,6,0,P|305:261|319:206,1,53.1249989867211,6|0,3:3|0:0,0:0:0:0:
253,183,54104,2,0,P|221:191|189:216,1,53.1249989867211,8|0,1:2|0:0,0:0:0:0:
159,282,54335,2,0,P|113:251|113:182,1,106.249997973442,10|2,1:2|1:2,0:0:0:0:
104,203,54681,1,8,1:2:0:0:
116,173,54796,1,2,3:0:0:0:
52,106,55027,1,6,3:3:0:0:
272,20,55258,6,0,L|260:82,1,53.1249989867211,2|2,1:2|1:2,0:0:0:0:
410,137,55488,2,0,L|394:201,1,53.1249989867211,2|2,1:2|1:2,0:0:0:0:
324,228,55719,6,0,L|364:381,1,106.249997973442,6|2,3:0|3:0,0:0:0:0:
204,213,56181,2,0,P|266:216|304:258,1,106.249997973442,10|2,1:2|3:0,0:0:0:0:
305,333,56527,1,10,1:2:0:0:
277,363,56642,2,0,P|239:345|233:307,1,53.1249989867211,2|10,3:0|1:2,0:0:0:0:
242,250,56873,1,6,3:0:0:0:
369,286,57104,2,0,P|411:257|484:258,1,106.249997973442,10|2,1:2|3:0,0:0:0:0:
464,252,57450,1,2,1:2:0:0:
512,313,57565,5,4,3:3:0:0:
487,41,58258,6,0,L|509:-3,3,31.2499988079071,8|8|8|8,3:0|3:0|3:0|3:0,0:0:0:0:
465,70,58488,1,8,3:0:0:0:
395,12,58604,2,0,P|349:17|269:78,1,124.999995231629,4|10,3:0|3:3,0:0:0:0:
391,98,58950,6,0,B|408:120|408:120|399:144|399:144|427:148|423:174,1,93.7499964237214,2|0,3:0|0:0,0:0:0:0:
399,194,59181,2,2,L|387:228,3,31.2499988079071,2|2|2|2,0:3|0:3|0:3|0:3,0:0:0:0:
372,164,59411,5,4,3:3:0:0:
315,186,59527,1,2,3:0:0:0:
287,226,59642,1,2,3:0:0:0:
293,259,59758,1,6,3:3:0:0:
328,297,59873,2,0,P|325:336|293:373,1,74.9999948501589,10|2,1:2|3:0,0:0:0:0:
170,384,60104,2,0,P|172:349|213:297,1,74.9999948501589,2|2,1:1|3:0,0:0:0:0:
268,208,60335,5,4,3:0:0:0:
249,175,60450,1,2,3:0:0:0:
202,159,60565,1,2,0:3:0:0:
157,180,60681,1,2,1:2:0:0:
132,223,60796,2,0,P|100:200|101:150,1,74.9999948501589,10|2,1:2|3:0,0:0:0:0:
182,87,61027,2,0,P|172:47|142:0,1,74.9999948501589,2|2,1:1|3:0,0:0:0:0:
294,118,61258,5,4,3:3:0:0:
337,142,61373,1,2,3:0:0:0:
379,119,61488,1,2,0:3:0:0:
368,91,61604,2,0,P|316:144|309:254,1,149.999989700318,10|2,1:1|3:0,0:0:0:0:
469,86,61950,2,0,P|466:49|428:8,1,74.9999948501589,10|2,1:1|3:0,0:0:0:0:
416,179,62181,1,4,3:0:0:0:
401,215,62296,1,2,3:0:0:0:
438,267,62411,1,2,0:3:0:0:
512,264,62527,2,0,B|438:276|464:306|370:316,1,149.999989700318,10|2,1:1|3:0,0:0:0:0:
232,350,62873,6,4,L|212:397,3,37.4999974250794,4|4|4|4,3:0|3:0|3:0|3:0,0:0:0:0:
261,337,63104,5,4,3:3:0:0:
291,308,63220,1,2,3:0:0:0:
261,255,63335,1,2,3:0:0:0:
247,206,63451,1,6,3:3:0:0:
217,163,63566,2,0,P|230:126|271:99,1,74.9999948501589,10|2,1:2|3:0,0:0:0:0:
365,61,63797,2,0,P|363:96|322:148,1,74.9999948501589,2|2,1:1|3:0,0:0:0:0:
239,21,64028,5,4,3:0:0:0:
212,41,64143,1,2,3:0:0:0:
162,39,64258,1,2,0:3:0:0:
101,22,64374,1,2,1:2:0:0:
70,47,64489,2,0,P|38:70|39:120,1,74.9999948501589,10|2,1:2|3:0,0:0:0:0:
151,201,64720,2,0,P|151:166|131:126,1,74.9999948501589,2|2,1:1|3:0,0:0:0:0:
31,241,64951,1,4,3:3:0:0:
18,293,65066,1,2,3:0:0:0:
24,337,65181,1,2,0:3:0:0:
0,375,65297,6,0,P|85:357|94:242,1,149.999989700318,10|2,1:1|3:0,0:0:0:0:
117,162,65643,2,0,P|120:205|151:245,1,74.9999948501589,10|2,1:1|3:0,0:0:0:0:
288,198,65874,1,4,3:0:0:0:
325,164,65989,1,2,3:0:0:0:
347,96,66104,1,2,0:3:0:0:
383,58,66219,1,10,1:2:0:0:
445,1,66335,6,0,B|469:72|483:56|497:132,1,112.499992275238,2|0,1:1|0:0,0:0:0:0:
484,126,66566,2,4,B|470:141|470:141|477:147|477:147|461:160,3,37.4999974250794,4|4|4|4,3:0|3:0|3:0|3:0,0:0:0:0:
434,115,66796,5,4,3:3:0:0:
383,134,66912,1,2,3:0:0:0:
349,112,67027,1,2,3:0:0:0:
339,67,67143,1,6,3:3:0:0:
288,40,67258,2,0,B|245:32|227:7|227:7|197:40|197:40|162:7|121:-21,1,174.999987983704,10|2,1:1|1:2,0:0:0:0:
44,75,67604,1,2,3:0:0:0:
47,92,67720,5,4,3:0:0:0:
91,120,67835,1,2,3:0:0:0:
125,116,67950,1,2,0:3:0:0:
144,164,68066,1,2,1:2:0:0:
188,198,68181,2,0,B|235:180|244:157|258:145|277:178|277:178|303:149|344:144,1,174.999987983704,10|2,1:1|1:2,0:0:0:0:
391,218,68527,1,2,3:0:0:0:
408,239,68643,5,4,3:3:0:0:
396,285,68758,1,2,3:0:0:0:
337,291,68873,1,2,0:3:0:0:
305,342,68988,1,2,1:2:0:0:
249,317,69104,2,0,B|220:317|203:335|203:335|187:348|175:357|175:357|152:340|123:347,1,131.249990987778,10|0,1:1|0:0,0:0:0:0:
111,360,69335,2,0,B|91:339|73:344|73:344|64:300,1,74.9999948501589,10|0,1:1|0:0,0:0:0:0:
36,180,69566,5,4,3:0:0:0:
70,136,69681,1,2,3:0:0:0:
115,146,69796,1,2,0:3:0:0:
158,120,69911,1,2,1:2:0:0:
197,152,70027,2,0,B|241:141|263:124|263:124|277:98,1,87.4999939918521,10|0,1:1|0:0,0:0:0:0:
331,34,70258,2,4,L|307:-12,3,37.4999974250794,4|4|4|4,3:0|3:0|3:0|3:0,0:0:0:0:
366,34,70488,5,4,3:3:0:0:
405,55,70604,1,2,3:0:0:0:
413,99,70719,1,2,3:0:0:0:
381,125,70835,1,6,3:3:0:0:
345,163,70950,2,0,B|333:205|333:205|415:255|415:255|403:309,1,174.999987983704,10|2,1:1|1:2,0:0:0:0:
331,363,71296,1,2,3:0:0:0:
317,344,71412,5,4,3:0:0:0:
268,324,71527,1,2,3:0:0:0:
232,370,71642,1,2,0:3:0:0:
181,355,71758,1,2,1:2:0:0:
126,371,71873,2,0,B|107:332|107:332|132:252|132:252|103:213,1,174.999987983704,10|2,1:1|1:2,0:0:0:0:
8,126,72219,1,2,3:0:0:0:
21,110,72335,5,4,3:3:0:0:
52,107,72450,1,2,3:0:0:0:
85,86,72565,1,2,0:3:0:0:
129,110,72680,1,2,1:2:0:0:
179,78,72796,2,0,B|215:45|215:45|263:66|263:66|307:49,1,131.249990987778,10|0,1:1|0:0,0:0:0:0:
311,30,73027,2,0,B|341:33|349:26|349:26|365:37|366:51|366:51|362:80,1,74.9999948501589,10|0,1:1|0:0,0:0:0:0:
294,193,73258,5,4,3:0:0:0:
288,184,73373,1,4,3:0:0:0:
286,190,73488,1,4,3:0:0:0:
298,184,73604,1,4,3:0:0:0:
379,136,73719,2,0,L|392:180,1,46.875,2|0,0:1|0:0,0:0:0:0:
232,265,73950,2,0,L|242:310,1,46.875,2|0,0:1|0:0,0:0:0:0:
377,368,74181,5,4,3:3:0:0:
403,384,74296,1,2,3:0:0:0:
424,350,74411,1,2,3:0:0:0:
403,312,74527,1,2,0:0:0:0:
368,260,74642,2,0,P|373:224|414:171,1,81.249993181229,10|2,1:2|0:0,0:0:0:0:
306,113,74873,2,0,P|334:94|402:90,1,81.249993181229,6|2,3:3|3:0,0:0:0:0:
512,52,75104,6,0,B|513:8|513:8|490:28|490:28|469:51|469:51|485:79|456:142,1,162.499986362458,10|2,0:1|3:0,0:0:0:0:
409,173,75450,1,2,3:0:0:0:
371,167,75565,1,10,1:2:0:0:
327,119,75681,1,2,0:3:0:0:
353,76,75796,2,4,L|376:21,3,40.6249965906145,6|6|6|6,3:3|3:3|3:3|3:3,0:0:0:0:
314,98,76027,6,0,B|238:68|283:56|164:8,1,162.499986362458,4|2,3:3|3:0,0:0:0:0:
133,166,76373,1,4,3:3:0:0:
112,84,76488,2,0,P|87:46|108:-18,1,81.249993181229,10|2,1:2|3:0,0:0:0:0:
241,63,76719,2,0,P|222:121|178:139,1,81.249993181229,4|2,3:0|0:0,0:0:0:0:
68,282,76950,6,0,B|24:243|31:221|31:221|40:184|40:184|60:210|71:242|87:244,1,162.499986362458,10|2,0:1|3:0,0:0:0:0:
167,234,77296,1,2,0:3:0:0:
178,258,77411,1,10,2:0:0:0:
169,302,77527,1,2,0:3:0:0:
197,354,77642,2,0,P|231:348|249:285,1,81.249993181229,2|2,3:0|3:0,0:0:0:0:
310,174,77873,5,4,3:3:0:0:
329,178,77988,1,2,3:0:0:0:
347,220,78103,1,2,3:0:0:0:
305,250,78219,1,2,0:0:0:0:
332,305,78335,2,0,P|373:302|412:249,1,81.249993181229,10|2,1:2|0:0,0:0:0:0:
500,232,78565,2,0,P|487:181|442:142,1,81.249993181229,6|2,3:3|3:0,0:0:0:0:
350,26,78796,6,0,B|337:24|317:30|317:30|356:78|386:71|394:76|394:76|400:144,1,162.499986362458,10|2,0:1|3:0,0:0:0:0:
325,182,79142,1,2,3:0:0:0:
277,171,79258,1,10,1:2:0:0:
279,138,79373,1,2,0:3:0:0:
235,97,79488,2,4,L|182:119,3,40.6249965906145,6|6|6|6,3:3|3:3|3:3|3:3,0:0:0:0:
257,72,79719,6,0,P|212:20|113:11,1,162.499986362458,4|2,3:3|3:0,0:0:0:0:
32,102,80065,1,4,3:3:0:0:
99,39,80181,2,0,P|127:63|133:115,1,81.249993181229,10|2,1:2|3:0,0:0:0:0:
74,195,80411,2,0,P|48:165|62:92,1,81.249993181229,4|2,3:0|0:0,0:0:0:0:
199,170,80642,6,0,P|226:192|238:242,1,81.249993181229,10|0,0:1|0:0,0:0:0:0:
300,284,80873,2,10,P|298:321|251:347,1,81.249993181229,10|0,2:1|2:2,0:0:0:0:
304,175,81104,6,2,B|338:184|373:225|373:225|403:239|403:239|382:316|382:316|431:246|475:250,1,243.749979543687,2|0,0:3|0:0,0:1:0:0:
479,176,81565,5,4,3:3:0:0:
475,146,81680,1,2,3:0:0:0:
436,112,81795,1,2,3:0:0:0:
413,69,81911,1,2,0:0:0:0:
370,33,82026,2,0,P|330:41|297:65,1,81.249993181229,10|2,1:2|0:0,0:0:0:0:
186,49,82257,2,0,P|165:75|158:143,1,81.249993181229,6|2,3:3|3:0,0:0:0:0:
241,267,82488,6,0,B|247:304|247:304|261:244|273:241|273:241|297:226|297:226|295:180,1,162.499986362458,10|2,0:1|3:0,0:0:0:0:
210,191,82834,1,2,3:0:0:0:
171,202,82949,1,10,1:2:0:0:
143,244,83065,1,2,0:3:0:0:
112,233,83181,2,4,L|95:194,3,40.6249965906145,6|6|6|6,3:3|3:3|3:3|3:3,0:0:0:0:
113,266,83411,6,0,B|189:296|144:308|263:356,1,162.499986362458,4|2,3:3|3:0,0:0:0:0:
379,218,83757,1,4,3:3:0:0:
368,304,83872,2,0,L|396:400,1,81.249993181229,10|2,1:2|3:0,0:0:0:0:
262,277,84103,2,0,L|309:199,1,81.249993181229,4|2,3:0|0:0,0:0:0:0:
501,109,84334,6,0,B|468:128|488:141|481:163|481:163|472:200|472:200|469:153|441:142|425:140,1,162.499986362458,10|2,0:1|3:0,0:0:0:0:
372,96,84680,1,2,0:3:0:0:
354,46,84795,1,10,2:0:0:0:
309,52,84911,1,2,0:3:0:0:
282,94,85026,2,0,P|240:86|201:56,1,81.249993181229,2|2,3:0|3:0,0:0:0:0:
103,114,85257,5,4,3:3:0:0:
131,154,85372,1,2,3:0:0:0:
111,199,85487,1,2,3:0:0:0:
156,189,85603,1,2,0:0:0:0:
202,205,85719,2,0,P|227:237|213:301,1,81.249993181229,10|2,1:2|0:0,0:0:0:0:
361,263,85949,2,0,P|348:314|303:353,1,81.249993181229,6|2,3:3|3:0,0:0:0:0:
134,344,86181,6,0,B|115:353|101:381|101:381|139:372|161:343|163:362|163:362|213:337,1,162.499986362458,10|2,0:1|3:0,0:0:0:0:
288,267,86526,1,2,3:0:0:0:
276,232,86642,1,10,1:2:0:0:
229,221,86757,1,2,0:3:0:0:
208,183,86872,2,4,L|230:129,3,40.6249965906145,6|6|6|6,3:3|3:3|3:3|3:3,0:0:0:0:
177,201,87103,6,0,P|104:190|75:114,1,162.499986362458,4|2,3:3|3:0,0:0:0:0:
127,3,87449,1,4,3:3:0:0:
201,55,87565,2,0,P|229:79|235:131,1,81.249993181229,10|2,1:2|3:0,0:0:0:0:
362,179,87795,2,0,P|349:216|279:242,1,81.249993181229,4|2,3:0|0:0,0:0:0:0:
330,85,88027,6,0,B|347:64|347:64|330:49|330:49|357:34,1,54.1666621208193,10|0,0:1|0:0,0:0:0:0:
377,298,93104,6,0,B|340:266|331:280|306:294|315:268|315:268|281:210,1,124.999995231629,2|0,3:0|0:0,0:0:0:0:
132,97,93681,6,0,B|118:93|118:93|81:99,4,31.2499988079071,2|0|0|0|0,3:0|0:0|0:0|0:0|0:0,0:0:0:0:
493,23,94258,6,0,L|500:2,36,15.6249994039536,2|0|0|0|0|0|0|0|0|0|0|0|0|0|0|0|0|0|0|0|0|0|0|0|0|0|0|0|0|0|0|0|0|0|0|0|0,3:0|0:0|0:0|0:0|0:0|0:0|0:0|0:0|0:0|0:0|0:0|0:0|0:0|0:0|0:0|0:0|0:0|0:0|0:0|0:0|0:0|0:0|0:0|0:0|0:0|0:0|0:0|0:0|0:0|0:0|0:0|0:0|0:0|0:0|0:0|0:0|0:0,0:0:0:0:
