osu file format v14

[General]
AudioFilename: audio.mp3
AudioLeadIn: 0
PreviewTime: 66450
Countdown: 0
SampleSet: Soft
StackLeniency: 0.7
Mode: 0
LetterboxInBreaks: 0
WidescreenStoryboard: 1

[Editor]
Bookmarks: 22488,29873,44642,52027,59411,63104,74181,81508,87046,88027
DistanceSpacing: 1.1
BeatDivisor: 4
GridSize: 32
TimelineZoom: 1.4

[Metadata]
Title:its always a good time
TitleUnicode:its always a good time
Artist:xaev
ArtistUnicode:xaev
Creator:dakiwii
Version:hard
Source:
Tags:electronic english edm glitchcore glitch core hyper pop hyperpop dariacore daria mashup electro house dance music hyperflip flip plunderphonics berdlycore chapter 1 party in the U.S.A USA Miley Cyrus owl city carly rae jepsen all we know the chainsmokers phoebe ryan deltarune
BeatmapID:4332517
BeatmapSetID:2070047

[Difficulty]
HPDrainRate:4
CircleSize:3.6
OverallDifficulty:6
ApproachRate:8
SliderMultiplier:1.59999990463257
SliderTickRate:1

[Events]
//Background and Video events
0,0,"xaMIvuorPgfCqjlhWPZ79qqn.jpg",0,0
//Break Periods
2,88303,92354
//Storyboard Layer 0 (Background)
//Storyboard Layer 1 (Fail)
//Storyboard Layer 2 (Pass)
//Storyboard Layer 3 (Foreground)
//Storyboard Layer 4 (Overlay)
//Storyboard Sound Samples

[TimingPoints]
335,461.538461538462,4,2,0,59,1,0
335,-100,4,2,0,59,0,0
5642,-86.9565217391304,4,2,0,59,0,0
6046,-86.9565217391304,4,2,0,5,0,0
6104,-100,4,2,0,59,0,0
7719,-95.2380952380952,4,2,0,69,0,0
14642,-83.3333333333333,4,2,0,69,0,0
15104,-90.9090909090909,4,2,0,79,0,0
29873,-86.9565217391304,4,2,0,79,0,0
40948,-86.9565217391304,4,2,0,79,0,0
42796,-100,4,2,0,79,0,0
44642,-100,4,2,0,69,0,0
52027,-95.2380952380952,4,2,0,69,0,0
57565,-100,4,2,0,69,0,0
59411,-83.3333333333333,4,2,0,79,0,0
66796,-83.3333333333333,4,2,0,79,0,0
67258,-83.3333333333333,4,2,0,79,0,0
74181,-86.9565217391304,4,2,0,69,0,0
81565,-86.9565217391304,4,2,0,69,0,0
88104,-86.9565217391304,4,2,0,5,0,0
88181,-86.9565217391304,4,2,0,69,0,0
94258,-83.3333333333333,4,2,0,89,0,0
95296,-90.9090909090909,4,2,0,5,0,0

[Colours]
Combo1 : 255,255,255
Combo2 : 57,189,213

[HitObjects]
237,0,335,6,0,L|256:86,1,79.9999952316285,2|2,0:0|0:0,0:0:0:0:
259,98,681,1,2,0:0:0:0:
264,116,796,1,2,3:3:0:0:
355,87,1027,1,2,0:0:0:0:
370,182,1258,2,0,L|341:316,1,119.999992847443,2|2,3:0|3:0,0:0:0:0:
291,379,1835,1,2,0:0:0:0:
291,379,1950,1,2,0:0:0:0:
216,318,2181,6,0,P|155:316|99:253,1,119.999992847443,2|2,3:0|0:0,0:0:0:0:
113,252,2642,1,2,3:0:0:0:
173,119,2988,2,0,P|192:40|209:-8,2,119.999992847443,2|2|2,3:0|3:0|3:0,0:0:0:0:
100,246,4027,5,2,0:0:0:0:
100,246,4142,1,2,3:0:0:0:
100,246,4258,1,2,0:0:0:0:
172,312,4488,2,0,B|220:287|213:297|259:274,1,79.9999952316285,2|0,3:0|0:0,0:0:0:0:
339,318,4950,1,2,3:0:0:0:
339,318,5065,1,2,3:0:0:0:
410,254,5296,2,0,P|428:206|426:168,1,79.9999952316285,2|0,3:0|0:0,0:0:0:0:
447,150,5642,6,0,B|406:126|406:126|398:104|398:104|384:85|384:85|328:59,1,137.9999944067,2|0,3:2|0:0,0:0:0:0:
330,40,6104,2,2,L|343:-4,2,39.9999976158142,2|2|2,3:0|0:0|3:0,0:0:0:0:
256,96,6565,1,2,0:0:0:0:
163,70,6796,2,0,B|143:120|143:120|197:163|197:163|196:232,1,159.999990463257,2|2,3:0|3:0,0:0:0:0:
271,44,7719,5,6,0:2:0:0:
355,105,7950,1,0,0:0:0:0:
355,105,8065,1,2,3:0:0:0:
355,105,8181,2,0,L|448:85,1,83.9999924297336,8|0,0:0|0:0,0:0:0:0:
511,155,8642,2,0,L|482:260,1,83.9999924297336,2|2,3:0|3:0,0:0:0:0:
476,262,8988,1,2,3:0:0:0:
464,288,9104,1,8,0:0:0:0:
373,243,9335,6,0,B|323:257|323:257|270:298|317:317|196:334,1,167.999984859467,2|0,3:2|3:0,0:0:0:0:
236,327,10027,1,8,0:0:0:0:
151,281,10258,1,2,0:0:0:0:
151,281,10373,1,2,3:0:0:0:
181,184,10604,1,2,0:3:0:0:
181,184,10719,2,0,L|206:88,1,83.9999924297336,2|8,3:2|0:0,0:0:0:0:
252,15,11181,1,2,3:3:0:0:
329,87,11411,5,2,3:0:0:0:
329,87,11527,2,0,L|426:65,1,83.9999924297336,2|2,3:0|3:0,0:0:0:0:
439,79,11873,1,10,0:0:0:0:
507,153,12104,1,2,0:0:0:0:
444,232,12335,2,0,L|461:328,1,83.9999924297336,2|0,3:0|0:0,0:0:0:0:
451,336,12681,2,0,B|314:299,1,125.9999886446,2|2,3:0|3:0,0:0:0:0:
329,303,13258,5,2,3:0:0:0:
245,247,13488,1,10,0:0:0:0:
306,162,13719,1,8,0:0:0:0:
282,63,13950,1,10,0:0:0:0:
190,25,14181,2,0,B|165:11|165:11|140:16,1,41.9999962148668,2|2,3:0|3:0,0:0:0:0:
130,33,14411,2,0,B|109:52|109:52|74:60,1,41.9999962148668,2|2,3:0|3:0,0:0:0:0:
73,43,14642,2,2,B|-2:61|0:94|0:94|16:116|38:143,1,143.9999870224,10|0,0:1|0:0,0:1:0:0:
51,152,15104,5,4,3:0:0:0:
133,203,15335,1,2,3:3:0:0:
217,153,15565,2,0,P|257:167|313:203,1,87.9999974403381,10|2,1:2|3:3,0:0:0:0:
311,214,15911,1,2,3:0:0:0:
328,235,16027,2,0,P|383:228|424:199,1,87.9999974403381,4|2,3:0|3:3,0:0:0:0:
426,193,16373,2,0,L|417:147,1,43.9999987201691,2|10,3:3|3:2,0:0:0:0:
377,52,16719,6,0,B|364:56|364:56|333:49|333:49|291:70,1,87.9999974403381,10|4,1:1|3:0,0:0:0:0:
269,85,17065,2,0,B|236:81|236:81|210:90|210:90|159:52,1,87.9999974403381,10|0,1:0|0:0,0:0:0:0:
168,51,17411,1,10,1:2:0:0:
68,15,17642,1,10,0:2:0:0:
23,110,17873,1,4,3:0:0:0:
23,110,17988,1,10,2:1:0:0:
98,249,18335,1,10,1:2:0:0:
175,173,18565,1,4,3:0:0:0:
194,179,18681,1,4,3:0:0:0:
215,184,18796,5,4,3:0:0:0:
315,150,19027,1,2,3:3:0:0:
365,242,19258,2,0,L|331:354,1,87.9999974403381,10|2,1:2|3:3,0:0:0:0:
321,348,19604,1,2,3:0:0:0:
296,360,19719,2,0,L|188:334,1,87.9999974403381,4|2,3:0|3:3,0:0:0:0:
186,323,20065,2,0,L|142:336,1,43.9999987201691,2|10,3:3|1:2,0:0:0:0:
66,263,20411,6,0,B|37:232|37:232|41:212|41:212|39:177,1,87.9999974403381,10|4,1:1|3:0,0:0:0:0:
56,162,20758,2,0,B|77:163|77:163|92:144|92:144|131:118,1,87.9999974403381,10|4,1:1|3:0,0:0:0:0:
149,96,21104,1,10,1:2:0:0:
211,10,21335,1,10,0:2:0:0:
299,73,21565,2,0,B|353:85|386:122|386:122|439:105,1,131.999996160507,4|0,3:0|0:0,0:0:0:0:
442,94,22027,1,10,0:0:0:0:
482,191,22258,2,0,L|466:240,1,43.9999987201691,10|0,1:0|1:0,0:0:0:0:
446,256,22488,5,4,3:0:0:0:
379,326,22719,1,2,3:3:0:0:
292,276,22949,2,0,P|237:286|196:326,1,87.9999974403381,10|2,1:2|3:3,0:0:0:0:
197,330,23295,1,2,0:3:0:0:
184,355,23411,2,0,P|129:348|88:319,1,87.9999974403381,4|2,3:0|3:3,0:0:0:0:
84,306,23757,2,0,L|95:263,1,43.9999987201691,2|10,3:3|1:2,0:0:0:0:
153,175,24103,6,0,B|189:165|189:165|206:162|206:162|239:193,1,87.9999974403381,10|4,1:1|3:0,0:0:0:0:
250,201,24449,2,0,B|300:189|300:189|317:167|317:167|343:154,1,87.9999974403381,10|4,1:1|3:0,0:0:0:0:
357,148,24795,1,10,1:2:0:0:
452,193,25026,1,10,0:2:0:0:
485,92,25258,1,4,3:0:0:0:
485,92,25373,1,10,2:1:0:0:
351,7,25719,1,10,1:2:0:0:
269,73,25949,1,4,3:0:0:0:
250,79,26065,1,4,3:0:0:0:
233,85,26181,5,4,3:0:0:0:
134,47,26411,1,2,3:3:0:0:
70,131,26642,2,0,P|72:166|115:232,1,87.9999974403381,10|2,1:2|3:0,0:0:0:0:
122,225,26988,1,2,3:3:0:0:
151,234,27104,2,0,P|191:223|233:197,1,87.9999974403381,4|2,1:3|3:0,0:0:0:0:
251,178,27450,1,2,3:3:0:0:
278,165,27565,1,10,1:2:0:0:
373,202,27796,1,10,3:2:0:0:
443,123,28027,5,12,3:3:0:0:
443,123,28142,1,10,2:0:0:0:
508,252,28488,1,10,1:2:0:0:
475,343,28719,1,2,1:3:0:0:
475,343,28835,2,0,B|430:355|430:355|373:332,1,87.9999974403381,10|2,0:0|0:3,0:0:0:0:
369,344,29181,2,0,L|352:384,4,43.9999987201691,2|2|2|2|2,0:3|0:0|0:0|0:0|0:0,0:0:0:0:
287,283,29873,5,4,3:0:0:0:
353,202,30104,2,0,L|426:222,1,45.9999981355667,2|0,3:3|0:0,0:0:0:0:
427,223,30334,2,0,L|491:204,1,45.9999981355667,8|2,1:2|3:0,0:0:0:0:
494,191,30565,1,2,3:3:0:0:
511,91,30796,2,0,L|486:-7,1,91.9999962711334,2|2,3:1|3:3,0:0:0:0:
458,0,31142,2,0,L|403:30,1,45.9999981355667,2|10,3:3|1:2,0:0:0:0:
338,96,31488,6,0,B|305:78|305:78|265:81|265:81|220:65,1,91.9999962711334,10|4,1:1|3:0,0:0:0:0:
227,52,31834,2,0,B|195:61|195:61|167:56|167:56|117:103,1,91.9999962711334,10|4,1:1|3:0,0:0:0:0:
133,105,32180,1,10,1:2:0:0:
37,69,32411,1,10,0:2:0:0:
0,166,32642,1,4,3:0:0:0:
0,166,32757,2,0,B|-4:190|-4:190|40:268|40:268|36:310,1,137.9999944067,10|10,2:1|1:2,0:0:0:0:
133,231,33334,1,4,3:0:0:0:
152,225,33450,1,4,3:0:0:0:
173,220,33565,5,4,3:0:0:0:
246,289,33796,1,2,3:3:0:0:
301,204,34027,2,0,P|309:158|321:91,1,91.9999962711334,10|2,3:2|3:3,0:0:0:0:
323,87,34373,1,2,3:0:0:0:
328,61,34488,1,2,3:1:0:0:
423,17,34719,1,2,3:3:0:0:
423,17,34834,1,2,3:3:0:0:
423,17,34950,1,10,1:2:0:0:
489,92,35180,6,0,B|477:125|477:125|454:142|454:142|433:180,1,91.9999962711334,10|4,1:1|3:0,0:0:0:0:
425,192,35527,2,0,B|446:233|446:233|451:257|451:257|507:284,1,91.9999962711334,10|4,1:1|3:0,0:0:0:0:
495,283,35873,1,10,1:2:0:0:
451,374,36104,1,10,0:2:0:0:
366,318,36334,2,0,B|301:330|301:330|283:357|283:357|243:373,1,137.9999944067,4|0,3:0|0:0,0:0:0:0:
218,360,36796,1,10,0:0:0:0:
148,286,37027,2,0,L|162:231,1,45.9999981355667,10|0,1:0|1:0,0:0:0:0:
181,218,37257,5,4,3:0:0:0:
278,243,37488,2,0,P|311:236|339:216,1,45.9999981355667,2|0,3:3|0:0,0:0:0:0:
352,229,37718,2,0,P|375:208|385:175,1,45.9999981355667,10|2,3:2|3:3,0:0:0:0:
380,163,37949,1,2,3:3:0:0:
313,86,38180,2,0,B|194:50,1,91.9999962711334,2|2,3:1|3:3,0:0:0:0:
196,44,38526,2,0,L|130:67,1,45.9999981355667,2|10,3:3|1:2,0:0:0:0:
62,131,38872,6,0,B|63:174|63:174|91:186|91:186|113:241,1,91.9999962711334,10|4,1:1|3:0,0:0:0:0:
118,222,39218,2,0,B|118:257|118:257|87:270|87:270|68:322,1,91.9999962711334,10|4,1:1|3:0,0:0:0:0:
61,315,39564,1,10,1:2:0:0:
137,380,39795,1,10,0:2:0:0:
225,328,40027,1,4,3:0:0:0:
225,328,40142,2,2,B|285:339|285:339|320:361|320:361|361:358,1,137.9999944067,10|10,2:1|1:2,0:0:0:0:
412,274,40718,1,4,3:0:0:0:
428,260,40834,1,4,3:0:0:0:
451,255,40950,6,0,P|484:237|487:154,1,91.9999962711334,4|0,3:0|0:0,0:0:0:0:
417,129,41411,2,0,P|364:123|315:86,1,91.9999962711334,10|2,1:2|3:0,0:0:0:0:
322,79,41758,1,2,3:0:0:0:
320,54,41873,1,4,3:0:0:0:
238,13,42104,1,2,3:0:0:0:
238,13,42219,1,2,3:0:0:0:
238,13,42335,1,10,1:2:0:0:
213,110,42565,1,2,3:0:0:0:
127,86,42796,6,2,B|165:95|196:94|131:188|159:206|248:74|179:237|303:67|338:82|170:295|205:288|329:123|379:133|235:296|242:358|375:78|374:180|392:196|187:359|365:237|360:373|386:303|425:333|436:264|515:247|497:322|497:322|511:374|415:378,1,599.999964237214,2|0,1:1|0:0,2:1:0:0:
417,380,44642,6,0,P|379:379|320:359,1,79.9999952316285,4|0,3:1|0:0,0:0:0:0:
256,324,45104,2,0,L|128:354,1,119.999992847443,8|8,1:0|1:2,0:0:0:0:
117,335,45565,2,0,L|56:316,1,39.9999976158142,2|2,3:0|3:0,0:0:0:0:
48,333,45796,1,6,3:0:0:0:
11,243,46027,1,8,1:2:0:0:
110,62,46488,5,6,3:0:0:0:
110,62,46719,1,2,3:0:0:0:
169,133,46950,2,0,L|296:114,1,119.999992847443,8|8,1:0|1:2,0:0:0:0:
309,100,47411,1,2,3:0:0:0:
365,17,47642,1,6,3:0:0:0:
433,84,47873,2,0,P|429:109|407:149,1,39.9999976158142,2|2,1:2|1:2,0:0:0:0:
432,149,48104,2,0,P|417:169|380:189,1,39.9999976158142,2|2,1:2|1:2,0:0:0:0:
387,205,48335,5,6,3:3:0:0:
194,200,48797,2,0,P|143:212|74:231,1,119.999992847443,10|10,1:2|1:2,0:0:0:0:
63,250,49258,2,0,L|47:320,1,39.9999976158142,2|10,3:0|1:2,0:0:0:0:
68,314,49489,1,6,3:0:0:0:
158,357,49719,1,10,1:2:0:0:
158,357,49950,1,2,1:2:0:0:
246,318,50181,5,6,3:3:0:0:
430,374,50643,2,0,L|463:255,1,119.999992847443,8|2,1:2|1:2,0:0:0:0:
483,240,51104,1,2,3:3:0:0:
434,156,51335,1,4,3:0:0:0:
360,225,51566,2,0,P|336:220|305:205,1,39.9999976158142,2|2,1:2|1:2,0:0:0:0:
297,219,51797,2,2,P|276:199|254:168,1,39.9999976158142,2|2,1:2|1:2,0:0:0:0:
240,179,52027,5,6,3:3:0:0:
270,94,52258,1,2,3:0:0:0:
368,114,52488,2,0,L|389:152,2,41.9999962148668,10|0|2,1:2|0:0|3:0,0:0:0:0:
273,78,52950,2,0,P|224:72|174:37,1,83.9999924297336,6|4,3:0|3:0,0:0:0:0:
173,35,53296,1,2,3:0:0:0:
152,17,53411,2,0,P|104:24|36:97,1,125.9999886446,10|2,1:2|3:0,0:0:0:0:
14,77,53873,5,6,3:3:0:0:
36,175,54104,1,8,1:2:0:0:
133,140,54335,2,0,L|233:164,1,83.9999924297336,10|2,1:2|1:2,0:0:0:0:
239,176,54681,1,8,1:2:0:0:
272,174,54796,2,0,P|312:200|311:263,1,83.9999924297336,2|6,3:0|3:3,0:0:0:0:
272,322,55258,2,0,P|249:335|228:344,1,41.9999962148668,2|2,1:2|1:2,0:0:0:0:
221,361,55488,2,0,P|201:358|168:345,1,41.9999962148668,2|2,1:2|1:2,0:0:0:0:
166,328,55719,5,6,3:0:0:0:
256,192,55835,12,4,57565,3:3:0:0:
384,0,58488,6,0,L|399:53,1,39.9999976158142,8|4,3:0|3:0,0:0:0:0:
326,89,58835,1,10,3:3:0:0:
326,89,58950,1,2,3:0:0:0:
394,170,59181,2,2,B|388:187|388:187|392:195|392:195|381:222,1,39.9999976158142,2|2,0:3|0:3,0:0:0:0:
369,226,59411,6,0,L|271:203,1,95.9999913482669,4|2,3:3|3:0,0:0:0:0:
251,189,59758,1,6,3:3:0:0:
222,197,59873,1,10,1:2:0:0:
157,119,60104,1,2,1:1:0:0:
74,171,60335,2,0,P|60:203|106:270,1,95.9999913482669,4|2,3:0|0:3,0:0:0:0:
105,265,60681,1,2,1:2:0:0:
131,268,60796,1,10,1:2:0:0:
185,353,61027,1,2,1:1:0:0:
273,303,61258,6,0,L|383:340,1,95.9999913482669,4|2,3:3|0:3,0:0:0:0:
389,328,61604,1,10,1:1:0:0:
416,319,61719,2,0,L|510:346,1,95.9999913482669,10|10,1:2|1:1,0:0:0:0:
502,242,62181,2,0,P|492:221|474:192,1,47.9999956741335,4|2,3:0|3:0,0:0:0:0:
458,193,62411,2,0,P|447:171|442:140,1,47.9999956741335,2|10,0:3|1:1,0:0:0:0:
449,120,62642,1,4,3:0:0:0:
367,59,62873,1,4,3:0:0:0:
346,68,62988,1,4,3:0:0:0:
332,77,63104,6,0,P|321:118|313:171,1,95.9999913482669,4|2,3:3|3:0,0:0:0:0:
297,188,63451,1,6,3:3:0:0:
286,207,63566,1,10,1:2:0:0:
322,301,63797,1,2,1:1:0:0:
238,358,64027,2,0,L|136:330,1,95.9999913482669,4|2,3:0|0:3,0:0:0:0:
126,318,64374,1,2,1:2:0:0:
107,302,64489,1,10,1:2:0:0:
149,209,64720,1,2,1:1:0:0:
235,155,64951,6,0,P|264:161|326:187,1,95.9999913482669,4|2,3:3|0:3,0:0:0:0:
345,200,65297,1,10,1:1:0:0:
368,214,65412,2,0,P|411:201|458:172,1,95.9999913482669,10|10,1:2|1:1,0:0:0:0:
420,78,65874,2,0,P|399:71|362:64,1,47.9999956741335,4|2,3:0|3:0,0:0:0:0:
354,79,66104,2,0,P|331:72|308:58,1,47.9999956741335,2|10,0:3|1:2,0:0:0:0:
298,36,66335,1,2,1:1:0:0:
230,111,66565,2,4,B|216:131|216:131|213:124|213:124|203:135|203:135|189:150,1,47.9999956741335,4|4,3:0|3:0,0:0:0:0:
189,158,66796,6,0,P|203:199|221:260,1,95.9999913482669,4|2,3:3|3:0,0:0:0:0:
241,263,67143,1,6,3:3:0:0:
273,259,67258,2,0,B|295:268|295:268|308:277|308:277|320:298|320:298|337:310|337:310|356:321,1,95.9999913482669,10|2,1:1|1:2,0:0:0:0:
449,291,67719,1,4,3:0:0:0:
455,267,67835,1,2,3:0:0:0:
461,243,67950,1,2,0:3:0:0:
467,220,68066,1,2,1:2:0:0:
474,198,68181,2,0,B|447:159|447:159|418:151|418:151|377:123,1,95.9999913482669,10|2,1:1|1:2,0:0:0:0:
438,41,68642,5,4,3:3:0:0:
342,46,68873,1,2,0:3:0:0:
317,56,68988,1,2,1:2:0:0:
293,65,69104,2,0,B|249:82|249:82|234:107|234:107|208:112,1,95.9999913482669,10|10,1:1|1:1,0:0:0:0:
132,44,69565,1,4,3:0:0:0:
124,64,69681,1,2,3:0:0:0:
115,84,69796,1,2,0:3:0:0:
106,103,69911,1,2,1:2:0:0:
98,123,70027,2,0,B|67:152|67:152|70:190|70:190|77:220,1,95.9999913482669,10|4,1:1|3:0,0:0:0:0:
98,308,70489,6,0,L|190:340,1,95.9999913482669,4|2,3:3|3:0,0:0:0:0:
214,328,70836,1,6,3:3:0:0:
237,312,70950,2,0,B|251:280|251:280|290:269|290:269|318:230,1,95.9999913482669,10|2,1:1|1:2,0:0:0:0:
243,164,71411,1,4,3:0:0:0:
299,75,71642,1,2,0:3:0:0:
320,56,71758,1,2,1:2:0:0:
346,46,71873,2,0,B|400:71|400:71|421:64|421:64|445:62|445:62,1,95.9999913482669,10|2,1:1|1:2,0:0:0:0:
467,163,72335,5,4,3:3:0:0:
461,187,72450,1,2,3:0:0:0:
456,210,72565,1,2,0:3:0:0:
450,233,72680,1,2,1:2:0:0:
445,254,72796,2,0,B|401:273|401:273|371:307|371:307|337:296,1,95.9999913482669,10|10,1:1|1:1,0:0:0:0:
258,272,73258,6,0,L|244:219,2,47.9999956741335,4|4|4,3:0|3:0|3:0,0:0:0:0:
233,368,73719,2,0,B|209:365|209:365|187:379|187:379|144:367|133:342|133:342|95:339,1,143.9999870224,2|0,0:1|0:0,0:0:0:0:
86,327,74181,6,0,P|58:297|96:206,1,137.9999944067,4|2,3:3|0:0,0:0:0:0:
106,193,74642,1,10,1:2:0:0:
205,211,74873,1,6,3:3:0:0:
232,202,74988,1,2,3:0:0:0:
259,193,75104,2,0,B|300:202|300:202|342:156|342:156|401:138,1,137.9999944067,10|2,0:1|3:0,0:0:0:0:
403,162,75565,1,10,1:2:0:0:
461,79,75796,1,6,3:3:0:0:
450,58,75911,1,6,3:3:0:0:
439,34,76027,6,0,P|386:45|304:65,1,137.9999944067,4|4,3:3|3:3,0:0:0:0:
276,53,76488,1,10,1:2:0:0:
179,23,76719,1,4,3:0:0:0:
107,95,76950,2,0,B|149:117|149:117|168:151|168:151|190:158|190:158|201:163,1,91.9999962711334,10|2,0:1|3:0,0:0:0:0:
197,170,77296,1,2,0:3:0:0:
225,172,77411,1,10,2:0:0:0:
316,215,77642,1,2,3:0:0:0:
254,296,77873,6,0,P|179:308|117:360,1,137.9999944067,4|2,3:3|0:0,0:0:0:0:
113,364,78335,1,10,1:2:0:0:
36,298,78565,1,6,3:3:0:0:
44,274,78681,1,2,3:0:0:0:
51,251,78796,2,0,B|45:213|45:213|72:174|72:174|104:167|104:167|144:125,1,137.9999944067,10|2,0:1|3:0,0:0:0:0:
132,129,79258,1,10,1:2:0:0:
206,60,79488,1,6,3:3:0:0:
229,73,79603,1,6,3:3:0:0:
252,83,79719,6,0,P|282:72|391:48,1,137.9999944067,4|4,3:3|3:3,0:0:0:0:
406,31,80180,1,10,1:2:0:0:
470,109,80411,1,4,3:0:0:0:
391,172,80642,2,0,B|349:194|349:194|342:206|330:224|330:224|271:268,1,137.9999944067,10|0,0:1|2:2,0:0:0:0:
266,274,81104,2,2,B|228:249|228:249|209:230|227:205|192:196|184:202|211:195|211:195|175:167,1,137.9999944067,2|0,0:3|0:0,0:1:0:0:
176,168,81565,6,0,P|136:177|118:274,1,137.9999944067,4|2,3:3|0:0,0:0:0:0:
127,285,82026,1,10,1:2:0:0:
205,348,82257,1,6,3:3:0:0:
231,354,82372,1,2,3:0:0:0:
258,359,82488,2,0,B|298:349|298:349|316:289|316:289|361:247,1,137.9999944067,10|2,0:1|3:0,0:0:0:0:
362,252,82949,1,10,1:2:0:0:
316,161,83180,1,6,3:3:0:0:
291,153,83295,1,6,3:3:0:0:
267,145,83411,6,0,P|216:163|136:192,1,137.9999944067,4|4,3:3|3:3,0:0:0:0:
123,211,83872,1,10,1:2:0:0:
45,146,84103,1,4,3:0:0:0:
114,72,84334,2,0,B|159:57|159:57|196:68|196:68|231:52,1,91.9999962711334,10|2,0:1|3:0,0:0:0:0:
227,58,84681,1,2,0:3:0:0:
249,45,84795,1,10,2:0:0:0:
332,102,85026,1,2,3:0:0:0:
417,45,85257,6,0,P|431:82|456:182,1,137.9999944067,4|2,3:3|0:0,0:0:0:0:
441,202,85719,1,10,1:2:0:0:
343,174,85949,1,6,3:3:0:0:
323,182,86065,1,2,3:0:0:0:
301,190,86180,2,0,B|267:207|267:207|251:251|251:251|262:281|262:281|251:338,1,137.9999944067,10|2,0:1|3:0,0:0:0:0:
243,326,86642,1,10,1:2:0:0:
150,368,86873,1,6,3:3:0:0:
131,352,86987,1,6,3:3:0:0:
114,334,87103,6,0,P|91:286|136:192,1,137.9999944067,4|4,3:3|3:3,0:0:0:0:
138,189,87564,1,10,1:2:0:0:
57,131,87795,1,4,3:0:0:0:
115,47,88027,6,0,B|107:34|108:29|91:10,1,30.6666654237111,10|0,0:1|0:0,0:0:0:0:
9,24,93104,6,0,B|39:42|39:42|71:43|71:43|86:93,1,91.9999962711334,2|0,3:0|0:0,0:0:0:0:
229,77,93681,2,0,B|280:92|280:92|292:144|292:144|341:174,1,137.9999944067,2|0,3:0|0:0,0:0:0:0:
387,241,94258,6,2,B|368:255|368:255|341:257|341:257|326:261|314:304|314:304|248:277|248:277|210:298|210:298|191:321|191:321|142:334|142:334|87:320|87:320|73:351|73:351|24:338,1,431.999961067201,2|0,3:0|0:0,0:1:0:0:
