osu file format v14

[General]
AudioFilename: audio.mp3
AudioLeadIn: 0
PreviewTime: 60014
Countdown: 0
SampleSet: Soft
StackLeniency: 0.7
Mode: 0
LetterboxInBreaks: 0
WidescreenStoryboard: 1

[Editor]
Bookmarks: 15014,30014,46889,60014,82514,90014,97514,104955,112514,120014
DistanceSpacing: 1.7
BeatDivisor: 12
GridSize: 32
TimelineZoom: 1.7

[Metadata]
Title:his pronouns are they/them
TitleUnicode:his pronouns are they/them
Artist:xaev
ArtistUnicode:xaev
Creator:dakiwii
Version:pronoun picker going ins/ane
Source:
Tags:english electronic edm instrumental dariacore glitchcore glitch hyperpop daria core hyper pop berdlycore hyperflip flip chapter 2 berdly skrillex cinema undertale deltarune schnozz Remix Benny Benassi Gary Go Party Rock Anthem LMFAO Lauren Bennett Listenbee Till the World Ends Britney Spears complextro plunderphonics
BeatmapID:4378923
BeatmapSetID:2087515

[Difficulty]
HPDrainRate:5
CircleSize:3.8
OverallDifficulty:8
ApproachRate:8.6
SliderMultiplier:2.5
SliderTickRate:1

[Events]
//Background and Video events
0,0,"4t89u3o34tmut39304t484893p0.png",0,0
//Break Periods
2,60214,73326
2,120214,123131
//Storyboard Layer 0 (Background)
//Storyboard Layer 1 (Fail)
//Storyboard Layer 2 (Pass)
//Storyboard Layer 3 (Foreground)
//Storyboard Layer 4 (Overlay)
//Storyboard Sound Samples

[TimingPoints]
14,468.75,4,2,0,80,1,0
20,-166.666666666667,4,2,0,80,0,0
15014,-117.647058823529,4,2,0,60,0,0
22514,-100,4,2,0,50,0,0
23451,-100,4,2,0,55,0,0
24389,-100,4,2,0,60,0,0
25326,-100,4,2,0,65,0,0
26264,-100,4,2,0,40,0,0
26732,-100,4,2,0,50,0,0
27201,-100,4,2,0,60,0,0
27670,-100,4,2,0,70,0,0
28139,-100,4,2,0,50,0,0
28256,-100,4,2,0,60,0,0
28373,-100,4,2,0,70,0,0
28490,-100,4,2,0,80,0,0
28607,-100,4,2,0,90,0,0
29076,-133.333333333333,4,2,0,60,0,0
30014,-66.6666666666667,4,2,0,80,0,0
30365,-66.6666666666667,4,2,0,5,0,0
30482,-55.5555555555556,4,2,0,80,0,0
30834,-55.5555555555556,4,2,0,5,0,0
30951,-45.4545454545455,4,2,0,80,0,0
31244,-45.4545454545455,4,2,0,5,0,0
31303,-45.4545454545455,4,2,0,80,0,0
31420,-66.6666666666667,4,2,0,80,0,0
31654,-83.3333333333333,4,2,0,80,0,0
31830,-83.3333333333333,4,2,0,5,0,0
31889,-66.6666666666667,4,2,0,80,0,0
32650,-66.6666666666667,4,2,0,5,0,0
32709,-66.6666666666667,4,2,0,80,0,0
33236,-66.6666666666667,4,2,0,5,0,0
33295,-66.6666666666667,4,2,0,80,0,0
33529,-100,4,2,0,80,0,0
33705,-100,4,2,0,5,0,0
33764,-66.6666666666667,4,2,0,80,0,0
34115,-66.6666666666667,4,2,0,5,0,0
34232,-55.5555555555556,4,2,0,80,0,0
34584,-55.5555555555556,4,2,0,5,0,0
34701,-45.4545454545455,4,2,0,80,0,0
34994,-45.4545454545455,4,2,0,5,0,0
35053,-45.4545454545455,4,2,0,80,0,0
35170,-83.3333333333333,4,2,0,80,0,0
35404,-55.5555555555556,4,2,0,80,0,0
35580,-55.5555555555556,4,2,0,5,0,0
35639,-100,4,2,0,80,0,0
36107,-66.6666666666667,4,2,0,80,0,0
36400,-66.6666666666667,4,2,0,5,0,0
36459,-66.6666666666667,4,2,0,80,0,0
37279,-100,4,2,0,80,0,0
37455,-100,4,2,0,5,0,0
37514,-66.6666666666667,4,2,0,80,0,0
37865,-66.6666666666667,4,2,0,5,0,0
37982,-55.5555555555556,4,2,0,80,0,0
38334,-55.5555555555556,4,2,0,5,0,0
38451,-45.4545454545455,4,2,0,80,0,0
38744,-45.4545454545455,4,2,0,5,0,0
38803,-45.4545454545455,4,2,0,80,0,0
38920,-66.6666666666667,4,2,0,80,0,0
39154,-55.5555555555556,4,2,0,80,0,0
39330,-55.5555555555556,4,2,0,5,0,0
39389,-66.6666666666667,4,2,0,80,0,0
40150,-66.6666666666667,4,2,0,5,0,0
40209,-66.6666666666667,4,2,0,80,0,0
40736,-66.6666666666667,4,2,0,5,0,0
40795,-66.6666666666667,4,2,0,80,0,0
41029,-133.333333333333,4,2,0,80,0,0
41264,-66.6666666666667,4,2,0,80,0,0
41615,-66.6666666666667,4,2,0,5,0,0
41732,-55.5555555555556,4,2,0,80,0,0
42084,-55.5555555555556,4,2,0,5,0,0
42201,-45.4545454545455,4,2,0,80,0,0
42494,-45.4545454545455,4,2,0,5,0,0
42553,-45.4545454545455,4,2,0,80,0,0
42670,-66.6666666666667,4,2,0,80,0,0
42904,-55.5555555555556,4,2,0,80,0,0
43080,-55.5555555555556,4,2,0,5,0,0
43139,-100,4,2,0,80,0,0
43607,-66.6666666666667,4,2,0,80,0,0
43900,-66.6666666666667,4,2,0,5,0,0
43959,-66.6666666666667,4,2,0,80,0,0
44779,-133.333333333333,4,2,0,80,0,0
45014,-133.333333333333,4,2,0,80,0,0
45248,-133.333333333333,4,2,0,5,0,0
45482,-133.333333333333,4,2,0,80,0,0
45717,-133.333333333333,4,2,0,5,0,0
45951,-133.333333333333,4,2,0,80,0,0
46185,-133.333333333333,4,2,0,5,0,0
46303,-133.333333333333,4,2,0,80,0,0
46420,-58.8235294117647,4,2,0,80,0,0
46889,-66.6666666666667,4,2,0,80,0,0
47650,-66.6666666666667,4,2,0,5,0,0
47709,-66.6666666666667,4,2,0,80,0,0
48236,-66.6666666666667,4,2,0,5,0,0
48295,-66.6666666666667,4,2,0,80,0,0
48529,-100,4,2,0,80,0,0
48705,-100,4,2,0,5,0,0
48764,-66.6666666666667,4,2,0,80,0,0
49115,-66.6666666666667,4,2,0,5,0,0
49232,-55.5555555555556,4,2,0,80,0,0
49584,-55.5555555555556,4,2,0,5,0,0
49701,-45.4545454545455,4,2,0,80,0,0
49994,-45.4545454545455,4,2,0,5,0,0
50053,-45.4545454545455,4,2,0,80,0,0
50170,-83.3333333333333,4,2,0,80,0,0
50404,-55.5555555555556,4,2,0,80,0,0
50580,-55.5555555555556,4,2,0,5,0,0
50639,-100,4,2,0,80,0,0
51107,-55.5555555555556,4,2,0,80,0,0
51400,-55.5555555555556,4,2,0,5,0,0
51459,-55.5555555555556,4,2,0,80,0,0
51576,-66.6666666666667,4,2,0,80,0,0
52279,-50,4,2,0,80,0,0
52514,-66.6666666666667,4,2,0,80,0,0
52865,-66.6666666666667,4,2,0,5,0,0
52982,-55.5555555555556,4,2,0,80,0,0
53334,-55.5555555555556,4,2,0,5,0,0
53451,-45.4545454545455,4,2,0,80,0,0
53744,-45.4545454545455,4,2,0,5,0,0
53803,-45.4545454545455,4,2,0,80,0,0
53920,-66.6666666666667,4,2,0,80,0,0
54154,-55.5555555555556,4,2,0,80,0,0
54330,-55.5555555555556,4,2,0,5,0,0
54389,-66.6666666666667,4,2,0,80,0,0
54974,-55.5555555555556,4,2,0,80,0,0
55150,-55.5555555555556,4,2,0,5,0,0
55209,-55.5555555555556,4,2,0,80,0,0
55326,-66.6666666666667,4,2,0,80,0,0
55736,-66.6666666666667,4,2,0,5,0,0
55795,-66.6666666666667,4,2,0,80,0,0
56029,-133.333333333333,4,2,0,80,0,0
56107,-133.333333333333,4,2,0,5,0,0
56264,-66.6666666666667,4,2,0,80,0,0
56615,-66.6666666666667,4,2,0,5,0,0
56732,-55.5555555555556,4,2,0,80,0,0
57084,-55.5555555555556,4,2,0,5,0,0
57201,-45.4545454545455,4,2,0,80,0,0
57494,-45.4545454545455,4,2,0,5,0,0
57553,-45.4545454545455,4,2,0,80,0,0
57670,-66.6666666666667,4,2,0,80,0,0
57904,-55.5555555555556,4,2,0,80,0,0
58080,-55.5555555555556,4,2,0,5,0,0
58139,-100,4,2,0,80,0,0
58607,-66.6666666666667,4,2,0,80,0,0
58900,-66.6666666666667,4,2,0,5,0,0
58959,-66.6666666666667,4,2,0,80,0,0
59545,-100,4,2,0,80,0,0
60014,-133.333333333333,4,2,0,80,0,0
74545,-133.333333333333,4,2,0,50,0,0
75014,-83.3333333333333,4,2,0,80,0,0
75424,-83.3333333333333,4,2,0,5,0,0
75482,-117.647058823529,4,2,0,80,0,0
77767,-117.647058823529,4,2,0,5,0,0
77826,-117.647058823529,4,2,0,80,0,0
84389,-100,4,2,0,80,0,0
90014,-50,4,2,0,80,0,0
90482,-45.4545454545455,4,2,0,80,0,0
90951,-55.5555555555556,4,2,0,80,0,0
91244,-55.5555555555556,4,2,0,5,0,0
91303,-66.6666666666667,4,2,0,80,0,0
91420,-55.5555555555556,4,2,0,80,0,0
91713,-55.5555555555556,4,2,0,5,0,0
91771,-55.5555555555556,4,2,0,80,0,0
91889,-50,4,2,0,80,0,0
92357,-55.5555555555556,4,2,0,80,0,0
92592,-100,4,2,0,80,0,0
92826,-55.5555555555556,4,2,0,80,0,0
93236,-55.5555555555556,4,2,0,5,0,0
93295,-55.5555555555556,4,2,0,80,0,0
93764,-50,4,2,0,80,0,0
94232,-43.4782608695652,4,2,0,80,0,0
94701,-100,4,2,0,80,0,0
95053,-55.5555555555556,4,2,0,80,0,0
95463,-55.5555555555556,4,2,0,5,0,0
95521,-55.5555555555556,4,2,0,80,0,0
95639,-55.5555555555556,4,2,0,80,0,0
96107,-55.5555555555556,4,2,0,80,0,0
96400,-55.5555555555556,4,2,0,5,0,0
96459,-55.5555555555556,4,2,0,80,0,0
96576,-66.6666666666667,4,2,0,80,0,0
96752,-66.6666666666667,4,2,0,5,0,0
96810,-90.9090909090909,4,2,0,80,0,0
96869,-90.9090909090909,4,2,6,5,0,0
96928,-90.9090909090909,4,2,0,80,0,0
96986,-90.9090909090909,4,2,6,5,0,0
97045,-90.9090909090909,4,2,0,80,0,0
97103,-90.9090909090909,4,2,6,5,0,0
97162,-90.9090909090909,4,2,0,80,0,0
97221,-90.9090909090909,4,2,6,5,0,0
97279,-90.9090909090909,4,2,0,80,0,0
97338,-90.9090909090909,4,2,6,5,0,0
97396,-90.9090909090909,4,2,0,80,0,0
97455,-90.9090909090909,4,2,0,5,0,0
97514,-50,4,2,0,80,0,0
97982,-45.4545454545455,4,2,0,80,0,0
98451,-55.5555555555556,4,2,0,80,0,0
98744,-55.5555555555556,4,2,0,5,0,0
98803,-66.6666666666667,4,2,0,80,0,0
98920,-55.5555555555556,4,2,0,80,0,0
99213,-55.5555555555556,4,2,0,5,0,0
99271,-55.5555555555556,4,2,0,80,0,0
99389,-50,4,2,0,80,0,0
99857,-55.5555555555556,4,2,0,80,0,0
100092,-100,4,2,0,80,0,0
100326,-55.5555555555556,4,2,0,80,0,0
100736,-55.5555555555556,4,2,0,5,0,0
100795,-55.5555555555556,4,2,0,80,0,0
101264,-50,4,2,0,80,0,0
101732,-43.4782608695652,4,2,0,80,0,0
102201,-100,4,2,0,80,0,0
102553,-55.5555555555556,4,2,0,80,0,0
102963,-55.5555555555556,4,2,0,5,0,0
103021,-55.5555555555556,4,2,0,80,0,0
103139,-50,4,2,0,80,0,0
103607,-100,4,2,0,80,0,0
104076,-66.6666666666667,4,2,0,80,0,0
104310,-100,4,2,0,80,0,0
104369,-100,4,2,6,5,0,0
104428,-100,4,2,0,80,0,0
104486,-100,4,2,6,5,0,0
104545,-100,4,2,0,80,0,0
104603,-100,4,2,6,5,0,0
104662,-100,4,2,0,80,0,0
104721,-100,4,2,6,5,0,0
104779,-100,4,2,0,80,0,0
105014,-50,4,2,0,80,0,0
105482,-45.4545454545455,4,2,0,80,0,0
105951,-55.5555555555556,4,2,0,80,0,0
106244,-55.5555555555556,4,2,0,5,0,0
106303,-66.6666666666667,4,2,0,80,0,0
106420,-55.5555555555556,4,2,0,80,0,0
106713,-55.5555555555556,4,2,0,5,0,0
106771,-55.5555555555556,4,2,0,80,0,0
106889,-50,4,2,0,80,0,0
107357,-55.5555555555556,4,2,0,80,0,0
107592,-100,4,2,0,80,0,0
107826,-55.5555555555556,4,2,0,80,0,0
108236,-55.5555555555556,4,2,0,5,0,0
108295,-55.5555555555556,4,2,0,80,0,0
108764,-50,4,2,0,80,0,0
109232,-43.4782608695652,4,2,0,80,0,0
109701,-100,4,2,0,80,0,0
109994,-100,4,2,0,5,0,0
110053,-55.5555555555556,4,2,0,80,0,0
110463,-55.5555555555556,4,2,0,5,0,0
110521,-55.5555555555556,4,2,0,80,0,0
110639,-55.5555555555556,4,2,0,80,0,0
111107,-55.5555555555556,4,2,0,80,0,0
111400,-55.5555555555556,4,2,0,5,0,0
111459,-55.5555555555556,4,2,0,80,0,0
111576,-66.6666666666667,4,2,0,80,0,0
111752,-66.6666666666667,4,2,0,5,0,0
111810,-100,4,2,0,80,0,0
111869,-100,4,2,6,5,0,0
111928,-100,4,2,0,80,0,0
111986,-66.6666666666667,4,2,6,5,0,0
112006,-66.6666666666667,4,2,0,5,0,0
112045,-133.333333333333,4,2,0,50,0,0
112514,-50,4,2,0,80,0,0
112982,-45.4545454545455,4,2,0,80,0,0
113451,-55.5555555555556,4,2,0,80,0,0
113744,-55.5555555555556,4,2,0,5,0,0
113803,-66.6666666666667,4,2,0,80,0,0
113920,-55.5555555555556,4,2,0,80,0,0
114213,-55.5555555555556,4,2,0,5,0,0
114271,-55.5555555555556,4,2,0,80,0,0
114389,-50,4,2,0,80,0,0
114857,-55.5555555555556,4,2,0,80,0,0
115092,-100,4,2,0,80,0,0
115326,-55.5555555555556,4,2,0,80,0,0
115736,-55.5555555555556,4,2,0,5,0,0
115795,-55.5555555555556,4,2,0,80,0,0
116264,-50,4,2,0,80,0,0
116732,-43.4782608695652,4,2,0,80,0,0
117201,-100,4,2,0,80,0,0
117553,-55.5555555555556,4,2,0,80,0,0
117963,-55.5555555555556,4,2,0,5,0,0
118021,-55.5555555555556,4,2,0,80,0,0
118139,-50,4,2,0,80,0,0
118431,-50,4,2,0,5,0,0
118490,-50,4,2,0,80,0,0
118607,-55.5555555555556,4,2,0,80,0,0
118842,-100,4,2,0,80,0,0
119076,-66.6666666666667,4,2,0,80,0,0
119310,-76.9230769230769,4,2,0,80,0,0
119369,-76.9230769230769,4,2,6,5,0,0
119428,-76.9230769230769,4,2,0,80,0,0
119486,-76.9230769230769,4,2,6,5,0,0
119545,-76.9230769230769,4,2,0,85,0,0
119603,-76.9230769230769,4,2,6,5,0,0
119662,-76.9230769230769,4,2,0,80,0,0
119721,-76.9230769230769,4,2,6,5,0,0
119779,-76.9230769230769,4,2,0,80,0,0
120014,-133.333333333333,4,2,0,80,0,0
123881,-133.333333333333,4,2,0,65,0,0

[Colours]
Combo1 : 186,233,139
Combo2 : 109,209,194
Combo3 : 174,206,115
Combo4 : 120,216,214

[HitObjects]
420,384,15014,6,0,P|326:329|354:234,1,212.500004053116,4|0,1:0|1:0,0:0:0:0:
454,191,15717,1,2,3:0:0:0:
330,98,15951,2,0,B|202:111|244:160|122:173,1,212.500004053116,0|0,1:0|1:0,0:0:0:0:
134,172,16889,2,0,P|236:192|354:229,1,212.500004053116,0|0,1:0|1:0,0:0:0:0:
441,172,17592,1,2,3:0:0:0:
441,172,17826,2,0,P|477:193|474:276,1,106.250002026558,0|0,1:0|0:0,0:0:0:0:
381,384,18295,2,0,P|340:356|350:279,1,106.250002026558,0|0,1:0|0:0,0:0:0:0:
459,53,18764,6,0,P|437:123|398:277,1,212.500004053116,0|0,1:0|1:0,0:0:0:0:
406,262,19701,1,0,1:0:0:0:
406,262,19935,1,2,3:0:0:0:
265,330,20170,1,0,1:0:0:0:
265,330,20404,2,0,P|212:313|184:267,1,106.250002026558,2|0,3:0|1:0,0:0:0:0:
43,279,20873,2,0,P|146:248|171:131,1,212.500004053116,2|0,3:0|0:0,0:0:0:0:
53,29,21576,1,0,1:0:0:0:
53,29,22045,1,0,1:0:0:0:
239,125,22514,5,0,1:0:0:0:
239,125,22748,1,4,0:3:0:0:
320,108,22982,1,0,1:0:0:0:
320,108,23217,1,4,0:3:0:0:
396,89,23451,1,0,1:0:0:0:
396,89,23685,1,4,0:3:0:0:
472,68,23920,1,0,1:0:0:0:
472,68,24154,1,4,0:3:0:0:
337,217,24389,5,0,1:0:0:0:
337,217,24623,1,4,0:3:0:0:
251,191,24857,1,0,1:0:0:0:
251,191,25092,1,4,0:3:0:0:
162,159,25326,1,0,1:0:0:0:
162,159,25560,1,4,0:3:0:0:
75,124,25795,1,0,1:0:0:0:
75,124,26029,1,4,0:3:0:0:
180,267,26264,5,0,1:0:0:0:
182,290,26381,1,0,1:0:0:0:
209,308,26498,1,0,1:0:0:0:
231,303,26615,1,0,1:0:0:0:
250,304,26732,1,0,1:0:0:0:
270,323,26849,1,0,1:0:0:0:
280,342,26967,1,0,1:0:0:0:
309,349,27084,1,0,1:0:0:0:
343,334,27201,5,0,1:0:0:0:
366,314,27318,1,0,1:0:0:0:
399,332,27435,1,0,1:0:0:0:
420,362,27553,1,0,1:0:0:0:
457,351,27670,1,0,1:0:0:0:
491,322,27787,1,0,1:0:0:0:
467,284,27904,1,0,1:0:0:0:
490,243,28021,1,0,1:0:0:0:
490,243,28139,6,0,L|502:215,7,31.25,0|0|0|0|0|0|0|0,3:0|3:0|3:0|3:0|3:0|3:0|3:0|3:0,3:0:0:0:
448,159,28607,6,0,L|432:140,12,20.8333333333333,0|0|0|0|0|0|0|0|0|0|0|0|0,3:0|3:0|3:0|3:0|3:0|3:0|3:0|3:0|3:0|3:0|3:0|3:0|3:0,3:0:0:0:
267,44,30014,6,0,B|119:21|119:21|263:91,1,281.250010728836,10|0,1:0|0:0,0:1:0:0:
338,134,30482,6,0,B|501:61|501:61|345:171,1,337.499989700318,2|0,1:1|0:0,0:0:0:0:
241,235,30951,6,0,B|82:135|82:135|218:263,1,343.750010490418,2|0,1:1|0:0,0:0:0:0:
244,331,31303,5,2,3:0:0:0:
244,331,31420,2,0,P|286:323|306:269,1,93.7500035762788,8|2,1:0|3:0,0:0:0:0:
419,132,31654,2,0,P|393:184|380:257,1,112.499996566773,2|0,1:0|0:0,0:0:0:0:
369,372,31889,6,0,P|347:280|310:185,1,187.500007152558,6|8,0:3|3:0,0:0:0:0:
313,193,32240,1,2,3:0:0:0:
218,144,32357,1,8,1:0:0:0:
218,144,32474,2,0,P|286:122|335:48,1,140.625005364418,2|0,1:0|0:0,0:0:0:0:
350,43,32709,1,2,0:0:0:0:
398,41,32826,1,6,0:3:0:0:
433,69,32943,1,0,1:0:0:0:
459,52,33060,2,0,P|445:88|405:216,1,140.625005364418,2|0,0:1|0:0,0:0:0:0:
501,155,33295,1,8,1:0:0:0:
240,67,33529,6,0,P|231:32|246:63,1,93.75,2|0,0:1|0:0,0:0:0:0:
311,143,33764,6,0,B|382:42|382:42|314:197,1,281.250010728836,10|0,1:0|0:0,0:1:0:0:
214,212,34232,6,0,B|143:90|143:90|222:298,1,337.499989700318,2|0,1:1|0:0,0:0:0:0:
349,307,34701,6,0,B|441:191|441:191|332:395,1,343.750010490418,2|0,1:1|0:0,0:0:0:0:
279,376,35053,5,2,3:0:0:0:
279,376,35170,2,0,L|192:338,1,74.9999977111817,8|2,1:0|3:0,0:0:0:0:
73,189,35404,2,0,P|109:250|135:374,1,168.749994850159,2|0,1:0|0:0,0:0:0:0:
63,384,35639,1,4,0:3:0:0:
63,384,35756,2,0,P|35:380|2:357,2,62.5,0|10|2,3:0|0:3|3:0,0:0:0:0:
189,252,36107,1,8,1:0:0:0:
189,252,36224,2,0,P|109:230|63:118,1,187.500007152558,2|2,1:0|0:0,0:0:0:0:
0,26,36576,5,6,0:3:0:0:
0,26,36693,1,0,1:0:0:0:
0,26,36810,2,0,P|46:50|90:51,1,93.7500035762788,2|0,0:1|0:0,0:0:0:0:
276,0,37045,1,8,1:0:0:0:
276,0,37279,6,0,B|287:10|283:19|283:19|291:31|291:31|290:44|290:44|298:53|298:61|298:61|305:73|305:73|302:80|302:80|316:103,1,93.75,2|0,0:1|0:0,0:0:0:0:
397,96,37514,6,0,B|203:163|203:163|287:199,1,281.250010728836,10|0,1:0|0:0,0:1:0:0:
398,251,37982,6,0,B|456:18|456:18|382:113,1,337.499989700318,2|0,1:1|0:0,0:0:0:0:
230,212,38451,6,0,B|462:312|462:312|397:250,1,343.750010490418,2|0,1:1|0:0,0:0:0:0:
342,180,38803,5,2,3:0:0:0:
342,180,38920,2,0,P|312:143|317:78,1,93.7500035762788,8|2,1:0|3:0,0:0:0:0:
512,0,39154,2,0,P|492:49|458:186,1,168.749994850159,2|0,1:0|0:0,0:0:0:0:
396,249,39389,6,0,P|337:208|203:181,1,187.500007152558,6|8,0:3|3:0,0:0:0:0:
225,180,39740,1,2,3:0:0:0:
313,102,39857,1,8,1:0:0:0:
313,102,39974,2,0,P|376:90|433:23,1,140.625005364418,2|0,1:0|0:0,0:0:0:0:
448,45,40209,1,2,0:0:0:0:
439,82,40326,1,6,0:3:0:0:
447,112,40443,1,0,1:0:0:0:
409,67,40560,2,0,P|337:27|257:21,1,140.625005364418,2|0,0:1|0:0,0:0:0:0:
208,46,40795,1,8,1:0:0:0:
208,46,41029,6,0,L|197:91,1,46.8750017881394
361,262,41264,6,0,B|443:377|443:377|316:271,1,281.250010728836,10|0,1:0|0:0,0:1:0:0:
221,153,41732,6,0,B|326:23|326:23|263:180,1,337.499989700318,2|0,1:1|0:0,0:0:0:0:
112,318,42201,6,0,B|8:188|8:188|156:286,1,343.750010490418,2|0,1:1|0:0,0:0:0:0:
222,248,42553,5,2,3:0:0:0:
222,248,42670,2,0,P|258:279|248:335,1,93.7500035762788,8|2,1:0|3:0,0:0:0:0:
112,318,42904,2,0,P|193:336|276:390,1,168.749994850159,2|0,1:0|0:0,0:0:0:0:
327,333,43139,1,4,0:3:0:0:
327,333,43256,2,0,L|309:243,2,62.5,0|10|2,3:0|0:3|3:0,0:0:0:0:
484,376,43607,1,8,1:0:0:0:
484,376,43724,2,0,P|419:340|440:254,1,140.625005364418,2|0,1:0|0:0,0:0:0:0:
445,259,43959,5,2,0:0:0:0:
466,234,44076,1,6,0:3:0:0:
458,201,44193,1,0,1:0:0:0:
484,171,44310,1,2,0:0:0:0:
468,139,44428,1,2,3:0:0:0:
427,166,44545,2,0,P|379:156|350:104,1,93.7500035762788,8|2,1:0|0:0,0:0:0:0:
211,10,44779,1,6,0:3:0:0:
211,10,45014,6,2,P|257:33|274:87,1,93.7500035762788,4|0,0:3|0:0,0:1:0:0:
273,69,45482,6,2,P|259:120|206:139,1,93.7500035762788,2|0,0:0|0:0,0:1:0:0:
225,138,45951,6,2,P|177:126|160:75,1,93.7500035762788,2|0,0:0|0:0,0:1:0:0:
159,88,46303,1,2,3:0:0:0:
107,151,46420,2,0,P|118:185|134:253,1,106.250002026558,8|0,1:0|0:0,0:0:0:0:
21,184,46654,1,0,1:0:0:0:
169,347,46889,6,0,P|241:303|359:284,1,187.500007152558,6|8,0:3|3:0,0:0:0:0:
341,283,47240,1,2,3:0:0:0:
424,212,47357,1,8,1:0:0:0:
424,212,47474,2,0,P|492:234|507:298,1,140.625005364418,2|0,1:0|0:0,0:0:0:0:
478,320,47709,1,2,0:0:0:0:
459,358,47826,1,6,0:3:0:0:
424,339,47943,1,0,1:0:0:0:
387,360,48060,2,0,P|304:358|273:283,1,140.625005364418,2|0,0:1|0:0,0:0:0:0:
308,247,48295,1,8,1:0:0:0:
308,247,48529,6,0,P|346:212|349:176,1,62.5,2|0,0:1|0:0,0:0:0:0:
206,27,48764,6,0,P|227:112|263:302,1,281.250010728836,10|0,1:0|0:0,0:1:0:0:
358,331,49232,6,0,P|331:164|294:0,1,337.499989700318,2|0,1:1|0:0,0:0:0:0:
123,32,49701,6,0,P|207:53|460:136,1,343.750010490418,2|0,1:1|3:0,3:0:0:0:
437,225,50053,5,2,3:0:0:0:
437,225,50170,2,0,P|401:217|354:181,1,74.9999977111817,8|2,1:0|3:0,0:0:0:0:
211,145,50404,2,0,P|252:181|254:297,1,168.749994850159,2|0,1:0|0:0,0:0:0:0:
191,336,50639,1,4,0:3:0:0:
191,336,50756,2,0,P|163:332|130:309,2,62.5,0|10|2,3:0|0:3|3:0,0:0:0:0:
333,159,51107,1,8,1:0:0:0:
337,163,51224,2,0,P|219:126|159:11,1,224.999993133545,2|2,1:0|0:0,0:0:0:0:
22,204,51576,5,6,0:3:0:0:
22,204,51693,1,0,1:0:0:0:
22,204,51810,2,0,P|70:199|114:133,1,93.7500035762788,2|2,0:1|3:0,0:0:0:0:
155,36,52045,1,8,1:0:0:0:
417,122,52279,5,2,0:0:0:0:
417,122,52514,6,0,L|129:204,1,281.250010728836,10|0,1:0|0:0,0:1:0:0:
96,120,52982,6,0,B|417:227,1,337.499989700318,2|0,1:1|0:0,0:0:0:0:
393,316,53451,6,0,B|145:7,1,343.750010490418,2|0,1:1|0:0,0:0:0:0:
104,0,53803,5,2,3:0:0:0:
104,0,53920,2,0,P|52:34|69:91,1,93.7500035762788,8|2,1:0|3:0,0:0:0:0:
67,263,54154,2,0,P|93:171|127:87,1,168.749994850159,2|0,1:0|0:0,0:0:0:0:
177,47,54389,6,0,P|236:88|216:196,1,187.500007152558,6|8,0:3|3:0,0:0:0:0:
220,191,54740,1,2,3:0:0:0:
151,236,54857,1,8,1:0:0:0:
152,234,54974,2,0,P|215:246|282:322,1,168.749994850159,2|0,1:0|0:0,0:0:0:0:
283,356,55209,1,2,0:0:0:0:
315,319,55326,1,6,0:3:0:0:
360,340,55443,1,0,1:0:0:0:
387,383,55560,2,0,P|443:354|417:265,1,140.625005364418,2|0,0:1|0:0,0:0:0:0:
384,232,55795,1,8,1:0:0:0:
384,232,56029,6,0,L|393:199,1,31.2500011920929
387,383,56264,6,0,B|333:97,1,281.250010728836,10|0,1:0|0:0,0:1:0:0:
321,3,56732,6,0,B|209:322,1,337.499989700318,2|0,1:1|0:0,0:0:0:0:
128,384,57201,6,0,B|32:38,1,343.750010490418,2|0,1:1|0:0,0:0:0:0:
111,7,57553,5,2,3:0:0:0:
111,7,57670,2,0,P|147:38|137:94,1,93.7500035762788,8|2,1:0|3:0,0:0:0:0:
0,123,57904,2,0,P|75:141|161:211,1,168.749994850159,2|0,1:0|0:0,0:0:0:0:
196,259,58139,1,4,0:3:0:0:
196,259,58256,2,0,P|214:239|223:184,2,62.5,0|10|2,3:0|0:3|3:0,0:0:0:0:
0,314,58607,1,8,1:0:0:0:
0,314,58724,2,0,L|153:354,1,140.625005364418,2|0,1:0|0:0,0:0:0:0:
168,325,58959,5,2,3:0:0:0:
194,339,59076,1,6,0:3:0:0:
230,326,59193,1,0,1:0:0:0:
272,351,59310,1,2,0:0:0:0:
321,332,59428,1,2,3:0:0:0:
321,332,59545,2,0,L|361:360,7,31.25,0|0|0|0|0|0|0|0,3:0|3:0|3:0|3:0|3:0|3:0|3:0|3:0,3:0:0:0:
416,309,60014,5,12,1:0:0:0:
274,118,74076,6,0,P|264:80|252:26,1,93.7500035762788,2|2,0:1|0:0,0:0:0:0:
176,5,74428,1,2,0:0:0:0:
176,5,74545,2,2,L|129:27,3,31.2500011920929
387,127,75014,6,0,B|417:158|417:158|450:165|450:165|412:233|412:233|473:228|473:228|526:260,1,262.499991989136,14|0,1:1|0:0,0:0:0:0:
512,277,75482,2,0,P|495:334|437:359,1,106.250002026558,0|0,1:0|0:0,0:0:0:0:
382,315,75834,1,2,0:0:0:0:
372,301,75951,2,0,P|302:313|261:348,1,106.250002026558,0|2,1:0|0:0,0:0:0:0:
274,332,76420,1,0,1:0:0:0:
181,285,76654,1,2,0:0:0:0:
261,173,76889,2,0,L|231:63,1,106.250002026558,0|2,1:0|0:0,0:0:0:0:
22,0,77357,2,0,P|90:55|111:140,1,159.375003039837,0|2,1:0|0:0,0:0:0:0:
176,196,77826,2,0,P|220:173|274:155,2,106.250002026558,0|2|0,1:0|0:0|1:0,0:0:0:0:
176,196,78529,2,0,L|154:261,1,53.125001013279,2|0,0:0|0:0,0:0:0:0:
275,376,78764,6,0,P|341:348|437:318,1,159.375003039837,2|0,1:0|0:0,0:0:0:0:
424,321,79232,1,0,1:0:0:0:
492,224,79467,1,2,0:0:0:0:
343,317,79701,2,0,P|277:270|276:175,1,159.375003039837,0|2,1:0|0:0,0:0:0:0:
267,196,80170,1,0,1:0:0:0:
361,135,80404,1,2,0:0:0:0:
233,0,80639,2,0,L|202:114,1,106.250002026558,0|2,1:0|0:0,0:0:0:0:
361,135,81107,2,0,L|328:22,1,106.250002026558,0|2,1:0|0:0,0:0:0:0:
267,186,81576,1,0,1:0:0:0:
267,186,81810,1,2,0:0:0:0:
362,230,82045,1,0,1:0:0:0:
362,230,82279,1,2,0:0:0:0:
255,306,82514,6,0,L|198:329,1,53.125001013279,2|0,1:2|0:0,0:0:0:0:
219,342,82748,2,0,L|150:321,1,53.125001013279,6|0,0:3|0:0,0:0:0:0:
90,365,82982,2,0,L|56:305,1,53.125001013279,2|0,1:2|0:0,0:0:0:0:
44,345,83217,2,0,L|59:272,1,53.125001013279,6|0,0:3|0:0,0:0:0:0:
112,215,83451,2,0,L|159:247,1,53.125001013279,2|0,1:2|0:0,0:0:0:0:
138,259,83685,2,0,L|190:237,1,53.125001013279,6|0,0:3|0:0,0:0:0:0:
254,190,83919,2,0,L|266:138,1,53.125001013279,2|0,1:2|0:0,0:0:0:0:
287,150,84154,2,0,L|263:99,1,53.125001013279,6|0,0:3|0:0,0:0:0:0:
166,10,84389,6,0,L|143:83,1,62.5,2|0,1:2|0:0,0:0:0:0:
123,53,84623,2,0,L|147:113,1,62.5,6|0,0:3|0:0,0:0:0:0:
226,190,84857,2,0,L|288:154,1,62.5,2|0,1:2|0:0,0:0:0:0:
261,134,85092,2,0,L|331:140,1,62.5,6|0,0:3|0:0,0:0:0:0:
428,198,85326,2,0,L|448:262,1,62.5,2|0,1:2|0:0,0:0:0:0:
479,247,85560,2,0,L|444:309,1,62.5,6|0,0:3|0:0,0:0:0:0:
324,376,85794,2,0,L|245:355,1,62.5,2|0,1:2|0:0,0:0:0:0:
257,324,86029,2,0,L|182:349,1,62.5,6|0,0:3|0:0,0:0:0:0:
93,232,86264,5,0,1:0:0:0:
104,211,86381,1,0,1:0:0:0:
102,182,86498,1,0,1:0:0:0:
118,160,86615,1,0,1:0:0:0:
117,139,86732,1,0,1:0:0:0:
140,122,86849,1,0,1:0:0:0:
128,99,86967,1,0,1:0:0:0:
149,79,87084,1,0,1:0:0:0:
141,52,87201,5,0,1:0:0:0:
123,90,87318,1,0,1:0:0:0:
134,130,87435,1,0,1:0:0:0:
112,165,87553,1,0,1:0:0:0:
124,203,87670,1,0,1:0:0:0:
101,241,87787,1,0,1:0:0:0:
116,283,87904,1,0,1:0:0:0:
92,326,88021,1,0,1:0:0:0:
114,371,88139,5,14,3:3:0:0:
256,192,88256,12,0,89076,0:0:0:0:
255,282,90014,6,0,B|323:303|323:303|373:355|373:355|469:332|469:332|456:262|456:262|407:219,1,375,14|0,1:1|0:0,0:0:0:0:
243,284,90482,6,0,B|317:311|317:311|373:367|373:367|483:340|483:340|469:259|469:259|415:212,1,412.500012588501,10|0,1:0|0:0,0:0:0:0:
356,22,90951,5,4,0:3:0:0:
356,22,91068,2,0,L|526:82,1,168.749994850159,2|0,1:2|0:0,0:0:0:0:
477,96,91303,2,0,L|387:131,1,93.7500035762788,0|8,1:3|1:0,0:0:0:0:
229,141,91537,2,0,L|445:245,1,224.999993133545,2|6,1:0|3:0,0:0:0:0:
183,384,91889,6,0,P|84:318|155:179,1,250,4|0,0:3|0:0,0:0:0:0:
109,204,92240,1,0,1:0:0:0:
180,156,92357,2,0,P|228:177|209:251,1,112.499996566773,8|2,1:0|3:3,0:0:0:0:
117,296,92592,2,4,L|105:340,3,31.25,6|6|6|6,0:3|0:3|0:3|0:3,0:3:0:0:
253,324,92826,5,0,3:0:0:0:
183,384,92943,2,0,B|133:78,1,281.249991416931,2|2,1:2|0:0,0:0:0:0:
108,89,93295,1,8,1:0:0:0:
112,50,93412,1,0,1:0:0:0:
165,22,93529,1,0,1:0:0:0:
219,59,93646,1,8,1:3:0:0:
108,89,93764,6,0,B|29:136|29:136|38:218|38:218|120:257|120:257|186:240|186:240|175:176,1,375,2|0,1:1|0:0,0:0:0:0:
107,80,94232,6,0,B|18:133|18:133|27:226|27:226|120:270|120:270|199:249|199:249|186:180,1,431.250008225441,10|0,1:0|0:0,0:0:0:0:
331,63,94701,5,4,0:3:0:0:
331,63,94818,2,0,L|303:134,1,62.5,2|0,1:1|0:0,0:0:0:0:
308,121,95053,2,0,L|196:79,1,112.499996566773,0|8,1:3|1:0,0:0:0:0:
339,238,95287,2,0,B|513:193,1,168.749994850159,2|0,1:0|0:0,0:0:0:0:
502,195,95521,1,6,3:0:0:0:
456,281,95639,6,2,P|346:215|203:185,1,224.999993133545,4|2,0:3|3:0,0:1:0:0:
181,155,95990,1,2,3:0:0:0:
118,216,96107,1,8,1:0:0:0:
118,216,96224,2,0,P|191:243|261:332,1,168.749994850159,0|0,1:0|0:0,0:0:0:0:
241,341,96459,1,0,1:0:0:0:
191,275,96576,2,2,P|127:279|90:344,1,140.625005364418,2|0,1:0|0:0,0:0:0:0:
90,339,96810,6,2,B|143:325|143:325|118:257|118:257|181:231|181:231|150:177|150:177|206:155|206:155|163:97,1,378.12501153946,2|0,0:0|0:0,0:1:0:0:
258,104,97514,6,0,B|214:108|214:108|185:88|185:88|140:31|140:31|49:22|49:22|22:90|22:90|75:138,1,375,14|0,1:1|0:0,0:0:0:0:
271,94,97982,6,0,B|218:95|218:95|187:73|187:73|142:14|142:14|42:4|42:4|5:87|5:87|56:134,1,412.500012588501,10|0,1:0|0:0,0:0:0:0:
160,313,98451,5,4,0:3:0:0:
160,313,98568,2,0,P|76:295|57:215,1,168.749994850159,2|0,1:2|0:0,0:0:0:0:
108,165,98803,2,0,P|141:194|134:255,1,93.7500035762788,0|8,1:3|1:0,0:0:0:0:
220,365,99037,2,0,P|304:327|437:307,1,224.999993133545,2|6,1:0|3:0,0:0:0:0:
334,42,99389,6,0,P|237:52|279:197,1,250,4|0,0:3|0:0,0:0:0:0:
240,180,99740,1,0,1:0:0:0:
324,162,99857,2,0,P|375:187|392:255,1,112.499996566773,8|2,1:0|3:3,0:0:0:0:
319,329,100092,2,4,L|298:374,3,31.25,6|6|6|6,0:3|0:3|0:3|0:3,0:3:0:0:
230,271,100326,5,0,3:0:0:0:
319,329,100443,2,0,B|265:53,1,281.249991416931,2|2,1:2|0:0,3:0:0:0:
244,14,100795,1,8,1:0:0:0:
216,61,100912,1,0,1:0:0:0:
172,43,101029,1,0,1:0:0:0:
160,76,101146,1,8,1:3:0:0:
260,95,101264,6,0,B|352:71|352:71|450:124|450:124|365:205|365:205|346:150,1,375,2|0,1:1|0:0,0:0:0:0:
244,89,101732,6,0,B|351:60|351:60|466:122|466:122|358:224|358:224|333:161,1,431.250008225441,10|0,1:0|0:0,0:0:0:0:
421,72,102201,5,4,0:3:0:0:
421,72,102318,2,0,L|449:143,1,62.5,2|0,1:1|0:0,0:0:0:0:
443,130,102553,2,0,P|398:152|395:226,1,112.499996566773,0|8,1:3|1:0,0:0:0:0:
512,384,102787,2,0,P|493:302|468:210,1,168.749994850159,2|0,1:0|0:0,0:0:0:0:
470,220,103021,1,6,3:0:0:0:
408,312,103139,6,2,P|292:272|305:158,1,250,4|2,0:3|3:0,0:1:0:0:
300,162,103490,1,2,3:0:0:0:
381,239,103607,1,8,1:0:0:0:
381,239,103724,2,0,L|401:301,2,62.5,0|2|0,1:0|3:0|1:0,0:0:0:0:
307,169,104076,2,0,P|355:151|367:94,1,93.7500035762788,4|0,3:0|1:0,0:0:0:0:
481,0,104310,6,2,B|549:52|367:26|420:71|553:63|571:93|349:76|437:140|479:124|574:105|396:69|348:98|435:170,1,250,2|0,0:1|0:0,0:1:0:0:
420,156,105014,6,0,B|359:162|359:162|293:98|293:98|213:81|213:81|247:10|247:10|323:20,1,375,14|0,1:1|0:0,0:0:0:0:
421,168,105482,6,0,B|355:174|355:174|283:107|283:107|196:88|196:88|239:-2|239:-2|318:12,1,412.500012588501,10|0,1:0|0:0,0:0:0:0:
421,168,105951,5,4,0:3:0:0:
421,168,106068,2,0,L|251:108,1,168.749994850159,2|0,1:2|0:0,0:0:0:0:
288,139,106303,2,0,L|355:206,1,93.7500035762788,0|8,1:3|1:0,0:0:0:0:
209,338,106537,2,0,L|272:108,1,224.999993133545,2|6,1:0|3:0,0:0:0:0:
106,0,106889,6,0,P|6:60|52:181,1,250,4|0,0:3|0:0,0:0:0:0:
37,171,107240,1,0,1:0:0:0:
110,220,107357,2,0,P|135:266|97:329,1,112.499996566773,8|0,1:0|1:0,0:0:0:0:
10,283,107592,2,4,L|-2:239,3,31.25,6|6|6|6,0:3|0:3|0:3|0:3,0:3:0:0:
113,318,107826,5,0,3:0:0:0:
56,384,107943,2,0,P|139:358|331:313,1,281.249991416931,2|2,1:2|0:0,0:0:0:0:
347,281,108295,1,8,1:0:0:0:
370,322,108412,1,0,1:0:0:0:
406,314,108529,1,0,1:0:0:0:
441,361,108646,1,8,1:3:0:0:
370,309,108764,6,0,B|321:253|321:253|330:145|330:145|222:237|222:237|264:297,1,375,2|0,1:1|0:0,0:0:0:0:
386,315,109232,6,0,B|330:251|330:251|336:125|336:125|207:235|207:235|257:301,1,431.250008225441,10|0,1:0|0:0,0:0:0:0:
386,315,109701,5,4,0:3:0:0:
386,315,109818,2,0,L|453:333,1,62.5,2|0,1:1|0:0,0:0:0:0:
446,331,110053,2,0,P|411:299|416:212,1,112.499996566773,0|8,1:3|1:0,0:0:0:0:
503,136,110287,2,0,B|446:328,1,168.749994850159,2|0,1:0|0:0,0:0:0:0:
454,297,110521,1,6,3:0:0:0:
395,229,110639,6,2,P|275:202|209:121,1,224.999993133545,4|2,0:3|3:0,0:1:0:0:
211,127,110990,1,2,3:0:0:0:
148,206,111107,1,8,1:0:0:0:
148,206,111224,2,0,P|189:118|195:19,1,168.749994850159,0|0,1:0|0:0,0:0:0:0:
235,21,111459,1,0,1:0:0:0:
141,106,111576,2,2,P|77:102|40:37,1,140.625005364418,2|0,1:0|0:0,0:0:0:0:
40,41,111810,6,2,P|14:67|4:107,1,62.5,2|0,0:0|0:0,2:1:0:0:
63,182,112045,6,4,B|49:204|49:204|57:171,3,46.8750017881394,6|6|6|6,0:3|0:3|0:3|0:3,0:3:0:0:
274,105,112514,5,4,3:0:0:0:
274,105,112982,6,0,B|278:206|278:206|167:295|167:295|166:176|166:176|226:122,1,412.500012588501,10|0,1:0|0:0,0:0:0:0:
274,105,113451,5,4,0:3:0:0:
274,105,113568,2,0,P|213:141|239:250,1,168.749994850159,2|0,1:2|0:0,0:0:0:0:
246,249,113803,2,0,P|294:235|319:178,1,93.7500035762788,0|8,1:3|1:0,0:0:0:0:
370,23,114037,2,0,L|415:248,1,224.999993133545,2|6,1:0|3:0,0:0:0:0:
161,384,114389,6,0,P|251:336|218:186,1,250,4|0,0:3|0:0,0:0:0:0:
239,203,114740,1,0,1:0:0:0:
294,274,114857,2,0,P|345:249|362:181,1,112.499996566773,8|0,1:0|1:0,0:0:0:0:
230,67,115092,2,4,L|209:22,3,31.25,6|6|6|6,0:3|0:3|0:3|0:3,0:3:0:0:
291,122,115326,5,0,3:0:0:0:
230,67,115443,2,0,B|5:18,1,224.999993133545,2|2,1:2|0:0,3:0:0:0:
0,46,115795,1,8,1:0:0:0:
22,97,115912,1,0,1:0:0:0:
5,124,116029,1,0,1:0:0:0:
25,155,116146,1,8,1:3:0:0:
65,89,116264,6,0,B|144:116|144:116|257:96|257:96|300:146|300:146|226:181|226:181|205:220,1,375,2|0,1:1|0:0,0:0:0:0:
58,77,116732,6,0,B|139:104|139:104|262:82|262:82|317:149|317:149|232:192|232:192|196:246,1,431.250008225441,10|0,1:0|0:0,0:0:0:0:
119,296,117201,5,4,0:3:0:0:
119,296,117318,2,0,L|191:319,1,62.5,2|0,1:1|0:0,0:0:0:0:
178,315,117553,2,0,P|211:354|285:359,1,112.499996566773,0|8,1:3|1:0,0:0:0:0:
332,185,117787,2,0,P|383:225|357:352,1,168.749994850159,2|0,1:0|0:0,0:0:0:0:
384,322,118021,1,6,3:0:0:0:
305,279,118139,6,2,P|150:257|59:112,1,312.5,4|2,0:3|3:0,0:1:0:0:
63,137,118490,1,2,3:0:0:0:
113,77,118607,1,8,1:0:0:0:
150,100,118724,1,0,1:0:0:0:
163,148,118842,2,0,P|170:179|141:223,1,62.5,2|0,3:0|1:0,0:0:0:0:
89,264,119076,2,0,P|46:239|3:226,1,93.7500035762788,4|0,3:0|1:0,0:0:0:0:
134,362,119310,6,2,B|147:289|241:329|230:321|278:231|184:289|149:131|74:212|146:292,1,324.999985122681,2|0,0:1|0:1,0:1:0:0:
6,377,120014,5,4,3:0:0:0:
260,182,123881,6,0,L|246:213,22,23.4375008940697,0|0|0|0|0|0|0|0|0|0|0|0|0|0|0|0|0|0|0|0|0|0|4,3:0|3:0|3:0|3:0|3:0|3:0|3:0|3:0|3:0|3:0|3:0|3:0|3:0|3:0|3:0|3:0|3:0|3:0|3:0|3:0|3:0|3:0|3:0,3:0:0:0:
