osu file format v14

[General]
AudioFilename: audio.mp3
AudioLeadIn: 0
PreviewTime: 74700
Countdown: 0
SampleSet: Soft
StackLeniency: 0.4
Mode: 0
LetterboxInBreaks: 0
WidescreenStoryboard: 1
SamplesMatchPlaybackRate: 1

[Editor]
Bookmarks: 14906,26832,38757,50683,56645,58509,62981,71925,86086,98757,110683,113664,116645,133416,146086,152422,163602,169937,180745,193416,207577,222464
DistanceSpacing: 0.9
BeatDivisor: 6
GridSize: 8
TimelineZoom: 2.000001

[Metadata]
Title:daria math: closure
TitleUnicode:daria math √ : closure
Artist:xaev
ArtistUnicode:xaev
Creator:wafer
Version:wispy: insane (obtain thy potassium)
Source:
Tags:electronic instrumental edm glitchcore glitch hyper pop hyperpop dariacore daria Va Va Voom Nicki Minaj Bad Apple!! Alstroemeria Records ​nomico のみこ Fuji Opener Skrillex Alvin Risk I Knew You Were Trouble Taylor Swift Circus Britney Spears Big Time Rush Break Free Ariana Grande Zedd & When Can I See You Again? Owl City berdlycore chapter 3 goopert kami no kotoba dragonicz john mapping deppyforce wispy english c418 minecraft aria math
BeatmapID:4129466
BeatmapSetID:1964790

[Difficulty]
HPDrainRate:5.5
CircleSize:4.2
OverallDifficulty:8
ApproachRate:9
SliderMultiplier:1.8
SliderTickRate:1

[Events]
//Background and Video events
0,0,"WOW.png",0,0
//Break Periods
2,64651,65342
2,67632,68324
2,98937,100073
2,122788,132423
//Storyboard Layer 0 (Background)
//Storyboard Layer 1 (Fail)
//Storyboard Layer 2 (Pass)
//Storyboard Layer 3 (Foreground)
//Storyboard Layer 4 (Overlay)
//Storyboard Sound Samples
Sample,13768,0,"rewind.ogg",70
Sample,14886,0,"halal.ogg",70
Sample,26812,0,"pootis.ogg",70
Sample,38737,0,"YEAH.ogg",100
Sample,50663,0,"audiojungle.ogg",90
Sample,56625,0,"snitcher.ogg",80
Sample,62961,0,"GETFKD.ogg",90
Sample,63706,0,"GETFKD.ogg",90
Sample,65942,0,"GETFKD.ogg",100
Sample,66688,0,"GETFKD.ogg",100
Sample,71905,0,"GETFKD.ogg",100
Sample,86066,0,"ping.ogg",80
Sample,98737,0,"whopper.ogg",80
Sample,110663,0,"naenae.ogg",50
Sample,113644,0,"naenae.ogg",40
Sample,116625,0,"naenae.ogg",40
Sample,133396,0,"baka.ogg",80
Sample,146066,0,"honk.ogg",90
Sample,149028,0,"touho.ogg",80
Sample,149400,0,"project.ogg",80
Sample,163582,0,"wii.ogg",80
Sample,169917,0,"fn.ogg",80
Sample,180725,0,"warudo.ogg",90
Sample,193396,0,"warudo2.ogg",90
Sample,206439,0,"never.ogg",70

[TimingPoints]
3334,372.670807453416,4,2,0,50,1,0
3334,-50,4,2,0,50,0,0
4079,-133.333333333333,4,2,0,50,0,0
8365,-200,4,2,0,50,0,0
9296,-50,4,2,0,50,0,0
10042,-133.333333333333,4,2,0,50,0,0
13768,-112.14953271028,4,2,0,50,0,0
15259,-50,4,2,2,65,0,0
16750,-142.857142857143,4,2,2,65,0,0
19731,-166.666666666667,4,2,2,65,0,0
21222,-142.857142857143,4,2,2,65,0,0
27184,-66.6666666666667,4,1,99,70,0,0
27231,-66.6666666666667,4,2,3,70,0,0
27557,-100,4,2,3,70,0,0
33520,-100,4,2,3,72,0,0
33893,-100,4,2,3,74,0,0
34265,-100,4,2,3,76,0,0
34638,-100,4,2,3,78,0,0
35011,-100,4,2,3,80,0,0
35383,-100,4,2,3,82,0,0
36594,-100,4,2,3,85,0,0
37247,-133.333333333333,4,2,3,85,0,0
38737,-500,4,2,3,80,0,0
39110,-500,4,2,4,90,0,0
39855,-83.3333333333333,4,2,4,90,0,0
51035,-40,4,2,4,90,0,0
51594,-100,4,2,4,90,0,0
56625,-66.6666666666667,4,2,4,90,0,0
57184,-83.3333333333333,4,2,0,90,0,0
57370,-83.3333333333333,4,2,4,90,0,0
58209,-83.3333333333333,4,2,0,90,0,0
58489,-50,4,2,4,90,0,0
59234,-40,4,2,4,90,0,0
59700,-50,4,2,4,90,0,0
59979,-83.3333333333333,4,2,4,90,0,0
61470,-50,4,2,4,90,0,0
62215,-100,4,2,4,90,0,0
62588,-50,4,1,9,90,0,0
62774,-50,4,2,8,90,0,0
62961,-33.3333333333333,4,2,99,90,0,0
63147,-33.3333333333333,4,2,2,70,0,0
65942,-33.3333333333333,4,2,99,90,0,0
68924,-33.3333333333333,4,2,99,80,0,0
69017,-33.3333333333333,4,2,2,80,0,0
69296,-83.3333333333333,4,2,2,80,0,0
71905,-33.3333333333333,4,2,99,80,0,0
72650,-33.3333333333333,4,2,2,80,0,0
72837,-83.3333333333333,4,2,2,80,0,0
73396,-35.7142857142857,4,2,4,80,0,0
74327,-35.7142857142857,4,2,4,60,0,0
74420,-35.7142857142857,4,2,2,60,0,0
74886,-66.6666666666667,4,2,2,60,0,0
75632,-83.3333333333333,4,2,2,60,0,0
86066,-83.3333333333333,4,2,2,65,0,0
86812,-83.3333333333333,4,2,3,70,0,0
92961,-83.3333333333333,4,2,3,72,0,0
93333,-83.3333333333333,4,2,3,74,0,0
93706,-83.3333333333333,4,2,3,76,0,0
94079,-83.3333333333333,4,2,3,78,0,0
94452,-83.3333333333333,4,2,3,80,0,0
94824,-83.3333333333333,4,2,3,82,0,0
96315,-83.3333333333333,4,2,3,85,0,0
97992,-83.3333333333333,4,2,3,60,0,0
98737,-83.3333333333333,4,2,99,70,0,0
100973,-83.3333333333333,4,2,4,70,0,0
101346,-83.3333333333333,4,2,2,70,0,0
101532,-83.3333333333333,4,2,4,70,0,0
101719,-66.6666666666667,4,2,4,80,0,0
107309,-90.9090909090909,4,2,4,80,0,0
107681,-133.333333333333,4,2,4,80,0,0
108427,-66.6666666666667,4,2,4,80,0,0
110104,-133.333333333333,4,2,4,80,0,0
112526,-100,4,2,4,80,0,0
113644,-66.6666666666667,4,2,4,80,0,0
116253,-100,4,2,4,80,0,0
116625,-66.6666666666667,4,2,4,80,0,0
119607,-133.333333333333,4,2,4,80,0,0
119979,-66.6666666666667,4,2,4,80,0,0
122588,-66.6666666666667,4,2,99,80,0,0
133023,-83.3333333333333,4,2,99,80,0,0
133396,-83.3333333333333,4,2,3,60,0,0
134514,-100,4,2,3,65,0,0
143458,-100,4,2,3,70,0,0
144203,-83.3333333333333,4,2,3,75,0,0
144576,-83.3333333333333,4,2,3,80,0,0
146066,-40,4,2,3,60,0,0
146439,-83.3333333333333,4,2,6,80,0,0
151284,-166.666666666667,4,2,6,80,0,0
151656,-166.666666666667,4,2,2,80,0,0
152402,-83.3333333333333,4,2,6,80,0,0
157619,-50,4,2,6,80,0,0
158737,-66.6666666666667,4,2,6,80,0,0
164327,-57.1428571428571,4,2,4,80,0,0
165073,-83.3333333333333,4,2,7,80,0,0
168799,-333.333333333333,4,2,2,80,0,0
169917,-333.333333333333,4,2,4,80,0,0
170290,-66.6666666666667,4,2,8,90,0,0
170756,-250,4,2,8,90,0,0
172526,-50,4,2,8,90,0,0
172899,-200,4,2,8,90,0,0
174576,-83.3333333333333,4,2,8,90,0,0
175507,-50,4,2,8,90,0,0
176719,-200,4,2,8,90,0,0
177464,-50,4,2,8,90,0,0
179700,-200,4,2,8,90,0,0
180352,-50,4,2,8,90,0,0
180725,-133.333333333333,4,2,8,90,0,0
181470,-50,4,2,8,90,0,0
181905,-200,4,2,8,90,0,0
182215,-50,4,2,8,90,0,0
182681,-200,4,2,8,90,0,0
183427,-50,4,2,8,90,0,0
183768,-50,4,2,0,90,0,0
184079,-50,4,2,8,90,0,0
184265,-83.3333333333333,4,2,8,90,0,0
184452,-50,4,2,8,90,0,0
185942,-200,4,2,8,90,0,0
186408,-50,4,2,8,90,0,0
188644,-200,4,2,8,90,0,0
189389,-50,4,2,8,90,0,0
191625,-200,4,2,8,90,0,0
193209,-66.6666666666667,4,2,8,90,0,0
194140,-66.6666666666667,4,2,2,90,0,0
194514,-66.6666666666667,4,2,2,70,0,0
194700,-250,4,2,2,70,0,0
208815,-250,4,2,2,40,0,0
215383,-1000,4,2,2,20,0,0
215942,-1000,4,2,2,5,0,0

[Colours]
Combo1 : 255,255,43
Combo2 : 0,128,255
Combo3 : 237,54,223
Combo4 : 128,255,255

[HitObjects]
489,124,3334,6,0,B|492:96|492:96|375:4|375:4|383:165|383:165|404:167,1,360,0|2,1:0|2:0,2:0:0:0:
477,207,3893,1,0,2:0:0:0:
497,223,4079,2,0,B|496:259|481:247|479:287,1,67.5000025749208,2|0,2:0|2:0,2:0:0:0:
402,304,4452,2,0,B|401:340|386:328|384:368,1,67.5000025749208,0|0,2:0|2:0,2:0:0:0:
224,303,4824,2,0,P|266:255|345:271,3,135.000005149842,2|0|2|2,2:0|2:0|2:0|2:0,2:0:0:0:
332,260,6315,5,0,2:0:0:0:
260,372,6501,1,0,2:0:0:0:
244,374,6688,1,0,2:0:0:0:
228,376,6874,1,0,2:0:0:0:
103,334,7060,2,0,B|67:333|79:318|39:316,2,67.5000025749208,2|0|0,2:0|2:0|2:0,2:0:0:0:
122,325,7619,1,0,2:0:0:0:
195,266,7806,1,2,2:0:0:0:
145,197,7992,2,0,L|64:220,1,67.5000025749208,0|0,2:0|2:0,2:0:0:0:
210,138,8365,6,0,P|158:95|122:37,1,135,0|2,2:0|2:0,2:0:0:0:
122,37,9296,6,0,B|140:69|140:69|121:87|121:87|94:194|94:194|122:251|30:240|92:188,1,270,0|0,1:0|2:0,2:0:0:0:
83,195,9669,5,2,2:0:0:0:
16,141,9855,1,0,2:0:0:0:
184,190,10042,2,0,L|194:256,1,67.5000025749208,2|0,2:0|2:0,2:0:0:0:
274,319,10414,1,0,2:0:0:0:
274,319,10601,1,0,2:0:0:0:
140,337,10787,2,0,P|81:295|3:296,1,135.000005149842,2|0,2:0|2:0,2:0:0:0:
274,319,11532,2,0,P|324:267|401:254,1,135.000005149842,0|2,2:0|2:0,2:0:0:0:
383,252,12278,5,0,2:0:0:0:
340,164,12464,1,0,2:0:0:0:
324,162,12650,1,0,2:0:0:0:
308,160,12837,1,0,2:0:0:0:
240,261,13023,2,0,B|204:260|216:245|176:243,1,67.5000025749208,2|0,2:0|2:0,2:0:0:0:
159,166,13396,2,0,B|123:165|135:150|95:148,1,67.5000025749208,2|2,2:0|2:0,2:0:0:0:
15,109,13768,22,1,B|19:120|19:120|58:-13|183:56|183:56|162:30,1,240.750000000001,0|0,2:0|2:0,2:0:0:0:
95,2,14514,2,0,L|68:101,1,80.2499975509644,0|0,2:0|2:0,2:0:0:0:
259,201,14886,21,4,2:0:0:0:
252,182,15073,1,0,2:0:0:0:
386,17,15259,22,1,B|336:47|363:121|426:112|426:112|449:59|550:27|583:159|463:193|463:193|417:206|417:206|408:218|408:218|363:212|363:212|352:227|352:227|0:336,1,900,4|0,1:0|2:0,2:0:0:0:
311,346,16377,1,2,2:0:0:0:
401,318,16563,1,2,2:0:0:0:
254,267,16750,6,0,P|229:305|222:386,1,125.999996154785,2|0,2:0|2:0,2:0:0:0:
135,315,17309,2,0,P|180:272|240:254,1,125.999996154785,2|2,2:0|2:0,2:0:0:0:
329,300,17868,1,6,2:0:0:0:
348,293,18054,1,0,2:0:0:0:
240,254,18240,6,0,L|222:328,2,62.9999980773926,2|0|2,2:0|2:0|2:0,2:0:0:0:
229,233,18799,2,0,L|211:307,1,62.9999980773926,2|0,2:0|2:0,2:0:0:0:
197,384,19172,1,0,2:0:0:0:
142,252,19358,1,2,2:0:0:0:
135,271,19545,1,0,2:0:0:0:
21,273,19731,6,0,P|41:304|47:372,1,107.999996704102,2|0,2:0|2:0,2:0:0:0:
13,236,20290,2,0,P|49:243|101:287,1,107.999996704102,2|0,2:0|2:0,2:0:0:0:
167,236,20849,2,0,L|241:222,1,53.9999983520508,2|0,2:0|2:0,2:0:0:0:
441,352,21222,6,0,P|419:335|402:291,2,62.9999980773926,4|2|2,1:2|2:0|2:0,2:0:0:0:
270,290,21781,2,0,P|297:291|338:268,2,62.9999980773926,10|2|0,2:0|2:0|2:0,2:0:0:0:
394,229,22340,1,2,2:0:0:0:
413,222,22526,1,2,2:0:0:0:
329,277,22712,6,0,P|365:304|399:377,1,125.999996154785,2|0,2:0|2:0,2:0:0:0:
457,281,23271,2,0,P|400:255|337:259,1,125.999996154785,2|0,2:0|2:0,2:0:0:0:
280,384,23830,2,0,L|269:323,1,62.9999980773926,2|0,2:0|2:0,2:0:0:0:
141,263,24203,6,0,L|67:281,2,62.9999980773926,2|0|2,2:0|2:0|2:0,2:0:0:0:
100,288,24762,2,0,L|161:273,1,62.9999980773926,2|0,2:0|2:0,2:0:0:0:
253,224,25135,1,0,2:0:0:0:
234,231,25321,1,2,2:0:0:0:
262,240,25507,1,0,2:0:0:0:
256,0,25694,5,4,2:1:0:0:
256,0,26066,1,4,2:0:0:0:
269,90,26439,6,0,P|280:100|290:130,1,31.4999990386963,4|0,2:0|2:0,2:0:0:0:
253,95,26625,2,0,P|237:93|211:74,1,31.4999990386963,4|0,2:0|2:0,2:0:0:0:
262,82,26812,2,0,P|275:74|307:74,1,31.4999990386963,2|0,2:0|2:0,2:0:0:0:
262,99,26998,2,0,P|255:112|229:131,1,31.4999990386963,2|0,2:0|2:0,2:0:0:0:
165,384,27184,6,0,B|214:374|214:374|227:350|227:350|238:356|238:356|349:336,1,202.500007724762,4|0,1:0|2:0,0:0:0:0:
371,357,27557,6,0,L|392:251,1,90,8|2,2:0|2:0,2:0:0:0:
95,306,27930,2,0,L|74:200,1,90,10|0,2:0|2:0,2:0:0:0:
298,280,28302,6,0,L|319:174,1,90,10|4,2:0|3:0,2:0:0:0:
193,375,28675,2,0,L|172:269,1,90,10|2,2:0|2:0,2:0:0:0:
474,313,29048,6,0,L|495:207,1,90,10|2,2:0|2:0,2:0:0:0:
215,345,29420,2,0,L|194:239,1,90,10|0,2:0|2:0,2:0:0:0:
150,151,29793,5,10,2:0:0:0:
143,132,29979,1,2,2:0:0:0:
326,369,30166,6,0,L|305:263,1,90,10|2,2:0|2:0,2:0:0:0:
182,314,30538,2,0,L|203:208,1,90,10|2,2:0|2:0,2:0:0:0:
398,323,30911,6,0,L|377:217,1,90,10|0,2:0|2:0,2:0:0:0:
92,365,31284,2,0,L|113:259,1,90,10|4,2:0|3:0,2:0:0:0:
482,338,31656,6,0,L|461:232,1,90,10|2,2:0|2:0,2:0:0:0:
23,301,32029,2,0,L|44:195,1,90,10|2,2:0|2:0,2:0:0:0:
262,100,32402,5,10,2:0:0:0:
268,111,32495,1,2,3:0:0:0:
271,121,32588,1,2,3:0:0:0:
274,132,32681,1,0,2:0:0:0:
274,143,32774,2,0,L|220:153,2,45,2|2|2,2:0|2:0|3:0,2:0:0:0:
307,309,33147,6,0,L|296:256,1,45,8|0,2:0|2:0,2:0:0:0:
309,325,33333,1,8,2:0:0:0:
206,270,33520,6,0,L|216:217,1,45,8|0,2:0|2:0,2:0:0:0:
204,286,33706,1,8,2:0:0:0:
338,334,33893,6,0,L|327:281,1,45,8|0,2:0|2:0,2:0:0:0:
340,350,34079,1,8,2:0:0:0:
175,295,34265,6,0,L|185:242,1,45,8|0,2:0|2:0,2:0:0:0:
173,311,34452,1,8,2:0:0:0:
289,345,34638,6,0,L|341:355,1,45,8|0,2:0|2:0,2:0:0:0:
407,372,34824,1,8,2:0:0:0:
283,328,35011,6,0,L|230:338,1,45,8|0,2:0|2:0,2:0:0:0:
165,355,35197,1,8,2:0:0:0:
304,252,35383,6,0,L|356:262,1,45,8|0,2:0|2:0,2:0:0:0:
422,279,35570,1,8,2:0:0:0:
212,226,35756,6,0,L|159:236,1,45,8|0,2:0|2:0,2:0:0:0:
94,253,35942,1,8,2:0:0:0:
239,315,36129,5,4,3:0:0:0:
216,319,36222,1,4,3:0:0:0:
194,323,36315,2,0,L|204:376,1,45,4|4,3:0|3:0,2:0:0:0:
267,199,36501,5,8,2:0:0:0:
290,203,36594,1,8,2:0:0:0:
312,207,36688,2,0,L|302:260,1,45,8|8,2:0|2:0,2:0:0:0:
266,118,36874,6,0,L|243:122,6,22.5,0|0|0|0|0|0|0,1:0|1:0|1:0|1:0|1:0|1:0|1:0,2:0:0:0:
261,110,37247,6,0,L|238:113,7,16.8750006437302,0|0|0|0|0|0|0|0,1:0|1:0|1:0|1:0|1:0|1:0|1:0|1:0,2:0:0:0:
256,27,38737,6,0,L|256:0,1,27,2|0,2:0|2:0,2:0:0:0:
313,121,39110,5,4,3:0:0:0:
347,162,39203,1,0,3:0:0:0:
399,153,39296,1,0,3:0:0:0:
417,103,39389,1,0,3:0:0:0:
407,109,39483,5,4,3:0:0:0:
393,149,39576,1,0,3:0:0:0:
351,156,39669,1,0,3:0:0:0:
324,123,39762,1,0,3:0:0:0:
355,53,39855,6,0,L|347:-9,3,53.9999983520508,4|0|0|0,3:0|3:0|3:0|3:0,2:0:0:0:
417,103,40228,2,0,L|479:95,3,53.9999983520508,4|0|0|0,3:0|3:0|3:0|3:0,2:0:0:0:
240,103,40601,5,4,3:0:0:0:
222,153,40694,1,0,3:0:0:0:
170,162,40787,1,0,3:0:0:0:
136,121,40880,1,0,3:0:0:0:
147,123,40973,5,4,3:0:0:0:
174,156,41066,1,0,3:0:0:0:
216,149,41160,1,0,3:0:0:0:
230,109,41253,1,0,3:0:0:0:
179,53,41346,6,0,L|171:-9,3,53.9999983520508,4|0|0|0,3:0|3:0|3:0|3:0,2:0:0:0:
80,46,41719,2,0,L|18:54,3,53.9999983520508,4|0|0|0,3:0|3:0|3:0|3:0,2:0:0:0:
251,71,42091,5,4,3:0:0:0:
269,21,42184,1,0,3:0:0:0:
321,12,42278,1,0,3:0:0:0:
355,53,42371,1,0,3:0:0:0:
344,51,42464,5,4,3:0:0:0:
317,18,42557,1,0,3:0:0:0:
275,25,42650,1,0,3:0:0:0:
261,65,42743,1,0,3:0:0:0:
316,124,42837,6,0,L|324:186,3,53.9999983520508,4|0|0|0,3:0|3:0|3:0|3:0,2:0:0:0:
261,65,43209,2,0,L|199:73,3,53.9999983520508,4|0|0|0,3:0|3:0|3:0|3:0,2:0:0:0:
408,119,43582,5,4,3:0:0:0:
426,69,43675,1,0,3:0:0:0:
478,60,43768,1,0,3:0:0:0:
512,101,43861,1,0,3:0:0:0:
501,99,43955,5,4,3:0:0:0:
474,66,44048,1,0,3:0:0:0:
432,73,44141,1,0,3:0:0:0:
418,113,44234,1,0,3:0:0:0:
429,105,44327,5,4,3:0:0:0:
439,77,44420,1,0,3:0:0:0:
468,72,44514,1,0,3:0:0:0:
487,95,44607,1,0,3:0:0:0:
492,173,44700,6,0,B|479:179|470:189|470:189|458:182|445:182,2,53.9999983520508,2|0|14,3:0|3:0|3:0,2:0:0:0:
286,166,45073,5,4,3:0:0:0:
327,132,45166,1,0,3:0:0:0:
318,80,45259,1,0,3:0:0:0:
268,62,45352,1,0,3:0:0:0:
274,72,45445,5,4,3:0:0:0:
314,86,45538,1,0,3:0:0:0:
321,128,45632,1,0,3:0:0:0:
288,155,45725,1,0,3:0:0:0:
218,124,45818,6,0,L|156:132,3,53.9999983520508,4|0|0|0,3:0|3:0|3:0|3:0,2:0:0:0:
268,62,46191,2,0,L|260:0,3,53.9999983520508,4|0|0|0,3:0|3:0|3:0|3:0,2:0:0:0:
114,191,46563,5,4,3:0:0:0:
64,173,46656,1,0,3:0:0:0:
55,121,46750,1,0,3:0:0:0:
96,87,46843,1,0,3:0:0:0:
94,98,46936,5,4,3:0:0:0:
61,125,47029,1,0,3:0:0:0:
68,167,47122,1,0,3:0:0:0:
108,181,47215,1,0,3:0:0:0:
164,130,47309,6,0,L|226:122,3,53.9999983520508,4|0|0|0,3:0|3:0|3:0|3:0,2:0:0:0:
38,61,47681,2,0,L|30:-1,3,53.9999983520508,4|0|0|0,3:0|3:0|3:0|3:0,2:0:0:0:
235,19,48054,5,4,3:0:0:0:
276,53,48147,1,0,3:0:0:0:
267,105,48240,1,0,3:0:0:0:
217,123,48333,1,0,3:0:0:0:
223,113,48427,5,4,3:0:0:0:
263,99,48520,1,0,3:0:0:0:
270,57,48613,1,0,3:0:0:0:
237,30,48706,1,0,3:0:0:0:
167,61,48799,2,0,L|105:53,3,53.9999983520508,4|0|0|0,3:0|3:0|3:0|3:0,2:0:0:0:
217,123,49172,2,0,L|209:185,3,53.9999983520508,4|0|0|0,3:0|3:0|3:0|3:0,2:0:0:0:
318,70,49545,6,0,B|327:45|327:45|315:19,2,53.9999983520508,4|0|0,2:0|2:0|3:0,2:0:0:0:
302,100,49824,1,0,3:0:0:0:
401,77,49917,6,0,B|410:52|410:52|398:26,2,53.9999983520508,4|0|0,2:0|2:0|3:0,2:0:0:0:
385,107,50197,1,0,3:0:0:0:
494,51,50290,6,0,L|501:10,2,26.9999991760254,4|0|0,2:0|2:0|2:0,2:0:0:0:
483,134,50476,1,8,2:0:0:0:
483,134,50570,1,8,2:0:0:0:
483,134,50663,1,4,3:0:0:0:
302,100,50849,1,8,3:0:0:0:
385,107,51035,6,0,B|369:46|369:46|333:20|333:20|285:71|285:71|324:253,1,337.5,0|0,1:0|2:0,2:0:0:0:
328,305,51408,5,8,3:1:0:0:
292,313,51501,1,0,3:0:0:0:
265,286,51594,2,0,L|231:223,1,45,0|0,3:0|3:0,2:0:0:0:
198,368,51781,1,4,3:0:0:0:
193,353,51874,1,0,3:0:0:0:
189,337,51967,2,0,L|172:275,1,45,0|0,3:0|3:0,2:0:0:0:
53,378,52153,1,8,3:1:0:0:
89,367,52247,1,0,3:0:0:0:
98,331,52340,2,0,L|94:260,1,45,0|0,3:0|3:0,2:0:0:0:
135,188,52526,5,4,3:0:0:0:
120,165,52619,1,0,3:0:0:0:
138,144,52712,1,0,3:0:0:0:
162,154,52806,1,0,3:0:0:0:
160,182,52899,2,0,P|141:209|99:232,3,45,8|0|0|0,3:1|3:0|3:0|3:0,2:0:0:0:
69,104,53271,2,0,P|46:104|24:98,2,45,4|0|0,3:0|3:0|3:0,2:0:0:0:
125,31,53551,1,4,3:0:0:0:
125,31,53644,1,8,3:1:0:0:
235,47,53830,2,0,P|218:62|199:73,1,45,0|0,3:0|3:0,2:0:0:0:
237,145,54017,5,4,3:0:0:0:
273,137,54110,1,0,3:0:0:0:
300,164,54203,2,0,L|334:227,1,45,0|0,3:0|3:0,2:0:0:0:
367,82,54390,1,8,3:1:0:0:
372,97,54483,1,0,3:0:0:0:
376,113,54576,2,0,L|393:175,1,45,0|0,3:0|3:0,2:0:0:0:
512,72,54762,1,4,3:0:0:0:
476,83,54856,1,0,3:0:0:0:
467,119,54949,2,0,L|471:190,1,45,0|0,3:0|3:0,2:0:0:0:
405,274,55135,5,8,3:1:0:0:
390,251,55228,1,0,3:0:0:0:
408,230,55321,1,0,3:0:0:0:
432,240,55415,1,0,3:0:0:0:
430,268,55508,2,0,P|411:295|369:318,3,45,4|0|0|0,3:0|3:0|3:0|3:0,2:0:0:0:
305,315,55880,2,0,P|272:312|231:287,2,45,8|0|0,3:1|3:0|3:0,2:0:0:0:
364,381,56160,1,4,3:0:0:0:
364,381,56253,1,4,3:0:0:0:
341,187,56439,2,0,L|335:141,1,45,4|0,3:0|2:0,2:0:0:0:
221,231,56625,6,0,B|89:209|89:209|96:226|96:226|147:247,1,202.500007724762,8|0,3:0|2:0,2:0:0:0:
161,258,56998,1,2,2:1:0:0:
249,138,57184,2,0,B|253:129|253:129|246:122|246:122|240:88,1,53.9999983520508,0|0,1:0|1:0,2:0:0:0:
180,27,57370,5,8,3:1:0:0:
126,22,57463,1,0,3:0:0:0:
95,67,57557,1,0,3:0:0:0:
64,110,57650,1,0,3:0:0:0:
10,106,57743,2,0,L|19:15,1,53.9999983520508,4|0,3:0|3:0,2:0:0:0:
51,293,57930,2,0,L|124:346,1,53.9999983520508,0|0,3:0|3:0,2:0:0:0:
85,188,58116,2,0,L|168:151,1,53.9999983520508,8|0,2:1|1:0,2:0:0:0:
231,135,58302,6,0,B|233:111|233:111|227:114|227:114|225:137,1,53.9999983520508,0|0,1:0|2:1,2:0:0:0:
208,241,58489,6,0,B|245:312|245:312|261:317|261:317|330:271,1,180,0|1,1:0|3:0,2:0:0:0:
463,258,58768,1,4,3:0:0:0:
463,258,58861,2,0,B|410:246|410:246|444:267,1,90,0|0,1:0|2:0,2:0:0:0:
312,143,59048,2,0,B|339:189|339:189|309:163,1,90,0|0,1:0|3:0,2:0:0:0:
466,125,59234,2,0,B|414:132|414:132|368:115|368:115|347:118|347:118|384:290|384:290|378:299|378:299|382:326,1,337.5,0|8,1:0|1:0,2:0:0:0:
311,377,59607,1,0,1:0:0:0:
311,377,59700,2,0,B|244:361|244:361|236:341,1,90,0|0,2:0|1:0,2:0:0:0:
211,267,59886,1,4,3:0:0:0:
230,251,59979,6,0,B|245:228|245:228|239:201,2,53.9999983520508,4|0|0,3:0|3:0|3:0,2:0:0:0:
154,332,60259,1,0,1:0:0:0:
159,355,60352,1,4,3:0:0:0:
55,257,60538,1,0,1:0:0:0:
7,265,60631,1,0,1:0:0:0:
39,303,60725,1,4,3:0:0:0:
44,326,60818,2,0,L|55:390,1,53.9999983520508,0|3,1:0|2:0,2:0:0:0:
91,168,61004,1,0,1:0:0:0:
130,191,61097,2,0,L|141:255,1,53.9999983520508,4|0,3:0|2:0,2:0:0:0:
39,81,61284,6,0,B|18:77|18:77|12:106|12:106|45:80,1,80.9999975280763,2|0,3:1|2:0,2:0:0:0:
61,92,61470,6,0,B|98:21|98:21|114:16|114:16|183:62,1,180,0|2,1:0|2:0,2:0:0:0:
252,170,61843,2,0,B|289:99|289:99|305:94|305:94|374:140,1,180,0|2,1:0|2:0,2:0:0:0:
374,140,62215,6,0,L|365:201,1,45,2|0,2:0|2:0,2:0:0:0:
364,218,62402,1,0,2:0:0:0:
406,2,62588,2,0,B|435:9|458:31|458:31|447:136|507:231,1,270,2|0,1:0|2:0,0:0:0:0:
432,336,62961,22,1,B|424:319|424:319|421:319|421:319|413:300|413:300|408:301|408:301|402:281|402:281|395:286|395:286|389:265|389:265|379:271|379:271|376:248|376:248|364:257|364:257|360:233|360:233|346:244|346:244|346:219|346:219|329:233|329:233|330:203|330:203|308:224|308:224|313:192|313:192|289:216|289:216|294:180|294:180|269:208|269:208|275:167|275:167|248:205|248:205|258:159|258:159|226:200|226:200|237:151|237:151|206:200|206:200|218:143|218:143|184:200|184:200|198:136|198:136|162:202|162:202|176:131|176:131|143:205|143:205|155:128|155:128|120:208|120:208|135:124|135:124|100:216|100:216|113:123|113:123|79:226|79:226|90:123|90:123|60:235|60:235|70:123|70:123|41:244,1,2160.00008239746,4|0,1:0|2:0,2:0:0:0:
30,153,65942,22,1,B|38:170|38:170|41:170|41:170|49:189|49:189|54:188|54:188|60:208|60:208|67:203|67:203|73:224|73:224|83:218|83:218|86:241|86:241|98:232|98:232|102:256|102:256|116:245|116:245|116:270|116:270|133:256|133:256|132:286|132:286|154:265|154:265|149:297|149:297|173:273|173:273|168:309|168:309|193:281|193:281|187:322|187:322|214:284|214:284|204:330|204:330|236:289|236:289|225:338|225:338|256:289|256:289|244:346|244:346|278:289|278:289|264:353|264:353|300:287|300:287|286:358|286:358|319:284|319:284|307:361|307:361|342:281|342:281|327:365|327:365|362:273|362:273|349:366|349:366|383:263|383:263|372:366|372:366|402:254|402:254|392:366|392:366|421:245,1,2160.00008239746,0|0,1:0|2:0,2:0:0:0:
512,0,68924,5,4,1:0:0:0:
490,5,69017,1,0,2:0:0:0:
468,10,69110,1,0,2:0:0:0:
446,15,69203,1,0,2:0:0:0:
424,20,69296,2,0,L|412:85,3,53.9999983520508,2|0|2|0,2:1|2:0|2:1|2:0,2:0:0:0:
333,78,69669,5,2,1:2:0:0:
311,83,69762,1,0,2:0:0:0:
289,88,69855,1,2,2:0:0:0:
267,93,69948,1,0,2:0:0:0:
245,98,70041,2,0,L|233:163,3,53.9999983520508,2|0|2|0,2:1|2:0|2:1|2:0,2:0:0:0:
166,180,70414,6,0,L|173:234,1,53.9999983520508,0|0,1:0|2:0,2:0:0:0:
104,272,70601,2,0,L|157:282,1,53.9999983520508,0|0,1:0|2:0,2:0:0:0:
172,360,70787,2,0,L|198:312,1,53.9999983520508,0|0,1:0|2:0,2:0:0:0:
238,283,70973,2,0,L|276:323,1,53.9999983520508,0|2,1:0|2:0,2:0:0:0:
408,348,71160,6,0,L|354:341,1,53.9999983520508,0|0,2:0|2:0,2:0:0:0:
425,331,71347,2,0,L|404:282,1,53.9999983520508,2|0,2:1|2:0,2:0:0:0:
447,338,71533,2,0,L|479:295,1,53.9999983520508,2|0,2:1|2:0,2:0:0:0:
453,362,71719,2,0,L|506:370,1,53.9999983520508,0|0,1:0|1:0,2:0:0:0:
435,170,71905,22,1,B|433:181|433:181|418:173|418:173|417:184|417:184|400:176|400:176|398:187|398:187|383:178|383:178|381:190|381:190|366:181|366:181|363:193|363:193|348:184|348:184|346:195|346:195|331:187|331:187|328:198|328:198|314:188|314:188|311:201|311:201|296:191|296:191|294:204|294:204|277:195|277:195|276:207|276:207|260:198|260:198|262:216|262:216|242:199|242:199|250:228|250:228|225:202|225:202|234:236|234:236|208:204|208:204|216:239|216:239|190:207|190:207|199:240|199:240|171:210|171:210|182:244|182:244|155:211|155:211|164:247|164:247|138:214|138:214|145:248|145:248|119:217|119:217|129:251|129:251|103:221|103:221|112:253|112:253|84:222|84:222|93:256|93:256|67:225|67:225|77:259,1,1080.00004119873,0|0,1:0|2:0,2:0:0:0:
25,316,72837,6,0,L|32:370,1,53.9999983520508,2|0,2:0|2:0,2:0:0:0:
42,299,73024,2,0,L|91:320,1,53.9999983520508,2|0,2:1|2:0,2:0:0:0:
35,277,73210,2,0,L|78:245,1,53.9999983520508,2|0,2:1|2:0,2:0:0:0:
155,378,73396,54,1,B|198:371|207:327|207:327|190:268|190:268|204:234|239:232|239:232|370:252|370:252|333:272|319:320|319:320|217:305,1,503.999984619141,8|0,2:3|2:0,2:0:0:0:
209,66,74327,5,0,2:0:0:0:
252,46,74420,1,0,2:0:0:0:
267,0,74514,1,0,1:0:0:0:
291,4,74607,1,0,1:0:0:0:
306,23,74700,1,8,1:3:0:0:
189,146,74886,6,0,B|157:141|157:141|147:131|147:131|144:146|144:146|133:135|133:135|-11:111,1,202.500007724762,4|0,1:0|2:0,2:0:0:0:
206,159,75259,5,0,2:0:0:0:
239,304,75445,1,0,2:0:0:0:
79,269,75632,2,0,P|127:246|181:244,1,107.999996704102,0|0,1:0|2:0,2:0:0:0:
45,342,76004,1,2,2:0:0:0:
6,194,76191,1,2,2:0:0:0:
186,257,76377,6,0,P|163:305|161:359,1,107.999996704102,0|0,1:0|2:0,2:0:0:0:
308,281,76750,2,0,P|305:335|284:384,1,107.999996704102,0|0,2:0|2:0,2:0:0:0:
353,211,77122,2,0,P|470:250|545:248,1,161.999995056153,0|0,1:0|2:0,2:0:0:0:
512,241,77495,1,2,2:0:0:0:
476,333,77681,1,2,2:0:0:0:
438,160,77868,6,0,P|465:114|474:61,1,107.999996704102,2|2,1:2|2:0,2:0:0:0:
336,103,78240,2,0,P|322:50|291:7,1,107.999996704102,0|0,2:0|2:0,2:0:0:0:
435,174,78613,2,0,P|354:183|280:214,1,161.999995056153,2|0,1:2|2:0,2:0:0:0:
267,229,78986,1,2,2:0:0:0:
336,103,79172,1,2,2:0:0:0:
210,30,79358,6,0,P|156:38|110:65,1,107.999996704102,2|2,1:2|2:0,2:0:0:0:
256,100,79731,1,0,2:0:0:0:
101,73,79917,1,0,2:0:0:0:
69,211,80104,2,0,P|60:158|34:112,1,107.999996704102,0|0,1:0|2:0,2:0:0:0:
101,73,80476,1,2,2:0:0:0:
2,257,80663,1,2,2:0:0:0:
135,320,80849,6,0,P|81:321|32:344,2,107.999996704102,2|0|0,1:2|2:0|2:0,2:0:0:0:
9,269,81408,1,0,2:0:0:0:
210,351,81594,2,0,P|263:349|312:326,1,107.999996704102,0|0,1:0|2:0,2:0:0:0:
356,257,81967,1,2,2:0:0:0:
356,257,82153,1,2,2:0:0:0:
256,192,82340,6,0,P|232:143|231:89,2,107.999996704102,0|0|0,1:0|2:0|2:0,2:0:0:0:
148,98,82899,1,0,2:0:0:0:
336,177,83085,1,0,1:0:0:0:
397,120,83271,6,0,L|432:115,4,26.9999991760254,0|0|0|0|2,2:0|2:0|2:0|2:0|2:0,2:0:0:0:
495,158,83644,1,2,2:0:0:0:
393,39,83830,6,0,P|344:15|290:14,1,107.999996704102,2|2,1:2|2:0,2:0:0:0:
360,190,84203,2,0,P|306:188|258:164,1,107.999996704102,0|0,2:0|2:0,2:0:0:0:
196,76,84576,2,0,P|115:85|41:116,1,161.999995056153,2|0,1:2|2:0,2:0:0:0:
28,131,84948,1,2,2:0:0:0:
8,36,85135,1,2,2:0:0:0:
115,179,85321,6,0,P|96:229|86:310,2,107.999996704102,2|2|0,1:2|2:0|2:0,2:0:0:0:
13,215,85880,1,0,2:0:0:0:
194,240,86066,5,2,3:0:0:0:
194,240,86160,1,2,3:0:0:0:
194,240,86253,2,0,L|206:303,1,53.9999983520508,2|2,3:0|3:0,2:0:0:0:
280,275,86439,2,0,L|270:222,3,53.9999983520508,2|8|8|8,3:0|2:0|2:0|2:0,2:0:0:0:
309,92,86812,6,0,B|374:99|350:113|412:119,1,107.999996704102,4|2,1:0|2:0,2:0:0:0:
504,66,87184,2,0,L|489:227,1,161.999995056153,10|0,2:0|2:0,2:0:0:0:
466,249,87557,2,0,L|454:370,2,107.999996704102,10|0|8,2:0|2:0|2:0,2:0:0:0:
374,373,88116,1,2,2:0:0:0:
274,178,88302,2,0,L|303:374,1,161.999995056153,10|0,2:0|2:0,2:0:0:0:
283,357,88675,1,10,2:0:0:0:
340,123,88861,2,0,P|188:119|135:261,1,323.999990112305,2|10,2:0|2:0,2:0:0:0:
69,140,89607,6,0,B|83:270|111:222|123:347,1,215.999993408203,0|2,2:0|2:0,2:0:0:0:
210,303,90166,1,10,2:0:0:0:
25,335,90352,1,0,2:0:0:0:
221,302,90538,2,0,P|244:247|292:202,1,107.999996704102,10|0,2:0|2:0,2:0:0:0:
402,151,90911,2,0,P|364:105|307:73,1,107.999996704102,8|2,2:0|2:0,2:0:0:0:
101,65,91284,2,0,P|148:30|212:14,2,107.999996704102,10|2|10,2:0|2:0|2:0,2:0:0:0:
256,128,91843,1,2,3:0:0:0:
302,60,92029,6,0,L|338:51,2,26.9999991760254,8|0|0,2:0|2:0|2:0,2:0:0:0:
210,60,92215,2,0,L|174:51,2,26.9999991760254,2|2|2,3:0|3:0|3:0,2:0:0:0:
330,170,92402,6,0,L|382:183,1,53.9999983520508,10|0,3:0|2:0,2:0:0:0:
182,170,92588,2,0,L|129:183,1,53.9999983520508,8|0,3:0|2:0,2:0:0:0:
256,256,92774,5,8,2:0:0:0:
251,271,92961,1,8,2:0:0:0:
335,278,93147,5,8,2:0:0:0:
330,293,93333,1,8,2:0:0:0:
186,328,93520,5,8,2:0:0:0:
191,343,93706,1,8,2:0:0:0:
107,350,93893,5,8,2:0:0:0:
112,365,94079,1,8,2:0:0:0:
16,289,94265,5,8,2:0:0:0:
16,202,94452,1,8,2:0:0:0:
98,175,94638,1,8,2:0:0:0:
148,245,94824,1,8,2:0:0:0:
254,139,95011,5,8,2:0:0:0:
260,268,95197,1,8,2:0:0:0:
384,302,95383,1,8,2:0:0:0:
455,194,95570,1,8,2:0:0:0:
384,57,95756,5,4,3:0:0:0:
380,70,95849,1,4,3:0:0:0:
377,83,95942,1,4,3:0:0:0:
374,96,96035,1,4,3:0:0:0:
371,109,96129,1,8,2:0:0:0:
367,122,96222,1,8,2:0:0:0:
364,135,96315,1,8,2:0:0:0:
361,148,96408,1,8,2:0:0:0:
358,161,96501,6,0,L|322:170,14,26.9999991760254,0|0|0|0|0|0|0|0|0|0|0|0|0|0|0,1:0|2:0|2:0|2:0|1:0|2:0|2:0|2:0|1:0|1:0|1:0|1:0|1:0|1:0|1:0,2:0:0:0:
278,179,97992,6,0,L|331:167,2,53.9999983520508,2|0|0,2:0|2:0|2:0,2:0:0:0:
258,162,98271,1,8,2:0:0:0:
207,189,98365,1,8,1:0:0:0:
259,262,98551,6,0,B|260:290|260:290|242:237,1,53.9999983520508,2|0,2:3|2:0,2:0:0:0:
213,26,98737,5,4,1:0:0:0:
213,26,100973,6,0,L|118:40,1,53.9999983520508,10|0,3:1|2:0,2:0:0:0:
94,100,101160,6,0,P|88:81|87:101,1,53.9999983520508,2|0,3:0|3:0,2:0:0:0:
109,186,101346,2,0,P|89:181|106:192,1,53.9999983520508,4|0,2:1|2:0,2:0:0:0:
77,6,101532,5,4,3:0:0:0:
213,229,101719,6,0,B|244:244|244:244|278:245,1,67.5000025749208,4|0,3:0|2:0,2:0:0:0:
299,155,101905,2,0,L|233:138,1,67.5000025749208,2|0,2:1|2:0,2:0:0:0:
103,193,102091,6,0,B|112:274|130:244|137:322,1,135.000005149842,0|0,3:0|3:0,2:0:0:0:
312,199,102464,6,0,L|266:247,1,67.5000025749208,8|0,2:1|2:0,2:0:0:0:
197,184,102650,2,0,L|245:136,1,67.5000025749208,2|0,2:1|2:0,2:0:0:0:
397,67,102837,1,4,2:3:0:0:
308,211,103023,6,0,L|290:147,1,67.5000025749208,2|0,2:1|2:0,2:0:0:0:
202,173,103209,2,0,L|219:239,1,67.5000025749208,2|0,2:1|2:0,2:0:0:0:
285,352,103396,1,4,2:3:0:0:
234,140,103582,6,0,L|299:156,1,67.5000025749208,2|0,2:1|2:0,2:0:0:0:
278,247,103768,2,0,B|242:246|242:246|213:229,1,67.5000025749208,8|0,2:3|3:0,2:0:0:0:
66,86,103955,2,0,B|57:111|57:111|107:177|107:177|131:120,1,135.000005149842,8|0,2:1|2:0,2:0:0:0:
131,33,104327,6,0,L|125:-5,2,33.7500012874604,2|0|0,2:0|2:0|2:0,2:0:0:0:
210,63,104514,2,0,L|216:25,2,33.7500012874604,2|0|0,2:0|2:0|2:0,2:0:0:0:
299,229,104700,6,0,B|268:244|268:244|234:245,1,67.5000025749208,4|0,3:0|2:0,2:0:0:0:
213,155,104886,2,0,L|279:138,1,67.5000025749208,2|0,2:1|2:0,2:0:0:0:
409,191,105073,2,0,B|400:110|382:140|375:62,1,135.000005149842,0|0,3:0|3:0,2:0:0:0:
200,199,105445,6,0,L|246:247,1,67.5000025749208,8|0,2:1|2:0,2:0:0:0:
315,184,105632,2,0,L|267:136,1,67.5000025749208,2|0,2:1|2:0,2:0:0:0:
95,246,105818,1,4,2:3:0:0:
204,211,106004,6,0,L|222:147,1,67.5000025749208,2|0,2:1|2:0,2:0:0:0:
310,173,106191,2,0,L|293:239,1,67.5000025749208,2|0,2:1|2:0,2:0:0:0:
246,363,106377,1,4,2:3:0:0:
278,140,106563,6,0,L|213:156,1,67.5000025749208,2|0,2:1|2:0,2:0:0:0:
234,247,106750,2,0,B|270:246|270:246|299:229,1,67.5000025749208,4|0,2:3|3:0,2:0:0:0:
340,73,106936,2,0,B|386:66|386:66|428:81|428:81|477:75,1,135.000005149842,8|6,2:1|2:1,2:0:0:0:
291,0,107309,2,0,B|244:18|244:18|237:65,1,99.0000030212403,4|2,2:0|2:1,2:0:0:0:
310,173,107681,6,0,L|304:197,2,22.5000008583069,2|2|2,3:0|3:0|3:0,2:0:0:0:
397,185,107868,5,0,3:0:0:0:
397,185,107961,1,0,3:0:0:0:
397,185,108054,2,0,L|388:220,2,33.7500012874604,2|2|2,3:0|3:0|3:0,2:0:0:0:
275,244,108427,6,0,L|211:226,1,67.5000025749208,8|0,2:1|2:0,2:0:0:0:
237,138,108613,2,0,L|303:155,1,67.5000025749208,2|0,2:1|2:0,2:0:0:0:
387,282,108799,1,4,2:3:0:0:
262,248,108986,6,0,L|310:201,1,67.5000025749208,2|0,2:1|2:0,2:0:0:0:
247,132,109172,2,0,L|199:180,1,67.5000025749208,2|0,2:1|2:0,2:0:0:0:
150,290,109358,1,4,2:3:0:0:
291,148,109545,6,0,L|308:213,1,67.5000025749208,0|8,3:0|3:0,2:0:0:0:
216,232,109731,2,0,B|203:206|203:206|200:169,1,67.5000025749208,4|0,3:0|2:0,2:0:0:0:
266,56,109917,2,0,L|357:42,1,67.5000025749208,8|0,2:1|2:0,2:0:0:0:
282,34,110104,6,0,L|327:27,2,33.7500012874604,0|0|2,2:0|2:0|2:0,2:0:0:0:
488,1,110476,2,0,L|493:35,1,33.7500012874604,2|0,2:1|2:1,2:0:0:0:
512,192,110663,5,6,2:3:0:0:
433,141,111035,5,2,2:1:0:0:
417,144,111129,1,0,2:0:0:0:
401,147,111222,1,2,2:1:0:0:
352,224,111408,2,0,B|312:230|312:230|330:226|347:210,1,67.5000025749208,10|2,2:1|2:1,2:0:0:0:
257,298,111781,5,2,3:1:0:0:
231,294,111874,1,0,3:0:0:0:
206,289,111967,1,2,3:1:0:0:
178,130,112153,2,0,B|138:124|138:124|156:128|173:144,1,67.5000025749208,2|2,2:1|2:1,2:0:0:0:
254,193,112526,6,0,P|284:185|253:184,1,90,8|2,2:0|2:0,2:0:0:0:
18,198,112899,1,8,2:1:0:0:
98,191,113271,6,0,B|119:181|119:181|97:182,1,45,2|0,2:0|2:0,2:0:0:0:
18,198,113458,2,0,B|-3:208|-3:208|18:206,1,45,2|0,2:1|2:1,2:0:0:0:
161,254,113644,6,0,B|244:262|215:282|290:289,1,135.000005149842,4|2,3:0|2:1,2:0:0:0:
80,284,114017,1,0,3:0:0:0:
62,289,114110,1,0,3:0:0:0:
52,304,114203,1,0,3:0:0:0:
207,174,114389,6,0,L|272:156,1,67.5000025749208,8|0,2:1|2:0,2:0:0:0:
250,80,114576,2,0,L|184:97,1,67.5000025749208,2|0,2:1|2:0,2:0:0:0:
36,207,114762,1,4,2:3:0:0:
36,207,114855,1,0,3:0:0:0:
36,207,114948,2,0,B|18:179|18:179|20:143,1,67.5000025749208,2|0,2:1|2:0,2:0:0:0:
103,125,115135,2,0,B|120:152|120:152|118:188,1,67.5000025749208,2|0,2:1|2:0,2:0:0:0:
80,284,115321,6,0,B|64:297|64:297|43:288|17:290,2,67.5000025749208,4|0|2,2:3|3:0|2:1,2:0:0:0:
180,259,115601,1,0,2:0:0:0:
180,259,115694,2,0,P|194:288|201:322,1,67.5000025749208,8|0,2:3|3:0,2:0:0:0:
276,371,115880,2,0,L|350:360,1,67.5000025749208,8|0,2:1|2:0,2:0:0:0:
455,283,116066,2,0,L|388:292,1,67.5000025749208,0|0,2:0|2:0,2:0:0:0:
307,170,116253,6,0,B|376:160|376:160|318:132,1,135,2|0,2:0|2:0,2:0:0:0:
296,131,116625,6,0,L|278:196,1,67.5000025749208,4|0,3:0|2:0,2:0:0:0:
202,174,116812,2,0,L|219:108,1,67.5000025749208,2|0,2:1|2:0,2:0:0:0:
289,20,116998,2,0,B|347:13|347:13|365:20|365:20|422:15,1,135.000005149842,0|0,3:0|3:0,2:0:0:0:
494,69,117278,1,0,3:0:0:0:
494,69,117371,2,0,P|505:105|508:153,2,67.5000025749208,8|0|2,2:1|2:0|2:1,2:0:0:0:
455,283,117743,5,4,2:3:0:0:
386,216,117930,2,0,B|358:198|358:198|322:200,1,67.5000025749208,2|0,2:1|2:0,2:0:0:0:
304,283,118116,2,0,B|331:300|331:300|367:298,1,67.5000025749208,2|0,2:1|2:0,2:0:0:0:
381,119,118302,1,4,2:3:0:0:
300,86,118489,6,0,L|235:104,1,67.5000025749208,2|0,2:1|2:0,2:0:0:0:
217,23,118675,2,0,B|230:7|230:7|252:12|278:6,1,67.5000025749208,4|0,2:3|3:0,2:0:0:0:
390,114,118861,2,0,L|369:270,1,135.000005149842,8|6,2:1|2:1,2:0:0:0:
270,193,119234,1,4,2:0:0:0:
458,343,119420,1,2,2:1:0:0:
479,339,119514,1,0,2:0:0:0:
491,326,119607,6,0,L|482:269,1,33.7500012874604,2|0,2:1|2:0,2:0:0:0:
372,349,119793,2,0,L|366:315,1,33.7500012874604,0|0,1:0|2:0,2:0:0:0:
409,236,119979,2,0,B|410:219|410:219|419:234,4,33.7500012874604,0|0|0|0|0,2:0|2:0|3:0|2:0|3:0,2:0:0:0:
365,127,120352,6,0,B|395:110|395:110|427:117,1,67.5000025749208,8|0,2:1|2:0,2:0:0:0:
415,13,120538,2,0,B|385:30|385:30|352:22,1,67.5000025749208,2|0,2:1|2:0,2:0:0:0:
408,201,120725,1,4,2:3:0:0:
263,164,120911,6,0,B|227:166|227:166|200:149,1,67.5000025749208,2|0,2:1|2:0,2:0:0:0:
220,65,121097,2,0,B|254:63|254:63|282:81,1,67.5000025749208,2|0,2:1|2:0,2:0:0:0:
269,287,121284,1,4,2:3:0:0:
87,253,121470,6,0,B|57:236|57:236|25:243,1,67.5000025749208,0|8,3:0|3:0,2:0:0:0:
37,139,121656,2,0,B|67:156|67:156|100:148,1,67.5000025749208,4|0,3:0|2:0,2:0:0:0:
28,326,121843,6,0,P|59:195|134:26,1,270.000010299683,8|2,2:1|2:0,2:0:0:0:
22,27,122402,5,2,2:0:0:0:
15,7,122495,1,0,2:0:0:0:
0,0,122588,1,4,1:0:0:0:
5,187,133023,6,0,L|117:198,1,107.999996704102,2|0,2:1|2:0,2:0:0:0:
279,217,133396,1,0,2:0:0:0:
195,229,133768,6,0,B|183:204|183:204|199:183,1,53.9999983520508,8|0,2:0|2:0,2:0:0:0:
366,236,133955,1,0,1:0:0:0:
368,221,134048,1,0,1:0:0:0:
370,202,134141,1,0,1:0:0:0:
401,192,134234,1,0,1:0:0:0:
421,215,134327,1,2,1:3:0:0:
459,175,134420,1,0,2:0:0:0:
512,192,134514,6,0,L|495:280,1,90,14|2,2:0|2:0,2:0:0:0:
270,242,134886,2,0,L|286:153,1,90,10|2,2:0|2:0,2:0:0:0:
498,190,135259,2,0,L|481:278,1,90,10|2,2:0|2:0,2:0:0:0:
255,239,135632,2,0,L|272:151,1,90,10|0,2:0|1:0,2:0:0:0:
248,107,135911,1,0,1:0:0:0:
248,107,136004,6,0,B|202:100|202:100|165:123,1,90,10|2,2:0|2:0,2:0:0:0:
206,330,136377,2,0,B|252:337|252:337|288:313,1,90,10|2,2:0|2:0,2:0:0:0:
250,119,136750,6,0,B|204:112|204:112|167:135,1,90,10|0,2:0|1:0,2:0:0:0:
233,343,137123,2,0,B|256:347|256:347|274:335,2,45,10|2|2,2:0|2:0|2:0,2:0:0:0:
238,251,137495,5,8,2:0:0:0:
135,225,137681,1,2,2:0:0:0:
77,309,137868,1,8,2:0:0:0:
128,209,138054,1,2,2:0:0:0:
67,152,138240,1,10,2:0:0:0:
147,102,138427,1,2,2:0:0:0:
147,102,138520,1,2,2:0:0:0:
147,102,138613,2,0,L|156:31,2,45,10|0|0,2:0|2:0|1:0,2:0:0:0:
57,255,138986,6,0,L|51:299,1,45,10|0,2:0|2:0,2:0:0:0:
121,335,139172,2,0,L|115:379,1,45,2|0,2:0|2:0,2:0:0:0:
193,237,139358,2,0,L|187:281,1,45,10|0,2:0|2:0,2:0:0:0:
257,317,139544,2,0,L|251:361,1,45,2|0,2:0|2:0,2:0:0:0:
337,271,139731,6,0,P|346:250|349:216,1,45,8|0,2:0|1:0,2:0:0:0:
423,182,139917,2,0,P|440:196|454:214,1,45,0|0,2:0|1:0,2:0:0:0:
467,85,140104,2,0,P|445:87|424:96,1,45,0|0,1:0|1:0,2:0:0:0:
348,51,140290,2,0,P|351:28|360:8,1,45,0|0,1:0|2:0,2:0:0:0:
266,24,140476,5,10,2:0:0:0:
249,28,140663,1,10,2:0:0:0:
167,7,140849,5,10,2:0:0:0:
337,47,141036,1,10,2:0:0:0:
240,145,141222,5,10,2:0:0:0:
257,149,141409,1,10,2:0:0:0:
339,128,141595,5,10,2:0:0:0:
169,168,141782,1,8,2:0:0:0:
213,242,141967,5,10,2:0:0:0:
298,262,142154,1,10,2:0:0:0:
210,251,142340,5,10,2:0:0:0:
295,271,142527,1,10,2:0:0:0:
349,321,142712,5,10,2:0:0:0:
179,361,142899,1,10,2:0:0:0:
355,339,143085,5,10,2:0:0:0:
185,379,143272,1,10,2:0:0:0:
260,382,143458,5,4,3:0:0:0:
276,329,143551,1,4,3:0:0:0:
253,287,143644,5,4,3:0:0:0:
246,271,143737,1,4,3:0:0:0:
281,223,143830,5,8,2:0:0:0:
293,190,143923,1,8,2:0:0:0:
269,156,144016,5,8,2:0:0:0:
250,124,144109,1,8,2:0:0:0:
247,89,144203,6,0,L|199:81,6,26.9999991760254,0|0|0|0|0|0|0,1:0|2:0|2:0|2:0|1:0|2:0|2:0,2:0:0:0:
303,38,144576,6,0,L|351:30,6,26.9999991760254,0|0|0|0|0|0|0,1:0|1:0|1:0|1:0|1:0|1:0|1:0,2:0:0:0:
241,21,146066,6,0,P|271:202|283:385,1,337.5,8|0,2:0|2:0,2:0:0:0:
0,192,146439,6,0,B|83:181|83:181|66:146|66:146|28:174,1,161.999995056153,0|0,1:0|2:0,2:0:0:0:
72,133,146812,2,0,B|103:157|103:157|17:149,1,107.999996704102,0|0,2:0|2:0,2:0:0:0:
219,66,147184,6,0,B|135:55|135:55|152:20|152:20|190:48,1,161.999995056153,0|0,1:0|2:0,2:0:0:0:
147,7,147557,2,0,B|116:31|116:31|202:23,1,107.999996704102,0|0,2:0|2:0,2:0:0:0:
233,146,147930,6,0,B|316:157|316:157|299:192|299:192|261:164,1,161.999995056153,0|0,1:0|2:0,2:0:0:0:
305,205,148303,2,0,B|336:181|336:181|250:189,1,107.999996704102,0|0,2:0|2:0,2:0:0:0:
502,38,148675,6,0,B|418:49|418:49|435:84|435:84|473:56,1,161.999995056153,0|0,1:0|2:0,2:0:0:0:
412,95,149048,5,2,2:0:0:0:
409,106,149141,1,2,2:0:0:0:
510,327,149420,6,0,B|399:340|399:340|414:311|414:311|443:333,1,161.999995056153,0|0,1:0|2:0,2:0:0:0:
386,367,149793,2,0,B|371:343|371:343|373:318,2,53.9999983520508,0|0|0,2:0|2:0|2:0,2:0:0:0:
360,224,150166,6,0,B|249:211|249:211|264:240|264:240|293:218,1,161.999995056153,0|0,1:0|2:0,2:0:0:0:
236,184,150539,2,0,B|221:208|221:208|223:233,2,53.9999983520508,0|0|0,2:0|2:0|2:0,2:0:0:0:
241,330,150911,6,0,B|130:343|130:343|145:314|145:314|174:336,1,161.999995056153,0|0,1:0|2:0,2:0:0:0:
121,375,151284,6,0,P|105:349|105:317,1,53.9999983520508,0|0,2:0|2:0,2:0:0:0:
256,0,151656,5,4,2:1:0:0:
256,0,152402,6,0,L|256:88,1,53.9999983520508,4|0,3:0|3:0,2:0:0:0:
150,185,152588,21,0,3:0:0:0:
213,173,152681,1,0,3:0:0:0:
187,96,152774,2,0,L|178:25,2,53.9999983520508,4|0|0,3:0|3:0|3:0,2:0:0:0:
309,297,153147,1,4,3:0:0:0:
217,204,153334,5,0,3:0:0:0:
279,184,153427,1,0,3:0:0:0:
243,112,153520,2,0,L|234:41,2,53.9999983520508,4|0|0,3:0|3:0|3:0,2:0:0:0:
322,300,153893,1,4,3:0:0:0:
288,214,154079,5,0,3:0:0:0:
346,186,154172,1,0,3:0:0:0:
299,120,154265,2,0,L|290:49,2,53.9999983520508,4|0|0,3:0|3:0|3:0,2:0:0:0:
335,303,154638,6,0,L|394:311,1,53.9999983520508,4|0,3:0|3:0,2:0:0:0:
496,376,154824,2,0,L|442:368,1,53.9999983520508,4|0,3:0|3:0,2:0:0:0:
453,237,155011,2,0,P|421:214|459:223,1,107.999996704102,6|2,3:0|2:0,2:0:0:0:
490,107,155383,6,0,B|466:93|466:93|439:97,1,53.9999983520508,4|0,3:0|3:0,2:0:0:0:
342,155,155570,21,0,3:0:0:0:
279,143,155663,1,0,3:0:0:0:
305,66,155756,2,0,L|314:-5,2,53.9999983520508,4|0|0,3:0|3:0|3:0,2:0:0:0:
183,267,156129,1,4,3:0:0:0:
275,174,156316,5,0,3:0:0:0:
213,154,156409,1,0,3:0:0:0:
249,82,156502,2,0,L|258:11,2,53.9999983520508,4|0|0,3:0|3:0|3:0,2:0:0:0:
170,270,156875,1,4,3:0:0:0:
204,184,157061,5,0,3:0:0:0:
146,156,157154,1,0,3:0:0:0:
193,90,157247,2,0,L|202:19,2,53.9999983520508,4|0|0,3:0|3:0|3:0,2:0:0:0:
106,18,157526,5,0,3:0:0:0:
106,18,157619,2,0,B|71:26|71:26|66:32|66:32|53:138|53:138|46:146|46:146|27:150,1,180,8|0,3:0|2:0,2:0:0:0:
27,150,158365,6,0,L|161:162,1,90,4|0,3:0|3:0,2:0:0:0:
169,276,158551,1,0,3:0:0:0:
121,259,158644,1,0,3:0:0:0:
170,284,158737,2,0,L|196:403,2,67.5000025749208,8|0|0,3:2|3:0|3:0,2:0:0:0:
116,158,159110,6,0,L|202:191,1,67.5000025749208,4|0,3:0|3:0,2:0:0:0:
355,284,159296,1,0,3:0:0:0:
355,284,159389,1,0,3:0:0:0:
355,284,159482,2,0,L|329:403,1,67.5000025749208,8|0,3:2|3:0,2:0:0:0:
262,334,159669,2,0,L|276:268,1,67.5000025749208,0|0,3:0|3:0,2:0:0:0:
179,182,159855,6,0,L|265:149,1,67.5000025749208,4|0,3:0|3:0,2:0:0:0:
441,184,160042,1,0,3:0:0:0:
393,201,160135,1,0,3:0:0:0:
442,176,160228,2,0,L|468:57,2,67.5000025749208,8|0|0,3:2|3:0|3:0,2:0:0:0:
242,157,160601,6,0,L|325:210,2,67.5000025749208,4|0|0,3:0|3:0|3:0,2:0:0:0:
191,61,160880,1,4,3:0:0:0:
175,48,160973,2,0,B|164:79|164:79|177:110,1,67.5000025749208,8|0,3:0|2:0,2:0:0:0:
258,30,161160,2,0,B|280:53|280:53|281:88,1,67.5000025749208,2|0,2:0|2:0,2:0:0:0:
463,152,161346,6,0,L|395:158,1,67.5000025749208,4|0,3:0|3:0,2:0:0:0:
317,278,161532,1,0,3:0:0:0:
269,261,161625,1,0,3:0:0:0:
318,286,161718,2,0,L|344:405,2,67.5000025749208,8|0|0,3:2|3:0|3:0,2:0:0:0:
396,158,162091,6,0,L|310:191,1,67.5000025749208,4|0,3:0|3:0,2:0:0:0:
207,324,162278,1,0,3:0:0:0:
207,324,162371,1,0,3:0:0:0:
207,324,162464,2,0,L|181:205,1,67.5000025749208,8|0,3:2|3:0,2:0:0:0:
114,274,162651,2,0,L|128:339,1,67.5000025749208,0|0,3:0|3:0,2:0:0:0:
333,182,162836,6,0,L|247:149,1,67.5000025749208,4|0,3:0|3:0,2:0:0:0:
60,147,163023,1,0,3:0:0:0:
12,164,163116,1,0,3:0:0:0:
61,139,163209,2,0,L|87:20,2,67.5000025749208,8|0|0,3:2|3:0|3:0,2:0:0:0:
126,202,163489,1,4,3:0:0:0:
126,202,163582,1,4,3:0:0:0:
141,122,163768,1,0,3:0:0:0:
156,42,163955,1,2,2:0:0:0:
165,367,164327,54,1,B|183:341|183:341|164:326|164:326|156:362|156:362|138:349|138:349|154:316|154:316|117:155|117:155|112:152|112:152|109:140|109:140|112:135|112:135|82:5,1,472.500004506111,8|2,2:3|2:3,2:0:0:0:
270,50,165073,6,0,P|289:72|301:93,1,53.9999983520508,4|0,3:0|3:0,2:0:0:0:
414,161,165259,21,0,3:0:0:0:
402,224,165352,1,0,3:0:0:0:
325,198,165445,2,0,L|254:189,1,53.9999983520508,8|0,3:2|3:0,2:0:0:0:
348,128,165632,1,0,3:0:0:0:
348,128,165725,1,0,3:0:0:0:
348,128,165818,1,4,3:0:0:0:
433,228,166005,5,0,3:0:0:0:
413,290,166098,1,0,3:0:0:0:
341,254,166191,2,0,L|270:245,2,53.9999983520508,8|0|0,3:2|3:0|3:0,2:0:0:0:
368,182,166470,1,0,3:0:0:0:
368,182,166563,1,4,3:0:0:0:
443,299,166750,5,0,3:0:0:0:
415,357,166843,1,4,3:0:0:0:
349,310,166936,2,0,B|293:318|315:339|251:352,1,107.999996704102,4|2,3:0|3:0,2:0:0:0:
75,143,167309,6,0,B|72:90|72:90|123:165,2,107.999996704102,4|2|2,3:0|2:0|2:0,2:0:0:0:
108,213,167774,1,2,2:0:0:0:
108,213,167868,1,2,2:0:0:0:
437,143,168054,6,0,B|439:90|439:90|389:165,2,107.999996704102,4|0|2,3:0|3:0|2:0,2:0:0:0:
404,213,168519,1,2,2:0:0:0:
404,213,168613,1,2,2:0:0:0:
256,271,168799,6,0,B|239:286|239:286|273:366|273:366|256:384,1,134.999995880127,4|0,1:0|2:0,2:0:0:0:
256,192,169917,6,0,L|256:160,1,26.9999991760254,8|0,3:0|2:0,2:0:0:0:
443,136,170290,38,1,B|467:173|467:173|449:244|449:244|432:248|432:248|419:235|419:235|436:164|436:164|477:144,1,270.000010299683,6|0,1:0|2:0,2:0:0:0:
477,69,170756,6,1,B|470:44|470:44|467:48|467:48|475:80,1,54,2|0,2:3|2:0,2:0:0:0:
443,136,172340,5,2,1:0:0:0:
396,65,172526,6,0,B|316:87|316:87|317:97|317:97|264:160|264:160|266:169|266:169|177:189,1,270,8|0,2:0|2:0,2:0:0:0:
106,190,172899,2,0,B|97:201|97:201|109:239|109:239|118:230,1,67.5,0|0,1:0|2:0,2:0:0:0:
183,188,173271,1,0,1:0:0:0:
125,53,173737,6,0,L|140:116,1,45,2|2,2:3|2:1,2:0:0:0:
181,351,174017,1,8,1:2:0:0:
181,351,174576,6,0,B|207:349|220:332|220:332|237:332|247:344|247:344|260:346|279:342,1,107.999996704102,8|0,2:0|2:0,2:0:0:0:
291,343,174824,5,8,2:0:0:0:
299,335,174886,5,8,2:0:0:0:
307,340,174948,5,8,2:0:0:0:
393,317,175135,5,0,1:0:0:0:
483,338,175321,2,0,B|501:339|501:339|443:353,1,53.9999983520508,8|0,1:0|2:0,2:0:0:0:
362,384,175507,6,0,B|340:304|340:304|330:305|330:305|267:252|267:252|258:254|258:254|228:143,1,270,8|0,2:0|2:0,2:0:0:0:
249,97,175880,6,0,B|287:60|287:60|168:123,1,180,4|0,1:0|2:0,2:0:0:0:
90,55,176253,6,0,B|193:63|193:63|201:69|201:69|254:186|254:186|265:195|265:195|394:205,1,360,4|0,1:0|2:0,2:0:0:0:
416,92,176719,6,0,B|435:85|435:85|415:109,1,45,2|0,3:0|2:0,2:0:0:0:
175,119,176998,5,8,2:0:0:0:
224,183,177464,6,0,B|252:156|252:156|249:174|249:174|226:197,1,90,2|0,1:0|2:0,2:0:0:0:
115,48,177806,5,8,2:0:0:0:
107,56,177868,5,8,2:0:0:0:
99,51,177930,5,8,2:0:0:0:
18,78,178116,5,0,1:0:0:0:
78,144,178302,2,0,B|116:164|116:164|103:186|103:186|50:196,1,90,0|0,1:0|2:0,2:0:0:0:
16,242,178489,6,0,B|72:269|72:269|145:257|145:257|241:110,1,270,10|0,2:0|2:0,2:0:0:0:
346,152,178861,2,0,B|300:134|300:134|291:103|291:103|305:77|305:77|333:258,1,270,0|0,1:0|2:0,2:0:0:0:
372,346,179234,2,0,B|399:341|399:341|437:295|437:295|482:277|482:277|504:319|504:319|480:365|480:365|436:341|436:341|401:296|401:296|366:275,1,360,2|0,1:0|2:0,2:0:0:0:
361,354,179700,6,0,L|298:339,1,45,2|2,2:3|2:1,2:0:0:0:
63,298,179980,5,8,1:2:0:0:
192,335,180352,6,0,B|186:289|186:289|210:373,1,90,2|0,1:0|2:0,2:0:0:0:
255,155,180725,6,0,B|258:130|258:130|268:126|268:126|271:62,2,67.5000025749208,4|0|0,2:0|2:0|2:0,2:0:0:0:
261,177,181160,5,8,2:0:0:0:
253,185,181222,5,8,2:0:0:0:
245,180,181284,5,0,1:0:0:0:
447,250,181470,6,0,B|481:197|481:197|368:163|368:163|369:226,1,240,8|0,2:0|2:0,2:0:0:0:
352,247,181781,5,2,3:0:0:0:
352,257,181843,5,0,2:0:0:0:
331,275,181905,6,0,L|340:347,1,60,0|0,1:0|2:0,2:0:0:0:
316,360,182215,6,0,B|196:363|10:284|177:166|313:109|111:396|192:323|330:263|307:309,1,360,6|0,1:0|2:0,2:0:0:0:
268,222,182681,6,0,B|288:209|263:203|289:186,1,45,2|2,2:3|2:0,2:0:0:0:
115,358,182961,6,0,B|73:341|73:341|32:372,1,90,8|0,2:0|2:0,2:0:0:0:
0,301,183427,6,0,B|9:285|9:285|19:302|19:302|160:319,1,180,0|2,1:0|2:0,2:0:0:0:
268,222,183768,5,8,2:0:0:0:
276,214,183830,5,8,2:0:0:0:
284,219,183892,5,8,2:0:0:0:
289,133,184079,1,0,1:0:0:0:
361,100,184265,6,0,B|381:89|381:89|364:156,1,53.9999983520508,2|0,1:0|2:0,2:0:0:0:
253,27,184452,6,0,B|126:53|126:53|110:50|110:50|126:80|126:80|122:113|122:113|128:101|128:101|177:89,1,270,8|0,2:0|2:0,2:0:0:0:
48,114,184824,6,0,B|-11:194|86:218|172:259|85:169|144:185|8:221|43:121,1,270,0|0,1:0|2:0,2:0:0:0:
0,252,185197,6,0,B|39:286|39:286|165:178|350:173,1,360,0|0,1:0|2:0,2:0:0:0:
361,100,185663,1,2,2:3:0:0:
361,100,185756,1,8,2:0:0:0:
372,286,185942,6,0,B|330:303|330:303|289:272,1,90,8|0,1:0|2:0,2:0:0:0:
426,365,186408,6,0,B|465:247|465:247|475:269|475:269|488:237|488:237|480:172|480:172|500:121,1,270,8|8,2:0|2:0,2:0:0:0:
500,136,186750,5,8,2:0:0:0:
492,128,186812,5,8,2:0:0:0:
484,133,186874,5,8,2:0:0:0:
404,151,187060,1,0,1:0:0:0:
343,220,187247,1,8,1:0:0:0:
481,31,187433,6,0,B|461:18|461:18|351:68|222:75,1,270,8|0,2:0|2:0,2:0:0:0:
174,138,187806,2,0,B|53:137|50:-48|240:7|59:118|187:139,1,270,4|0,1:0|2:0,2:0:0:0:
262,211,188178,6,0,B|316:205|359:243|359:243|353:196|402:145|402:145|335:200|270:195,1,360,4|0,1:0|2:0,2:0:0:0:
436,220,188644,6,0,B|449:240|455:215|472:241,1,45,2|0,3:0|2:0,2:0:0:0:
213,281,188924,5,8,2:0:0:0:
149,234,189110,1,2,2:0:0:0:
65,240,189296,1,2,2:0:0:0:
61,253,189389,6,0,B|22:135|22:135|12:157|12:157|-1:125|-1:125|7:60|7:60|-13:9,1,270,2|2,1:0|2:0,2:0:0:0:
77,29,189731,5,8,2:0:0:0:
85,34,189793,5,8,2:0:0:0:
93,26,189855,5,8,2:0:0:0:
169,9,190042,1,0,1:0:0:0:
231,71,190228,2,0,B|215:111|215:111|223:33,1,90,0|0,1:0|2:0,2:0:0:0:
435,0,190414,6,0,B|367:26|367:26|352:22|352:22|349:42|349:42|378:124|378:124|374:150|374:150|328:134,1,270,10|0,2:0|2:0,2:0:0:0:
292,211,190787,2,0,B|231:233|151:207|220:105|366:291,1,270,0|0,1:0|2:0,2:0:0:0:
487,253,191160,6,0,B|482:285|482:285|364:282|253:341,1,270,2|0,1:0|2:0,2:0:0:0:
179,301,191532,1,0,2:0:0:0:
179,301,191625,2,0,P|174:284|194:294,1,45,2|2,2:3|2:1,2:0:0:0:
256,96,191905,5,8,1:2:0:0:
200,23,192091,1,2,2:0:0:0:
111,35,192278,2,0,B|112:54|81:46|90:116,1,67.5,2|0,1:0|2:0,2:0:0:0:
134,174,192712,5,8,2:0:0:0:
142,169,192774,5,8,2:0:0:0:
150,177,192836,5,0,1:0:0:0:
207,100,193023,1,0,1:0:0:0:
346,9,193209,6,0,B|483:47|483:47|504:11|504:11|520:77|520:77|460:304|460:304|403:266|403:266|370:180|370:180|423:146,1,675.000025749208,2|4,1:0|1:0,2:0:0:0:
256,384,194514,5,2,2:0:0:0:
246,365,194700,2,0,L|172:360,2,72,2|2|2,2:0|2:0|2:0,2:0:0:0:
290,289,195818,5,2,2:0:0:0:
276,293,196004,1,2,2:0:0:0:
265,284,196191,1,2,2:0:0:0:
265,269,196377,1,2,2:0:0:0:
276,260,196563,1,2,2:0:0:0:
290,264,196750,1,2,2:1:0:0:
296,277,196936,1,2,2:0:0:0:
256,192,197495,5,2,2:0:0:0:
246,173,197681,2,0,L|172:168,2,72,2|2|2,2:0|2:0|2:0,2:0:0:0:
290,97,198799,5,0,2:0:0:0:
276,101,198985,1,2,2:0:0:0:
265,92,199172,1,2,2:0:0:0:
265,77,199358,1,2,2:0:0:0:
276,68,199544,1,2,2:0:0:0:
290,72,199731,1,2,2:1:0:0:
296,85,199917,1,2,2:0:0:0:
201,31,200476,5,2,2:0:0:0:
191,12,200662,1,2,2:0:0:0:
119,7,201035,1,2,2:0:0:0:
191,12,201408,1,2,2:0:0:0:
191,12,202340,5,2,2:0:0:0:
211,106,202526,1,2,2:0:0:0:
194,24,202712,1,2,2:1:0:0:
266,161,202899,6,0,B|377:170|328:206|435:215,1,180,2|0,2:0|2:0,2:0:0:0:
434,214,204576,6,0,L|444:152,2,54,2|2|2,2:0|2:0|2:0,2:0:0:0:
356,263,205321,5,2,2:0:0:0:
429,289,205601,1,2,2:0:0:0:
475,353,205880,1,2,2:0:0:0:
512,384,206066,5,4,2:0:0:0:
336,384,208815,5,0,2:0:0:0:
216,384,210632,5,0,2:0:0:0:
136,384,212029,5,0,2:0:0:0:
104,384,213706,5,0,2:0:0:0:
98,384,215430,6,0,B|0:384|0:384|0:141,1,339.75,0|0,2:0|2:0,2:0:0:0:
