osu file format v14

[General]
AudioFilename: audio.mp3
AudioLeadIn: 0
PreviewTime: 53866
Countdown: 0
SampleSet: Soft
StackLeniency: 0.7
Mode: 0
LetterboxInBreaks: 0
WidescreenStoryboard: 1

[Editor]
Bookmarks: 13966,26766,39566,53966,66766,79566,85966,92366
DistanceSpacing: 1
BeatDivisor: 4
GridSize: 32
TimelineZoom: 1.6

[Metadata]
Title:DR PEPPER IS THE OLDEST MAJOR SOFT DRINK IN AMERICA
TitleUnicode:DR PEPPER IS THE OLDEST MAJOR SOFT DRINK IN AMERICA
Artist:xaev
ArtistUnicode:xaev
Creator:wafer
Version:WAFER IS THE OLDEST MAJOR NORMAL DIFF MAPPER IN AMERICA
Source:
Tags:english electronic instrumental dariacore hyperpop daria core hyper pop goopert kami no kotoba ren keitaro -keitaro ioexception ceo of osu BONErr SEBii BedRock Young Money ft. lloyd berdlycore chapter 3 berdly
BeatmapID:4175103
BeatmapSetID:2003598

[Difficulty]
HPDrainRate:3
CircleSize:3
OverallDifficulty:4
ApproachRate:5
SliderMultiplier:1.1
SliderTickRate:1

[Events]
//Background and Video events
0,0,"OH MY LORD. i must be stricken with LOVE for this Beuaitufl Girl.jpg",0,0
//Break Periods
//Storyboard Layer 0 (Background)
//Storyboard Layer 1 (Fail)
//Storyboard Layer 2 (Pass)
//Storyboard Layer 3 (Foreground)
//Storyboard Layer 4 (Overlay)
//Storyboard Sound Samples

[TimingPoints]
1166,400,4,2,0,50,1,0
1166,-111.111111111111,4,2,0,50,0,0
13966,-100,4,2,0,60,0,0
26766,-100,4,2,0,70,0,0
39566,-100,4,2,0,60,0,0
53966,-100,4,2,0,65,0,0
66766,-100,4,2,0,80,0,0
79566,-100,4,2,0,85,0,0
85966,-100,4,2,0,90,0,0
92766,-100,4,2,0,80,0,0
95166,-100,4,2,0,60,0,0
95766,-100,4,2,0,80,0,0
97966,-100,4,2,0,60,0,0
98166,-100,4,2,0,80,0,0

[Colours]
Combo1 : 139,189,226
Combo2 : 255,119,147
Combo3 : 180,217,228
Combo4 : 167,149,219
Combo5 : 255,186,166

[HitObjects]
49,153,1166,6,0,B|-20:141|9:25|63:23|124:58|103:88,1,197.99999395752,2|2,0:0|0:0,0:0:0:0:
36,254,2766,2,0,B|48:323|164:294|166:240|131:179|119:241,1,197.99999395752,4|2,0:0|0:0,0:0:0:0:
242,78,4366,5,4,0:0:0:0:
432,130,5166,1,2,0:0:0:0:
237,165,5966,1,2,0:0:0:0:
328,202,6366,1,2,0:0:0:0:
423,228,6766,2,0,P|433:198|429:130,1,98.9999969787598,2|2,0:0|0:0,0:0:0:0:
488,52,7566,5,4,0:0:0:0:
312,144,8366,2,0,P|277:142|224:42,1,148.49999546814,4|2,0:0|0:0,0:0:0:0:
176,47,9166,1,4,0:0:0:0:
176,47,9366,2,0,P|138:53|106:50,1,49.4999984893799,2|2,0:0|0:0,0:0:0:0:
49,114,9966,2,0,P|105:134|148:159,1,98.9999969787599,2|2,0:0|0:0,0:0:0:0:
153,251,10766,6,0,B|106:288|156:335|235:343|277:278,1,197.99999395752,4|4,0:0|0:0,0:0:0:0:
303,250,11766,2,0,P|308:216|296:184,2,49.4999984893799,0|2|0,0:0|0:0|0:0,0:0:0:0:
338,284,12366,1,0,0:0:0:0:
496,165,13166,2,0,P|507:111|496:57,1,98.9999969787599
394,37,13966,5,4,0:2:0:0:
311,110,14366,1,2,0:0:0:0:
311,110,14566,1,0,1:0:0:0:
311,110,14766,2,0,B|339:146|371:132|414:181,1,110,2|2,0:0|0:0,0:0:0:0:
442,271,15566,1,6,0:0:0:0:
367,351,15966,1,2,0:0:0:0:
367,351,16166,1,0,0:0:0:0:
367,351,16366,1,8,0:0:0:0:
307,258,16766,1,8,1:0:0:0:
219,190,17166,6,0,P|172:209|99:208,1,110,4|2,1:0|0:0,0:0:0:0:
68,243,17766,1,2,1:2:0:0:
68,243,17966,2,0,P|48:209|53:128,1,110,2|2,0:0|1:2,0:0:0:0:
119,56,18766,1,6,0:0:0:0:
222,93,19166,1,2,1:2:0:0:
222,93,19366,1,0,1:0:0:0:
222,93,19566,1,8,0:0:0:0:
322,47,19966,1,8,1:0:0:0:
415,105,20366,6,0,P|432:141|433:215,1,110,4|2,1:0|0:0,0:0:0:0:
478,242,20966,1,2,1:2:0:0:
478,242,21166,2,0,P|473:287|459:319,2,55,2|0|2,0:3|0:0|0:0,0:0:0:0:
370,266,21966,2,0,P|334:283|260:284,1,110,4|0,1:2|0:0,0:0:0:0:
233,329,22566,1,2,1:2:0:0:
233,329,22766,2,0,P|238:374|252:406,2,55,8|8|8,0:0|3:0|0:1,0:0:0:0:
183,230,23566,6,0,P|138:222|81:278,1,110,2|2,0:0|0:0,0:0:0:0:
41,268,24166,1,2,1:2:0:0:
41,268,24366,2,0,P|23:224|29:198,2,55,2|2|2,0:0|1:2|0:3,0:0:0:0:
137,319,25166,1,4,0:0:0:0:
220,247,25566,2,0,L|230:189,1,55,2|0,0:0|0:0,0:0:0:0:
279,170,25966,1,8,0:0:0:0:
239,67,26366,1,12,1:0:0:0:
341,27,26766,5,2,0:0:0:0:
391,92,27066,1,2,3:0:0:0:
477,97,27366,1,2,0:3:0:0:
477,97,27566,2,0,P|475:126|465:151,1,55,2|2,1:0|1:0,0:0:0:0:
474,204,27966,1,2,3:0:0:0:
364,191,28366,5,4,1:0:0:0:
302,245,28666,1,2,3:0:0:0:
223,219,28966,1,2,3:0:0:0:
126,271,29366,1,2,1:0:0:0:
75,251,29566,2,0,B|50:244|50:244|52:210,1,55,8|4,0:0|3:0,0:0:0:0:
10,178,29966,5,0,1:0:0:0:
68,119,30266,1,2,3:0:0:0:
142,79,30566,1,2,3:0:0:0:
142,79,30766,2,0,P|152:36|159:24,2,55,0|0|10,1:0|1:0|0:0,0:0:0:0:
167,127,31366,1,8,3:0:0:0:
215,136,31566,2,0,P|254:129|291:68,1,110,2|2,1:2|0:0,0:0:0:0:
365,153,32366,1,8,3:0:0:0:
469,118,32766,2,0,B|483:102|483:102|473:48,1,55,10|0,1:0|0:0,0:0:0:0:
425,48,33166,5,4,1:0:0:0:
342,41,33466,1,2,3:0:0:0:
277,92,33766,1,2,3:3:0:0:
277,92,33966,2,0,P|263:118|257:159,1,55,2|2,1:0|1:0,0:0:0:0:
283,191,34366,1,8,0:0:0:0:
240,292,34766,1,4,1:0:0:0:
163,322,35066,1,2,3:0:0:0:
79,317,35366,1,2,3:3:0:0:
79,317,35566,2,0,P|69:277|72:254,1,55,8|8,3:0|1:0,0:0:0:0:
33,222,35966,2,0,B|17:204|17:204|50:181,1,55,10|0,1:0|0:0,0:0:0:0:
89,145,36366,5,4,1:0:0:0:
155,96,36666,1,2,3:0:0:0:
212,155,36966,1,2,3:0:0:0:
321,278,37566,1,10,0:0:0:0:
321,278,37766,1,8,3:0:0:0:
372,298,37966,2,0,P|422:289|480:254,1,110,4|0,1:0|0:0,0:0:0:0:
444,153,38766,2,0,P|394:162|336:197,1,110,2|8,3:0|1:2,0:0:0:0:
65,342,41166,6,0,B|104:325|104:325|81:275,1,82.5,4|0,1:0|0:0,0:0:0:0:
40,220,41766,1,0,0:0:0:0:
69,173,41966,2,0,L|78:113,2,55,0|8|2,1:0|0:0|0:3,0:0:0:0:
161,233,42766,2,0,B|195:244|195:244|202:274|202:274|229:295,1,82.5,4|0,1:0|0:0,0:0:0:0:
271,343,43366,1,0,0:0:0:0:
325,333,43566,2,0,L|392:318,1,55,0|8,1:0|3:0,0:0:0:0:
431,337,43966,1,2,0:1:0:0:
478,237,44366,6,0,B|461:202|461:202|397:208,1,82.5,4|0,1:0|0:0,0:0:0:0:
337,184,44966,1,0,0:0:0:0:
347,130,45166,2,0,B|356:93|356:93|376:69,2,55,0|0|2,1:0|0:0|0:3,0:0:0:0:
264,202,45966,5,4,1:0:0:0:
182,192,46266,2,0,L|92:219,1,82.5
55,187,46766,1,0,1:0:0:0:
55,187,46966,1,2,0:0:0:0:
69,133,47166,1,2,0:3:0:0:
164,78,47566,2,0,B|201:63|201:63|217:93|217:93|212:114,1,82.5,4|0,1:0|0:0,0:0:0:0:
290,134,48166,1,2,3:0:0:0:
334,101,48366,1,0,1:0:0:0:
381,206,48766,1,2,0:1:0:0:
381,206,48966,1,0,1:0:0:0:
433,190,49166,6,0,B|474:161|474:161|453:110,2,82.5,4|0|0,1:0|0:0|0:0,0:0:0:0:
387,220,49966,2,0,L|370:287,1,55,0|2,1:0|0:0,0:0:0:0:
335,312,50366,1,2,0:3:0:0:
335,312,50566,1,2,3:0:0:0:
280,305,50766,1,4,1:0:0:0:
122,255,51366,2,0,L|68:266,1,55,0|0,1:0|0:0,0:0:0:0:
107,163,51966,2,0,L|-2:137,3,110,0|2|2|2,1:0|0:0|0:0|0:0,0:0:0:0:
42,35,53566,1,8,0:0:0:0:
145,73,53966,6,2,B|191:58|237:135|209:157,1,110,6|0,0:0|0:0,0:1:0:0:
305,204,54766,2,0,B|294:251|205:252|200:217,1,110,0|2,0:0|0:0,0:0:0:0:
160,331,55566,2,0,P|134:329|117:300,1,55
63,299,55966,2,2,P|46:279|54:246,1,55,2|0,0:0|0:0,0:1:0:0:
78,204,56366,1,0,0:0:0:0:
181,167,56766,1,2,0:1:0:0:
147,62,57166,6,0,P|156:29|149:1,2,55,0|2|2,0:0|0:0|0:0,0:0:0:0:
98,88,57766,1,2,0:0:0:0:
49,114,57966,2,0,P|15:142|16:169,2,55,2|2|2,0:0|0:0|0:0,0:0:0:0:
151,179,58766,1,2,0:1:0:0:
151,179,58966,1,0,0:0:0:0:
151,179,59166,2,0,L|261:159,2,110,2|2|2,0:0|0:0|0:0,0:0:0:0:
133,287,60366,6,0,P|120:312|113:341,1,55,2|2,0:0|0:0,0:0:0:0:
158,369,60766,2,0,P|186:367|214:359,1,55,2|2,0:0|0:0,0:0:0:0:
245,316,61166,2,2,P|229:292|208:271,2,55,2|2|2,0:1|0:0|0:0,0:1:0:0:
360,347,61966,1,2,0:0:0:0:
360,347,62166,1,2,0:0:0:0:
360,347,62366,2,0,L|349:215,2,110,2|2|2,0:0|0:0|0:0,0:0:0:0:
454,289,63566,6,0,L|465:212,1,55,2|2,0:0|0:0,0:0:0:0:
477,181,63966,2,0,L|422:143,1,55,2|2,0:0|0:0,0:0:0:0:
391,121,64366,1,0,0:0:0:0:
283,145,64766,1,2,0:0:0:0:
183,98,65166,1,2,0:0:0:0:
183,98,65366,2,0,P|177:59|185:39,2,55,2|0|0,0:0|0:0|0:0,0:0:0:0:
128,109,65966,2,0,B|81:123|94:147|25:162,1,110,2|0,0:1|0:0,0:0:0:0:
32,270,66766,5,4,1:0:0:0:
194,298,67366,1,2,0:0:0:0:
236,332,67566,1,0,0:0:0:0:
331,277,67966,1,2,0:0:0:0:
440,287,68366,2,0,P|452:322|457:354,2,55,6|0|4,1:2|0:0|0:0,0:0:0:0:
475,182,69166,1,6,0:2:0:0:
383,120,69566,1,12,0:0:0:0:
285,170,69966,5,4,1:0:0:0:
120,177,70566,1,2,3:2:0:0:
120,177,70766,1,0,0:0:0:0:
36,105,71166,1,2,0:0:0:0:
113,27,71566,1,0,1:0:0:0:
113,27,71766,1,2,0:0:0:0:
162,51,71966,1,2,0:0:0:0:
269,26,72366,2,0,L|255:87,1,55,2|0,3:0|0:0,0:0:0:0:
289,123,72766,2,0,L|303:184,1,55,10|0,0:0|0:0,0:0:0:0:
343,211,73166,5,4,1:0:0:0:
506,185,73766,1,2,0:0:0:0:
506,185,73966,2,0,P|466:220|434:280,1,110,2|2,0:0|0:0,0:0:0:0:
335,309,74766,2,0,P|305:326|275:327,2,55,6|0|4,1:2|0:0|0:0,0:0:0:0:
336,254,75366,1,2,0:0:0:0:
293,219,75566,1,6,0:2:0:0:
191,261,75966,1,12,0:0:0:0:
140,283,76166,2,0,L|126:354,1,55,4|4,3:0|1:0,0:0:0:0:
63,185,76966,1,2,3:2:0:0:
165,55,77566,1,2,1:0:0:0:
165,55,77766,2,0,B|166:78|176:93|174:118,1,55,2|4,1:0|0:0,0:0:0:0:
174,109,78766,2,0,B|242:113|228:135|287:141,1,110,0|0,3:0|3:0,0:0:0:0:
376,89,79566,5,0,1:0:0:0:
354,196,79966,2,0,L|368:253,1,55,0|0,1:0|0:0,0:0:0:0:
400,292,80366,2,0,P|445:308|483:328,2,82.5,0|0|0,1:0|1:0|1:0,0:0:0:0:
352,320,81166,5,0,1:0:0:0:
252,272,81566,1,0,1:0:0:0:
201,293,81766,1,0,0:0:0:0:
146,289,81966,2,0,L|136:372,2,82.5,0|0|0,1:0|1:0|1:0,0:0:0:0:
101,256,82766,5,0,1:0:0:0:
13,189,83166,2,0,L|-12:141,1,55,2|0,1:0|0:0,0:0:0:0:
22,97,83566,2,0,L|107:119,1,82.5,0|0,1:0|1:0,0:0:0:0:
166,67,84166,1,2,1:2:0:0:
166,67,84366,2,0,P|216:78|231:151,1,110,0|0,1:0|1:0,0:0:0:0:
344,101,85166,2,2,P|370:74|387:10,2,82.5,2|2|0,1:0|1:0|1:0,0:1:0:0:
384,137,85966,6,0,L|371:209,1,55,4|0,1:0|0:0,0:0:0:0:
328,222,86366,2,0,L|355:292,1,55,0|0,1:0|0:0,0:0:0:0:
394,302,86766,1,0,1:0:0:0:
330,354,87066,1,0,1:0:0:0:
249,336,87366,1,0,1:0:0:0:
195,349,87566,1,0,1:0:0:0:
88,326,87966,1,0,1:0:0:0:
30,231,88366,2,0,L|15:146,2,82.5,0|0|0,1:0|1:0|1:0,0:0:0:0:
84,234,89166,2,0,L|148:210,1,55,0|0,1:0|0:0,0:0:0:0:
179,181,89566,2,0,L|243:205,1,55,0|0,1:0|0:0,0:0:0:0:
260,246,89966,1,4,1:0:0:0:
338,219,90266,1,0,1:0:0:0:
411,255,90566,1,0,1:0:0:0:
256,192,90766,12,4,92366,1:0:0:0:
256,64,93166,5,2,0:0:0:0:
159,116,93566,2,0,P|117:114|90:98,1,55,2|2,0:0|0:0,0:0:0:0:
67,148,93966,2,2,P|29:170|110:288,1,220,0|0,0:0|0:0,0:0:0:0:
180,353,95166,2,2,B|217:227|236:511|241:174|298:422|325:332,1,165,0|0,0:1|0:0,0:1:0:0:
359,316,95966,1,2,0:1:0:0:
481,205,96566,1,2,0:1:0:0:
375,78,97166,2,0,P|315:102|290:206,1,165,2|0,0:0|0:0,0:0:0:0:
248,232,97966,2,2,B|241:244|206:180|201:253|136:252,1,110,0|2,0:1|0:3,0:1:0:0:
107,288,98566,1,2,0:0:0:0:
58,262,98766,5,0,1:0:0:0:
466,99,100366,1,0,1:0:0:0:
32,22,101966,1,0,1:0:0:0:
256,192,102166,12,0,103166,0:0:0:0:
