osu file format v14

[General]
AudioFilename: xKore - Stress.mp3
AudioLeadIn: 0
PreviewTime: 72019
Countdown: 0
SampleSet: Soft
StackLeniency: 0.7
Mode: 3
LetterboxInBreaks: 0
SpecialStyle: 0
WidescreenStoryboard: 1

[Editor]
Bookmarks: 12019,12051,36019,48019,60051,72019
DistanceSpacing: 0.8
BeatDivisor: 16
GridSize: 32
TimelineZoom: 3.099999

[Metadata]
Title:Stress
TitleUnicode:Stress
Artist:xKore
ArtistUnicode:xKore
Creator:Halogen-
Version:Syncope
Source:
Tags:
BeatmapID:1802667
BeatmapSetID:861705

[Difficulty]
HPDrainRate:9.2
CircleSize:4
OverallDifficulty:8.8
ApproachRate:5
SliderMultiplier:1.4
SliderTickRate:1

[Events]
//Background and Video events
0,0,"stress-bg.jpg",0,0
//Break Periods
//Storyboard Layer 0 (Background)
//Storyboard Layer 1 (Fail)
//Storyboard Layer 2 (Pass)
//Storyboard Layer 3 (Foreground)
//Storyboard Sound Samples

[TimingPoints]
20,214.285714,8,2,0,25,1,0
20,-2000,8,2,0,25,0,0
12019,-25,8,2,0,25,0,0
12060,-2000,8,2,0,25,0,0
12287,-100,8,2,0,25,0,0
12716,-400,8,2,0,25,0,0
13225,-100,8,2,0,25,0,0
13265,-400,8,2,0,25,0,0
13734,-2000,8,2,0,25,0,0
14604,-100,8,2,0,25,0,0
14926,-400,8,2,0,25,0,0
15287,-100,8,2,0,25,0,0
15716,-400,8,2,0,25,0,0
16225,-100,8,2,0,25,0,0
16265,-400,8,2,0,25,0,0
16734,-2000,8,2,0,25,0,0
17604,-100,8,2,0,25,0,0
17926,-400,8,2,0,25,0,0
18287,-100,8,2,0,25,0,0
18716,-400,8,2,0,25,0,0
19225,-100,8,2,0,25,0,0
19265,-400,8,2,0,25,0,0
19734,-12.5,8,2,0,25,0,0
19841,-2000,8,2,0,25,0,0
20604,-100,8,2,0,25,0,0
20926,-400,8,2,0,25,0,0
21287,-100,8,2,0,25,0,0
21716,-400,8,2,0,25,0,0
22225,-100,8,2,0,25,0,0
22265,-400,8,2,0,25,0,0
22734,-25,8,2,0,25,0,0
22761,-2000,8,2,0,25,0,0
22908,-25,8,2,0,25,0,0
22935,-2000,8,2,0,25,0,0
23417,-25,8,2,0,25,0,0
23444,-2000,8,2,0,25,0,0
23604,-100,8,2,0,25,0,0
24019,-25,8,2,0,25,0,0
24060,-2000,8,2,0,25,0,0
24287,-100,8,2,0,25,0,0
24716,-400,8,2,0,25,0,0
25225,-100,8,2,0,25,0,0
25386,-25,8,2,0,25,0,0
25426,-2000,8,2,0,25,0,0
25560,-100,8,2,0,25,0,0
25734,-25,8,2,0,25,0,0
25774,-2000,8,2,0,25,0,0
26604,-100,8,2,0,25,0,0
27019,-25,8,2,0,25,0,0
27060,-2000,8,2,0,25,0,0
27287,-100,8,2,0,25,0,0
27716,-400,8,2,0,25,0,0
28225,-100,8,2,0,25,0,0
28386,-25,8,2,0,25,0,0
28426,-2000,8,2,0,25,0,0
28560,-100,8,2,0,25,0,0
28734,-25,8,2,0,25,0,0
28774,-2000,8,2,0,25,0,0
29604,-100,8,2,0,25,0,0
30019,-25,8,2,0,25,0,0
30060,-2000,8,2,0,25,0,0
30287,-100,8,2,0,25,0,0
30703,-400,8,2,0,25,0,0
31225,-100,8,2,0,25,0,0
31386,-25,8,2,0,25,0,0
31426,-2000,8,2,0,25,0,0
31560,-100,8,2,0,25,0,0
31734,-25,8,2,0,25,0,0
31774,-2000,8,2,0,25,0,0
32604,-100,8,2,0,25,0,0
33019,-25,8,2,0,25,0,0
33060,-2000,8,2,0,25,0,0
33287,-100,8,2,0,25,0,0
33716,-400,8,2,0,25,0,0
34225,-100,8,2,0,25,0,0
34386,-25,8,2,0,25,0,0
34426,-2000,8,2,0,25,0,0
34560,-100,8,2,0,25,0,0
34734,-25,8,2,0,25,0,0
34774,-2000,8,2,0,25,0,0
35082,-100,8,2,0,25,0,0
36019,-50,8,2,0,25,0,0
36100,-400,8,2,0,25,0,0
36287,-100,8,2,0,25,0,0
36877,-50,8,2,0,25,0,0
36958,-400,8,2,0,25,0,0
37225,-100,8,2,0,25,0,0
37386,-50,8,2,0,25,0,0
37467,-400,8,2,0,25,0,0
37734,-50,8,2,0,25,0,0
37815,-400,8,2,0,25,0,0
38002,-100,8,2,0,25,0,0
38162,-50,8,2,0,25,0,0
38243,-400,8,2,0,25,0,0
38604,-100,8,2,0,25,0,0
39019,-50,8,2,0,25,0,0
39100,-400,8,2,0,25,0,0
39287,-100,8,2,0,25,0,0
39877,-50,8,2,0,25,0,0
39958,-400,8,2,0,25,0,0
40225,-100,8,2,0,25,0,0
40386,-50,8,2,0,25,0,0
40467,-400,8,2,0,25,0,0
40734,-50,8,2,0,25,0,0
40815,-400,8,2,0,25,0,0
41002,-100,8,2,0,25,0,0
41162,-50,8,2,0,25,0,0
41243,-400,8,2,0,25,0,0
41604,-100,8,2,0,25,0,0
42019,-50,8,2,0,25,0,0
42100,-400,8,2,0,25,0,0
42287,-100,8,2,0,25,0,0
42877,-50,8,2,0,25,0,0
42958,-400,8,2,0,25,0,0
43225,-100,8,2,0,25,0,0
43386,-50,8,2,0,25,0,0
43467,-400,8,2,0,25,0,0
43734,-50,8,2,0,25,0,0
43815,-400,8,2,0,25,0,0
44176,-50,8,2,0,25,0,0
44257,-400,8,2,0,25,0,0
44604,-100,8,2,0,25,0,0
45019,-12.5,8,2,0,25,0,0
45033,-2000,8,2,0,25,0,0
45729,-100,8,2,0,25,0,0
45877,-12.5,8,2,0,25,0,0
45890,-2000,8,2,0,25,0,0
46399,-12.5,8,2,0,25,0,0
46412,-2000,8,2,0,25,0,0
46480,-400,8,2,0,25,0,0
46734,-100,8,2,0,25,0,0
48019,-12.5,8,2,0,25,0,0
48033,-2000,8,2,0,25,0,0
48461,-100,8,2,0,25,0,0
48877,-12.5,8,2,0,25,0,0
48891,-2000,8,2,0,25,0,0
49399,-12.5,8,2,0,25,0,0
49413,-2000,8,2,0,25,0,0
49734,-12.5,8,2,0,25,0,0
49748,-2000,8,2,0,25,0,0
50002,-100,8,2,0,25,0,0
50162,-2000,8,2,0,25,0,0
50591,-100,8,2,0,25,0,0
51019,-12.5,8,2,0,25,0,0
51033,-2000,8,2,0,25,0,0
51461,-100,8,2,0,25,0,0
51877,-12.5,8,2,0,25,0,0
51891,-2000,8,2,0,25,0,0
52399,-12.5,8,2,0,25,0,0
52413,-2000,8,2,0,25,0,0
52734,-12.5,8,2,0,25,0,0
52748,-2000,8,2,0,25,0,0
53002,-100,8,2,0,25,0,0
53162,-12.5,8,2,0,25,0,0
53176,-2000,8,2,0,25,0,0
53591,-100,8,2,0,25,0,0
54019,-12.5,8,2,0,25,0,0
54033,-2000,8,2,0,25,0,0
54475,-100,8,2,0,25,0,0
54877,-12.5,8,2,0,25,0,0
54891,-2000,8,2,0,25,0,0
55399,-12.5,8,2,0,25,0,0
55413,-2000,8,2,0,25,0,0
55734,-12.5,8,2,0,25,0,0
55748,-2000,8,2,0,25,0,0
56002,-100,8,2,0,25,0,0
56162,-12.5,8,2,0,25,0,0
56176,-2000,8,2,0,25,0,0
56591,-100,8,2,0,25,0,0
57019,-12.5,8,2,0,25,0,0
57033,-2000,8,2,0,25,0,0
57448,-12.5,8,2,0,25,0,0
57462,-2000,8,2,0,25,0,0
57716,-100,8,2,0,25,0,0
57877,-12.5,8,2,0,25,0,0
57891,-2000,8,2,0,25,0,0
58399,-12.5,8,2,0,25,0,0
58413,-2000,8,2,0,25,0,0
58734,-12.5,8,2,0,25,0,0
58748,-2000,8,2,0,25,0,0
59002,-100,8,2,0,25,0,0
59176,-12.5,8,2,0,25,0,0
59190,-2000,8,2,0,25,0,0
59350,-12.5,8,2,0,25,0,0
59364,-2000,8,2,0,25,0,0
59591,-12.5,8,2,0,25,0,0
59605,-2000,8,2,0,25,0,0
59765,-12.5,8,2,0,25,0,0
59779,-2000,8,2,0,25,0,0
60019,-12.5,8,2,0,25,0,0
60033,-2000,8,2,0,25,0,0
60475,-100,8,2,0,25,0,0
60877,-12.5,8,2,0,25,0,0
60891,-2000,8,2,0,25,0,0
61399,-12.5,8,2,0,25,0,0
61413,-2000,8,2,0,25,0,0
61734,-12.5,8,2,0,25,0,0
61748,-2000,8,2,0,25,0,0
62002,-100,8,2,0,25,0,0
62162,-12.5,8,2,0,25,0,0
62176,-2000,8,2,0,25,0,0
62591,-100,8,2,0,25,0,0
63019,-12.5,8,2,0,25,0,0
63033,-2000,8,2,0,25,0,0
63475,-100,8,2,0,25,0,0
63877,-12.5,8,2,0,25,0,0
63891,-2000,8,2,0,25,0,0
64399,-12.5,8,2,0,25,0,0
64413,-2000,8,2,0,25,0,0
64734,-12.5,8,2,0,25,0,0
64748,-2000,8,2,0,25,0,0
65002,-100,8,2,0,25,0,0
65162,-12.5,8,2,0,25,0,0
65176,-2000,8,2,0,25,0,0
65591,-100,8,2,0,25,0,0
66019,-12.5,8,2,0,25,0,0
66033,-2000,8,2,0,25,0,0
66475,-100,8,2,0,25,0,0
66877,-12.5,8,2,0,25,0,0
66891,-2000,8,2,0,25,0,0
67399,-12.5,8,2,0,25,0,0
67413,-2000,8,2,0,25,0,0
67734,-12.5,8,2,0,25,0,0
67748,-2000,8,2,0,25,0,0
68002,-100,8,2,0,25,0,0
68162,-12.5,8,2,0,25,0,0
68176,-2000,8,2,0,25,0,0
68591,-100,8,2,0,25,0,0
69019,-12.5,8,2,0,25,0,0
69033,-2000,8,2,0,25,0,0
69475,-100,8,2,0,25,0,0
69877,-12.5,8,2,0,25,0,0
69891,-2000,8,2,0,25,0,0
70399,-12.5,8,2,0,25,0,0
70413,-2000,8,2,0,25,0,0
70734,-10,8,2,0,25,0,0
71618,-2000,8,2,0,25,0,0
72019,-12.5,8,2,0,25,0,0
72033,-2000,8,2,0,25,0,0
72287,-100,8,2,0,25,0,0
72877,-12.5,8,2,0,25,0,0
72891,-2000,8,2,0,25,0,0
73225,-100,8,2,0,25,0,0
73386,-12.5,8,2,0,25,0,0
73399,-2000,8,2,0,25,0,0
73506,-2000,8,2,0,25,0,0
73734,-12.5,8,2,0,25,0,0
73748,-2000,8,2,0,25,0,0
74002,-100,8,2,0,25,0,0
74176,-12.5,8,2,0,25,0,0
74190,-2000,8,2,0,25,0,0
74591,-100,8,2,0,25,0,0
75019,-12.5,8,2,0,25,0,0
75033,-2000,8,2,0,25,0,0
75287,-100,8,2,0,25,0,0
75877,-12.5,8,2,0,25,0,0
75891,-2000,8,2,0,25,0,0
76225,-100,8,2,0,25,0,0
76386,-12.5,8,2,0,25,0,0
76400,-2000,8,2,0,25,0,0
76506,-1000,8,2,0,25,0,0
76734,-12.5,8,2,0,25,0,0
76748,-2000,8,2,0,25,0,0
77002,-100,8,2,0,25,0,0
77176,-12.5,8,2,0,25,0,0
77190,-2000,8,2,0,25,0,0
77591,-100,8,2,0,25,0,0
78019,-12.5,8,2,0,25,0,0
78033,-2000,8,2,0,25,0,0
78287,-100,8,2,0,25,0,0
78877,-12.5,8,2,0,25,0,0
78891,-2000,8,2,0,25,0,0
79225,-100,8,2,0,25,0,0
79386,-12.5,8,2,0,25,0,0
79400,-2000,8,2,0,25,0,0
79734,-12.5,8,2,0,25,0,0
79748,-2000,8,2,0,25,0,0
80002,-100,8,2,0,25,0,0
80176,-12.5,8,2,0,25,0,0
80190,-2000,8,2,0,25,0,0
80591,-100,8,2,0,25,0,0
81019,-12.5,8,2,0,25,0,0
81033,-2000,8,2,0,25,0,0
81287,-100,8,2,0,25,0,0
81877,-12.5,8,2,0,25,0,0
81891,-2000,8,2,0,25,0,0
82225,-100,8,2,0,25,0,0
82386,-12.5,8,2,0,25,0,0
82400,-2000,8,2,0,25,0,0
82734,-12.5,8,2,0,25,0,0
82748,-2000,8,2,0,25,0,0
83002,-100,8,2,0,25,0,0
83176,-12.5,8,2,0,25,0,0
83190,-2000,8,2,0,25,0,0
83591,-100,8,2,0,25,0,0
84019,-12.5,8,2,0,25,0,0
84033,-2000,8,2,0,25,0,0
84287,-100,8,2,0,25,0,0
84877,-12.5,8,2,0,25,0,0
84891,-2000,8,2,0,25,0,0
85225,-100,8,2,0,25,0,0
85386,-12.5,8,2,0,25,0,0
85400,-2000,8,2,0,25,0,0
85734,-12.5,8,2,0,25,0,0
85748,-2000,8,2,0,25,0,0
86002,-100,8,2,0,25,0,0
86162,-12.5,8,2,0,25,0,0
86176,-2000,8,2,0,25,0,0
86591,-100,8,2,0,25,0,0
87019,-12.5,8,2,0,25,0,0
87033,-2000,8,2,0,25,0,0
87287,-100,8,2,0,25,0,0
87877,-12.5,8,2,0,25,0,0
87891,-2000,8,2,0,25,0,0
88225,-100,8,2,0,25,0,0
88386,-12.5,8,2,0,25,0,0
88400,-2000,8,2,0,25,0,0
88734,-12.5,8,2,0,25,0,0
88748,-2000,8,2,0,25,0,0
89002,-100,8,2,0,25,0,0
89162,-12.5,8,2,0,25,0,0
89176,-2000,8,2,0,25,0,0
89591,-100,8,2,0,25,0,0
90019,-12.5,8,2,0,25,0,0
90033,-2000,8,2,0,25,0,0
90287,-100,8,2,0,25,0,0
90877,-12.5,8,2,0,25,0,0
90891,-2000,8,2,0,25,0,0
91225,-100,8,2,0,25,0,0
91386,-12.5,8,2,0,25,0,0
91400,-2000,8,2,0,25,0,0
91747,-12.5,8,2,0,25,0,0
91761,-2000,8,2,0,25,0,0
92002,-100,8,2,0,25,0,0
92162,-12.5,8,2,0,25,0,0
92176,-2000,8,2,0,25,0,0
92591,-100,8,2,0,25,0,0
93019,-12.5,8,2,0,25,0,0
93033,-2000,8,2,0,25,0,0
93475,-100,8,2,0,25,0,0
93877,-12.5,8,2,0,25,0,0
93891,-2000,8,2,0,25,0,0
94399,-12.5,8,2,0,25,0,0
94413,-2000,8,2,0,25,0,0
94734,-12.5,8,2,0,25,0,0
94748,-2000,8,2,0,25,0,0
95752,-50,8,2,0,25,0,0
95778,-10000,8,2,0,25,0,0
95805,-50,8,2,0,25,0,0
95831,-10000,8,2,0,25,0,0
95859,-50,8,2,0,25,0,0
95885,-10000,8,2,0,25,0,0
95912,-50,8,2,0,25,0,0
95938,-10000,8,2,0,25,0,0
95966,-50,8,2,0,25,0,0
95992,-10000,8,2,0,25,0,0
96019,-100,8,2,0,25,0,0

[HitObjects]
64,192,12019,5,0,0:0:0:0:
320,192,12019,1,0,0:0:0:0:
192,192,12019,1,0,0:0:0:0:
448,192,12287,1,0,0:0:0:0:
320,192,12328,1,0,0:0:0:0:
192,192,12368,1,0,0:0:0:0:
64,192,12368,1,0,0:0:0:0:
192,192,12542,1,0,0:0:0:0:
448,192,12716,1,0,0:0:0:0:
64,192,12716,1,0,0:0:0:0:
64,192,13225,1,0,0:0:0:0:
192,192,13265,1,0,0:0:0:0:
448,192,13734,1,0,0:0:0:0:
320,192,13734,1,0,0:0:0:0:
64,192,14604,1,0,0:0:0:0:
320,192,14685,1,0,0:0:0:0:
192,192,14765,1,0,0:0:0:0:
320,192,14845,1,0,0:0:0:0:
64,192,14926,1,0,0:0:0:0:
448,192,15287,1,0,0:0:0:0:
192,192,15328,1,0,0:0:0:0:
320,192,15368,1,0,0:0:0:0:
64,192,15368,1,0,0:0:0:0:
64,192,15542,1,0,0:0:0:0:
320,192,15716,1,0,0:0:0:0:
192,192,15716,1,0,0:0:0:0:
320,192,16225,1,0,0:0:0:0:
64,192,16265,1,0,0:0:0:0:
448,192,16734,1,0,0:0:0:0:
320,192,16734,1,0,0:0:0:0:
448,192,17604,1,0,0:0:0:0:
192,192,17685,1,0,0:0:0:0:
320,192,17765,1,0,0:0:0:0:
192,192,17845,1,0,0:0:0:0:
448,192,17926,1,0,0:0:0:0:
320,192,18287,1,0,0:0:0:0:
192,192,18328,1,0,0:0:0:0:
448,192,18368,1,0,0:0:0:0:
64,192,18368,1,0,0:0:0:0:
64,192,18542,1,0,0:0:0:0:
448,192,18716,1,0,0:0:0:0:
320,192,18716,1,0,0:0:0:0:
448,192,19225,1,0,0:0:0:0:
64,192,19265,1,0,0:0:0:0:
448,192,19734,1,0,0:0:0:0:
192,192,19734,1,0,0:0:0:0:
64,192,19734,1,0,0:0:0:0:
64,192,20604,1,0,0:0:0:0:
448,192,20685,1,0,0:0:0:0:
192,192,20765,1,0,0:0:0:0:
448,192,20845,1,0,0:0:0:0:
64,192,20926,1,0,0:0:0:0:
64,192,21287,1,0,0:0:0:0:
448,192,21328,1,0,0:0:0:0:
320,192,21368,1,0,0:0:0:0:
192,192,21368,1,0,0:0:0:0:
320,192,21542,1,0,0:0:0:0:
192,192,21716,1,0,0:0:0:0:
64,192,21716,1,0,0:0:0:0:
192,192,22225,1,0,0:0:0:0:
320,192,22265,1,0,0:0:0:0:
448,192,22734,1,0,0:0:0:0:
320,192,22734,1,0,0:0:0:0:
192,192,22908,1,0,0:0:0:0:
64,192,22908,1,0,0:0:0:0:
448,192,23417,1,0,0:0:0:0:
64,192,23417,1,0,0:0:0:0:
320,192,23604,1,0,0:0:0:0:
192,192,23604,1,0,0:0:0:0:
64,192,23685,1,0,0:0:0:0:
192,192,23765,1,0,0:0:0:0:
448,192,23845,1,0,0:0:0:0:
320,192,23845,1,0,0:0:0:0:
192,192,23939,1,0,0:0:0:0:
448,192,24019,1,0,0:0:0:0:
320,192,24019,1,0,0:0:0:0:
64,192,24019,1,0,0:0:0:0:
64,192,24287,1,0,0:0:0:0:
320,192,24328,1,0,0:0:0:0:
448,192,24368,1,0,0:0:0:0:
192,192,24368,1,0,0:0:0:0:
192,192,24542,1,0,0:0:0:0:
448,192,24716,1,0,0:0:0:0:
320,192,24716,1,0,0:0:0:0:
192,192,25225,1,0,0:0:0:0:
448,192,25265,1,0,0:0:0:0:
320,192,25386,1,0,0:0:0:0:
64,192,25386,1,0,0:0:0:0:
448,192,25560,1,0,0:0:0:0:
192,192,25734,1,0,0:0:0:0:
64,192,25734,1,0,0:0:0:0:
448,192,26604,1,0,0:0:0:0:
320,192,26685,1,0,0:0:0:0:
192,192,26765,1,0,0:0:0:0:
320,192,26845,1,0,0:0:0:0:
448,192,26926,1,0,0:0:0:0:
192,192,27019,1,0,0:0:0:0:
64,192,27019,1,0,0:0:0:0:
64,192,27287,1,0,0:0:0:0:
192,192,27328,1,0,0:0:0:0:
448,192,27368,1,0,0:0:0:0:
320,192,27368,1,0,0:0:0:0:
320,192,27542,1,0,0:0:0:0:
448,192,27716,1,0,0:0:0:0:
192,192,27716,1,0,0:0:0:0:
320,192,28225,1,0,0:0:0:0:
448,192,28265,1,0,0:0:0:0:
448,192,28386,1,0,0:0:0:0:
192,192,28386,1,0,0:0:0:0:
320,192,28560,1,0,0:0:0:0:
448,192,28734,1,0,0:0:0:0:
192,192,28734,1,0,0:0:0:0:
64,192,28734,1,0,0:0:0:0:
192,192,29604,1,0,0:0:0:0:
320,192,29685,1,0,0:0:0:0:
64,192,29765,1,0,0:0:0:0:
320,192,29845,1,0,0:0:0:0:
192,192,29926,1,0,0:0:0:0:
448,192,30019,1,0,0:0:0:0:
320,192,30019,1,0,0:0:0:0:
320,192,30287,1,0,0:0:0:0:
64,192,30328,1,0,0:0:0:0:
448,192,30368,1,0,0:0:0:0:
192,192,30368,1,0,0:0:0:0:
320,192,30542,1,0,0:0:0:0:
448,192,30703,1,0,0:0:0:0:
64,192,30703,1,0,0:0:0:0:
448,192,31225,1,0,0:0:0:0:
192,192,31265,1,0,0:0:0:0:
448,192,31386,1,0,0:0:0:0:
320,192,31386,1,0,0:0:0:0:
192,192,31560,1,0,0:0:0:0:
320,192,31734,1,0,0:0:0:0:
64,192,31734,1,0,0:0:0:0:
448,192,32604,1,0,0:0:0:0:
64,192,32685,1,0,0:0:0:0:
320,192,32765,1,0,0:0:0:0:
64,192,32845,1,0,0:0:0:0:
448,192,32926,1,0,0:0:0:0:
320,192,33019,1,0,0:0:0:0:
192,192,33019,1,0,0:0:0:0:
320,192,33287,1,0,0:0:0:0:
192,192,33328,1,0,0:0:0:0:
448,192,33368,1,0,0:0:0:0:
64,192,33368,1,0,0:0:0:0:
320,192,33542,1,0,0:0:0:0:
192,192,33716,1,0,0:0:0:0:
64,192,33716,1,0,0:0:0:0:
448,192,34225,1,0,0:0:0:0:
64,192,34265,1,0,0:0:0:0:
320,192,34386,1,0,0:0:0:0:
192,192,34386,1,0,0:0:0:0:
448,192,34560,1,0,0:0:0:0:
192,192,34734,1,0,0:0:0:0:
64,192,34734,1,0,0:0:0:0:
320,192,35082,1,0,0:0:0:0:
448,192,35390,1,0,0:0:0:0:
320,192,35457,1,0,0:0:0:0:
192,192,35524,1,0,0:0:0:0:
64,192,35591,1,0,0:0:0:0:
192,192,35658,1,0,0:0:0:0:
320,192,35725,1,0,0:0:0:0:
448,192,35792,1,0,0:0:0:0:
320,192,35859,1,0,0:0:0:0:
192,192,35926,1,0,0:0:0:0:
64,192,35993,1,0,0:0:0:0:
448,192,36019,1,0,0:0:0:0:
320,192,36019,1,0,0:0:0:0:
192,192,36019,1,0,0:0:0:0:
448,192,36287,1,0,0:0:0:0:
320,192,36328,1,0,0:0:0:0:
192,192,36368,1,0,0:0:0:0:
64,192,36368,1,0,0:0:0:0:
64,192,36542,1,0,0:0:0:0:
448,192,36716,1,0,0:0:0:0:
192,192,36716,1,0,0:0:0:0:
448,192,36877,1,0,0:0:0:0:
320,192,36877,1,0,0:0:0:0:
192,192,36877,1,0,0:0:0:0:
64,192,37225,1,0,0:0:0:0:
192,192,37265,1,0,0:0:0:0:
448,192,37386,1,0,0:0:0:0:
320,192,37386,1,0,0:0:0:0:
192,192,37386,1,0,0:0:0:0:
64,192,37734,1,0,0:0:0:0:
192,192,37734,1,0,0:0:0:0:
64,192,38002,1,0,0:0:0:0:
448,192,38162,1,0,0:0:0:0:
320,192,38162,1,0,0:0:0:0:
192,192,38162,1,0,0:0:0:0:
320,192,38604,1,0,0:0:0:0:
64,192,38685,1,0,0:0:0:0:
320,192,38765,1,0,0:0:0:0:
448,192,38845,1,0,0:0:0:0:
320,192,38939,1,0,0:0:0:0:
448,192,39019,1,0,0:0:0:0:
192,192,39019,1,0,0:0:0:0:
64,192,39019,1,0,0:0:0:0:
192,192,39287,1,0,0:0:0:0:
448,192,39328,1,0,0:0:0:0:
320,192,39368,1,0,0:0:0:0:
64,192,39368,1,0,0:0:0:0:
192,192,39542,1,0,0:0:0:0:
448,192,39703,1,0,0:0:0:0:
320,192,39703,1,0,0:0:0:0:
448,192,39877,1,0,0:0:0:0:
192,192,39877,1,0,0:0:0:0:
64,192,39877,1,0,0:0:0:0:
64,192,40225,1,0,0:0:0:0:
320,192,40265,1,0,0:0:0:0:
448,192,40386,1,0,0:0:0:0:
192,192,40386,1,0,0:0:0:0:
64,192,40386,1,0,0:0:0:0:
448,192,40734,1,0,0:0:0:0:
64,192,40734,1,0,0:0:0:0:
320,192,41002,1,0,0:0:0:0:
448,192,41162,1,0,0:0:0:0:
192,192,41162,1,0,0:0:0:0:
64,192,41162,1,0,0:0:0:0:
192,192,41604,1,0,0:0:0:0:
320,192,41685,1,0,0:0:0:0:
448,192,41765,1,0,0:0:0:0:
320,192,41845,1,0,0:0:0:0:
192,192,41926,1,0,0:0:0:0:
448,192,42019,1,0,0:0:0:0:
64,192,42019,1,0,0:0:0:0:
320,192,42019,1,0,0:0:0:0:
448,192,42287,1,0,0:0:0:0:
64,192,42328,1,0,0:0:0:0:
320,192,42368,1,0,0:0:0:0:
192,192,42368,1,0,0:0:0:0:
192,192,42542,1,0,0:0:0:0:
448,192,42703,1,0,0:0:0:0:
64,192,42703,1,0,0:0:0:0:
448,192,42877,1,0,0:0:0:0:
64,192,42877,1,0,0:0:0:0:
320,192,42877,1,0,0:0:0:0:
320,192,43225,1,0,0:0:0:0:
192,192,43265,1,0,0:0:0:0:
448,192,43386,1,0,0:0:0:0:
320,192,43386,1,0,0:0:0:0:
64,192,43386,1,0,0:0:0:0:
448,192,43734,1,0,0:0:0:0:
320,192,43734,1,0,0:0:0:0:
192,192,44015,1,0,0:0:0:0:
448,192,44162,1,0,0:0:0:0:
64,192,44162,1,0,0:0:0:0:
320,192,44162,1,0,0:0:0:0:
64,192,44604,1,0,0:0:0:0:
192,192,44685,1,0,0:0:0:0:
320,192,44765,1,0,0:0:0:0:
192,192,44845,1,0,0:0:0:0:
64,192,44926,1,0,0:0:0:0:
448,192,45019,1,0,0:0:0:0:
320,192,45019,1,0,0:0:0:0:
192,192,45019,1,0,0:0:0:0:
448,192,45729,1,0,0:0:0:0:
320,192,45877,1,0,0:0:0:0:
64,192,45877,1,0,0:0:0:0:
192,192,46399,1,0,0:0:0:0:
64,192,46399,1,0,0:0:0:0:
320,192,46734,1,0,0:0:0:0:
192,192,46734,1,0,0:0:0:0:
64,192,46814,1,0,0:0:0:0:
192,192,46908,1,0,0:0:0:0:
448,192,47002,1,0,0:0:0:0:
320,192,47069,1,0,0:0:0:0:
448,192,47162,1,0,0:0:0:0:
64,192,47162,1,0,0:0:0:0:
192,192,47229,1,0,0:0:0:0:
64,192,47350,1,0,0:0:0:0:
320,192,47417,1,0,0:0:0:0:
192,192,47511,1,0,0:0:0:0:
448,192,47591,1,0,0:0:0:0:
64,192,47685,1,0,0:0:0:0:
448,192,47765,1,0,0:0:0:0:
64,192,47859,1,0,0:0:0:0:
448,192,47939,1,0,0:0:0:0:
320,192,48019,1,0,0:0:0:0:
192,192,48019,1,0,0:0:0:0:
64,192,48019,1,0,0:0:0:0:
192,192,48461,1,0,0:0:0:0:
64,192,48703,1,0,0:0:0:0:
320,192,48877,1,0,0:0:0:0:
192,192,48877,1,0,0:0:0:0:
64,192,49399,1,0,0:0:0:0:
192,192,49399,1,0,0:0:0:0:
448,192,49734,1,0,0:0:0:0:
320,192,49734,1,0,0:0:0:0:
192,192,49734,1,0,0:0:0:0:
320,192,50002,1,0,0:0:0:0:
192,192,50162,1,0,0:0:0:0:
64,192,50162,1,0,0:0:0:0:
448,192,50591,1,0,0:0:0:0:
320,192,50859,1,0,0:0:0:0:
448,192,51019,1,0,0:0:0:0:
192,192,51019,1,0,0:0:0:0:
64,192,51019,1,0,0:0:0:0:
448,192,51461,1,0,0:0:0:0:
192,192,51716,1,0,0:0:0:0:
320,192,51877,1,0,0:0:0:0:
64,192,51877,1,0,0:0:0:0:
64,192,52399,1,0,0:0:0:0:
192,192,52399,1,0,0:0:0:0:
448,192,52734,1,0,0:0:0:0:
320,192,52734,1,0,0:0:0:0:
64,192,52734,1,0,0:0:0:0:
320,192,53002,1,0,0:0:0:0:
192,192,53162,1,0,0:0:0:0:
64,192,53162,1,0,0:0:0:0:
448,192,53591,1,0,0:0:0:0:
192,192,53859,1,0,0:0:0:0:
320,192,54019,1,0,0:0:0:0:
64,192,54019,1,0,0:0:0:0:
448,192,54019,1,0,0:0:0:0:
448,192,54475,1,0,0:0:0:0:
192,192,54716,1,0,0:0:0:0:
448,192,54877,1,0,0:0:0:0:
64,192,54877,1,0,0:0:0:0:
64,192,55399,1,0,0:0:0:0:
320,192,55399,1,0,0:0:0:0:
448,192,55734,1,0,0:0:0:0:
320,192,55734,1,0,0:0:0:0:
192,192,55734,1,0,0:0:0:0:
448,192,56002,1,0,0:0:0:0:
320,192,56162,1,0,0:0:0:0:
64,192,56162,1,0,0:0:0:0:
192,192,56591,1,0,0:0:0:0:
448,192,56859,1,0,0:0:0:0:
320,192,57019,1,0,0:0:0:0:
64,192,57019,1,0,0:0:0:0:
192,192,57019,1,0,0:0:0:0:
320,192,57448,1,0,0:0:0:0:
192,192,57448,1,0,0:0:0:0:
448,192,57716,1,0,0:0:0:0:
64,192,57877,1,0,0:0:0:0:
320,192,57877,1,0,0:0:0:0:
320,192,58399,1,0,0:0:0:0:
192,192,58399,1,0,0:0:0:0:
448,192,58734,1,0,0:0:0:0:
192,192,58734,1,0,0:0:0:0:
64,192,58734,1,0,0:0:0:0:
64,192,59002,1,0,0:0:0:0:
448,192,59176,1,0,0:0:0:0:
320,192,59176,1,0,0:0:0:0:
192,192,59176,1,0,0:0:0:0:
448,192,59350,1,0,0:0:0:0:
320,192,59350,1,0,0:0:0:0:
192,192,59350,1,0,0:0:0:0:
64,192,59591,1,0,0:0:0:0:
192,192,59591,1,0,0:0:0:0:
320,192,59591,1,0,0:0:0:0:
64,192,59765,1,0,0:0:0:0:
192,192,59765,1,0,0:0:0:0:
320,192,59765,1,0,0:0:0:0:
448,192,60019,1,0,0:0:0:0:
192,192,60019,1,0,0:0:0:0:
64,192,60019,1,0,0:0:0:0:
320,192,60475,1,0,0:0:0:0:
64,192,60716,1,0,0:0:0:0:
448,192,60877,1,0,0:0:0:0:
192,192,60877,1,0,0:0:0:0:
320,192,61399,1,0,0:0:0:0:
192,192,61399,1,0,0:0:0:0:
448,192,61734,1,0,0:0:0:0:
192,192,61734,1,0,0:0:0:0:
64,192,61734,1,0,0:0:0:0:
320,192,62002,1,0,0:0:0:0:
192,192,62162,1,0,0:0:0:0:
448,192,62162,1,0,0:0:0:0:
64,192,62591,1,0,0:0:0:0:
448,192,62859,1,0,0:0:0:0:
320,192,63019,1,0,0:0:0:0:
192,192,63019,1,0,0:0:0:0:
64,192,63019,1,0,0:0:0:0:
448,192,63475,1,0,0:0:0:0:
64,192,63716,1,0,0:0:0:0:
448,192,63877,1,0,0:0:0:0:
192,192,63877,1,0,0:0:0:0:
192,192,64399,1,0,0:0:0:0:
64,192,64399,1,0,0:0:0:0:
448,192,64734,1,0,0:0:0:0:
320,192,64734,1,0,0:0:0:0:
192,192,64734,1,0,0:0:0:0:
192,192,65002,1,0,0:0:0:0:
320,192,65162,1,0,0:0:0:0:
64,192,65162,1,0,0:0:0:0:
448,192,65591,1,0,0:0:0:0:
320,192,65859,1,0,0:0:0:0:
448,192,66019,1,0,0:0:0:0:
192,192,66019,1,0,0:0:0:0:
64,192,66019,1,0,0:0:0:0:
320,192,66475,1,0,0:0:0:0:
64,192,66716,1,0,0:0:0:0:
448,192,66877,1,0,0:0:0:0:
320,192,66877,1,0,0:0:0:0:
320,192,67399,1,0,0:0:0:0:
64,192,67399,1,0,0:0:0:0:
448,192,67734,1,0,0:0:0:0:
320,192,67734,1,0,0:0:0:0:
192,192,67734,1,0,0:0:0:0:
64,192,68002,1,0,0:0:0:0:
448,192,68162,1,0,0:0:0:0:
320,192,68162,1,0,0:0:0:0:
192,192,68591,1,0,0:0:0:0:
448,192,68859,1,0,0:0:0:0:
320,192,69019,1,0,0:0:0:0:
192,192,69019,1,0,0:0:0:0:
64,192,69019,1,0,0:0:0:0:
320,192,69475,1,0,0:0:0:0:
192,192,69716,1,0,0:0:0:0:
448,192,69877,1,0,0:0:0:0:
64,192,69877,1,0,0:0:0:0:
192,192,70399,1,0,0:0:0:0:
64,192,70399,1,0,0:0:0:0:
320,192,70734,1,0,0:0:0:0:
448,192,70734,1,0,0:0:0:0:
64,192,70734,1,0,0:0:0:0:
320,192,72019,1,0,0:0:0:0:
192,192,72019,1,0,0:0:0:0:
64,192,72019,1,0,0:0:0:0:
448,192,72019,1,0,0:0:0:0:
448,192,72287,1,0,0:0:0:0:
320,192,72328,1,0,0:0:0:0:
192,192,72368,1,0,0:0:0:0:
320,192,72461,1,0,0:0:0:0:
192,192,72542,1,0,0:0:0:0:
448,192,72636,1,0,0:0:0:0:
192,192,72716,1,0,0:0:0:0:
64,192,72716,1,0,0:0:0:0:
448,192,72810,1,0,0:0:0:0:
320,192,72877,1,0,0:0:0:0:
192,192,72877,1,0,0:0:0:0:
64,192,72877,1,0,0:0:0:0:
320,192,73225,1,0,0:0:0:0:
448,192,73278,1,0,0:0:0:0:
64,192,73332,1,0,0:0:0:0:
448,192,73386,1,0,0:0:0:0:
320,192,73386,1,0,0:0:0:0:
192,192,73386,1,0,0:0:0:0:
448,192,73734,1,0,0:0:0:0:
320,192,73734,1,0,0:0:0:0:
64,192,73734,1,0,0:0:0:0:
192,192,74002,1,0,0:0:0:0:
448,192,74095,1,0,0:0:0:0:
320,192,74176,1,0,0:0:0:0:
64,192,74176,1,0,0:0:0:0:
192,192,74176,1,0,0:0:0:0:
192,192,74591,1,0,0:0:0:0:
448,192,74685,1,0,0:0:0:0:
64,192,74765,1,0,0:0:0:0:
192,192,74859,1,0,0:0:0:0:
320,192,74939,1,0,0:0:0:0:
448,192,75019,1,0,0:0:0:0:
192,192,75019,1,0,0:0:0:0:
64,192,75019,1,0,0:0:0:0:
448,192,75287,1,0,0:0:0:0:
192,192,75328,1,0,0:0:0:0:
320,192,75368,1,0,0:0:0:0:
192,192,75461,1,0,0:0:0:0:
320,192,75542,1,0,0:0:0:0:
448,192,75636,1,0,0:0:0:0:
320,192,75716,1,0,0:0:0:0:
64,192,75716,1,0,0:0:0:0:
448,192,75810,1,0,0:0:0:0:
320,192,75877,1,0,0:0:0:0:
192,192,75877,1,0,0:0:0:0:
64,192,75877,1,0,0:0:0:0:
192,192,76225,1,0,0:0:0:0:
448,192,76278,1,0,0:0:0:0:
64,192,76332,1,0,0:0:0:0:
448,192,76386,1,0,0:0:0:0:
192,192,76386,1,0,0:0:0:0:
320,192,76386,1,0,0:0:0:0:
448,192,76734,1,0,0:0:0:0:
192,192,76734,1,0,0:0:0:0:
64,192,76734,1,0,0:0:0:0:
320,192,77002,1,0,0:0:0:0:
448,192,77095,1,0,0:0:0:0:
192,192,77176,1,0,0:0:0:0:
64,192,77176,1,0,0:0:0:0:
320,192,77176,1,0,0:0:0:0:
320,192,77591,1,0,0:0:0:0:
448,192,77685,1,0,0:0:0:0:
64,192,77765,1,0,0:0:0:0:
320,192,77859,1,0,0:0:0:0:
64,192,77939,1,0,0:0:0:0:
448,192,78019,1,0,0:0:0:0:
320,192,78019,1,0,0:0:0:0:
192,192,78019,1,0,0:0:0:0:
64,192,78287,1,0,0:0:0:0:
192,192,78328,1,0,0:0:0:0:
320,192,78368,1,0,0:0:0:0:
192,192,78461,1,0,0:0:0:0:
320,192,78542,1,0,0:0:0:0:
64,192,78636,1,0,0:0:0:0:
448,192,78716,1,0,0:0:0:0:
320,192,78716,1,0,0:0:0:0:
64,192,78810,1,0,0:0:0:0:
448,192,78877,1,0,0:0:0:0:
320,192,78877,1,0,0:0:0:0:
192,192,78877,1,0,0:0:0:0:
192,192,79225,1,0,0:0:0:0:
64,192,79278,1,0,0:0:0:0:
448,192,79332,1,0,0:0:0:0:
192,192,79386,1,0,0:0:0:0:
64,192,79386,1,0,0:0:0:0:
320,192,79386,1,0,0:0:0:0:
448,192,79734,1,0,0:0:0:0:
192,192,79734,1,0,0:0:0:0:
64,192,79734,1,0,0:0:0:0:
320,192,80002,1,0,0:0:0:0:
64,192,80095,1,0,0:0:0:0:
448,192,80176,1,0,0:0:0:0:
192,192,80176,1,0,0:0:0:0:
320,192,80176,1,0,0:0:0:0:
320,192,80591,1,0,0:0:0:0:
64,192,80685,1,0,0:0:0:0:
448,192,80765,1,0,0:0:0:0:
320,192,80859,1,0,0:0:0:0:
192,192,80939,1,0,0:0:0:0:
448,192,81019,1,0,0:0:0:0:
320,192,81019,1,0,0:0:0:0:
64,192,81019,1,0,0:0:0:0:
64,192,81287,1,0,0:0:0:0:
320,192,81328,1,0,0:0:0:0:
192,192,81368,1,0,0:0:0:0:
320,192,81461,1,0,0:0:0:0:
192,192,81542,1,0,0:0:0:0:
64,192,81636,1,0,0:0:0:0:
448,192,81716,1,0,0:0:0:0:
192,192,81716,1,0,0:0:0:0:
64,192,81810,1,0,0:0:0:0:
448,192,81877,1,0,0:0:0:0:
320,192,81877,1,0,0:0:0:0:
192,192,81877,1,0,0:0:0:0:
320,192,82225,1,0,0:0:0:0:
64,192,82278,1,0,0:0:0:0:
448,192,82332,1,0,0:0:0:0:
320,192,82386,1,0,0:0:0:0:
64,192,82386,1,0,0:0:0:0:
192,192,82386,1,0,0:0:0:0:
448,192,82734,1,0,0:0:0:0:
320,192,82734,1,0,0:0:0:0:
64,192,82734,1,0,0:0:0:0:
192,192,83002,1,0,0:0:0:0:
64,192,83095,1,0,0:0:0:0:
448,192,83176,1,0,0:0:0:0:
320,192,83176,1,0,0:0:0:0:
192,192,83176,1,0,0:0:0:0:
192,192,83591,1,0,0:0:0:0:
64,192,83685,1,0,0:0:0:0:
320,192,83765,1,0,0:0:0:0:
192,192,83859,1,0,0:0:0:0:
448,192,83939,1,0,0:0:0:0:
320,192,84019,1,0,0:0:0:0:
192,192,84019,1,0,0:0:0:0:
64,192,84019,1,0,0:0:0:0:
64,192,84287,1,0,0:0:0:0:
192,192,84328,1,0,0:0:0:0:
448,192,84368,1,0,0:0:0:0:
320,192,84461,1,0,0:0:0:0:
192,192,84542,1,0,0:0:0:0:
320,192,84636,1,0,0:0:0:0:
192,192,84716,1,0,0:0:0:0:
64,192,84716,1,0,0:0:0:0:
448,192,84810,1,0,0:0:0:0:
320,192,84877,1,0,0:0:0:0:
192,192,84877,1,0,0:0:0:0:
64,192,84877,1,0,0:0:0:0:
192,192,85225,1,0,0:0:0:0:
448,192,85278,1,0,0:0:0:0:
320,192,85332,1,0,0:0:0:0:
192,192,85386,1,0,0:0:0:0:
64,192,85386,1,0,0:0:0:0:
448,192,85386,1,0,0:0:0:0:
448,192,85734,1,0,0:0:0:0:
192,192,85734,1,0,0:0:0:0:
320,192,85734,1,0,0:0:0:0:
448,192,86002,1,0,0:0:0:0:
192,192,86082,1,0,0:0:0:0:
320,192,86162,1,0,0:0:0:0:
64,192,86162,1,0,0:0:0:0:
448,192,86162,1,0,0:0:0:0:
448,192,86591,1,0,0:0:0:0:
320,192,86685,1,0,0:0:0:0:
192,192,86765,1,0,0:0:0:0:
64,192,86859,1,0,0:0:0:0:
320,192,86939,1,0,0:0:0:0:
448,192,87019,1,0,0:0:0:0:
192,192,87019,1,0,0:0:0:0:
64,192,87019,1,0,0:0:0:0:
448,192,87287,1,0,0:0:0:0:
320,192,87328,1,0,0:0:0:0:
64,192,87368,1,0,0:0:0:0:
192,192,87461,1,0,0:0:0:0:
320,192,87542,1,0,0:0:0:0:
192,192,87636,1,0,0:0:0:0:
448,192,87716,1,0,0:0:0:0:
320,192,87716,1,0,0:0:0:0:
192,192,87810,1,0,0:0:0:0:
448,192,87877,1,0,0:0:0:0:
320,192,87877,1,0,0:0:0:0:
64,192,87877,1,0,0:0:0:0:
64,192,88225,1,0,0:0:0:0:
192,192,88278,1,0,0:0:0:0:
448,192,88332,1,0,0:0:0:0:
320,192,88386,1,0,0:0:0:0:
64,192,88386,1,0,0:0:0:0:
192,192,88386,1,0,0:0:0:0:
448,192,88734,1,0,0:0:0:0:
192,192,88734,1,0,0:0:0:0:
320,192,88734,1,0,0:0:0:0:
320,192,89002,1,0,0:0:0:0:
448,192,89095,1,0,0:0:0:0:
320,192,89162,1,0,0:0:0:0:
64,192,89162,1,0,0:0:0:0:
192,192,89162,1,0,0:0:0:0:
64,192,89591,1,0,0:0:0:0:
320,192,89685,1,0,0:0:0:0:
192,192,89778,1,0,0:0:0:0:
448,192,89859,1,0,0:0:0:0:
64,192,89953,1,0,0:0:0:0:
448,192,90019,1,0,0:0:0:0:
320,192,90019,1,0,0:0:0:0:
192,192,90019,1,0,0:0:0:0:
64,192,90287,1,0,0:0:0:0:
192,192,90328,1,0,0:0:0:0:
320,192,90368,1,0,0:0:0:0:
64,192,90475,1,0,0:0:0:0:
192,192,90542,1,0,0:0:0:0:
448,192,90622,1,0,0:0:0:0:
192,192,90716,1,0,0:0:0:0:
64,192,90716,1,0,0:0:0:0:
448,192,90810,1,0,0:0:0:0:
320,192,90877,1,0,0:0:0:0:
192,192,90877,1,0,0:0:0:0:
64,192,90877,1,0,0:0:0:0:
320,192,91225,1,0,0:0:0:0:
448,192,91278,1,0,0:0:0:0:
192,192,91332,1,0,0:0:0:0:
320,192,91386,1,0,0:0:0:0:
64,192,91386,1,0,0:0:0:0:
448,192,91386,1,0,0:0:0:0:
448,192,91747,1,0,0:0:0:0:
320,192,91747,1,0,0:0:0:0:
192,192,91747,1,0,0:0:0:0:
320,192,92002,1,0,0:0:0:0:
64,192,92082,1,0,0:0:0:0:
448,192,92162,1,0,0:0:0:0:
192,192,92162,1,0,0:0:0:0:
320,192,92162,1,0,0:0:0:0:
320,192,92591,1,0,0:0:0:0:
192,192,92685,1,0,0:0:0:0:
64,192,92765,1,0,0:0:0:0:
448,192,92859,1,0,0:0:0:0:
192,192,92939,1,0,0:0:0:0:
448,192,93019,1,0,0:0:0:0:
320,192,93019,1,0,0:0:0:0:
64,192,93019,1,0,0:0:0:0:
192,192,93475,1,0,0:0:0:0:
64,192,93716,1,0,0:0:0:0:
448,192,93877,1,0,0:0:0:0:
320,192,93877,1,0,0:0:0:0:
192,192,93877,1,0,0:0:0:0:
320,192,94399,1,0,0:0:0:0:
64,192,94399,1,0,0:0:0:0:
192,192,94399,1,0,0:0:0:0:
448,192,94734,1,0,0:0:0:0:
192,192,94734,1,0,0:0:0:0:
64,192,94734,1,0,0:0:0:0:
320,192,96019,1,0,0:0:0:0:
448,192,96019,1,0,0:0:0:0:
64,192,96019,1,0,0:0:0:0:
192,192,96019,1,0,0:0:0:0:
