osu file format v14

[General]
AudioFilename: audio.mp3
AudioLeadIn: 0
PreviewTime: -1
Countdown: 1
SampleSet: None
StackLeniency: 0.7
Mode: 0
LetterboxInBreaks: 0
WidescreenStoryboard: 1

[Editor]
DistanceSpacing: 0.5
BeatDivisor: 4
GridSize: 16
TimelineZoom: 0.1

[Metadata]
Title:Erebus
TitleUnicode:Erebus
Artist:xKore
ArtistUnicode:xKore
Creator:BestrongGD
Version:maniaque
Source:newgronds
Tags:
BeatmapID:1447688
BeatmapSetID:673700

[Difficulty]
HPDrainRate:10
CircleSize:7
OverallDifficulty:10
ApproachRate:10
SliderMultiplier:1.2
SliderTickRate:1

[Events]
//Background and Video events
0,0,"Erebus (1).jpg",0,0
//Break Periods
2,24983,30079
2,30729,33626
2,94236,103479
2,104129,114672
2,138106,143302
2,207209,216453
2,217103,226396
//Storyboard Layer 0 (Background)
//Storyboard Layer 1 (Fail)
//Storyboard Layer 2 (Pass)
//Storyboard Layer 3 (Foreground)
//Storyboard Sound Samples

[TimingPoints]
0,199.864758180298,4,1,0,100,1,0

[Colours]
Combo1 : 0,102,2
Combo2 : 0,106,3

[HitObjects]
128,144,2198,5,0,0:0:0:0:
304,192,2398,1,0,0:0:0:0:
224,192,2548,1,0,0:0:0:0:
320,160,2598,1,0,0:0:0:0:
224,192,2748,1,0,0:0:0:0:
368,128,2948,1,0,0:0:0:0:
48,160,3097,1,0,0:0:0:0:
336,192,3147,1,0,0:0:0:0:
192,192,3297,1,0,0:0:0:0:
208,176,3447,1,0,0:0:0:0:
144,208,3497,1,0,0:0:0:0:
288,160,3597,1,0,0:0:0:0:
192,240,3647,1,0,0:0:0:0:
176,256,3747,1,0,0:0:0:0:
160,160,3797,1,0,0:0:0:0:
384,224,3897,1,0,0:0:0:0:
176,144,3947,1,0,0:0:0:0:
288,288,3997,1,0,0:0:0:0:
336,224,4047,1,0,0:0:0:0:
288,176,4097,1,0,0:0:0:0:
480,144,4297,1,0,0:0:0:0:
336,192,4446,1,0,0:0:0:0:
320,208,4496,1,0,0:0:0:0:
432,272,4596,1,0,0:0:0:0:
240,208,4646,1,0,0:0:0:0:
304,224,4696,1,0,0:0:0:0:
336,320,4846,1,0,0:0:0:0:
176,192,4946,1,0,0:0:0:0:
208,336,5096,1,0,0:0:0:0:
256,256,5146,1,0,0:0:0:0:
128,320,5296,1,0,0:0:0:0:
464,128,5396,1,0,0:0:0:0:
80,192,5496,1,0,0:0:0:0:
272,160,5596,1,0,0:0:0:0:
112,80,5746,1,0,0:0:0:0:
144,160,5796,1,0,0:0:0:0:
176,48,5896,1,0,0:0:0:0:
128,224,5995,1,0,0:0:0:0:
288,64,6145,1,0,0:0:0:0:
304,304,6345,1,0,0:0:0:0:
352,192,6395,1,0,0:0:0:0:
320,304,6545,1,0,0:0:0:0:
400,192,6695,1,0,0:0:0:0:
256,80,6795,1,0,0:0:0:0:
352,112,6995,1,0,0:0:0:0:
288,192,7045,1,0,0:0:0:0:
336,176,7145,1,0,0:0:0:0:
128,224,7345,1,0,0:0:0:0:
96,320,7544,1,0,0:0:0:0:
160,144,7794,1,0,0:0:0:0:
304,320,7844,1,0,0:0:0:0:
176,128,7944,1,0,0:0:0:0:
272,240,8094,1,0,0:0:0:0:
224,160,8144,1,0,0:0:0:0:
208,288,8344,1,0,0:0:0:0:
368,128,8444,1,0,0:0:0:0:
256,176,8494,1,0,0:0:0:0:
304,272,8594,1,0,0:0:0:0:
272,224,8644,1,0,0:0:0:0:
80,112,8744,1,0,0:0:0:0:
320,144,8844,1,0,0:0:0:0:
256,176,8893,1,0,0:0:0:0:
128,240,8943,1,0,0:0:0:0:
240,288,9043,1,0,0:0:0:0:
160,160,9143,1,0,0:0:0:0:
64,208,9243,1,0,0:0:0:0:
112,208,9293,1,0,0:0:0:0:
80,128,9343,1,0,0:0:0:0:
128,240,9443,1,0,0:0:0:0:
160,224,9543,1,0,0:0:0:0:
96,288,9593,1,0,0:0:0:0:
384,144,9743,1,0,0:0:0:0:
288,288,9843,1,0,0:0:0:0:
224,192,9943,1,0,0:0:0:0:
352,176,9993,1,0,0:0:0:0:
336,192,10043,1,0,0:0:0:0:
320,208,10093,1,0,0:0:0:0:
304,208,10193,1,0,0:0:0:0:
336,192,10243,1,0,0:0:0:0:
256,144,10343,1,0,0:0:0:0:
208,224,10392,1,0,0:0:0:0:
336,192,10442,1,0,0:0:0:0:
176,224,10542,1,0,0:0:0:0:
288,112,10592,1,0,0:0:0:0:
320,192,10692,1,0,0:0:0:0:
176,224,10742,1,0,0:0:0:0:
384,128,10792,1,0,0:0:0:0:
192,224,10892,1,0,0:0:0:0:
176,176,10992,1,0,0:0:0:0:
240,224,11092,1,0,0:0:0:0:
256,240,11142,1,0,0:0:0:0:
352,304,11192,1,0,0:0:0:0:
192,160,11242,1,0,0:0:0:0:
80,288,11292,1,0,0:0:0:0:
240,304,11392,1,0,0:0:0:0:
256,208,11492,1,0,0:0:0:0:
144,304,11592,1,0,0:0:0:0:
128,192,11692,1,0,0:0:0:0:
64,208,11792,1,0,0:0:0:0:
96,176,11841,1,0,0:0:0:0:
224,48,11941,1,0,0:0:0:0:
144,240,12041,1,0,0:0:0:0:
96,64,12091,1,0,0:0:0:0:
240,240,12241,1,0,0:0:0:0:
272,80,12291,1,0,0:0:0:0:
368,80,12391,1,0,0:0:0:0:
288,208,12441,1,0,0:0:0:0:
336,112,12541,1,0,0:0:0:0:
80,96,12591,1,0,0:0:0:0:
288,176,12641,1,0,0:0:0:0:
336,256,12741,1,0,0:0:0:0:
240,160,12791,1,0,0:0:0:0:
208,96,12941,1,0,0:0:0:0:
160,160,12991,1,0,0:0:0:0:
240,272,13041,1,0,0:0:0:0:
112,208,13141,1,0,0:0:0:0:
128,208,13241,1,0,0:0:0:0:
112,256,13340,1,0,0:0:0:0:
160,304,13390,1,0,0:0:0:0:
288,272,13490,1,0,0:0:0:0:
288,240,13540,1,0,0:0:0:0:
400,160,13640,1,0,0:0:0:0:
224,192,13740,1,0,0:0:0:0:
400,160,13790,1,0,0:0:0:0:
160,192,13840,1,0,0:0:0:0:
352,160,13890,1,0,0:0:0:0:
256,112,13940,1,0,0:0:0:0:
384,240,14040,1,0,0:0:0:0:
240,160,14090,1,0,0:0:0:0:
160,128,14140,1,0,0:0:0:0:
144,128,14240,1,0,0:0:0:0:
128,192,14290,1,0,0:0:0:0:
272,224,14390,1,0,0:0:0:0:
112,256,14440,1,0,0:0:0:0:
272,80,14540,1,0,0:0:0:0:
288,192,14590,1,0,0:0:0:0:
128,320,14640,1,0,0:0:0:0:
112,128,14690,1,0,0:0:0:0:
224,336,14789,1,0,0:0:0:0:
112,256,14889,1,0,0:0:0:0:
368,304,14989,1,0,0:0:0:0:
80,256,15039,1,0,0:0:0:0:
400,272,15139,1,0,0:0:0:0:
192,320,15239,1,0,0:0:0:0:
128,288,15289,1,0,0:0:0:0:
384,192,15389,1,0,0:0:0:0:
368,160,15489,1,0,0:0:0:0:
352,224,15589,1,0,0:0:0:0:
416,128,15639,1,0,0:0:0:0:
272,240,15689,1,0,0:0:0:0:
464,160,15839,1,0,0:0:0:0:
336,80,15889,1,0,0:0:0:0:
400,272,16039,1,0,0:0:0:0:
192,112,16089,1,0,0:0:0:0:
256,224,16189,1,0,0:0:0:0:
80,96,16288,1,0,0:0:0:0:
192,160,16338,1,0,0:0:0:0:
160,144,16438,1,0,0:0:0:0:
144,176,16538,1,0,0:0:0:0:
224,208,16688,1,0,0:0:0:0:
112,272,16738,1,0,0:0:0:0:
128,240,16838,1,0,0:0:0:0:
160,288,16888,1,0,0:0:0:0:
224,224,16938,1,0,0:0:0:0:
240,272,16988,1,0,0:0:0:0:
208,288,17038,1,0,0:0:0:0:
304,288,17088,1,0,0:0:0:0:
400,192,17238,1,0,0:0:0:0:
368,192,17288,1,0,0:0:0:0:
400,192,17438,1,0,0:0:0:0:
320,240,17488,1,0,0:0:0:0:
336,224,17538,1,0,0:0:0:0:
400,240,17638,1,0,0:0:0:0:
352,112,17737,1,0,0:0:0:0:
240,240,17787,1,0,0:0:0:0:
224,208,17837,1,0,0:0:0:0:
288,192,17887,1,0,0:0:0:0:
144,160,17937,1,0,0:0:0:0:
368,176,17987,1,0,0:0:0:0:
160,208,18037,1,0,0:0:0:0:
96,192,18187,1,0,0:0:0:0:
272,304,18237,1,0,0:0:0:0:
144,272,18337,1,0,0:0:0:0:
160,336,18437,1,0,0:0:0:0:
128,112,18537,1,0,0:0:0:0:
96,240,18637,1,0,0:0:0:0:
304,192,18687,1,0,0:0:0:0:
224,128,18737,1,0,0:0:0:0:
208,272,18837,1,0,0:0:0:0:
272,272,18887,1,0,0:0:0:0:
336,208,18937,1,0,0:0:0:0:
192,112,19037,1,0,0:0:0:0:
128,256,19137,1,0,0:0:0:0:
160,64,19236,1,0,0:0:0:0:
384,128,19286,1,0,0:0:0:0:
96,128,19336,1,0,0:0:0:0:
320,240,19536,1,0,0:0:0:0:
144,112,19586,1,0,0:0:0:0:
352,208,19736,1,0,0:0:0:0:
176,112,19786,1,0,0:0:0:0:
288,320,19836,1,0,0:0:0:0:
336,192,19936,1,0,0:0:0:0:
416,128,20036,1,0,0:0:0:0:
256,256,20136,1,0,0:0:0:0:
128,288,20186,1,0,0:0:0:0:
384,240,20286,1,0,0:0:0:0:
160,272,20336,1,0,0:0:0:0:
176,192,20486,1,0,0:0:0:0:
336,352,20536,1,0,0:0:0:0:
128,128,20586,1,0,0:0:0:0:
144,144,20735,1,0,0:0:0:0:
80,224,20885,1,0,0:0:0:0:
304,96,20935,1,0,0:0:0:0:
320,128,20985,1,0,0:0:0:0:
112,128,21035,1,0,0:0:0:0:
64,224,21085,1,0,0:0:0:0:
336,96,21135,1,0,0:0:0:0:
64,112,21235,1,0,0:0:0:0:
160,224,21285,1,0,0:0:0:0:
352,224,21335,1,0,0:0:0:0:
64,208,21385,1,0,0:0:0:0:
160,176,21435,1,0,0:0:0:0:
208,320,21485,1,0,0:0:0:0:
320,240,21535,1,0,0:0:0:0:
256,176,21585,1,0,0:0:0:0:
80,304,21635,1,0,0:0:0:0:
192,336,21735,1,0,0:0:0:0:
288,112,21785,1,0,0:0:0:0:
160,336,21885,1,0,0:0:0:0:
208,304,21935,1,0,0:0:0:0:
128,240,21985,1,0,0:0:0:0:
272,272,22085,1,0,0:0:0:0:
320,256,22135,1,0,0:0:0:0:
144,160,22284,1,0,0:0:0:0:
368,272,22334,1,0,0:0:0:0:
400,224,22384,1,0,0:0:0:0:
384,304,22484,1,0,0:0:0:0:
272,128,22584,1,0,0:0:0:0:
288,240,22634,1,0,0:0:0:0:
384,240,22734,1,0,0:0:0:0:
240,160,22834,1,0,0:0:0:0:
320,192,22884,1,0,0:0:0:0:
320,192,22934,1,0,0:0:0:0:
176,192,22984,1,0,0:0:0:0:
208,256,23034,1,0,0:0:0:0:
368,112,23084,1,0,0:0:0:0:
288,240,23134,1,0,0:0:0:0:
144,224,23184,1,0,0:0:0:0:
368,128,23284,1,0,0:0:0:0:
192,288,23384,1,0,0:0:0:0:
192,144,23434,1,0,0:0:0:0:
304,224,23484,1,0,0:0:0:0:
144,112,23534,1,0,0:0:0:0:
176,240,23683,1,0,0:0:0:0:
320,160,23733,1,0,0:0:0:0:
176,240,23883,1,0,0:0:0:0:
320,208,23933,1,0,0:0:0:0:
224,224,24033,1,0,0:0:0:0:
336,240,24083,1,0,0:0:0:0:
160,208,24233,1,0,0:0:0:0:
320,192,24283,1,0,0:0:0:0:
240,160,24383,1,0,0:0:0:0:
112,256,24433,1,0,0:0:0:0:
112,320,24583,1,0,0:0:0:0:
208,304,24783,1,0,0:0:0:0:
192,112,30529,5,0,0:0:0:0:
288,112,34076,5,0,0:0:0:0:
224,112,34226,1,0,0:0:0:0:
112,112,34276,1,0,0:0:0:0:
80,144,34426,1,0,0:0:0:0:
176,272,34526,1,0,0:0:0:0:
272,192,34576,1,0,0:0:0:0:
256,288,34726,1,0,0:0:0:0:
160,192,34776,1,0,0:0:0:0:
352,128,34876,1,0,0:0:0:0:
352,192,34926,1,0,0:0:0:0:
464,160,35126,1,0,0:0:0:0:
336,304,35226,1,0,0:0:0:0:
464,224,35276,1,0,0:0:0:0:
304,144,35525,1,0,0:0:0:0:
128,208,35575,1,0,0:0:0:0:
224,112,35675,1,0,0:0:0:0:
192,320,35875,1,0,0:0:0:0:
192,208,36025,1,0,0:0:0:0:
304,176,36175,1,0,0:0:0:0:
288,256,36225,1,0,0:0:0:0:
336,208,36375,1,0,0:0:0:0:
384,224,36475,1,0,0:0:0:0:
304,160,36575,1,0,0:0:0:0:
224,112,36775,1,0,0:0:0:0:
144,128,36825,1,0,0:0:0:0:
256,176,36925,1,0,0:0:0:0:
208,256,37074,1,0,0:0:0:0:
128,176,37124,1,0,0:0:0:0:
80,208,37274,1,0,0:0:0:0:
304,224,37474,1,0,0:0:0:0:
144,80,37624,1,0,0:0:0:0:
256,80,37774,1,0,0:0:0:0:
448,112,37824,1,0,0:0:0:0:
352,112,37974,1,0,0:0:0:0:
416,256,38174,1,0,0:0:0:0:
336,288,38324,1,0,0:0:0:0:
160,128,38523,1,0,0:0:0:0:
128,208,38673,1,0,0:0:0:0:
256,112,38823,1,0,0:0:0:0:
240,176,38873,1,0,0:0:0:0:
144,224,38923,1,0,0:0:0:0:
224,144,39023,1,0,0:0:0:0:
352,176,39223,1,0,0:0:0:0:
112,160,39323,1,0,0:0:0:0:
192,320,39373,1,0,0:0:0:0:
304,128,39423,1,0,0:0:0:0:
128,192,39523,1,0,0:0:0:0:
128,176,39573,1,0,0:0:0:0:
384,336,39623,1,0,0:0:0:0:
176,256,39673,1,0,0:0:0:0:
192,128,39773,1,0,0:0:0:0:
304,256,39873,1,0,0:0:0:0:
240,256,39922,1,0,0:0:0:0:
208,256,39972,1,0,0:0:0:0:
336,160,40072,1,0,0:0:0:0:
336,224,40222,1,0,0:0:0:0:
160,144,40272,1,0,0:0:0:0:
304,128,40322,1,0,0:0:0:0:
208,272,40372,1,0,0:0:0:0:
400,288,40472,1,0,0:0:0:0:
80,160,40572,1,0,0:0:0:0:
288,336,40622,1,0,0:0:0:0:
384,144,40672,1,0,0:0:0:0:
32,144,40722,1,0,0:0:0:0:
240,256,40798,5,0,0:0:0:0:
64,208,40822,1,0,0:0:0:0:
128,320,40872,1,0,0:0:0:0:
64,240,40922,1,0,0:0:0:0:
96,240,40972,1,0,0:0:0:0:
336,288,41022,1,0,0:0:0:0:
304,144,41122,1,0,0:0:0:0:
320,176,41222,1,0,0:0:0:0:
320,128,41272,1,0,0:0:0:0:
240,256,41322,1,0,0:0:0:0:
128,128,41372,1,0,0:0:0:0:
368,112,41421,1,0,0:0:0:0:
384,128,41471,1,0,0:0:0:0:
320,144,41671,1,0,0:0:0:0:
112,240,41771,1,0,0:0:0:0:
352,144,41871,1,0,0:0:0:0:
208,128,41921,1,0,0:0:0:0:
384,176,42021,1,0,0:0:0:0:
288,144,42071,1,0,0:0:0:0:
112,160,42171,1,0,0:0:0:0:
368,272,42221,1,0,0:0:0:0:
96,208,42271,1,0,0:0:0:0:
304,240,42371,1,0,0:0:0:0:
288,336,42421,1,0,0:0:0:0:
224,144,42471,1,0,0:0:0:0:
192,288,42521,1,0,0:0:0:0:
208,272,42571,1,0,0:0:0:0:
160,208,42621,1,0,0:0:0:0:
240,176,42671,1,0,0:0:0:0:
208,224,42771,1,0,0:0:0:0:
272,224,42821,1,0,0:0:0:0:
144,128,42920,1,0,0:0:0:0:
288,224,42970,1,0,0:0:0:0:
208,240,43020,1,0,0:0:0:0:
144,128,43070,1,0,0:0:0:0:
128,128,43170,1,0,0:0:0:0:
272,128,43220,1,0,0:0:0:0:
352,224,43320,1,0,0:0:0:0:
304,128,43370,1,0,0:0:0:0:
80,192,43470,1,0,0:0:0:0:
256,272,43520,1,0,0:0:0:0:
96,256,43670,1,0,0:0:0:0:
144,208,43720,1,0,0:0:0:0:
160,304,43770,1,0,0:0:0:0:
160,336,43870,1,0,0:0:0:0:
256,320,43920,1,0,0:0:0:0:
304,320,44070,1,0,0:0:0:0:
304,224,44120,1,0,0:0:0:0:
288,160,44270,1,0,0:0:0:0:
320,144,44369,1,0,0:0:0:0:
304,144,44419,1,0,0:0:0:0:
112,128,44569,1,0,0:0:0:0:
256,128,44619,1,0,0:0:0:0:
208,128,44719,1,0,0:0:0:0:
112,144,44769,1,0,0:0:0:0:
224,144,44819,1,0,0:0:0:0:
224,160,44869,1,0,0:0:0:0:
272,160,44919,1,0,0:0:0:0:
192,240,45019,1,0,0:0:0:0:
256,192,45069,1,0,0:0:0:0:
192,224,45169,1,0,0:0:0:0:
160,240,45219,1,0,0:0:0:0:
272,256,45319,1,0,0:0:0:0:
240,320,45419,1,0,0:0:0:0:
224,192,45519,1,0,0:0:0:0:
192,272,45569,1,0,0:0:0:0:
224,144,45719,1,0,0:0:0:0:
176,224,45769,1,0,0:0:0:0:
224,144,45918,1,0,0:0:0:0:
160,176,46068,1,0,0:0:0:0:
160,176,46268,1,0,0:0:0:0:
160,176,46418,1,0,0:0:0:0:
128,192,46468,1,0,0:0:0:0:
128,256,46568,1,0,0:0:0:0:
272,192,46618,1,0,0:0:0:0:
176,272,46718,1,0,0:0:0:0:
288,144,46768,1,0,0:0:0:0:
288,128,46918,1,0,0:0:0:0:
336,176,47018,1,0,0:0:0:0:
272,224,47218,1,0,0:0:0:0:
416,112,47268,1,0,0:0:0:0:
208,192,47367,1,0,0:0:0:0:
304,176,47467,1,0,0:0:0:0:
176,160,47517,1,0,0:0:0:0:
208,160,47617,1,0,0:0:0:0:
192,160,47717,1,0,0:0:0:0:
96,176,47767,1,0,0:0:0:0:
224,128,47917,1,0,0:0:0:0:
224,144,48067,1,0,0:0:0:0:
160,256,48167,1,0,0:0:0:0:
208,176,48217,1,0,0:0:0:0:
128,192,48317,1,0,0:0:0:0:
272,160,48417,1,0,0:0:0:0:
256,176,48567,1,0,0:0:0:0:
352,320,48717,1,0,0:0:0:0:
96,272,48767,1,0,0:0:0:0:
224,336,48866,1,0,0:0:0:0:
96,272,48916,1,0,0:0:0:0:
128,224,49016,1,0,0:0:0:0:
80,256,49116,1,0,0:0:0:0:
144,144,49216,1,0,0:0:0:0:
80,240,49266,1,0,0:0:0:0:
224,112,49366,1,0,0:0:0:0:
128,144,49466,1,0,0:0:0:0:
320,128,49516,1,0,0:0:0:0:
128,128,49566,1,0,0:0:0:0:
176,288,49616,1,0,0:0:0:0:
320,144,49666,1,0,0:0:0:0:
320,96,49816,1,0,0:0:0:0:
352,96,49966,1,0,0:0:0:0:
320,240,50116,1,0,0:0:0:0:
208,160,50166,1,0,0:0:0:0:
64,96,50216,1,0,0:0:0:0:
416,240,50265,1,0,0:0:0:0:
320,112,50365,1,0,0:0:0:0:
336,128,50415,1,0,0:0:0:0:
80,112,50465,1,0,0:0:0:0:
400,304,50515,1,0,0:0:0:0:
352,320,50665,1,0,0:0:0:0:
352,208,50715,1,0,0:0:0:0:
320,320,50765,1,0,0:0:0:0:
176,128,50815,1,0,0:0:0:0:
128,240,51015,1,0,0:0:0:0:
208,160,51065,1,0,0:0:0:0:
96,224,51115,1,0,0:0:0:0:
320,128,51165,1,0,0:0:0:0:
96,192,51215,1,0,0:0:0:0:
320,128,51265,1,0,0:0:0:0:
96,176,51315,1,0,0:0:0:0:
176,160,51365,1,0,0:0:0:0:
160,224,51415,1,0,0:0:0:0:
160,176,51515,1,0,0:0:0:0:
208,240,51565,1,0,0:0:0:0:
160,208,51665,1,0,0:0:0:0:
240,208,51764,1,0,0:0:0:0:
208,192,51864,1,0,0:0:0:0:
336,80,52114,1,0,0:0:0:0:
368,208,52164,1,0,0:0:0:0:
256,144,52214,1,0,0:0:0:0:
352,112,52264,1,0,0:0:0:0:
384,272,52314,1,0,0:0:0:0:
256,320,52514,1,0,0:0:0:0:
304,240,52664,1,0,0:0:0:0:
144,272,52714,1,0,0:0:0:0:
192,192,52764,1,0,0:0:0:0:
208,256,52814,1,0,0:0:0:0:
128,192,52914,1,0,0:0:0:0:
160,192,53014,1,0,0:0:0:0:
176,176,53064,1,0,0:0:0:0:
144,144,53114,1,0,0:0:0:0:
128,112,53164,1,0,0:0:0:0:
160,176,53213,1,0,0:0:0:0:
224,192,53263,1,0,0:0:0:0:
272,192,53513,1,0,0:0:0:0:
304,144,53863,1,0,0:0:0:0:
288,160,53963,1,0,0:0:0:0:
304,144,54013,1,0,0:0:0:0:
272,176,54113,1,0,0:0:0:0:
304,144,54213,1,0,0:0:0:0:
256,160,54263,1,0,0:0:0:0:
224,176,54413,1,0,0:0:0:0:
256,160,54463,1,0,0:0:0:0:
240,208,54563,1,0,0:0:0:0:
288,144,54663,1,0,0:0:0:0:
240,208,54762,1,0,0:0:0:0:
336,256,54862,1,0,0:0:0:0:
240,160,54962,1,0,0:0:0:0:
336,128,55012,1,0,0:0:0:0:
320,144,55112,1,0,0:0:0:0:
400,128,55212,1,0,0:0:0:0:
288,192,55262,1,0,0:0:0:0:
192,240,55312,1,0,0:0:0:0:
448,176,55362,1,0,0:0:0:0:
112,272,55412,1,0,0:0:0:0:
288,160,55462,1,0,0:0:0:0:
96,288,55562,1,0,0:0:0:0:
224,192,55612,1,0,0:0:0:0:
240,160,55662,1,0,0:0:0:0:
192,176,55712,1,0,0:0:0:0:
80,256,55762,1,0,0:0:0:0:
144,160,55862,1,0,0:0:0:0:
416,224,55962,1,0,0:0:0:0:
128,192,56012,1,0,0:0:0:0:
304,224,56062,1,0,0:0:0:0:
208,288,56211,1,0,0:0:0:0:
320,176,56361,1,0,0:0:0:0:
272,208,56611,1,0,0:0:0:0:
240,112,56661,1,0,0:0:0:0:
192,208,56761,1,0,0:0:0:0:
240,112,56811,1,0,0:0:0:0:
208,192,56861,1,0,0:0:0:0:
240,112,56911,1,0,0:0:0:0:
144,192,56961,1,0,0:0:0:0:
176,240,57011,1,0,0:0:0:0:
144,176,57111,1,0,0:0:0:0:
208,272,57161,1,0,0:0:0:0:
144,144,57261,1,0,0:0:0:0:
208,176,57361,1,0,0:0:0:0:
176,160,57511,1,0,0:0:0:0:
352,160,57561,1,0,0:0:0:0:
144,128,57660,1,0,0:0:0:0:
128,256,57710,1,0,0:0:0:0:
336,176,57760,1,0,0:0:0:0:
144,112,57810,1,0,0:0:0:0:
336,320,57860,1,0,0:0:0:0:
288,192,57910,1,0,0:0:0:0:
160,112,57960,1,0,0:0:0:0:
336,272,58010,1,0,0:0:0:0:
208,176,58110,1,0,0:0:0:0:
208,128,58160,1,0,0:0:0:0:
192,176,58260,1,0,0:0:0:0:
288,80,58360,1,0,0:0:0:0:
96,128,58410,1,0,0:0:0:0:
224,256,58510,1,0,0:0:0:0:
192,224,58560,1,0,0:0:0:0:
240,224,58660,1,0,0:0:0:0:
272,128,58710,1,0,0:0:0:0:
224,160,58810,1,0,0:0:0:0:
208,112,58860,1,0,0:0:0:0:
432,160,59159,1,0,0:0:0:0:
368,208,59309,1,0,0:0:0:0:
368,192,59359,1,0,0:0:0:0:
320,224,59509,1,0,0:0:0:0:
128,240,59559,1,0,0:0:0:0:
128,208,59659,1,0,0:0:0:0:
128,240,59859,1,0,0:0:0:0:
272,192,60109,1,0,0:0:0:0:
224,176,60259,1,0,0:0:0:0:
256,176,60309,1,0,0:0:0:0:
176,208,60459,1,0,0:0:0:0:
272,176,60509,1,0,0:0:0:0:
208,272,60608,1,0,0:0:0:0:
128,192,60708,1,0,0:0:0:0:
272,336,60758,1,0,0:0:0:0:
256,192,60808,1,0,0:0:0:0:
128,192,60858,1,0,0:0:0:0:
304,272,60958,1,0,0:0:0:0:
320,128,61008,1,0,0:0:0:0:
288,240,61058,1,0,0:0:0:0:
224,224,61258,1,0,0:0:0:0:
128,112,61308,1,0,0:0:0:0:
112,240,61558,1,0,0:0:0:0:
192,288,61658,1,0,0:0:0:0:
192,192,61708,1,0,0:0:0:0:
80,288,61758,1,0,0:0:0:0:
176,160,61958,1,0,0:0:0:0:
352,144,62008,1,0,0:0:0:0:
192,208,62107,1,0,0:0:0:0:
352,144,62157,1,0,0:0:0:0:
256,208,62257,1,0,0:0:0:0:
336,240,62357,1,0,0:0:0:0:
288,128,62407,1,0,0:0:0:0:
176,128,62707,1,0,0:0:0:0:
288,304,62757,1,0,0:0:0:0:
128,176,63057,1,0,0:0:0:0:
176,224,63357,1,0,0:0:0:0:
272,176,63457,1,0,0:0:0:0:
192,224,63507,1,0,0:0:0:0:
272,176,63606,1,0,0:0:0:0:
240,176,63656,1,0,0:0:0:0:
368,208,63806,1,0,0:0:0:0:
304,208,63856,1,0,0:0:0:0:
224,240,64006,1,0,0:0:0:0:
176,256,64156,1,0,0:0:0:0:
128,160,64306,1,0,0:0:0:0:
128,80,64506,1,0,0:0:0:0:
288,160,64806,1,0,0:0:0:0:
240,176,64856,1,0,0:0:0:0:
256,208,65055,1,0,0:0:0:0:
144,240,65205,1,0,0:0:0:0:
352,224,65505,1,0,0:0:0:0:
480,320,65555,1,0,0:0:0:0:
320,144,65855,1,0,0:0:0:0:
64,160,66155,1,0,0:0:0:0:
160,128,66255,1,0,0:0:0:0:
176,240,66355,1,0,0:0:0:0:
160,160,66405,1,0,0:0:0:0:
208,272,66504,1,0,0:0:0:0:
160,192,66604,1,0,0:0:0:0:
224,288,66754,1,0,0:0:0:0:
336,64,66954,1,0,0:0:0:0:
352,160,67004,1,0,0:0:0:0:
16,240,67104,1,0,0:0:0:0:
48,256,67254,1,0,0:0:0:0:
64,192,67304,1,0,0:0:0:0:
272,160,67354,1,0,0:0:0:0:
128,272,67454,1,0,0:0:0:0:
208,336,67604,1,0,0:0:0:0:
224,192,67654,1,0,0:0:0:0:
256,176,67704,1,0,0:0:0:0:
224,176,67804,1,0,0:0:0:0:
272,224,67854,1,0,0:0:0:0:
320,304,67904,1,0,0:0:0:0:
288,240,68003,1,0,0:0:0:0:
384,240,68103,1,0,0:0:0:0:
288,160,68303,1,0,0:0:0:0:
160,272,68353,1,0,0:0:0:0:
160,80,68503,1,0,0:0:0:0:
112,128,68653,1,0,0:0:0:0:
128,96,68753,1,0,0:0:0:0:
128,192,68903,1,0,0:0:0:0:
176,128,68953,1,0,0:0:0:0:
288,160,69053,1,0,0:0:0:0:
208,240,69153,1,0,0:0:0:0:
224,208,69253,1,0,0:0:0:0:
288,224,69303,1,0,0:0:0:0:
288,256,69353,1,0,0:0:0:0:
256,192,69403,1,0,0:0:0:0:
304,256,69453,1,0,0:0:0:0:
256,288,69502,1,0,0:0:0:0:
224,128,69602,1,0,0:0:0:0:
256,256,69652,1,0,0:0:0:0:
128,240,69702,1,0,0:0:0:0:
240,240,69802,1,0,0:0:0:0:
240,192,69952,1,0,0:0:0:0:
304,144,70102,1,0,0:0:0:0:
336,96,70402,1,0,0:0:0:0:
192,160,70502,1,0,0:0:0:0:
304,96,70602,1,0,0:0:0:0:
160,224,70652,1,0,0:0:0:0:
272,208,70702,1,0,0:0:0:0:
224,240,70752,1,0,0:0:0:0:
192,112,70802,1,0,0:0:0:0:
256,176,70852,1,0,0:0:0:0:
128,128,70951,1,0,0:0:0:0:
192,176,71001,1,0,0:0:0:0:
112,160,71101,1,0,0:0:0:0:
160,240,71151,1,0,0:0:0:0:
400,272,71201,1,0,0:0:0:0:
144,256,71251,1,0,0:0:0:0:
192,256,71301,1,0,0:0:0:0:
256,304,71351,1,0,0:0:0:0:
192,272,71401,1,0,0:0:0:0:
192,224,71451,1,0,0:0:0:0:
80,208,71551,1,0,0:0:0:0:
176,160,71651,1,0,0:0:0:0:
352,128,71751,1,0,0:0:0:0:
288,176,71801,1,0,0:0:0:0:
192,160,71951,1,0,0:0:0:0:
368,128,72051,1,0,0:0:0:0:
176,160,72101,1,0,0:0:0:0:
384,208,72151,1,0,0:0:0:0:
416,128,72201,1,0,0:0:0:0:
144,176,72301,1,0,0:0:0:0:
336,208,72351,1,0,0:0:0:0:
160,208,72500,1,0,0:0:0:0:
224,96,72550,1,0,0:0:0:0:
96,192,72650,1,0,0:0:0:0:
192,112,72750,1,0,0:0:0:0:
144,240,72800,1,0,0:0:0:0:
192,288,72900,1,0,0:0:0:0:
176,128,72950,1,0,0:0:0:0:
144,192,73050,1,0,0:0:0:0:
384,288,73100,1,0,0:0:0:0:
144,192,73200,1,0,0:0:0:0:
240,192,73300,1,0,0:0:0:0:
144,192,73350,1,0,0:0:0:0:
288,128,73450,1,0,0:0:0:0:
256,208,73500,1,0,0:0:0:0:
256,240,73600,1,0,0:0:0:0:
144,192,73750,1,0,0:0:0:0:
240,256,73800,1,0,0:0:0:0:
144,192,73899,1,0,0:0:0:0:
224,256,73949,1,0,0:0:0:0:
64,272,74049,1,0,0:0:0:0:
144,192,74099,1,0,0:0:0:0:
64,240,74149,1,0,0:0:0:0:
144,176,74199,1,0,0:0:0:0:
384,320,74349,1,0,0:0:0:0:
80,176,74399,1,0,0:0:0:0:
320,288,74449,1,0,0:0:0:0:
80,160,74499,1,0,0:0:0:0:
96,256,74649,1,0,0:0:0:0:
96,128,74699,1,0,0:0:0:0:
176,128,74849,1,0,0:0:0:0:
256,144,74899,1,0,0:0:0:0:
80,112,74999,1,0,0:0:0:0:
176,192,75099,1,0,0:0:0:0:
176,128,75199,1,0,0:0:0:0:
336,160,75249,1,0,0:0:0:0:
352,96,75398,1,0,0:0:0:0:
208,192,75448,1,0,0:0:0:0:
368,96,75548,1,0,0:0:0:0:
224,224,75598,1,0,0:0:0:0:
320,176,75648,1,0,0:0:0:0:
416,224,75748,1,0,0:0:0:0:
416,256,75898,1,0,0:0:0:0:
224,96,76048,1,0,0:0:0:0:
288,272,76098,1,0,0:0:0:0:
192,288,76298,1,0,0:0:0:0:
160,128,76348,1,0,0:0:0:0:
144,288,76498,1,0,0:0:0:0:
112,272,76648,1,0,0:0:0:0:
240,288,76847,1,0,0:0:0:0:
224,192,76997,1,0,0:0:0:0:
160,64,77197,1,0,0:0:0:0:
288,208,77447,1,0,0:0:0:0:
208,256,77597,1,0,0:0:0:0:
400,256,77797,1,0,0:0:0:0:
64,128,77897,1,0,0:0:0:0:
416,160,77997,1,0,0:0:0:0:
64,208,78097,1,0,0:0:0:0:
320,128,78147,1,0,0:0:0:0:
80,272,78247,1,0,0:0:0:0:
288,176,78297,1,0,0:0:0:0:
176,304,78446,1,0,0:0:0:0:
240,256,78646,1,0,0:0:0:0:
288,288,78796,1,0,0:0:0:0:
160,240,78896,1,0,0:0:0:0:
336,288,78996,1,0,0:0:0:0:
224,288,79096,1,0,0:0:0:0:
368,160,79146,1,0,0:0:0:0:
304,112,79296,1,0,0:0:0:0:
256,160,79496,1,0,0:0:0:0:
96,192,79696,1,0,0:0:0:0:
96,144,79796,1,0,0:0:0:0:
160,96,79995,1,0,0:0:0:0:
160,112,80145,1,0,0:0:0:0:
208,160,80195,1,0,0:0:0:0:
176,208,80295,1,0,0:0:0:0:
208,224,80395,1,0,0:0:0:0:
256,256,80545,1,0,0:0:0:0:
288,240,80745,1,0,0:0:0:0:
144,256,80795,1,0,0:0:0:0:
144,256,80895,1,0,0:0:0:0:
208,176,81045,1,0,0:0:0:0:
160,208,81095,1,0,0:0:0:0:
192,192,81245,1,0,0:0:0:0:
192,192,81344,1,0,0:0:0:0:
128,112,81394,1,0,0:0:0:0:
64,208,81444,1,0,0:0:0:0:
96,128,81594,1,0,0:0:0:0:
208,288,81744,1,0,0:0:0:0:
144,176,81794,1,0,0:0:0:0:
224,192,81944,1,0,0:0:0:0:
336,144,81994,1,0,0:0:0:0:
256,144,82144,1,0,0:0:0:0:
352,128,82244,1,0,0:0:0:0:
176,112,82294,1,0,0:0:0:0:
304,272,82444,1,0,0:0:0:0:
176,208,82594,1,0,0:0:0:0:
224,272,82644,1,0,0:0:0:0:
80,160,82843,1,0,0:0:0:0:
384,160,82943,1,0,0:0:0:0:
64,160,82993,1,0,0:0:0:0:
336,112,83093,1,0,0:0:0:0:
48,208,83193,1,0,0:0:0:0:
208,80,83293,1,0,0:0:0:0:
96,288,83393,1,0,0:0:0:0:
256,288,83543,1,0,0:0:0:0:
176,272,83693,1,0,0:0:0:0:
400,240,83743,1,0,0:0:0:0:
384,176,83893,1,0,0:0:0:0:
256,160,83993,1,0,0:0:0:0:
352,144,84093,1,0,0:0:0:0:
320,192,84193,1,0,0:0:0:0:
240,112,84292,1,0,0:0:0:0:
272,256,84392,1,0,0:0:0:0:
192,112,84442,1,0,0:0:0:0:
160,128,84492,1,0,0:0:0:0:
160,144,84642,1,0,0:0:0:0:
128,112,84692,1,0,0:0:0:0:
192,176,84792,1,0,0:0:0:0:
176,240,84892,1,0,0:0:0:0:
224,208,84942,1,0,0:0:0:0:
208,256,85042,1,0,0:0:0:0:
240,256,85142,1,0,0:0:0:0:
256,240,85242,1,0,0:0:0:0:
128,240,85292,1,0,0:0:0:0:
256,144,85392,1,0,0:0:0:0:
112,256,85492,1,0,0:0:0:0:
336,240,85542,1,0,0:0:0:0:
128,240,85642,1,0,0:0:0:0:
96,176,85692,1,0,0:0:0:0:
320,288,85741,1,0,0:0:0:0:
112,128,85841,1,0,0:0:0:0:
192,304,85941,1,0,0:0:0:0:
272,240,85991,1,0,0:0:0:0:
80,208,86091,1,0,0:0:0:0:
240,112,86191,1,0,0:0:0:0:
96,128,86291,1,0,0:0:0:0:
352,176,86341,1,0,0:0:0:0:
256,128,86391,1,0,0:0:0:0:
208,112,86441,1,0,0:0:0:0:
288,160,86541,1,0,0:0:0:0:
304,176,86591,1,0,0:0:0:0:
352,224,86741,1,0,0:0:0:0:
368,288,86791,1,0,0:0:0:0:
368,96,86891,1,0,0:0:0:0:
240,288,86941,1,0,0:0:0:0:
416,160,87041,1,0,0:0:0:0:
192,208,87091,1,0,0:0:0:0:
416,224,87191,1,0,0:0:0:0:
128,176,87290,1,0,0:0:0:0:
368,256,87390,1,0,0:0:0:0:
176,256,87440,1,0,0:0:0:0:
272,240,87540,1,0,0:0:0:0:
416,224,87640,1,0,0:0:0:0:
224,224,87790,1,0,0:0:0:0:
112,208,87840,1,0,0:0:0:0:
192,208,87990,1,0,0:0:0:0:
224,144,88140,1,0,0:0:0:0:
240,128,88190,1,0,0:0:0:0:
240,224,88340,1,0,0:0:0:0:
160,288,88390,1,0,0:0:0:0:
256,144,88490,1,0,0:0:0:0:
192,304,88540,1,0,0:0:0:0:
128,64,88689,1,0,0:0:0:0:
256,288,88739,1,0,0:0:0:0:
304,224,88889,1,0,0:0:0:0:
320,224,88939,1,0,0:0:0:0:
352,112,89039,1,0,0:0:0:0:
320,160,89139,1,0,0:0:0:0:
176,208,89239,1,0,0:0:0:0:
336,160,89289,1,0,0:0:0:0:
288,288,89439,1,0,0:0:0:0:
384,160,89489,1,0,0:0:0:0:
304,176,89589,1,0,0:0:0:0:
368,96,89639,1,0,0:0:0:0:
144,144,89739,1,0,0:0:0:0:
272,64,89839,1,0,0:0:0:0:
352,224,89939,1,0,0:0:0:0:
144,224,89989,1,0,0:0:0:0:
240,80,90039,1,0,0:0:0:0:
240,256,90139,1,0,0:0:0:0:
224,96,90188,1,0,0:0:0:0:
192,192,90288,1,0,0:0:0:0:
224,128,90338,1,0,0:0:0:0:
288,160,90488,1,0,0:0:0:0:
208,192,90538,1,0,0:0:0:0:
176,272,90638,1,0,0:0:0:0:
192,240,90688,1,0,0:0:0:0:
288,304,90838,1,0,0:0:0:0:
144,256,90888,1,0,0:0:0:0:
80,176,90988,1,0,0:0:0:0:
64,256,91038,1,0,0:0:0:0:
112,224,91088,1,0,0:0:0:0:
112,160,91188,1,0,0:0:0:0:
208,192,91238,1,0,0:0:0:0:
112,144,91388,1,0,0:0:0:0:
256,176,91438,1,0,0:0:0:0:
208,128,91538,1,0,0:0:0:0:
160,96,91588,1,0,0:0:0:0:
320,208,91687,1,0,0:0:0:0:
224,80,91737,1,0,0:0:0:0:
272,240,91887,1,0,0:0:0:0:
224,144,92037,1,0,0:0:0:0:
192,240,92087,1,0,0:0:0:0:
288,144,92187,1,0,0:0:0:0:
192,240,92237,1,0,0:0:0:0:
224,192,92287,1,0,0:0:0:0:
192,224,92387,1,0,0:0:0:0:
192,224,92537,1,0,0:0:0:0:
272,48,94036,1,0,0:0:0:0:
256,192,103929,5,0,0:0:0:0:
176,96,115122,5,0,0:0:0:0:
144,128,115271,1,0,0:0:0:0:
192,192,115471,1,0,0:0:0:0:
128,240,115621,1,0,0:0:0:0:
96,176,115771,1,0,0:0:0:0:
224,96,115921,1,0,0:0:0:0:
336,96,116121,1,0,0:0:0:0:
352,192,116271,1,0,0:0:0:0:
304,256,116421,1,0,0:0:0:0:
192,256,116621,1,0,0:0:0:0:
128,208,116820,1,0,0:0:0:0:
144,144,116920,1,0,0:0:0:0:
256,176,117070,1,0,0:0:0:0:
272,224,117220,1,0,0:0:0:0:
240,256,117420,1,0,0:0:0:0:
176,272,117570,1,0,0:0:0:0:
144,224,117720,1,0,0:0:0:0:
176,160,117870,1,0,0:0:0:0:
416,112,118020,1,0,0:0:0:0:
448,144,118170,1,0,0:0:0:0:
400,224,118369,1,0,0:0:0:0:
160,256,118519,1,0,0:0:0:0:
160,160,118719,1,0,0:0:0:0:
288,80,118869,1,0,0:0:0:0:
336,144,119019,1,0,0:0:0:0:
304,224,119219,1,0,0:0:0:0:
144,192,119419,1,0,0:0:0:0:
96,96,119569,1,0,0:0:0:0:
112,192,119768,1,0,0:0:0:0:
176,256,119918,1,0,0:0:0:0:
256,240,120118,1,0,0:0:0:0:
256,160,120268,1,0,0:0:0:0:
352,128,120468,1,0,0:0:0:0:
384,208,120618,1,0,0:0:0:0:
288,240,120818,1,0,0:0:0:0:
160,112,121018,1,0,0:0:0:0:
112,160,121168,1,0,0:0:0:0:
224,224,121367,1,0,0:0:0:0:
384,208,121567,1,0,0:0:0:0:
384,144,121717,1,0,0:0:0:0:
272,96,121867,1,0,0:0:0:0:
192,112,122067,1,0,0:0:0:0:
208,176,122267,1,0,0:0:0:0:
240,224,122417,1,0,0:0:0:0:
160,240,122617,1,0,0:0:0:0:
128,128,122766,1,0,0:0:0:0:
208,112,122966,1,0,0:0:0:0:
320,192,123166,1,0,0:0:0:0:
352,240,123316,1,0,0:0:0:0:
384,176,123466,1,0,0:0:0:0:
176,112,123816,1,0,0:0:0:0:
224,208,123966,1,0,0:0:0:0:
224,240,124116,1,0,0:0:0:0:
128,224,124315,1,0,0:0:0:0:
160,144,124565,1,0,0:0:0:0:
224,96,124665,1,0,0:0:0:0:
304,96,124815,1,0,0:0:0:0:
352,128,125015,1,0,0:0:0:0:
336,144,125165,1,0,0:0:0:0:
272,144,125365,1,0,0:0:0:0:
224,128,125515,1,0,0:0:0:0:
128,160,125714,1,0,0:0:0:0:
128,208,125914,1,0,0:0:0:0:
128,224,126064,1,0,0:0:0:0:
112,160,126264,1,0,0:0:0:0:
192,96,126414,1,0,0:0:0:0:
224,96,126564,1,0,0:0:0:0:
288,192,126714,1,0,0:0:0:0:
304,240,126914,1,0,0:0:0:0:
240,272,127064,1,0,0:0:0:0:
144,240,127263,1,0,0:0:0:0:
112,144,127413,1,0,0:0:0:0:
112,80,127613,1,0,0:0:0:0:
192,80,127713,1,0,0:0:0:0:
336,144,127913,1,0,0:0:0:0:
384,224,128063,1,0,0:0:0:0:
304,272,128363,1,0,0:0:0:0:
160,240,128563,1,0,0:0:0:0:
128,176,128712,1,0,0:0:0:0:
160,144,128912,1,0,0:0:0:0:
304,144,129062,1,0,0:0:0:0:
320,160,129262,1,0,0:0:0:0:
352,208,129412,1,0,0:0:0:0:
336,240,129562,1,0,0:0:0:0:
192,224,129762,1,0,0:0:0:0:
144,192,129962,1,0,0:0:0:0:
192,160,130111,1,0,0:0:0:0:
368,176,130311,1,0,0:0:0:0:
432,176,130411,1,0,0:0:0:0:
368,192,130611,1,0,0:0:0:0:
240,240,130761,1,0,0:0:0:0:
208,272,130961,1,0,0:0:0:0:
368,288,131111,1,0,0:0:0:0:
224,176,131311,1,0,0:0:0:0:
192,80,131461,1,0,0:0:0:0:
208,80,131660,1,0,0:0:0:0:
176,96,131860,1,0,0:0:0:0:
272,128,132060,1,0,0:0:0:0:
256,192,132210,1,0,0:0:0:0:
352,224,132410,1,0,0:0:0:0:
256,240,132610,1,0,0:0:0:0:
160,256,132760,1,0,0:0:0:0:
48,80,132960,1,0,0:0:0:0:
192,16,133159,1,0,0:0:0:0:
256,64,133359,1,0,0:0:0:0:
192,96,133609,1,0,0:0:0:0:
208,176,133809,1,0,0:0:0:0:
256,176,134009,1,0,0:0:0:0:
320,144,134159,1,0,0:0:0:0:
336,96,134309,1,0,0:0:0:0:
320,96,134508,1,0,0:0:0:0:
192,80,134758,1,0,0:0:0:0:
144,80,135008,1,0,0:0:0:0:
128,112,135158,1,0,0:0:0:0:
160,144,135308,1,0,0:0:0:0:
224,176,135508,1,0,0:0:0:0:
304,176,135708,1,0,0:0:0:0:
304,176,135858,1,0,0:0:0:0:
192,208,136057,1,0,0:0:0:0:
208,176,136257,1,0,0:0:0:0:
368,64,136407,1,0,0:0:0:0:
160,160,136907,1,0,0:0:0:0:
256,128,137257,1,0,0:0:0:0:
288,224,137556,1,0,0:0:0:0:
144,192,137906,1,0,0:0:0:0:
224,176,143752,5,0,0:0:0:0:
208,128,146900,1,0,0:0:0:0:
192,144,147100,1,0,0:0:0:0:
256,176,147300,1,0,0:0:0:0:
272,176,147400,1,0,0:0:0:0:
176,224,147600,1,0,0:0:0:0:
128,256,147750,1,0,0:0:0:0:
272,192,147949,1,0,0:0:0:0:
272,144,148049,1,0,0:0:0:0:
192,144,148249,1,0,0:0:0:0:
304,192,148399,1,0,0:0:0:0:
272,304,148599,1,0,0:0:0:0:
144,272,148749,1,0,0:0:0:0:
144,144,148899,1,0,0:0:0:0:
224,144,149049,1,0,0:0:0:0:
272,192,149249,1,0,0:0:0:0:
224,224,149398,1,0,0:0:0:0:
208,192,149548,1,0,0:0:0:0:
192,192,149698,1,0,0:0:0:0:
176,192,149798,1,0,0:0:0:0:
208,240,149948,1,0,0:0:0:0:
304,256,150098,1,0,0:0:0:0:
240,160,150148,1,0,0:0:0:0:
208,144,150498,1,0,0:0:0:0:
192,144,150648,1,0,0:0:0:0:
160,176,150847,1,0,0:0:0:0:
128,224,151047,1,0,0:0:0:0:
192,192,151197,1,0,0:0:0:0:
96,256,151247,1,0,0:0:0:0:
224,192,151297,1,0,0:0:0:0:
160,192,151347,1,0,0:0:0:0:
272,272,151397,1,0,0:0:0:0:
240,192,151497,1,0,0:0:0:0:
208,176,151547,1,0,0:0:0:0:
400,240,151597,1,0,0:0:0:0:
192,176,151647,1,0,0:0:0:0:
128,144,151747,1,0,0:0:0:0:
400,128,151797,1,0,0:0:0:0:
192,208,151847,1,0,0:0:0:0:
256,96,151947,1,0,0:0:0:0:
320,64,151997,1,0,0:0:0:0:
96,240,152047,1,0,0:0:0:0:
160,64,152147,1,0,0:0:0:0:
112,176,152197,1,0,0:0:0:0:
352,208,152246,1,0,0:0:0:0:
128,80,152346,1,0,0:0:0:0:
256,272,152446,1,0,0:0:0:0:
112,160,152496,1,0,0:0:0:0:
176,208,152596,1,0,0:0:0:0:
288,176,152646,1,0,0:0:0:0:
176,320,152696,1,0,0:0:0:0:
112,176,152746,1,0,0:0:0:0:
320,224,152846,1,0,0:0:0:0:
368,336,152896,1,0,0:0:0:0:
400,272,153046,1,0,0:0:0:0:
240,240,153096,1,0,0:0:0:0:
192,288,153196,1,0,0:0:0:0:
176,176,153246,1,0,0:0:0:0:
352,112,153296,1,0,0:0:0:0:
288,288,153346,1,0,0:0:0:0:
208,144,153396,1,0,0:0:0:0:
288,112,153446,1,0,0:0:0:0:
192,208,153496,1,0,0:0:0:0:
160,112,153596,1,0,0:0:0:0:
192,176,153695,1,0,0:0:0:0:
112,160,153745,1,0,0:0:0:0:
128,144,153845,1,0,0:0:0:0:
384,128,153945,1,0,0:0:0:0:
96,304,153995,1,0,0:0:0:0:
240,272,154145,1,0,0:0:0:0:
400,112,154195,1,0,0:0:0:0:
272,272,154295,1,0,0:0:0:0:
384,160,154345,1,0,0:0:0:0:
320,288,154445,1,0,0:0:0:0:
160,224,154495,1,0,0:0:0:0:
400,304,154595,1,0,0:0:0:0:
176,176,154695,1,0,0:0:0:0:
416,208,154745,1,0,0:0:0:0:
144,128,154845,1,0,0:0:0:0:
256,144,154945,1,0,0:0:0:0:
208,160,155045,1,0,0:0:0:0:
208,112,155145,1,0,0:0:0:0:
208,208,155244,1,0,0:0:0:0:
288,224,155294,1,0,0:0:0:0:
96,112,155394,1,0,0:0:0:0:
304,144,155444,1,0,0:0:0:0:
48,160,155494,1,0,0:0:0:0:
224,128,155544,1,0,0:0:0:0:
48,224,155694,1,0,0:0:0:0:
240,208,155744,1,0,0:0:0:0:
192,160,155794,1,0,0:0:0:0:
80,256,155844,1,0,0:0:0:0:
224,256,155894,1,0,0:0:0:0:
224,160,155994,1,0,0:0:0:0:
192,272,156044,1,0,0:0:0:0:
128,192,156144,1,0,0:0:0:0:
272,288,156194,1,0,0:0:0:0:
112,128,156244,1,0,0:0:0:0:
448,192,156294,1,0,0:0:0:0:
368,272,156394,1,0,0:0:0:0:
144,208,156444,1,0,0:0:0:0:
384,192,156594,1,0,0:0:0:0:
288,272,156644,1,0,0:0:0:0:
368,160,156743,1,0,0:0:0:0:
48,320,156793,1,0,0:0:0:0:
240,112,156943,1,0,0:0:0:0:
352,112,157043,1,0,0:0:0:0:
16,160,157143,1,0,0:0:0:0:
160,64,157193,1,0,0:0:0:0:
384,160,157243,1,0,0:0:0:0:
64,208,157293,1,0,0:0:0:0:
352,272,157393,1,0,0:0:0:0:
224,240,157493,1,0,0:0:0:0:
272,208,157543,1,0,0:0:0:0:
176,256,157693,1,0,0:0:0:0:
96,144,157843,1,0,0:0:0:0:
128,240,157893,1,0,0:0:0:0:
208,192,157943,1,0,0:0:0:0:
80,112,157993,1,0,0:0:0:0:
208,192,158093,1,0,0:0:0:0:
96,160,158142,1,0,0:0:0:0:
368,208,158292,1,0,0:0:0:0:
368,208,158442,1,0,0:0:0:0:
336,192,158642,1,0,0:0:0:0:
304,256,158792,1,0,0:0:0:0:
240,48,158942,1,0,0:0:0:0:
240,272,158992,1,0,0:0:0:0:
224,80,159092,1,0,0:0:0:0:
128,144,159142,1,0,0:0:0:0:
160,160,159292,1,0,0:0:0:0:
128,128,159342,1,0,0:0:0:0:
160,176,159442,1,0,0:0:0:0:
112,256,159542,1,0,0:0:0:0:
176,224,159592,1,0,0:0:0:0:
144,288,159691,1,0,0:0:0:0:
192,224,159741,1,0,0:0:0:0:
208,176,159841,1,0,0:0:0:0:
288,288,159891,1,0,0:0:0:0:
160,176,159941,1,0,0:0:0:0:
368,192,160041,1,0,0:0:0:0:
160,160,160091,1,0,0:0:0:0:
352,144,160191,1,0,0:0:0:0:
128,144,160291,1,0,0:0:0:0:
192,128,160341,1,0,0:0:0:0:
160,96,160441,1,0,0:0:0:0:
400,128,160491,1,0,0:0:0:0:
416,128,160591,1,0,0:0:0:0:
144,128,160741,1,0,0:0:0:0:
288,176,160791,1,0,0:0:0:0:
208,192,160891,1,0,0:0:0:0:
256,208,160941,1,0,0:0:0:0:
224,112,161090,1,0,0:0:0:0:
256,208,161140,1,0,0:0:0:0:
128,240,161190,1,0,0:0:0:0:
224,112,161240,1,0,0:0:0:0:
224,176,161340,1,0,0:0:0:0:
224,176,161390,1,0,0:0:0:0:
96,224,161440,1,0,0:0:0:0:
208,144,161490,1,0,0:0:0:0:
224,256,161540,1,0,0:0:0:0:
96,208,161590,1,0,0:0:0:0:
192,144,161640,1,0,0:0:0:0:
96,144,161740,1,0,0:0:0:0:
176,160,161790,1,0,0:0:0:0:
144,128,161890,1,0,0:0:0:0:
128,128,161940,1,0,0:0:0:0:
240,128,162040,1,0,0:0:0:0:
288,208,162090,1,0,0:0:0:0:
192,144,162140,1,0,0:0:0:0:
240,160,162240,1,0,0:0:0:0:
224,112,162290,1,0,0:0:0:0:
272,192,162390,1,0,0:0:0:0:
368,128,162540,1,0,0:0:0:0:
224,272,162589,1,0,0:0:0:0:
352,240,162689,1,0,0:0:0:0:
192,288,162739,1,0,0:0:0:0:
144,288,162889,1,0,0:0:0:0:
144,240,163039,1,0,0:0:0:0:
128,224,163089,1,0,0:0:0:0:
208,128,163189,1,0,0:0:0:0:
96,144,163239,1,0,0:0:0:0:
80,112,163289,1,0,0:0:0:0:
208,80,163339,1,0,0:0:0:0:
240,128,163489,1,0,0:0:0:0:
240,176,163589,1,0,0:0:0:0:
64,128,163689,1,0,0:0:0:0:
288,224,163789,1,0,0:0:0:0:
400,288,163839,1,0,0:0:0:0:
304,224,163889,1,0,0:0:0:0:
128,144,163939,1,0,0:0:0:0:
304,304,163989,1,0,0:0:0:0:
400,112,164088,1,0,0:0:0:0:
128,272,164138,1,0,0:0:0:0:
352,64,164238,1,0,0:0:0:0:
112,192,164338,1,0,0:0:0:0:
176,160,164388,1,0,0:0:0:0:
256,64,164438,1,0,0:0:0:0:
128,48,164538,1,0,0:0:0:0:
224,96,164638,1,0,0:0:0:0:
224,32,164688,1,0,0:0:0:0:
176,208,164788,1,0,0:0:0:0:
208,160,164838,1,0,0:0:0:0:
400,112,164888,1,0,0:0:0:0:
224,224,164988,1,0,0:0:0:0:
432,144,165038,1,0,0:0:0:0:
224,240,165138,1,0,0:0:0:0:
432,208,165238,1,0,0:0:0:0:
208,160,165338,1,0,0:0:0:0:
368,256,165388,1,0,0:0:0:0:
160,288,165488,1,0,0:0:0:0:
96,176,165587,1,0,0:0:0:0:
160,192,165637,1,0,0:0:0:0:
112,128,165787,1,0,0:0:0:0:
224,256,165837,1,0,0:0:0:0:
160,128,165987,1,0,0:0:0:0:
240,128,166137,1,0,0:0:0:0:
224,304,166187,1,0,0:0:0:0:
272,256,166387,1,0,0:0:0:0:
336,176,166437,1,0,0:0:0:0:
240,256,166537,1,0,0:0:0:0:
368,224,166637,1,0,0:0:0:0:
208,160,166737,1,0,0:0:0:0:
384,240,166787,1,0,0:0:0:0:
192,112,166887,1,0,0:0:0:0:
368,272,166937,1,0,0:0:0:0:
336,160,167086,1,0,0:0:0:0:
272,288,167136,1,0,0:0:0:0:
240,288,167236,1,0,0:0:0:0:
368,208,167286,1,0,0:0:0:0:
288,192,167436,1,0,0:0:0:0:
144,224,167486,1,0,0:0:0:0:
128,192,167586,1,0,0:0:0:0:
112,208,167736,1,0,0:0:0:0:
208,112,167886,1,0,0:0:0:0:
112,208,167936,1,0,0:0:0:0:
304,112,168036,1,0,0:0:0:0:
128,224,168136,1,0,0:0:0:0:
240,192,168186,1,0,0:0:0:0:
352,144,168236,1,0,0:0:0:0:
176,224,168286,1,0,0:0:0:0:
352,160,168336,1,0,0:0:0:0:
224,176,168386,1,0,0:0:0:0:
192,208,168436,1,0,0:0:0:0:
336,176,168535,1,0,0:0:0:0:
128,192,168635,1,0,0:0:0:0:
336,176,168685,1,0,0:0:0:0:
192,224,168835,1,0,0:0:0:0:
208,176,169035,1,0,0:0:0:0:
240,176,169135,1,0,0:0:0:0:
192,160,169185,1,0,0:0:0:0:
240,192,169285,1,0,0:0:0:0:
320,160,169335,1,0,0:0:0:0:
176,192,169385,1,0,0:0:0:0:
352,256,169485,1,0,0:0:0:0:
240,256,169535,1,0,0:0:0:0:
176,224,169635,1,0,0:0:0:0:
208,240,169685,1,0,0:0:0:0:
224,176,169785,1,0,0:0:0:0:
144,224,169835,1,0,0:0:0:0:
272,288,169935,1,0,0:0:0:0:
128,160,169984,1,0,0:0:0:0:
272,288,170084,1,0,0:0:0:0:
192,112,170134,1,0,0:0:0:0:
208,208,170284,1,0,0:0:0:0:
80,64,170434,1,0,0:0:0:0:
192,176,170484,1,0,0:0:0:0:
64,112,170584,1,0,0:0:0:0:
192,160,170634,1,0,0:0:0:0:
272,112,170684,1,0,0:0:0:0:
144,176,170734,1,0,0:0:0:0:
256,160,170834,1,0,0:0:0:0:
224,208,170934,1,0,0:0:0:0:
256,160,170984,1,0,0:0:0:0:
224,144,171034,1,0,0:0:0:0:
176,224,171084,1,0,0:0:0:0:
224,192,171184,1,0,0:0:0:0:
160,192,171234,1,0,0:0:0:0:
176,144,171334,1,0,0:0:0:0:
160,128,171483,1,0,0:0:0:0:
256,128,171533,1,0,0:0:0:0:
352,144,171683,1,0,0:0:0:0:
240,160,171733,1,0,0:0:0:0:
368,96,171833,1,0,0:0:0:0:
240,160,171883,1,0,0:0:0:0:
288,192,172083,1,0,0:0:0:0:
304,80,172133,1,0,0:0:0:0:
288,176,172233,1,0,0:0:0:0:
224,128,172283,1,0,0:0:0:0:
272,160,172433,1,0,0:0:0:0:
144,160,172483,1,0,0:0:0:0:
256,160,172533,1,0,0:0:0:0:
224,192,172833,1,0,0:0:0:0:
112,176,172982,1,0,0:0:0:0:
176,176,173182,1,0,0:0:0:0:
224,176,173232,1,0,0:0:0:0:
240,192,173332,1,0,0:0:0:0:
128,128,173532,1,0,0:0:0:0:
192,128,173632,1,0,0:0:0:0:
192,160,173732,1,0,0:0:0:0:
192,144,173782,1,0,0:0:0:0:
400,208,173882,1,0,0:0:0:0:
288,192,173932,1,0,0:0:0:0:
272,144,174082,1,0,0:0:0:0:
224,112,174182,1,0,0:0:0:0:
272,144,174282,1,0,0:0:0:0:
176,208,174332,1,0,0:0:0:0:
272,160,174431,1,0,0:0:0:0:
240,256,174531,1,0,0:0:0:0:
288,160,174581,1,0,0:0:0:0:
176,208,174731,1,0,0:0:0:0:
160,320,174881,1,0,0:0:0:0:
208,160,175031,1,0,0:0:0:0:
128,288,175081,1,0,0:0:0:0:
112,256,175231,1,0,0:0:0:0:
96,256,175281,1,0,0:0:0:0:
96,224,175381,1,0,0:0:0:0:
144,160,175481,1,0,0:0:0:0:
224,192,175581,1,0,0:0:0:0:
352,64,175731,1,0,0:0:0:0:
288,192,175781,1,0,0:0:0:0:
288,192,175930,1,0,0:0:0:0:
256,176,175980,1,0,0:0:0:0:
64,240,176080,1,0,0:0:0:0:
400,160,176130,1,0,0:0:0:0:
128,160,176230,1,0,0:0:0:0:
208,160,176380,1,0,0:0:0:0:
320,304,176430,1,0,0:0:0:0:
128,224,176480,1,0,0:0:0:0:
224,208,176530,1,0,0:0:0:0:
272,304,176630,1,0,0:0:0:0:
144,208,176730,1,0,0:0:0:0:
256,304,176780,1,0,0:0:0:0:
320,208,176830,1,0,0:0:0:0:
224,144,177030,1,0,0:0:0:0:
320,144,177080,1,0,0:0:0:0:
144,96,177130,1,0,0:0:0:0:
320,128,177230,1,0,0:0:0:0:
128,64,177280,1,0,0:0:0:0:
320,144,177379,1,0,0:0:0:0:
192,96,177479,1,0,0:0:0:0:
176,272,177679,1,0,0:0:0:0:
416,176,177829,1,0,0:0:0:0:
144,256,177879,1,0,0:0:0:0:
144,256,177979,1,0,0:0:0:0:
400,272,178029,1,0,0:0:0:0:
368,256,178129,1,0,0:0:0:0:
368,352,178179,1,0,0:0:0:0:
320,256,178279,1,0,0:0:0:0:
224,112,178379,1,0,0:0:0:0:
448,224,178479,1,0,0:0:0:0:
112,144,178529,1,0,0:0:0:0:
464,224,178579,1,0,0:0:0:0:
160,224,178629,1,0,0:0:0:0:
448,208,178779,1,0,0:0:0:0:
64,96,178878,1,0,0:0:0:0:
128,128,178928,1,0,0:0:0:0:
160,208,179078,1,0,0:0:0:0:
192,112,179178,1,0,0:0:0:0:
208,224,179278,1,0,0:0:0:0:
160,192,179378,1,0,0:0:0:0:
208,256,179428,1,0,0:0:0:0:
288,224,179478,1,0,0:0:0:0:
368,224,179578,1,0,0:0:0:0:
368,176,179678,1,0,0:0:0:0:
288,176,179878,1,0,0:0:0:0:
384,208,179978,1,0,0:0:0:0:
304,240,180028,1,0,0:0:0:0:
144,160,180078,1,0,0:0:0:0:
272,288,180228,1,0,0:0:0:0:
144,224,180427,1,0,0:0:0:0:
128,272,180577,1,0,0:0:0:0:
112,272,180627,1,0,0:0:0:0:
96,304,180777,1,0,0:0:0:0:
176,272,180927,1,0,0:0:0:0:
208,192,180977,1,0,0:0:0:0:
400,320,181227,1,0,0:0:0:0:
304,176,181327,1,0,0:0:0:0:
384,224,181427,1,0,0:0:0:0:
432,192,181477,1,0,0:0:0:0:
304,176,181527,1,0,0:0:0:0:
416,80,181577,1,0,0:0:0:0:
416,224,181677,1,0,0:0:0:0:
256,48,181926,1,0,0:0:0:0:
192,64,182026,1,0,0:0:0:0:
128,224,182076,1,0,0:0:0:0:
160,64,182226,1,0,0:0:0:0:
160,256,182276,1,0,0:0:0:0:
128,64,182326,1,0,0:0:0:0:
224,144,182376,1,0,0:0:0:0:
224,272,182426,1,0,0:0:0:0:
96,96,182526,1,0,0:0:0:0:
240,208,182576,1,0,0:0:0:0:
80,112,182626,1,0,0:0:0:0:
208,160,182776,1,0,0:0:0:0:
272,128,182926,1,0,0:0:0:0:
144,128,182976,1,0,0:0:0:0:
224,128,183126,1,0,0:0:0:0:
304,208,183275,1,0,0:0:0:0:
320,96,183475,1,0,0:0:0:0:
320,208,183525,1,0,0:0:0:0:
208,176,183625,1,0,0:0:0:0:
416,256,183775,1,0,0:0:0:0:
208,160,183825,1,0,0:0:0:0:
400,272,183875,1,0,0:0:0:0:
288,224,183975,1,0,0:0:0:0:
208,160,184025,1,0,0:0:0:0:
336,304,184075,1,0,0:0:0:0:
256,224,184125,1,0,0:0:0:0:
208,160,184175,1,0,0:0:0:0:
320,304,184225,1,0,0:0:0:0:
208,160,184275,1,0,0:0:0:0:
192,304,184375,1,0,0:0:0:0:
272,176,184475,1,0,0:0:0:0:
320,224,184525,1,0,0:0:0:0:
128,256,184575,1,0,0:0:0:0:
336,208,184725,1,0,0:0:0:0:
64,80,184824,1,0,0:0:0:0:
304,160,184874,1,0,0:0:0:0:
304,176,184924,1,0,0:0:0:0:
64,64,185024,1,0,0:0:0:0:
256,192,185124,1,0,0:0:0:0:
336,112,185274,1,0,0:0:0:0:
272,208,185374,1,0,0:0:0:0:
352,112,185424,1,0,0:0:0:0:
416,96,185574,1,0,0:0:0:0:
272,208,185624,1,0,0:0:0:0:
416,176,185824,1,0,0:0:0:0:
304,176,185874,1,0,0:0:0:0:
208,144,185974,1,0,0:0:0:0:
400,224,186024,1,0,0:0:0:0:
320,224,186124,1,0,0:0:0:0:
256,272,186273,1,0,0:0:0:0:
128,256,186323,1,0,0:0:0:0:
240,320,186473,1,0,0:0:0:0:
208,192,186573,1,0,0:0:0:0:
224,272,186673,1,0,0:0:0:0:
80,128,186723,1,0,0:0:0:0:
208,176,186773,1,0,0:0:0:0:
96,112,186923,1,0,0:0:0:0:
112,96,187073,1,0,0:0:0:0:
496,208,187123,1,0,0:0:0:0:
288,96,187273,1,0,0:0:0:0:
288,96,187373,1,0,0:0:0:0:
208,208,187423,1,0,0:0:0:0:
208,192,187573,1,0,0:0:0:0:
224,48,187673,1,0,0:0:0:0:
384,176,187722,1,0,0:0:0:0:
384,208,187772,1,0,0:0:0:0:
208,80,187822,1,0,0:0:0:0:
416,272,187972,1,0,0:0:0:0:
208,144,188022,1,0,0:0:0:0:
368,288,188172,1,0,0:0:0:0:
304,304,188322,1,0,0:0:0:0:
176,192,188372,1,0,0:0:0:0:
256,288,188472,1,0,0:0:0:0:
144,144,188572,1,0,0:0:0:0:
160,144,188672,1,0,0:0:0:0:
336,144,188722,1,0,0:0:0:0:
160,224,188772,1,0,0:0:0:0:
256,224,188922,1,0,0:0:0:0:
224,32,189022,1,0,0:0:0:0:
64,160,189072,1,0,0:0:0:0:
320,144,189221,1,0,0:0:0:0:
192,128,189321,1,0,0:0:0:0:
192,64,189421,1,0,0:0:0:0:
192,144,189471,1,0,0:0:0:0:
160,192,189571,1,0,0:0:0:0:
272,96,189621,1,0,0:0:0:0:
192,128,189671,1,0,0:0:0:0:
144,256,189721,1,0,0:0:0:0:
192,128,189771,1,0,0:0:0:0:
208,288,189871,1,0,0:0:0:0:
288,112,190071,1,0,0:0:0:0:
496,240,190121,1,0,0:0:0:0:
112,144,190171,1,0,0:0:0:0:
416,240,190271,1,0,0:0:0:0:
352,240,190421,1,0,0:0:0:0:
320,256,190571,1,0,0:0:0:0:
224,176,190621,1,0,0:0:0:0:
304,256,190770,1,0,0:0:0:0:
224,176,190820,1,0,0:0:0:0:
176,80,190920,1,0,0:0:0:0:
208,208,190970,1,0,0:0:0:0:
224,176,191120,1,0,0:0:0:0:
224,176,191270,1,0,0:0:0:0:
144,176,191320,1,0,0:0:0:0:
224,176,191420,1,0,0:0:0:0:
256,96,191470,1,0,0:0:0:0:
176,96,191620,1,0,0:0:0:0:
176,160,191670,1,0,0:0:0:0:
288,96,191820,1,0,0:0:0:0:
320,208,191920,1,0,0:0:0:0:
288,96,191970,1,0,0:0:0:0:
224,144,192070,1,0,0:0:0:0:
320,192,192269,1,0,0:0:0:0:
320,160,192319,1,0,0:0:0:0:
320,192,192419,1,0,0:0:0:0:
320,176,192469,1,0,0:0:0:0:
320,208,192619,1,0,0:0:0:0:
304,192,192719,1,0,0:0:0:0:
304,256,192769,1,0,0:0:0:0:
176,160,193069,1,0,0:0:0:0:
208,288,193119,1,0,0:0:0:0:
128,112,193219,1,0,0:0:0:0:
288,272,193319,1,0,0:0:0:0:
144,96,193369,1,0,0:0:0:0:
224,208,193419,1,0,0:0:0:0:
176,96,193519,1,0,0:0:0:0:
208,192,193569,1,0,0:0:0:0:
336,160,193618,1,0,0:0:0:0:
240,96,193718,1,0,0:0:0:0:
336,160,193768,1,0,0:0:0:0:
288,96,193868,1,0,0:0:0:0:
224,192,193918,1,0,0:0:0:0:
288,96,194018,1,0,0:0:0:0:
192,176,194068,1,0,0:0:0:0:
192,176,194118,1,0,0:0:0:0:
288,96,194218,1,0,0:0:0:0:
208,176,194318,1,0,0:0:0:0:
256,208,194418,1,0,0:0:0:0:
224,176,194468,1,0,0:0:0:0:
272,128,194618,1,0,0:0:0:0:
192,192,194718,1,0,0:0:0:0:
432,112,194818,1,0,0:0:0:0:
240,208,194868,1,0,0:0:0:0:
176,192,195018,1,0,0:0:0:0:
144,192,195117,1,0,0:0:0:0:
176,176,195267,1,0,0:0:0:0:
160,256,195417,1,0,0:0:0:0:
192,256,195467,1,0,0:0:0:0:
256,192,195617,1,0,0:0:0:0:
368,240,195667,1,0,0:0:0:0:
384,304,195817,1,0,0:0:0:0:
320,176,195867,1,0,0:0:0:0:
224,192,195967,1,0,0:0:0:0:
160,240,196017,1,0,0:0:0:0:
368,128,196117,1,0,0:0:0:0:
320,240,196167,1,0,0:0:0:0:
352,112,196367,1,0,0:0:0:0:
240,96,196467,1,0,0:0:0:0:
368,128,196566,1,0,0:0:0:0:
272,144,196616,1,0,0:0:0:0:
288,256,196766,1,0,0:0:0:0:
64,80,196816,1,0,0:0:0:0:
64,128,196966,1,0,0:0:0:0:
272,272,197016,1,0,0:0:0:0:
96,112,197116,1,0,0:0:0:0:
48,96,197166,1,0,0:0:0:0:
80,208,197216,1,0,0:0:0:0:
320,160,197316,1,0,0:0:0:0:
208,160,197366,1,0,0:0:0:0:
304,176,197516,1,0,0:0:0:0:
320,96,197666,1,0,0:0:0:0:
384,240,197866,1,0,0:0:0:0:
336,304,198016,1,0,0:0:0:0:
208,272,198215,1,0,0:0:0:0:
112,224,198365,1,0,0:0:0:0:
144,128,198565,1,0,0:0:0:0:
112,160,198615,1,0,0:0:0:0:
272,128,198765,1,0,0:0:0:0:
368,224,198915,1,0,0:0:0:0:
192,128,198965,1,0,0:0:0:0:
320,256,199115,1,0,0:0:0:0:
416,160,199315,1,0,0:0:0:0:
176,128,199514,1,0,0:0:0:0:
368,240,199664,1,0,0:0:0:0:
400,160,199864,1,0,0:0:0:0:
176,192,200014,1,0,0:0:0:0:
224,272,200214,1,0,0:0:0:0:
160,208,200314,1,0,0:0:0:0:
128,256,200514,1,0,0:0:0:0:
288,96,200714,1,0,0:0:0:0:
112,112,200864,1,0,0:0:0:0:
240,224,201013,1,0,0:0:0:0:
368,224,201063,1,0,0:0:0:0:
304,64,201213,1,0,0:0:0:0:
320,112,201413,1,0,0:0:0:0:
416,96,201463,1,0,0:0:0:0:
304,176,201613,1,0,0:0:0:0:
288,256,201813,1,0,0:0:0:0:
96,128,201963,1,0,0:0:0:0:
128,240,202113,1,0,0:0:0:0:
272,272,202163,1,0,0:0:0:0:
432,208,202363,1,0,0:0:0:0:
96,160,202512,1,0,0:0:0:0:
192,128,202812,1,0,0:0:0:0:
128,240,202862,1,0,0:0:0:0:
240,96,203062,1,0,0:0:0:0:
400,288,203162,1,0,0:0:0:0:
352,176,203212,1,0,0:0:0:0:
384,240,203362,1,0,0:0:0:0:
400,128,203512,1,0,0:0:0:0:
192,288,203562,1,0,0:0:0:0:
176,160,203762,1,0,0:0:0:0:
224,144,203862,1,0,0:0:0:0:
224,160,203912,1,0,0:0:0:0:
384,144,204161,1,0,0:0:0:0:
192,176,204311,1,0,0:0:0:0:
320,288,204511,1,0,0:0:0:0:
224,160,204561,1,0,0:0:0:0:
240,272,204611,1,0,0:0:0:0:
272,144,204761,1,0,0:0:0:0:
192,160,204811,1,0,0:0:0:0:
272,144,204961,1,0,0:0:0:0:
240,144,205061,1,0,0:0:0:0:
272,128,205111,1,0,0:0:0:0:
240,144,205211,1,0,0:0:0:0:
272,112,205261,1,0,0:0:0:0:
240,144,205311,1,0,0:0:0:0:
272,112,205411,1,0,0:0:0:0:
128,112,206410,1,0,0:0:0:0:
128,112,206560,1,0,0:0:0:0:
144,112,206710,1,0,0:0:0:0:
160,112,206860,1,0,0:0:0:0:
176,112,207009,1,0,0:0:0:0:
192,160,216903,5,0,0:0:0:0:
320,96,226846,5,0,0:0:0:0:
320,256,227346,1,0,0:0:0:0:
112,96,227546,1,0,0:0:0:0:
368,112,227595,1,0,0:0:0:0:
176,224,227795,1,0,0:0:0:0:
336,224,227945,1,0,0:0:0:0:
160,96,228195,1,0,0:0:0:0:
336,96,228345,1,0,0:0:0:0:
304,80,231093,1,0,0:0:0:0:
384,128,232492,1,0,0:0:0:0:
